  0
SECTION
  2
HEADER
  9
$ACADVER
  1
AC1009
  9
$DWGCODEPAGE
  3
ansi_1252
  9
$INSBASE
 10
0.0
 20
0.0
 30
0.0
  9
$EXTMIN
 10
0.0
 20
0.0
 30
0.0
  9
$EXTMAX
 10
594.0
 20
420.0
 30
0.0
  9
$LIMMIN
 10
0.0
 20
0.0
  9
$LIMMAX
 10
594.0
 20
420.0
  9
$ORTHOMODE
 70
     0
  9
$REGENMODE
 70
     1
  9
$FILLMODE
 70
     1
  9
$QTEXTMODE
 70
     0
  9
$MIRRTEXT
 70
     1
  9
$DRAGMODE
 70
     2
  9
$LTSCALE
 40
1.0
  9
$OSMODE
 70
    37
  9
$ATTMODE
 70
     1
  9
$TEXTSIZE
 40
3.5
  9
$TRACEWID
 40
1.0
  9
$TEXTSTYLE
  7
STANDARD
  9
$CLAYER
  8
0
  9
$CELTYPE
  6
BYLAYER
  9
$CECOLOR
 62
   256
  9
$DIMSCALE
 40
1.0
  9
$DIMASZ
 40
3.81
  9
$DIMEXO
 40
0.0
  9
$DIMDLI
 40
3.75
  9
$DIMRND
 40
0.0
  9
$DIMDLE
 40
0.0
  9
$DIMEXE
 40
1.0
  9
$DIMTP
 40
0.0
  9
$DIMTM
 40
0.0
  9
$DIMTXT
 40
3.2
  9
$DIMCEN
 40
2.5
  9
$DIMTSZ
 40
0.0
  9
$DIMTOL
 70
     0
  9
$DIMLIM
 70
     0
  9
$DIMTIH
 70
     1
  9
$DIMTOH
 70
     1
  9
$DIMSE1
 70
     0
  9
$DIMSE2
 70
     0
  9
$DIMTAD
 70
     1
  9
$DIMZIN
 70
     0
  9
$DIMBLK
  1

  9
$DIMASO
 70
     1
  9
$DIMSHO
 70
     1
  9
$DIMPOST
  1

  9
$DIMAPOST
  1

  9
$DIMALT
 70
     0
  9
$DIMALTD
 70
     3
  9
$DIMALTF
 40
0.0393700787
  9
$DIMLFAC
 40
1.0
  9
$DIMTOFL
 70
     1
  9
$DIMTVP
 40
0.0
  9
$DIMTIX
 70
     0
  9
$DIMSOXD
 70
     0
  9
$DIMSAH
 70
     0
  9
$DIMBLK1
  1

  9
$DIMBLK2
  1

  9
$DIMSTYLE
  2
ISO-25
  9
$DIMCLRD
 70
     0
  9
$DIMCLRE
 70
     0
  9
$DIMCLRT
 70
     0
  9
$DIMTFAC
 40
1.0
  9
$DIMGAP
 40
1.524
  9
$LUNITS
 70
     2
  9
$LUPREC
 70
     2
  9
$SKETCHINC
 40
1.0
  9
$FILLETRAD
 40
10.0
  9
$AUNITS
 70
     0
  9
$AUPREC
 70
     1
  9
$MENU
  1
.
  9
$ELEVATION
 40
0.0
  9
$PELEVATION
 40
0.0
  9
$THICKNESS
 40
0.0
  9
$LIMCHECK
 70
     0
  9
$CHAMFERA
 40
10.0
  9
$CHAMFERB
 40
10.0
  9
$SKPOLY
 70
     0
  9
$TDCREATE
 40
2456581.395868669
  9
$TDUPDATE
 40
2456581.395873495
  9
$TDINDWG
 40
0.0000000116
  9
$TDUSRTIMER
 40
0.0000000116
  9
$USRTIMER
 70
     1
  9
$ANGBASE
 50
0.0
  9
$ANGDIR
 70
     0
  9
$PDMODE
 70
     0
  9
$PDSIZE
 40
-1.0
  9
$PLINEWID
 40
0.0
  9
$COORDS
 70
     1
  9
$SPLFRAME
 70
     0
  9
$SPLINETYPE
 70
     6
  9
$SPLINESEGS
 70
     8
  9
$ATTDIA
 70
     0
  9
$ATTREQ
 70
     1
  9
$HANDLING
 70
     1
  9
$HANDSEED
  5
9BF
  9
$SURFTAB1
 70
     6
  9
$SURFTAB2
 70
     6
  9
$SURFTYPE
 70
     6
  9
$SURFU
 70
     6
  9
$SURFV
 70
     6
  9
$UCSNAME
  2

  9
$UCSORG
 10
0.0
 20
0.0
 30
0.0
  9
$UCSXDIR
 10
1.0
 20
0.0
 30
0.0
  9
$UCSYDIR
 10
0.0
 20
1.0
 30
0.0
  9
$PUCSNAME
  2

  9
$PUCSORG
 10
0.0
 20
0.0
 30
0.0
  9
$PUCSXDIR
 10
1.0
 20
0.0
 30
0.0
  9
$PUCSYDIR
 10
0.0
 20
1.0
 30
0.0
  9
$USERI1
 70
     0
  9
$USERI2
 70
     0
  9
$USERI3
 70
     0
  9
$USERI4
 70
     0
  9
$USERI5
 70
     0
  9
$USERR1
 40
0.0
  9
$USERR2
 40
0.0
  9
$USERR3
 40
0.0
  9
$USERR4
 40
0.0
  9
$USERR5
 40
0.0
  9
$WORLDVIEW
 70
     1
  9
$SHADEDGE
 70
     3
  9
$SHADEDIF
 70
    70
  9
$TILEMODE
 70
     1
  9
$MAXACTVP
 70
    64
  9
$PLIMCHECK
 70
     0
  9
$PEXTMIN
 10
1.0000000000E+20
 20
1.0000000000E+20
 30
1.0000000000E+20
  9
$PEXTMAX
 10
-1.0000000000E+20
 20
-1.0000000000E+20
 30
-1.0000000000E+20
  9
$PLIMMIN
 10
0.0
 20
0.0
  9
$PLIMMAX
 10
420.0
 20
297.0
  9
$UNITMODE
 70
     0
  9
$VISRETAIN
 70
     1
  9
$PLINEGEN
 70
     0
  9
$PSLTSCALE
 70
     1
  0
ENDSEC
  0
SECTION
  2
TABLES
  0
TABLE
  2
VPORT
 70
     1
  0
VPORT
  2
*ACTIVE
 70
     0
 10
0.0
 20
0.0
 11
1.0
 21
1.0
 12
297.0
 22
210.0
 13
0.0
 23
0.0
 14
10.0
 24
10.0
 15
10.0
 25
10.0
 16
0.0
 26
0.0
 36
1.0
 17
0.0
 27
0.0
 37
0.0
 40
420.0
 41
1.4142857143
 42
50.0
 43
0.0
 44
0.0
 50
0.0
 51
0.0
 71
     0
 72
  2000
 73
     1
 74
     3
 75
     0
 76
     0
 77
     0
 78
     0
  0
ENDTAB
  0
TABLE
  2
LTYPE
 70
     6
  0
LTYPE
  2
CONTINUOUS
 70
     0
  3
Solid line
 72
    65
 73
     0
 40
0.0
  0
LTYPE
  2
HIDDEN
 70
     0
  3
Hidden __ __ __ __ __ __ __ __ __ __ __ __ __ __
 72
    65
 73
     2
 40
1.905
 49
1.27
 49
-0.635
  0
LTYPE
  2
PHANTOM
 70
     0
  3
Phantom ______  __  __  ______  __  __  ______
 72
    65
 73
     6
 40
12.7
 49
6.35
 49
-1.27
 49
1.27
 49
-1.27
 49
1.27
 49
-1.27
  0
LTYPE
  2
CENTER
 70
     0
  3
Center ____ _ ____ _ ____ _ ____ _ ____ _ ____
 72
    65
 73
     4
 40
10.16
 49
6.35
 49
-1.27
 49
1.27
 49
-1.27
  0
LTYPE
  2
CENTERX2
 70
     0
  3
Center (2x) ________  __  ________  __  _____
 72
    65
 73
     4
 40
20.32
 49
12.7
 49
-2.54
 49
2.54
 49
-2.54
  0
LTYPE
  2
DOT2
 70
     0
  3
Dot (.5x) ........................................
 72
    65
 73
     2
 40
0.635
 49
0.0
 49
-0.635
  0
ENDTAB
  0
TABLE
  2
LAYER
 70
    10
  0
LAYER
  2
0
 70
     0
 62
     7
  6
CONTINUOUS
  0
LAYER
  2
SLD-0
 70
     0
 62
     7
  6
CONTINUOUS
  0
LAYER
  2
PV
 70
     0
 62
     7
  6
CONTINUOUS
  0
LAYER
  2
COTATION
 70
     0
 62
     1
  6
CONTINUOUS
  0
LAYER
  2
NOTE
 70
     0
 62
     5
  6
CONTINUOUS
  0
LAYER
  2
COTATION2
 70
     0
 62
    96
  6
CONTINUOUS
  0
LAYER
  2
COTATION3
 70
     0
 62
    30
  6
CONTINUOUS
  0
LAYER
  2
LOGO1
 70
     0
 62
   156
  6
CONTINUOUS
  0
LAYER
  2
LOGO2
 70
     0
 62
   161
  6
CONTINUOUS
  0
LAYER
  2
NOTES
 70
     0
 62
     5
  6
CONTINUOUS
  0
ENDTAB
  0
TABLE
  2
STYLE
 70
     1
  0
STYLE
  2
STANDARD
 70
     0
 40
0.0
 41
1.0
 50
0.0
 71
     0
 42
3.5
  3
txt
  4

  0
ENDTAB
  0
TABLE
  2
VIEW
 70
     0
  0
ENDTAB
  0
TABLE
  2
UCS
 70
     0
  0
ENDTAB
  0
TABLE
  2
APPID
 70
     1
  0
APPID
  2
ACAD
 70
     0
  0
ENDTAB
  0
TABLE
  2
DIMSTYLE
 70
    11
  0
DIMSTYLE
  2
ISO-25
 70
     0
  3

  4

  5

  6

  7

 40
1.0
 41
2.5
 42
0.625
 43
3.75
 44
1.25
 45
0.0
 46
0.0
 47
0.0
 48
0.0
140
2.5
141
2.5
142
0.0
143
0.0393700787
144
1.0
145
0.0
146
1.0
147
0.625
 71
     0
 72
     0
 73
     0
 74
     0
 75
     0
 76
     0
 77
     1
 78
     8
170
     0
171
     3
172
     1
173
     0
174
     0
175
     0
176
     0
177
     0
178
     0
  0
DIMSTYLE
  2
SLDDIMSTYLE0
 70
     0
  3

  4

  5

  6

  7

 40
1.0
 41
3.81
 42
0.0625
 43
0.38
 44
0.0
 45
0.000000001
 46
0.0
 47
0.0
 48
0.0
140
3.2
141
0.09
142
0.0
143
25.4
144
1.0
145
0.0
146
1.0
147
0.8
 71
     0
 72
     0
 73
     0
 74
     0
 75
     0
 76
     0
 77
     1
 78
    12
170
     0
171
     2
172
     0
173
     1
174
     0
175
     0
176
     0
177
     0
178
     0
  0
DIMSTYLE
  2
SLDDIMSTYLE1
 70
     0
  3

  4

  5

  6

  7

 40
1.0
 41
3.81
 42
0.0625
 43
0.38
 44
0.0
 45
0.000000001
 46
0.0
 47
0.0
 48
0.0
140
3.2
141
0.0
142
0.0
143
25.4
144
1.0
145
0.0
146
1.0
147
0.8
 71
     0
 72
     0
 73
     0
 74
     0
 75
     0
 76
     0
 77
     1
 78
    12
170
     0
171
     2
172
     0
173
     1
174
     0
175
     0
176
     0
177
     0
178
     0
  0
DIMSTYLE
  2
SLDDIMSTYLE2
 70
     0
  3

  4

  5

  6

  7

 40
1.0
 41
3.81
 42
0.0625
 43
0.38
 44
0.0
 45
0.000000001
 46
0.0
 47
0.0
 48
0.0
140
3.2
141
0.0
142
0.0
143
25.4
144
1.0
145
0.0
146
1.0
147
-0.8
 71
     0
 72
     0
 73
     0
 74
     0
 75
     0
 76
     0
 77
     1
 78
    12
170
     0
171
     2
172
     0
173
     1
174
     0
175
     0
176
     0
177
     0
178
     0
  0
DIMSTYLE
  2
SLDDIMSTYLE3
 70
     0
  3

  4

  5

  6

  7

 40
1.0
 41
3.81
 42
0.0625
 43
0.38
 44
0.0
 45
0.000000001
 46
0.0
 47
0.0
 48
0.0
140
3.2
141
0.09
142
0.0
143
25.4
144
1.0
145
0.0
146
1.0
147
0.8
 71
     0
 72
     0
 73
     0
 74
     0
 75
     0
 76
     0
 77
     1
 78
    12
170
     0
171
     2
172
     1
173
     1
174
     0
175
     0
176
     0
177
     0
178
     0
  0
DIMSTYLE
  2
SLDDIMSTYLE4
 70
     0
  3

  4

  5

  6

  7

 40
1.0
 41
3.81
 42
0.0625
 43
0.38
 44
0.0
 45
0.0
 46
0.0
 47
0.0
 48
0.0
140
3.2
141
0.09
142
0.0
143
25.4
144
1.0
145
0.0
146
1.0
147
-0.8
 71
     0
 72
     0
 73
     0
 74
     0
 75
     0
 76
     0
 77
     1
 78
    12
170
     0
171
     2
172
     0
173
     1
174
     0
175
     0
176
     0
177
     0
178
     0
  0
DIMSTYLE
  2
SLDDIMSTYLE5
 70
     0
  3

  4

  5

  6
DOT
  7

 40
1.0
 41
1.143
 42
0.0625
 43
0.38
 44
0.0
 45
0.000000001
 46
0.0
 47
0.0
 48
0.0
140
3.2
141
0.09
142
0.0
143
25.4
144
1.0
145
0.0
146
1.0
147
0.8
 71
     0
 72
     0
 73
     0
 74
     0
 75
     0
 76
     0
 77
     1
 78
    12
170
     0
171
     2
172
     1
173
     1
174
     0
175
     0
176
     0
177
     0
178
     0
  0
DIMSTYLE
  2
SLDDIMSTYLE6
 70
     0
  3

  4

  5

  6

  7

 40
1.0
 41
3.81
 42
0.0625
 43
0.38
 44
0.0
 45
0.000000001
 46
0.0
 47
0.0
 48
0.0
140
3.2
141
0.09
142
0.0
143
25.4
144
0.5
145
0.0
146
1.0
147
0.8
 71
     0
 72
     0
 73
     1
 74
     1
 75
     0
 76
     0
 77
     0
 78
    12
170
     0
171
     2
172
     0
173
     1
174
     0
175
     0
176
     0
177
     0
178
     0
  0
DIMSTYLE
  2
SLDDIMSTYLE7
 70
     0
  3

  4

  5

  6

  7

 40
1.0
 41
3.81
 42
0.0625
 43
0.38
 44
0.0
 45
0.000000001
 46
0.0
 47
0.0
 48
0.0
140
3.2
141
0.09
142
0.0
143
25.4
144
0.5
145
0.0
146
1.0
147
0.8
 71
     0
 72
     0
 73
     0
 74
     0
 75
     0
 76
     0
 77
     1
 78
    12
170
     0
171
     2
172
     0
173
     1
174
     0
175
     0
176
     0
177
     0
178
     0
  0
DIMSTYLE
  2
SLDDIMSTYLE8
 70
     0
  3

  4

  5

  6

  7

 40
1.0
 41
3.81
 42
0.0625
 43
0.38
 44
0.0
 45
0.000000001
 46
0.0
 47
0.0
 48
0.0
140
3.2
141
0.09
142
0.0
143
25.4
144
0.5
145
0.0
146
1.0
147
0.8
 71
     0
 72
     0
 73
     0
 74
     0
 75
     0
 76
     0
 77
     1
 78
    12
170
     0
171
     2
172
     1
173
     1
174
     0
175
     0
176
     0
177
     0
178
     0
  0
DIMSTYLE
  2
SLDDIMSTYLE9
 70
     0
  3

  4

  5

  6

  7

 40
1.0
 41
3.81
 42
0.0625
 43
0.38
 44
0.0
 45
0.000000001
 46
0.0
 47
0.0
 48
0.0
140
3.2
141
0.09
142
0.0
143
25.4
144
0.5
145
0.0
146
1.0
147
0.8
 71
     0
 72
     0
 73
     0
 74
     0
 75
     0
 76
     0
 77
     1
 78
    12
170
     0
171
     2
172
     1
173
     1
174
     0
175
     0
176
     0
177
     0
178
     0
  0
ENDTAB
  0
ENDSEC
  0
SECTION
  2
BLOCKS
  0
BLOCK
  8
0
  2
$MODEL_SPACE
 70
     0
 10
0.0
 20
0.0
 30
0.0
  3
$MODEL_SPACE
  1

  0
ENDBLK
  5
21
  8
0
  0
BLOCK
 67
     1
  8
0
  2
$PAPER_SPACE
 70
     0
 10
0.0
 20
0.0
 30
0.0
  3
$PAPER_SPACE
  1

  0
ENDBLK
  5
1D
 67
     1
  8
0
  0
BLOCK
  8
0
  2
BLOC2_1
 70
     0
 10
0.0
 20
0.0
 30
0.0
  3
BLOC2_1
  1

  0
CIRCLE
  5
50
  8
PV
  6
CONTINUOUS
 10
8.0102707617
 20
1.7
 30
0.0
 40
0.6400000000000101
  0
CIRCLE
  5
51
  8
PV
  6
CONTINUOUS
 10
8.0102707617
 20
1.7
 30
0.0
 40
1.199999999999928
  0
LINE
  5
52
  8
PV
  6
CENTER
 10
8.0102707617
 20
0.0
 30
0.0
 11
8.0102707617
 21
3.4
 31
0.0
  0
LINE
  5
53
  8
PV
  6
CONTINUOUS
 10
4.0102707617
 20
2.9
 30
0.0
 11
4.0102707617
 21
0.5
 31
0.0
  0
LINE
  5
54
  8
PV
  6
CONTINUOUS
 10
0.8102707617
 20
1.06
 30
0.0
 11
4.0102707617
 21
0.5
 31
0.0
  0
LINE
  5
55
  8
PV
  6
CONTINUOUS
 10
0.8102707617
 20
2.339999
 30
0.0
 11
0.8102707617
 21
1.06
 31
0.0
  0
LINE
  5
56
  8
PV
  6
CENTER
 10
9.7436336225
 20
1.7471354655
 30
0.0
 11
0.0
 21
1.7000647717
 31
0.0
  0
LINE
  5
57
  8
PV
  6
CONTINUOUS
 10
0.8102707617
 20
2.339999
 30
0.0
 11
4.0102707617
 21
2.9
 31
0.0
  0
ENDBLK
  5
4F
  8
0
  0
BLOCK
  8
0
  2
SW_NOTE_0
 70
     0
 10
0.0
 20
0.0
 30
0.0
  3
SW_NOTE_0
  1

  0
LINE
  5
112
  8
NOTE
 62
     0
 10
-1.3321300543
 20
-18.1812777343
 30
0.0
 11
-1.3321300543
 21
9.0432985369
 31
0.0
  0
LINE
  5
113
  8
NOTE
 62
     0
 10
-1.3321300543
 20
9.0432985369
 30
0.0
 11
78.7526157084
 21
9.0432985369
 31
0.0
  0
LINE
  5
114
  8
NOTE
 62
     0
 10
78.7526157084
 20
9.0432985369
 30
0.0
 11
78.7526157084
 21
-18.1812777343
 31
0.0
  0
LINE
  5
115
  8
NOTE
 62
     0
 10
78.7526157084
 20
-18.1812777343
 30
0.0
 11
-1.3321300543
 21
-18.1812777343
 31
0.0
  0
TEXT
  5
116
  8
NOTE
 62
     0
 10
0.0
 20
1.2364102167
 30
0.0
 40
3.5
  1
  NOTE 1 : 
 41
0.5409090909
 11
0.0
 21
0.0
 31
0.0
 73
     1
  0
TEXT
  5
117
  8
NOTE
 62
     0
 10
-1.2930555968
 20
-7.8149788442
 30
0.0
 40
3.5
  1
   Acier laminé à froid - ép. 2 mm  
 41
0.5833333333
 11
-1.2930555968
 21
-9.0513890609
 31
0.0
 73
     1
  0
TEXT
  5
118
  8
NOTE
 62
     0
 10
-1.2930555968
 20
-12.3406733747
 30
0.0
 40
3.5
  1
   Cold laminated steel  - th. 2 mm   
 41
0.5802631579
 11
-1.2930555968
 21
-13.5770835914
 31
0.0
 73
     1
  0
ENDBLK
  5
111
  8
0
  0
BLOCK
  8
0
  2
SW_NOTE_1
 70
     0
 10
0.0
 20
0.0
 30
0.0
  3
SW_NOTE_1
  1

  0
TEXT
  5
13C
  8
PV
 62
     0
 10
-0.7065201238
 20
0.0
 30
0.0
 40
2.0
  1
PDM Project :
 50
90.0
 41
0.6461538462
 11
0.0
 21
0.0
 31
0.0
 73
     1
  0
TEXT
  5
13D
  8
PV
 62
     0
 10
-0.7065201238
 20
16.8881937861
 30
0.0
 40
2.0
  1
 E269 - Laser Bracket Plate  -
 50
90.0
 41
0.6183333333
 11
0.0
 21
16.8881937861
 31
0.0
 73
     1
  0
TEXT
  5
13E
  8
PV
 62
     0
 10
-0.7065201238
 20
52.0107597113
 30
0.0
 40
2.0
  1
  File Name :
 50
90.0
 41
0.5923076923
 11
0.0
 21
52.0107597113
 31
0.0
 73
     1
  0
TEXT
  5
13F
  8
PV
 62
     0
 10
-0.7065201238
 20
67.4416646361
 30
0.0
 40
2.0
  1
 41.8178 - Laze Bracket Plate 
 50
90.0
 41
0.63
 11
0.0
 21
67.4416646361
 31
0.0
 73
     1
  0
ENDBLK
  5
13B
  8
0
  0
BLOCK
  8
0
  2
SW_NOTE_2
 70
     0
 10
0.0
 20
0.0
 30
0.0
  3
SW_NOTE_2
  1

  0
TEXT
  5
179
  8
SLD-0
 62
     0
 10
0.0
 20
0.9346672472
 30
0.0
 40
2.6458333333
  1
A
 41
0.7
 11
0.0
 21
0.0
 31
0.0
 73
     1
  0
TEXT
  5
17A
  8
SLD-0
 62
     0
 10
2.9447143897
 20
0.9346672472
 30
0.0
 40
2.6458333333
  1
HALMA
 41
0.7
 11
2.9447143897
 21
0.0
 31
0.0
 73
     1
  0
TEXT
  5
17B
  8
SLD-0
 62
     0
 10
15.2233410627
 20
0.9346672472
 30
0.0
 40
2.6458333333
  1
COMPANY
 41
0.7
 11
15.2233410627
 21
0.0
 31
0.0
 73
     1
  0
ENDBLK
  5
178
  8
0
  0
BLOCK
  8
0
  2
SW_TABLEANNOTATION_0
 70
     0
 10
0.0
 20
0.0
 30
0.0
  3
SW_TABLEANNOTATION_0
  1

  0
LINE
  5
180
  8
PV
 62
     0
 10
0.0
 20
0.0
 30
0.0
 11
0.0
 21
-26.8737313406
 31
0.0
  0
LINE
  5
181
  8
PV
 62
     0
 10
0.0
 20
-26.8737313406
 30
0.0
 11
172.3872912662
 21
-26.8737313406
 31
0.0
  0
LINE
  5
182
  8
PV
 62
     0
 10
172.3872912662
 20
-26.8737313406
 30
0.0
 11
172.3872912662
 21
0.0
 31
0.0
  0
LINE
  5
183
  8
PV
 62
     0
 10
172.3872912662
 20
0.0
 30
0.0
 11
0.0
 21
0.0
 31
0.0
  0
LINE
  5
184
  8
PV
 62
     0
 10
12.7700774572
 20
0.0
 30
0.0
 11
12.7700774572
 21
-8.8737313406
 31
0.0
  0
LINE
  5
185
  8
PV
 62
     0
 10
48.27896561
 20
0.0
 30
0.0
 11
48.27896561
 21
-8.8737313406
 31
0.0
  0
LINE
  5
186
  8
PV
 62
     0
 10
146.4916595706
 20
0.0
 30
0.0
 11
146.4916595706
 21
-8.8737313406
 31
0.0
  0
LINE
  5
187
  8
PV
 62
     0
 10
12.7700774572
 20
-8.8737313406
 30
0.0
 11
12.7700774572
 21
-26.8737313406
 31
0.0
  0
LINE
  5
188
  8
PV
 62
     0
 10
48.27896561
 20
-8.8737313406
 30
0.0
 11
48.27896561
 21
-26.8737313406
 31
0.0
  0
LINE
  5
189
  8
PV
 62
     0
 10
146.4916595706
 20
-8.8737313406
 30
0.0
 11
146.4916595706
 21
-26.8737313406
 31
0.0
  0
LINE
  5
18A
  8
PV
 62
     0
 10
0.0
 20
-17.8737313406
 30
0.0
 11
172.3872912662
 21
-17.8737313406
 31
0.0
  0
LINE
  5
18B
  8
PV
 62
     0
 10
0.0
 20
-8.8737313406
 30
0.0
 11
172.3872912662
 21
-8.8737313406
 31
0.0
  0
TEXT
  5
18C
  8
PV
 62
     0
 10
2.2472610052
 20
-5.4064336301
 30
0.0
 40
3.2
  1
Rep
 41
0.7
 11
2.2472610052
 21
-6.5368658283
 31
0.0
 73
     1
  0
TEXT
  5
18D
  8
PV
 62
     0
 10
28.0422991404
 20
-3.306433705
 30
0.0
 40
3.2
  1
1 - 
 41
0.525
 11
28.0422991404
 21
-4.4368659031
 31
0.0
 73
     1
  0
TEXT
  5
18E
  8
PV
 62
     0
 10
13.3000774572
 20
-7.5064335552
 30
0.0
 40
3.2
  1
Défaut/Quantité
 41
0.7
 11
13.3000774572
 21
-8.6368657534
 31
0.0
 73
     1
  0
TEXT
  5
18F
  8
PV
 62
     0
 10
83.9964236799
 20
-5.4064336301
 30
0.0
 40
3.2
  1
DESCRIPTION
 41
0.7
 11
83.9964236799
 21
-6.5368658283
 31
0.0
 73
     1
  0
TEXT
  5
190
  8
PV
 62
     0
 10
152.1194755597
 20
-5.4064336301
 30
0.0
 40
3.2
  1
Weight
 41
0.7
 11
152.1194755597
 21
-6.5368658283
 31
0.0
 73
     1
  0
TEXT
  5
191
  8
PV
 62
     0
 10
5.2028164554
 20
-14.3432993004
 30
0.0
 40
3.2
  1
1
 41
0.7
 11
5.2028164554
 21
-15.4737314986
 31
0.0
 73
     1
  0
TEXT
  5
192
  8
PV
 62
     0
 10
29.3422992604
 20
-14.3432993004
 30
0.0
 40
3.2
  1
4
 41
0.7
 11
29.3422992604
 21
-15.4737314986
 31
0.0
 73
     1
  0
TEXT
  5
193
  8
PV
 62
     0
 10
50.1519843671
 20
-14.3432993004
 30
0.0
 40
3.2
  1
Crumpingtubular nut - Blind M4 Length 15 mm
 41
0.6430232558
 11
50.1519843671
 21
-15.4737314986
 31
0.0
 73
     1
  0
TEXT
  5
194
  8
PV
 62
     0
 10
156.4839197354
 20
-14.3432993004
 30
0.0
 40
3.2
  1
4.1
 41
0.7
 11
156.4839197354
 21
-15.4737314986
 31
0.0
 73
     1
  0
TEXT
  5
195
  8
PV
 62
     0
 10
5.2028164554
 20
-23.3432993004
 30
0.0
 40
3.2
  1
2
 41
0.7
 11
5.2028164554
 21
-24.4737314986
 31
0.0
 73
     1
  0
TEXT
  5
196
  8
PV
 62
     0
 10
29.3422992604
 20
-23.3432993004
 30
0.0
 40
3.2
  1
1
 41
0.7
 11
29.3422992604
 21
-24.4737314986
 31
0.0
 73
     1
  0
TEXT
  5
197
  8
PV
 62
     0
 10
77.3386444631
 20
-23.3432993004
 30
0.0
 40
3.2
  1
Laser bracket plate
 41
0.6631578947
 11
77.3386444631
 21
-24.4737314986
 31
0.0
 73
     1
  0
TEXT
  5
198
  8
PV
 62
     0
 10
154.1194754218
 20
-23.3432993004
 30
0.0
 40
3.2
  1
101.6
 41
0.7
 11
154.1194754218
 21
-24.4737314986
 31
0.0
 73
     1
  0
ENDBLK
  5
17F
  8
0
  0
BLOCK
  8
0
  2
SW_NOTE_3
 70
     0
 10
0.0
 20
0.0
 30
0.0
  3
SW_NOTE_3
  1

  0
CIRCLE
  5
1FD
  8
NOTE
 62
     0
 10
-13.9172503287
 20
9.8541624213
 30
0.0
 40
2.562158182721999
  0
TEXT
  5
1FE
  8
NOTE
 62
     0
 10
-15.1840247748
 20
8.3736012815
 30
0.0
 40
3.5
  1
2
 41
0.7
 11
-15.1840247748
 21
7.1371910648
 31
0.0
 73
     1
  0
LINE
  5
1FF
  8
NOTE
 62
     0
 10
-11.82619089
 20
8.3735797735
 30
0.0
 11
0.0
 21
0.0
 31
0.0
  0
INSERT
  5
208
  8
NOTE
 62
     0
  2
_DOT
 10
0.0
 20
0.0
 30
14.2076671619
 41
1.143
 42
1.143
 50
324.6994518018
  0
ENDBLK
  5
1FC
  8
0
  0
BLOCK
  8
0
  2
_DOT
 70
     0
 10
0.0
 20
0.0
 30
0.0
  3
_DOT
  1

  0
POLYLINE
  5
203
  8
0
  6
BYBLOCK
 62
     0
 66
     1
 10
0.0
 20
0.0
 30
0.0
 70
     1
 40
0.5
 41
0.5
  0
VERTEX
  5
205
  8
0
  6
BYBLOCK
 62
     0
 10
-0.25
 20
0.0
 30
0.0
 42
1.0
  0
VERTEX
  5
206
  8
0
  6
BYBLOCK
 62
     0
 10
0.25
 20
0.0
 30
0.0
 42
1.0
  0
SEQEND
  5
207
  8
0
  6
BYBLOCK
 62
     0
  0
LINE
  5
204
  8
0
  6
BYBLOCK
 62
     0
 10
-0.5
 20
0.0
 30
0.0
 11
-1.0
 21
0.0
 31
0.0
  0
ENDBLK
  5
202
  8
0
  0
BLOCK
  8
0
  2
SW_NOTE_4
 70
     0
 10
0.0
 20
0.0
 30
0.0
  3
SW_NOTE_4
  1

  0
CIRCLE
  5
20D
  8
NOTE
 62
     0
 10
-11.878309979
 20
-6.8647224177
 30
0.0
 40
2.562158182721999
  0
TEXT
  5
20E
  8
NOTE
 62
     0
 10
-13.1022373043
 20
-8.3541716445
 30
0.0
 40
3.5
  1
1
 41
0.7
 11
-13.1022373043
 21
-9.5905818613
 31
0.0
 73
     1
  0
LINE
  5
20F
  8
NOTE
 62
     0
 10
-9.6599641441
 20
-5.5826942159
 30
0.0
 11
0.0
 21
0.0
 31
0.0
  0
INSERT
  5
210
  8
NOTE
 62
     0
  2
_DOT
 10
0.0
 20
0.0
 30
-7.2431976553
 41
1.143
 42
1.143
 50
30.0245107422
  0
ENDBLK
  5
20C
  8
0
  0
BLOCK
  8
0
  2
_D
 70
     0
 10
0.0
 20
0.0
 30
0.0
  3
_D
  1

  0
ARC
  5
25F
  8
COTATION
 10
104.1833452643
 20
367.9274722663
 30
0.0
 40
5.677570829590347
 50
153.4349488229
 51
206.5650511771
  0
ARC
  5
260
  8
COTATION
 10
107.0951333999
 20
367.9274722663
 30
0.0
 40
5.677570829590359
 50
333.4349488229
 51
26.5650511771
  0
SOLID
  5
261
  8
COTATION
 10
66.6392393321
 20
365.3883854019
 30
0.0
 11
70.4492393321
 21
364.8168854019
 31
0.0
 12
70.4492393321
 22
365.9598854019
 32
0.0
 13
70.4492393321
 23
365.9598854019
 33
0.0
  0
SOLID
  5
262
  8
COTATION
 10
144.6392393321
 20
365.3883854019
 30
0.0
 11
140.8292393321
 21
365.9598854019
 31
0.0
 12
140.8292393321
 22
364.8168854019
 32
0.0
 13
140.8292393321
 23
364.8168854019
 33
0.0
  0
LINE
  5
263
  8
COTATION
 10
66.6392393321
 20
282.9480293186
 30
0.0
 11
66.6392393321
 21
366.3883854019
 31
0.0
  0
LINE
  5
264
  8
COTATION
 10
144.6392393321
 20
282.9480293186
 30
0.0
 11
144.6392393321
 21
366.3883854019
 31
0.0
  0
LINE
  5
265
  8
COTATION
 10
66.6392393321
 20
365.3883854019
 30
0.0
 11
144.6392393321
 21
365.3883854019
 31
0.0
  0
TEXT
  5
266
  8
COTATION
 10
100.6926715355
 20
366.5188174254
 30
0.0
 40
3.2
  1
=
 50
0.0
 41
0.7
 11
100.6926715355
 21
365.3883852272
 31
0.0
 73
     1
  0
TEXT
  5
267
  8
COTATION
 10
103.274870688
 20
366.5188174254
 30
0.0
 40
3.2
  1
78
 50
0.0
 41
0.7
 11
103.274870688
 21
365.3883852272
 31
0.0
 73
     1
  0
TEXT
  5
268
  8
COTATION
 10
108.0036079762
 20
366.5188174254
 30
0.0
 40
3.2
  1
=
 50
0.0
 41
0.7
 11
108.0036079762
 21
365.3883852272
 31
0.0
 73
     1
  0
ENDBLK
  5
25E
  8
0
  0
BLOCK
  8
0
  2
_D_1
 70
     0
 10
0.0
 20
0.0
 30
0.0
  3
_D_1
  1

  0
SOLID
  5
26E
  8
COTATION
 10
133.2164037984
 20
255.3708648523
 30
0.0
 11
135.5063691092
 21
252.2726764906
 31
0.0
 12
136.3145921601
 22
253.0808995415
 32
0.0
 13
136.3145921601
 23
253.0808995415
 33
0.0
  0
LINE
  5
26F
  8
COTATION
 10
133.2164037984
 20
255.3708648523
 30
0.0
 11
144.4727281565
 21
244.1145404942
 31
0.0
  0
LINE
  5
270
  8
COTATION
 10
133.2164037984
 20
255.3708648523
 30
0.0
 11
105.6392393321
 21
282.9480293186
 31
0.0
  0
TEXT
  5
271
  8
COTATION
 10
138.9743757649
 20
251.2068954939
 30
0.0
 40
3.2
  1
R
 50
315.0
 41
0.7
 11
138.1750394919
 21
250.4075592209
 31
0.0
 73
     1
  0
TEXT
  5
272
  8
COTATION
 10
140.8034752425
 20
249.3777960163
 30
0.0
 40
3.2
  1
39
 50
315.0
 41
0.7
 11
140.0041389695
 21
248.5784597434
 31
0.0
 73
     1
  0
ENDBLK
  5
26D
  8
0
  0
BLOCK
  8
0
  2
_D_2
 70
     0
 10
0.0
 20
0.0
 30
0.0
  3
_D_2
  1

  0
SOLID
  5
277
  8
COTATION
 10
162.0326547137
 20
340.9480293186
 30
0.0
 11
161.4611547137
 21
337.1380293186
 31
0.0
 12
162.6041547137
 22
337.1380293186
 32
0.0
 13
162.6041547137
 23
337.1380293186
 33
0.0
  0
SOLID
  5
278
  8
COTATION
 10
162.0326547137
 20
282.9480293186
 30
0.0
 11
162.6041547137
 21
286.7580293186
 31
0.0
 12
161.4611547137
 22
286.7580293186
 32
0.0
 13
161.4611547137
 23
286.7580293186
 33
0.0
  0
LINE
  5
279
  8
COTATION
 10
124.8892393321
 20
340.9480293186
 30
0.0
 11
163.0326547137
 21
340.9480293186
 31
0.0
  0
LINE
  5
27A
  8
COTATION
 10
128.9988893771
 20
282.9480293186
 30
0.0
 11
163.0326547137
 21
282.9480293186
 31
0.0
  0
LINE
  5
27B
  8
COTATION
 10
162.0326547137
 20
340.9480293186
 30
0.0
 11
162.0326547137
 21
282.9480293186
 31
0.0
  0
TEXT
  5
27C
  8
COTATION
 10
160.9022226901
 20
309.5836606745
 30
0.0
 40
3.2
  1
58
 50
90.0
 41
0.7
 11
162.0326548883
 21
309.5836606745
 31
0.0
 73
     1
  0
ENDBLK
  5
276
  8
0
  0
BLOCK
  8
0
  2
_D_3
 70
     0
 10
0.0
 20
0.0
 30
0.0
  3
_D_3
  1

  0
SOLID
  5
282
  8
COTATION
 10
80.0914899205
 20
268.1980293186
 30
0.0
 11
76.506183132
 21
266.7879628369
 31
0.0
 12
77.077683132
 22
265.7980958003
 32
0.0
 13
77.077683132
 23
265.7980958003
 33
0.0
  0
LINE
  5
283
  8
COTATION
 10
53.0482261979
 20
259.6110769058
 30
0.0
 11
55.5873130623
 21
255.2132494518
 31
0.0
  0
LINE
  5
284
  8
COTATION
 10
55.5873130623
 20
255.2132494518
 30
0.0
 11
67.0397430899
 21
261.8253130111
 31
0.0
  0
LINE
  5
285
  8
COTATION
 10
67.0397430899
 20
261.8253130111
 30
0.0
 11
64.5006562255
 21
266.2231404651
 31
0.0
  0
LINE
  5
286
  8
COTATION
 10
64.5006562255
 20
266.2231404651
 30
0.0
 11
53.0482261979
 21
259.6110769058
 31
0.0
  0
LINE
  5
287
  8
COTATION
 10
80.0914899205
 20
268.1980293186
 30
0.0
 11
54.7159673347
 21
253.5474645229
 31
0.0
  0
LINE
  5
288
  8
COTATION
 10
80.0914899205
 20
268.1980293186
 30
0.0
 11
105.6392393321
 21
282.9480293186
 31
0.0
  0
TEXT
  5
289
  8
COTATION
 10
55.0220970505
 20
256.1922323014
 30
0.0
 40
3.2
  1
R
 50
30.0
 41
0.7
 11
55.5873131496
 21
255.2132493006
 31
0.0
 73
     1
  0
TEXT
  5
28A
  8
COTATION
 10
57.262277255
 20
257.4856009455
 30
0.0
 40
3.2
  1
 29,5 
 50
30.0
 41
0.5833333333
 11
57.827493354
 21
256.5066179446
 31
0.0
 73
     1
  0
ENDBLK
  5
281
  8
0
  0
BLOCK
  8
0
  2
_D_4
 70
     0
 10
0.0
 20
0.0
 30
0.0
  3
_D_4
  1

  0
SOLID
  5
28F
  8
COTATION
 10
128.1392393321
 20
356.9480293186
 30
0.0
 11
124.3292393321
 21
357.5195293186
 31
0.0
 12
124.3292393321
 22
356.3765293186
 32
0.0
 13
124.3292393321
 23
356.3765293186
 33
0.0
  0
SOLID
  5
290
  8
COTATION
 10
83.1392393321
 20
356.9480293186
 30
0.0
 11
86.9492393321
 21
356.3765293186
 31
0.0
 12
86.9492393321
 22
357.5195293186
 32
0.0
 13
86.9492393321
 23
357.5195293186
 33
0.0
  0
LINE
  5
291
  8
COTATION
 10
128.1392393321
 20
335.9480293186
 30
0.0
 11
128.1392393321
 21
357.9480293186
 31
0.0
  0
LINE
  5
292
  8
COTATION
 10
83.1392393321
 20
340.9480293186
 30
0.0
 11
83.1392393321
 21
357.9480293186
 31
0.0
  0
LINE
  5
293
  8
COTATION
 10
128.1392393321
 20
356.9480293186
 30
0.0
 11
83.1392393321
 21
356.9480293186
 31
0.0
  0
TEXT
  5
294
  8
COTATION
 10
100.6926715355
 20
358.0784613421
 30
0.0
 40
3.2
  1
=
 50
0.0
 41
0.7
 11
100.6926715355
 21
356.948029144
 31
0.0
 73
     1
  0
TEXT
  5
295
  8
COTATION
 10
103.274870688
 20
358.0784613421
 30
0.0
 40
3.2
  1
45
 50
0.0
 41
0.7
 11
103.274870688
 21
356.948029144
 31
0.0
 73
     1
  0
TEXT
  5
296
  8
COTATION
 10
108.0036079762
 20
358.0784613421
 30
0.0
 40
3.2
  1
=
 50
0.0
 41
0.7
 11
108.0036079762
 21
356.948029144
 31
0.0
 73
     1
  0
ENDBLK
  5
28E
  8
0
  0
BLOCK
  8
0
  2
_D_5
 70
     0
 10
0.0
 20
0.0
 30
0.0
  3
_D_5
  1

  0
SOLID
  5
29C
  8
COTATION
 10
73.1384506276
 20
335.9480293186
 30
0.0
 11
72.5669506276
 21
332.1380293186
 31
0.0
 12
73.7099506276
 22
332.1380293186
 32
0.0
 13
73.7099506276
 23
332.1380293186
 33
0.0
  0
SOLID
  5
29D
  8
COTATION
 10
73.1384506276
 20
340.9480293186
 30
0.0
 11
73.7099506276
 21
344.7580293186
 31
0.0
 12
72.5669506276
 22
344.7580293186
 32
0.0
 13
72.5669506276
 23
344.7580293186
 33
0.0
  0
LINE
  5
29E
  8
COTATION
 10
128.1392393321
 20
335.9480293186
 30
0.0
 11
72.1384506276
 21
335.9480293186
 31
0.0
  0
LINE
  5
29F
  8
COTATION
 10
123.8892393321
 20
340.9480293186
 30
0.0
 11
72.1384506276
 21
340.9480293186
 31
0.0
  0
LINE
  5
2A0
  8
COTATION
 10
73.1384506276
 20
335.9480293186
 30
0.0
 11
73.1384506276
 21
332.1480293186
 31
0.0
  0
LINE
  5
2A1
  8
COTATION
 10
73.1384506276
 20
335.9480293186
 30
0.0
 11
73.1384506276
 21
340.9480293186
 31
0.0
  0
LINE
  5
2A2
  8
COTATION
 10
73.1384506276
 20
340.9480293186
 30
0.0
 11
73.1384506276
 21
350.4689649841
 31
0.0
  0
TEXT
  5
2A3
  8
COTATION
 10
72.0080186041
 20
346.5170963401
 30
0.0
 40
3.2
  1
5
 50
90.0
 41
0.7
 11
73.1384508022
 21
346.5170963401
 31
0.0
 73
     1
  0
ENDBLK
  5
29B
  8
0
  0
BLOCK
  8
0
  2
_D_6
 70
     0
 10
0.0
 20
0.0
 30
0.0
  3
_D_6
  1

  0
ARC
  5
2A8
  8
COTATION
 10
30.0992393162
 20
295.1635847457
 30
0.0
 40
5.679612698335275
 50
243.4349488229
 51
296.5650511771
  0
ARC
  5
2A9
  8
COTATION
 10
30.0992393162
 20
289.7324737751
 30
0.0
 40
5.679612698335275
 50
63.4349488229
 51
116.5650511771
  0
SOLID
  5
2AA
  8
COTATION
 10
32.6392393321
 20
243.9480293186
 30
0.0
 11
33.2107393321
 21
247.7580293186
 31
0.0
 12
32.0677393321
 22
247.7580293186
 32
0.0
 13
32.0677393321
 23
247.7580293186
 33
0.0
  0
SOLID
  5
2AB
  8
COTATION
 10
32.6392393321
 20
340.9480293186
 30
0.0
 11
32.0677393321
 21
337.1380293186
 31
0.0
 12
33.2107393321
 22
337.1380293186
 32
0.0
 13
33.2107393321
 23
337.1380293186
 33
0.0
  0
LINE
  5
2AC
  8
COTATION
 10
105.6392393321
 20
243.9480293186
 30
0.0
 11
31.6392393321
 21
243.9480293186
 31
0.0
  0
LINE
  5
2AD
  8
COTATION
 10
83.1392393321
 20
340.9480293186
 30
0.0
 11
31.6392393321
 21
340.9480293186
 31
0.0
  0
LINE
  5
2AE
  8
COTATION
 10
32.6392393321
 20
243.9480293186
 30
0.0
 11
32.6392393321
 21
340.9480293186
 31
0.0
  0
TEXT
  5
2AF
  8
COTATION
 10
31.5088073086
 20
290.083584714
 30
-11.4
 40
3.2
  1
97
 50
90.0
 41
0.7
 11
32.6392395067
 21
290.083584714
 31
-11.4
 73
     1
  0
ENDBLK
  5
2A7
  8
0
  0
BLOCK
  8
0
  2
_D_7
 70
     0
 10
0.0
 20
0.0
 30
0.0
  3
_D_7
  1

  0
ARC
  5
2B5
  8
COTATION
 10
105.6392393321
 20
282.9480293186
 30
0.0
 40
48.19561311607623
 50
0.0
 51
45.0
  0
SOLID
  5
2B6
  8
COTATION
 10
153.8348524482
 20
282.9480293186
 30
0.0
 11
154.2556637665
 21
286.7776024129
 31
0.0
 12
153.1135528251
 22
286.7325291672
 32
0.0
 13
153.1135528251
 23
286.7325291672
 33
0.0
  0
SOLID
  5
2B7
  8
COTATION
 10
139.7186841899
 20
317.0274741764
 30
0.0
 11
141.8846938415
 21
313.8413928154
 31
0.0
 12
142.7241598307
 22
314.6171156092
 32
0.0
 13
142.7241598307
 23
314.6171156092
 33
0.0
  0
LINE
  5
2B8
  8
COTATION
 10
149.5003348497
 20
305.6541199547
 30
0.0
 11
154.1936429042
 21
307.5981518032
 31
0.0
  0
LINE
  5
2B9
  8
COTATION
 10
154.1936429042
 20
307.5981518032
 30
0.0
 11
157.4026562094
 21
299.8509083598
 31
0.0
  0
LINE
  5
2BA
  8
COTATION
 10
157.4026562094
 20
299.8509083598
 30
0.0
 11
152.7093481549
 21
297.9068765113
 31
0.0
  0
LINE
  5
2BB
  8
COTATION
 10
152.7093481549
 20
297.9068765113
 30
0.0
 11
149.5003348497
 21
305.6541199547
 31
0.0
  0
LINE
  5
2BC
  8
COTATION
 10
128.9988893771
 20
282.9480293186
 30
0.0
 11
154.8348524482
 21
282.9480293186
 31
0.0
  0
LINE
  5
2BD
  8
COTATION
 10
130.8829514205
 20
308.191741407
 30
0.0
 11
140.4257909711
 21
317.7345809576
 31
0.0
  0
TEXT
  5
2BE
  8
COTATION
 10
150.9178342067
 20
305.1859350148
 30
-11.4
 40
3.2
  1
45°
 50
-67.5
 41
0.7
 11
149.8734510359
 21
304.7533373412
 31
-11.4
 73
     1
  0
ENDBLK
  5
2B4
  8
0
  0
BLOCK
  8
0
  2
_D_8
 70
     0
 10
0.0
 20
0.0
 30
0.0
  3
_D_8
  1

  0
ARC
  5
2C3
  8
COTATION
 10
105.6392393321
 20
282.9480293186
 30
0.0
 40
20.99286636312884
 50
315.0
 51
45.0
  0
SOLID
  5
2C4
  8
COTATION
 10
120.483437494
 20
268.1038311567
 30
0.0
 11
123.3638615252
 21
270.6623208773
 31
0.0
 12
122.4864375667
 22
271.3948344929
 32
0.0
 13
122.4864375667
 23
271.3948344929
 33
0.0
  0
SOLID
  5
2C5
  8
COTATION
 10
120.483437494
 20
297.7922274805
 30
0.0
 11
122.4864375667
 21
294.5012241443
 31
0.0
 12
123.3638615252
 22
295.2337377599
 32
0.0
 13
123.3638615252
 23
295.2337377599
 33
0.0
  0
LINE
  5
2C6
  8
COTATION
 10
124.9571381537
 20
294.2965256883
 30
0.0
 11
129.7413994282
 21
296.0045199448
 31
0.0
  0
LINE
  5
2C7
  8
COTATION
 10
129.7413994282
 20
296.0045199448
 30
0.0
 11
132.5607854884
 21
288.1071400243
 31
0.0
  0
LINE
  5
2C8
  8
COTATION
 10
132.5607854884
 20
288.1071400243
 30
0.0
 11
127.776524214
 21
286.3991457678
 31
0.0
  0
LINE
  5
2C9
  8
COTATION
 10
127.776524214
 20
286.3991457678
 30
0.0
 11
124.9571381537
 21
294.2965256883
 31
0.0
  0
LINE
  5
2CA
  8
COTATION
 10
122.1148273337
 20
266.472441317
 30
0.0
 11
119.7763307128
 21
268.8109379379
 31
0.0
  0
LINE
  5
2CB
  8
COTATION
 10
122.1148273337
 20
299.4236173203
 30
0.0
 11
119.7763307128
 21
297.0851206993
 31
0.0
  0
TEXT
  5
2CC
  8
COTATION
 10
126.3495744754
 20
293.7583596775
 30
-11.4
 40
3.2
  1
90°
 50
-70.3532975728
 41
0.7
 11
125.2849518464
 21
293.3782865102
 31
-11.4
 73
     1
  0
ENDBLK
  5
2C2
  8
0
  0
BLOCK
  8
0
  2
SW_NOTE_5
 70
     0
 10
0.0
 20
0.0
 30
0.0
  3
SW_NOTE_5
  1

  0
LINE
  5
2D0
  8
NOTE
 62
     0
 10
-2.036763425
 20
0.0000000582
 30
0.0
 11
0.9774884675
 21
5.2208374828
 31
0.0
  0
LINE
  5
2D1
  8
NOTE
 62
     0
 10
0.9774884675
 20
5.2208374828
 30
0.0
 11
3.99174036
 21
0.0000000582
 31
0.0
  0
LINE
  5
2D2
  8
NOTE
 62
     0
 10
3.99174036
 20
0.0000000582
 30
0.0
 11
-2.036763425
 21
0.0000000582
 31
0.0
  0
TEXT
  5
2D3
  8
NOTE
 62
     0
 10
0.0
 20
0.9346672472
 30
0.0
 40
2.6458333333
  1
1
 41
0.7
 11
0.0
 21
0.0
 31
0.0
 73
     1
  0
ENDBLK
  5
2CF
  8
0
  0
BLOCK
  8
0
  2
SW_GTOL_0
 70
     0
 10
0.0
 20
0.0
 30
0.0
  3
SW_GTOL_0
  1

  0
LINE
  5
2D9
  8
COTATION
 62
     0
 10
-37.9794936924
 20
-0.3174647969
 30
0.0
 11
-37.9794936924
 21
-6.7174647969
 31
0.0
  0
LINE
  5
2DA
  8
COTATION
 62
     0
 10
-37.9794936924
 20
-6.7174647969
 30
0.0
 11
-22.4708411501
 21
-6.7174647969
 31
0.0
  0
LINE
  5
2DB
  8
COTATION
 62
     0
 10
-22.4708411501
 20
-0.3174647969
 30
0.0
 11
-37.9794936924
 21
-0.3174647969
 31
0.0
  0
LINE
  5
2DC
  8
COTATION
 62
     0
 10
-37.9794936924
 20
-0.3174647969
 30
0.0
 11
-37.9794936924
 21
-6.7174647969
 31
0.0
  0
LINE
  5
2DD
  8
COTATION
 62
     0
 10
-37.9794936924
 20
-6.7174647969
 30
0.0
 11
-31.5794936924
 21
-6.7174647969
 31
0.0
  0
LINE
  5
2DE
  8
COTATION
 62
     0
 10
-31.5794936924
 20
-0.3174647969
 30
0.0
 11
-37.9794936924
 21
-0.3174647969
 31
0.0
  0
LINE
  5
2DF
  8
COTATION
 62
     0
 10
-31.5794936924
 20
-0.3174647969
 30
0.0
 11
-31.5794936924
 21
-6.7174647969
 31
0.0
  0
LINE
  5
2E0
  8
COTATION
 62
     0
 10
-22.4708411501
 20
-0.3174647969
 30
0.0
 11
-22.4708411501
 21
-6.7174647969
 31
0.0
  0
LINE
  5
2E1
  8
COTATION
 62
     0
 10
-22.4708411501
 20
-0.3174647969
 30
0.0
 11
-22.4708411501
 21
-6.7174647969
 31
0.0
  0
LINE
  5
2E2
  8
COTATION
 62
     0
 10
-22.4708411501
 20
-0.3174647969
 30
0.0
 11
-22.4708411501
 21
-6.7174647969
 31
0.0
  0
LINE
  5
2E3
  8
COTATION
 62
     0
 10
-22.4708411501
 20
-0.3174647969
 30
0.0
 11
-22.4708411501
 21
-6.7174647969
 31
0.0
  0
LINE
  5
2E4
  8
COTATION
 62
     0
 10
-22.4708411501
 20
-0.3174647969
 30
0.0
 11
-22.4708411501
 21
-6.7174647969
 31
0.0
  0
LINE
  5
2E5
  8
COTATION
 62
     0
 10
-37.9794936924
 20
-6.7174647969
 30
0.0
 11
-37.9794936924
 21
-13.1174647969
 31
0.0
  0
LINE
  5
2E6
  8
COTATION
 62
     0
 10
-37.9794936924
 20
-13.1174647969
 30
0.0
 11
-25.190413184
 21
-13.1174647969
 31
0.0
  0
LINE
  5
2E7
  8
COTATION
 62
     0
 10
-25.190413184
 20
-6.7174647969
 30
0.0
 11
-37.9794936924
 21
-6.7174647969
 31
0.0
  0
LINE
  5
2E8
  8
COTATION
 62
     0
 10
-25.190413184
 20
-6.7174647969
 30
0.0
 11
-25.190413184
 21
-13.1174647969
 31
0.0
  0
LINE
  5
2E9
  8
COTATION
 62
     0
 10
-25.190413184
 20
-6.7174647969
 30
0.0
 11
-25.190413184
 21
-13.1174647969
 31
0.0
  0
LINE
  5
2EA
  8
COTATION
 62
     0
 10
-25.190413184
 20
-6.7174647969
 30
0.0
 11
-25.190413184
 21
-13.1174647969
 31
0.0
  0
LINE
  5
2EB
  8
COTATION
 62
     0
 10
-25.190413184
 20
-6.7174647969
 30
0.0
 11
-25.190413184
 21
-13.1174647969
 31
0.0
  0
LINE
  5
2EC
  8
COTATION
 62
     0
 10
-25.190413184
 20
-6.7174647969
 30
0.0
 11
-25.190413184
 21
-13.1174647969
 31
0.0
  0
INSERT
  5
2F3
  8
COTATION
 62
     0
  2
SW_SYMBOL_IGTOL_POSI
 10
-37.4194936924
 20
-5.1652601803
 30
0.0
 41
0.003244252
 42
0.003244252
 43
0.003244252
  0
TEXT
  5
2F4
  8
COTATION
 62
     0
 10
-29.9807231042
 20
-4.9270327892
 30
0.0
 40
3.2
  1
0.5
 41
0.7
 11
-29.9807231042
 21
-6.0574649874
 31
0.0
 73
     1
  0
TEXT
  5
2F5
  8
COTATION
 62
     0
 10
-36.3805093949
 20
-11.3270327892
 30
0.0
 40
3.2
  1
N°02
 41
0.7
 11
-36.3805093949
 21
-12.4574649874
 31
0.0
 73
     1
  0
LINE
  5
2F6
  8
COTATION
 62
     0
 10
-22.4708411501
 20
-3.5174647969
 30
0.0
 11
0.0
 21
0.0
 31
0.0
  0
SOLID
  5
2F7
  8
COTATION
 62
     0
 10
0.0
 20
0.0
 30
0.0
 11
-3.8202229095
 21
-0.0195377938
 31
0.0
 12
-3.6434563847
 22
-1.1487864802
 32
0.0
 13
-3.6434563847
 23
-1.1487864802
 33
0.0
  0
ENDBLK
  5
2D8
  8
0
  0
BLOCK
  8
0
  2
SW_SYMBOL_IGTOL_POSI
 70
     0
 10
0.0
 20
0.0
 30
0.0
  3
SW_SYMBOL_IGTOL_POSI
  1

  0
CIRCLE
  5
2F0
  8
COTATION
 62
     0
 10
700.0
 20
500.0
 30
0.0
 40
400.0
  0
LINE
  5
2F1
  8
COTATION
 62
     0
 10
0.0
 20
500.0
 30
0.0
 11
1400.0
 21
500.0
 31
0.0
  0
LINE
  5
2F2
  8
COTATION
 62
     0
 10
700.0
 20
-200.0
 30
0.0
 11
700.0
 21
1200.0
 31
0.0
  0
ENDBLK
  5
2EF
  8
0
  0
BLOCK
  8
0
  2
SW_CENTERMARKSYMBOL_0
 70
     0
 10
0.0
 20
0.0
 30
0.0
  3
SW_CENTERMARKSYMBOL_0
  1

  0
ARC
  5
2FC
  8
COTATION
 62
     0
 10
-20.859650045
 20
-20.859650045
 30
0.0
 40
29.50000000000002
 50
45.0
 51
49.855574535
  0
ARC
  5
2FD
  8
COTATION
 62
     0
 10
-20.859650045
 20
-20.859650045
 30
0.0
 40
29.5
 50
40.144425465
 51
45.0
  0
ARC
  5
2FE
  8
COTATION
 62
     0
 10
-20.859650045
 20
-20.859650045
 30
0.0
 40
29.50000000000001
 50
135.0
 51
139.855574535
  0
ARC
  5
2FF
  8
COTATION
 62
     0
 10
-20.859650045
 20
-20.859650045
 30
0.0
 40
29.50000000000003
 50
130.144425465
 51
135.0
  0
ARC
  5
300
  8
COTATION
 62
     0
 10
-20.859650045
 20
-20.859650045
 30
0.0
 40
29.49999999999999
 50
225.0
 51
229.855574535
  0
ARC
  5
301
  8
COTATION
 62
     0
 10
-20.859650045
 20
-20.859650045
 30
0.0
 40
29.49999999999998
 50
220.144425465
 51
225.0
  0
ARC
  5
302
  8
COTATION
 62
     0
 10
-20.859650045
 20
-20.859650045
 30
0.0
 40
29.49999999999999
 50
315.0
 51
319.855574535
  0
ARC
  5
303
  8
COTATION
 62
     0
 10
-20.859650045
 20
-20.859650045
 30
0.0
 40
29.49999999999999
 50
310.144425465
 51
315.0
  0
ARC
  5
304
  8
COTATION
 62
     0
 10
-20.859650045
 20
-20.859650045
 30
0.0
 40
29.50000000000001
 50
54.71114907
 51
125.28885093
  0
ARC
  5
305
  8
COTATION
 62
     0
 10
-20.859650045
 20
-20.859650045
 30
0.0
 40
29.50000000000002
 50
144.71114907
 51
215.28885093
  0
ARC
  5
306
  8
COTATION
 62
     0
 10
-20.859650045
 20
-20.859650045
 30
0.0
 40
29.49999999999996
 50
234.71114907
 51
305.28885093
  0
ARC
  5
307
  8
COTATION
 62
     0
 10
-20.859650045
 20
-20.859650045
 30
0.0
 40
29.50000000000001
 50
324.71114907
 51
35.28885093
  0
LINE
  5
308
  8
COTATION
 62
     0
 10
0.0
 20
0.0
 30
0.0
 11
1.767766953
 21
1.767766953
 31
0.0
  0
LINE
  5
309
  8
COTATION
 62
     0
 10
0.0
 20
0.0
 30
0.0
 11
-1.767766953
 21
-1.767766953
 31
0.0
  0
LINE
  5
30A
  8
COTATION
 62
     0
 10
3.5355339059
 20
3.5355339059
 30
0.0
 11
4.3840620434
 21
4.3840620434
 31
0.0
  0
LINE
  5
30B
  8
COTATION
 62
     0
 10
-3.5355339059
 20
-3.5355339059
 30
0.0
 11
-4.3840620434
 21
-4.3840620434
 31
0.0
  0
LINE
  5
30C
  8
COTATION
 62
     0
 10
-41.71930009
 20
0.0
 30
0.0
 11
-43.487067043
 21
1.767766953
 31
0.0
  0
LINE
  5
30D
  8
COTATION
 62
     0
 10
-41.71930009
 20
0.0
 30
0.0
 11
-39.951533137
 21
-1.767766953
 31
0.0
  0
LINE
  5
30E
  8
COTATION
 62
     0
 10
-45.2548339959
 20
3.5355339059
 30
0.0
 11
-46.1033621334
 21
4.3840620434
 31
0.0
  0
LINE
  5
30F
  8
COTATION
 62
     0
 10
-38.1837661841
 20
-3.5355339059
 30
0.0
 11
-37.3352380466
 21
-4.3840620434
 31
0.0
  0
LINE
  5
310
  8
COTATION
 62
     0
 10
-41.71930009
 20
-41.71930009
 30
0.0
 11
-43.487067043
 21
-43.487067043
 31
0.0
  0
LINE
  5
311
  8
COTATION
 62
     0
 10
-41.71930009
 20
-41.71930009
 30
0.0
 11
-39.951533137
 21
-39.951533137
 31
0.0
  0
LINE
  5
312
  8
COTATION
 62
     0
 10
-45.2548339959
 20
-45.2548339959
 30
0.0
 11
-46.1033621334
 21
-46.1033621334
 31
0.0
  0
LINE
  5
313
  8
COTATION
 62
     0
 10
-38.1837661841
 20
-38.1837661841
 30
0.0
 11
-37.3352380466
 21
-37.3352380466
 31
0.0
  0
LINE
  5
314
  8
COTATION
 62
     0
 10
-20.859650045
 20
-20.859650045
 30
0.0
 11
-20.859650045
 21
-18.359650045
 31
0.0
  0
LINE
  5
315
  8
COTATION
 62
     0
 10
-20.859650045
 20
-20.859650045
 30
0.0
 11
-23.359650045
 21
-20.859650045
 31
0.0
  0
LINE
  5
316
  8
COTATION
 62
     0
 10
-20.859650045
 20
-20.859650045
 30
0.0
 11
-20.859650045
 21
-23.359650045
 31
0.0
  0
LINE
  5
317
  8
COTATION
 62
     0
 10
-20.859650045
 20
-20.859650045
 30
0.0
 11
-18.359650045
 21
-20.859650045
 31
0.0
  0
LINE
  5
318
  8
COTATION
 62
     0
 10
-20.859650045
 20
-15.859650045
 30
0.0
 11
-20.859650045
 21
42.2609443384
 31
0.0
  0
LINE
  5
319
  8
COTATION
 62
     0
 10
-25.859650045
 20
-20.859650045
 30
0.0
 11
-44.21930009
 21
-20.859650045
 31
0.0
  0
LINE
  5
31A
  8
COTATION
 62
     0
 10
-20.859650045
 20
-25.859650045
 30
0.0
 11
-20.859650045
 21
-72.8811107992
 31
0.0
  0
LINE
  5
31B
  8
COTATION
 62
     0
 10
-15.859650045
 20
-20.859650045
 30
0.0
 11
2.5
 21
-20.859650045
 31
0.0
  0
LINE
  5
31C
  8
COTATION
 62
     0
 10
0.0
 20
-41.71930009
 30
0.0
 11
1.767766953
 21
-43.487067043
 31
0.0
  0
LINE
  5
31D
  8
COTATION
 62
     0
 10
0.0
 20
-41.71930009
 30
0.0
 11
-1.767766953
 21
-39.951533137
 31
0.0
  0
LINE
  5
31E
  8
COTATION
 62
     0
 10
3.5355339059
 20
-45.2548339959
 30
0.0
 11
4.3840620434
 21
-46.1033621334
 31
0.0
  0
LINE
  5
31F
  8
COTATION
 62
     0
 10
-3.5355339059
 20
-38.1837661841
 30
0.0
 11
-4.3840620434
 21
-37.3352380466
 31
0.0
  0
ENDBLK
  5
2FB
  8
0
  0
BLOCK
  8
0
  2
_D_9
 70
     0
 10
0.0
 20
0.0
 30
0.0
  3
_D_9
  1

  0
SOLID
  5
343
  8
COTATION
 10
361.7204929712
 20
340.9480293186
 30
0.0
 11
362.2919929712
 21
344.7580293186
 31
0.0
 12
361.1489929712
 22
344.7580293186
 32
0.0
 13
361.1489929712
 23
344.7580293186
 33
0.0
  0
SOLID
  5
344
  8
COTATION
 10
361.7204929712
 20
338.9480293186
 30
0.0
 11
361.1489929712
 21
335.1380293186
 31
0.0
 12
362.2919929712
 22
335.1380293186
 32
0.0
 13
362.2919929712
 23
335.1380293186
 33
0.0
  0
LINE
  5
345
  8
COTATION
 10
348.5866675668
 20
340.9480293186
 30
0.0
 11
362.7204929712
 21
340.9480293186
 31
0.0
  0
LINE
  5
346
  8
COTATION
 10
348.5866675668
 20
338.9480293186
 30
0.0
 11
362.7204929712
 21
338.9480293186
 31
0.0
  0
LINE
  5
347
  8
COTATION
 10
361.7204929712
 20
340.9480293186
 30
0.0
 11
361.7204929712
 21
353.7177136406
 31
0.0
  0
LINE
  5
348
  8
COTATION
 10
361.7204929712
 20
340.9480293186
 30
0.0
 11
361.7204929712
 21
338.9480293186
 31
0.0
  0
LINE
  5
349
  8
COTATION
 10
361.7204929712
 20
338.9480293186
 30
0.0
 11
361.7204929712
 21
335.1480293186
 31
0.0
  0
TEXT
  5
34A
  8
COTATION
 10
360.5900609477
 20
349.7658449966
 30
0.0
 40
3.2
  1
2
 50
90.0
 41
0.7
 11
361.7204931459
 21
349.7658449966
 31
0.0
 73
     1
  0
ENDBLK
  5
342
  8
0
  0
BLOCK
  8
0
  2
_D_10
 70
     0
 10
0.0
 20
0.0
 30
0.0
  3
_D_10
  1

  0
SOLID
  5
37B
  8
COTATION
 10
102.1392393321
 20
187.9222962771
 30
0.0
 11
98.3292393321
 21
188.4937962771
 31
0.0
 12
98.3292393321
 22
187.3507962771
 32
0.0
 13
98.3292393321
 23
187.3507962771
 33
0.0
  0
SOLID
  5
37C
  8
COTATION
 10
109.1392393321
 20
187.9222962771
 30
0.0
 11
112.9492393321
 21
187.3507962771
 31
0.0
 12
112.9492393321
 22
188.4937962771
 32
0.0
 13
112.9492393321
 23
188.4937962771
 33
0.0
  0
LINE
  5
37D
  8
COTATION
 10
102.1392393321
 20
161.4222962771
 30
0.0
 11
102.1392393321
 21
188.9222962771
 31
0.0
  0
LINE
  5
37E
  8
COTATION
 10
109.1392393321
 20
161.4222962771
 30
0.0
 11
109.1392393321
 21
188.9222962771
 31
0.0
  0
LINE
  5
37F
  8
COTATION
 10
102.1392393321
 20
187.9222962771
 30
0.0
 11
80.0682846222
 21
187.9222962771
 31
0.0
  0
LINE
  5
380
  8
COTATION
 10
102.1392393321
 20
187.9222962771
 30
0.0
 11
109.1392393321
 21
187.9222962771
 31
0.0
  0
LINE
  5
381
  8
COTATION
 10
109.1392393321
 20
187.9222962771
 30
0.0
 11
112.9392393321
 21
187.9222962771
 31
0.0
  0
TEXT
  5
382
  8
COTATION
 10
81.6557846222
 20
189.0527283006
 30
0.0
 40
3.2
  1
=
 41
0.7
 11
81.6557846222
 21
187.9222961024
 31
0.0
 73
     1
  0
TEXT
  5
383
  8
COTATION
 10
84.2379837748
 20
189.0527283006
 30
0.0
 40
3.2
  1
7
 41
0.7
 11
84.2379837748
 21
187.9222961024
 31
0.0
 73
     1
  0
TEXT
  5
384
  8
COTATION
 10
86.6023524188
 20
189.0527283006
 30
0.0
 40
3.2
  1
=
 41
0.7
 11
86.6023524188
 21
187.9222961024
 31
0.0
 73
     1
  0
ENDBLK
  5
37A
  8
0
  0
BLOCK
  8
0
  2
_D_11
 70
     0
 10
0.0
 20
0.0
 30
0.0
  3
_D_11
  1

  0
INSERT
  5
38A
  8
COTATION
  2
_DOT
 10
151.9135471274
 20
161.9222962771
 30
-53.4
 41
1.143
 42
1.143
 50
90.0
  0
SOLID
  5
38B
  8
COTATION
 10
151.9135471274
 20
165.9222962771
 30
0.0
 11
152.4850471274
 21
169.7322962771
 31
0.0
 12
151.3420471274
 22
169.7322962771
 32
0.0
 13
151.3420471274
 23
169.7322962771
 33
0.0
  0
LINE
  5
38C
  8
COTATION
 10
108.6392393321
 20
161.9222962771
 30
0.0
 11
152.9135471274
 21
161.9222962771
 31
0.0
  0
LINE
  5
38D
  8
COTATION
 10
128.1392393321
 20
165.9222962771
 30
0.0
 11
152.9135471274
 21
165.9222962771
 31
0.0
  0
LINE
  5
38E
  8
COTATION
 10
151.9135471274
 20
161.9222962771
 30
0.0
 11
151.9135471274
 21
158.1222962771
 31
0.0
  0
LINE
  5
38F
  8
COTATION
 10
151.9135471274
 20
161.9222962771
 30
0.0
 11
151.9135471274
 21
165.9222962771
 31
0.0
  0
LINE
  5
390
  8
COTATION
 10
151.9135471274
 20
165.9222962771
 30
0.0
 11
151.9135471274
 21
169.7222962771
 31
0.0
  0
TEXT
  5
391
  8
COTATION
 10
150.7831151039
 20
162.740111955
 30
0.0
 40
3.2
  1
4
 50
90.0
 41
0.7
 11
151.913547302
 21
162.740111955
 31
0.0
 73
     1
  0
ENDBLK
  5
389
  8
0
  0
BLOCK
  8
0
  2
_D_12
 70
     0
 10
0.0
 20
0.0
 30
0.0
  3
_D_12
  1

  0
SOLID
  5
396
  8
COTATION
 10
162.6212107364
 20
165.9222962771
 30
0.0
 11
162.0497107364
 21
162.1122962771
 31
0.0
 12
163.1927107364
 22
162.1122962771
 32
0.0
 13
163.1927107364
 23
162.1122962771
 33
0.0
  0
SOLID
  5
397
  8
COTATION
 10
162.6212107364
 20
138.9222962771
 30
0.0
 11
163.1927107364
 21
142.7322962771
 31
0.0
 12
162.0497107364
 22
142.7322962771
 32
0.0
 13
162.0497107364
 23
142.7322962771
 33
0.0
  0
LINE
  5
398
  8
COTATION
 10
128.1392393321
 20
165.9222962771
 30
0.0
 11
163.6212107364
 21
165.9222962771
 31
0.0
  0
LINE
  5
399
  8
COTATION
 10
124.8892393321
 20
138.9222962771
 30
0.0
 11
163.6212107364
 21
138.9222962771
 31
0.0
  0
LINE
  5
39A
  8
COTATION
 10
162.6212107364
 20
165.9222962771
 30
0.0
 11
162.6212107364
 21
138.9222962771
 31
0.0
  0
TEXT
  5
39B
  8
COTATION
 10
161.4907787129
 20
150.057927633
 30
0.0
 40
3.2
  1
27
 50
90.0
 41
0.7
 11
162.621210911
 21
150.057927633
 31
0.0
 73
     1
  0
ENDBLK
  5
395
  8
0
  0
BLOCK
  8
0
  2
_D_13
 70
     0
 10
0.0
 20
0.0
 30
0.0
  3
_D_13
  1

  0
SOLID
  5
3A0
  8
COTATION
 10
127.187336371
 20
139.8741992382
 30
0.0
 11
129.4773016818
 21
136.7760108764
 31
0.0
 12
130.2855247327
 22
137.5842339273
 32
0.0
 13
130.2855247327
 23
137.5842339273
 33
0.0
  0
LINE
  5
3A1
  8
COTATION
 10
127.187336371
 20
139.8741992382
 30
0.0
 11
153.3163781391
 21
113.74515747
 31
0.0
  0
LINE
  5
3A2
  8
COTATION
 10
127.187336371
 20
139.8741992382
 30
0.0
 11
124.8892393321
 21
142.1722962771
 31
0.0
  0
TEXT
  5
3A3
  8
COTATION
 10
139.1268650157
 20
129.5195878285
 30
0.0
 40
3.2
  1
R
 50
315.0
 41
0.7
 11
138.3275287427
 21
128.7202515555
 31
0.0
 73
     1
  0
TEXT
  5
3A4
  8
COTATION
 10
140.9559644933
 20
127.6904883509
 30
0.0
 40
3.2
  1
3,25
 50
315.0
 41
0.7
 11
140.1566282203
 21
126.8911520779
 31
0.0
 73
     1
  0
TEXT
  5
3A5
  8
COTATION
 10
146.8058738751
 20
121.8405789691
 30
0.0
 40
3.2
  1
 (8x)
 50
315.0
 41
0.7
 11
146.0065376021
 21
121.0412426961
 31
0.0
 73
     1
  0
ENDBLK
  5
39F
  8
0
  0
BLOCK
  8
0
  2
_D_14
 70
     0
 10
0.0
 20
0.0
 30
0.0
  3
_D_14
  1

  0
SOLID
  5
3AA
  8
COTATION
 10
108.9927927227
 20
161.7758496676
 30
0.0
 11
112.0909810845
 21
164.0658149785
 31
0.0
 12
111.2827580336
 22
164.8740380294
 32
0.0
 13
111.2827580336
 23
164.8740380294
 33
0.0
  0
LINE
  5
3AB
  8
COTATION
 10
108.9927927227
 20
161.7758496676
 30
0.0
 11
131.8946413243
 21
184.6776982693
 31
0.0
  0
LINE
  5
3AC
  8
COTATION
 10
108.9927927227
 20
161.7758496676
 30
0.0
 11
108.6392393321
 21
161.4222962771
 31
0.0
  0
TEXT
  5
3AD
  8
COTATION
 10
117.7962035269
 20
172.1559147878
 30
0.0
 40
3.2
  1
R
 50
45.0
 41
0.7
 11
118.5955397999
 21
171.3565785148
 31
0.0
 73
     1
  0
TEXT
  5
3AE
  8
COTATION
 10
119.6253030045
 20
173.9850142654
 30
0.0
 40
3.2
  1
0,5
 50
45.0
 41
0.7
 11
120.4246392774
 21
173.1856779924
 31
0.0
 73
     1
  0
TEXT
  5
3AF
  8
COTATION
 10
123.8033512849
 20
178.1630625457
 30
0.0
 40
3.2
  1
 (4x)
 50
45.0
 41
0.7
 11
124.6026875578
 21
177.3637262728
 31
0.0
 73
     1
  0
ENDBLK
  5
3A9
  8
0
  0
BLOCK
  8
0
  2
_D_15
 70
     0
 10
0.0
 20
0.0
 30
0.0
  3
_D_15
  1

  0
SOLID
  5
3B4
  8
COTATION
 10
93.1392393321
 20
193.9222962771
 30
0.0
 11
96.9492393321
 21
193.3507962771
 31
0.0
 12
96.9492393321
 22
194.4937962771
 32
0.0
 13
96.9492393321
 23
194.4937962771
 33
0.0
  0
SOLID
  5
3B5
  8
COTATION
 10
105.6392393321
 20
193.9222962771
 30
0.0
 11
101.8292393321
 21
194.4937962771
 31
0.0
 12
101.8292393321
 22
193.3507962771
 32
0.0
 13
101.8292393321
 23
193.3507962771
 33
0.0
  0
LINE
  5
3B6
  8
COTATION
 10
93.1392393321
 20
161.4222962771
 30
0.0
 11
93.1392393321
 21
194.9222962771
 31
0.0
  0
LINE
  5
3B7
  8
COTATION
 10
105.6392393321
 20
172.0593308604
 30
0.0
 11
105.6392393321
 21
194.9222962771
 31
0.0
  0
LINE
  5
3B8
  8
COTATION
 10
93.1392393321
 20
193.9222962771
 30
0.0
 11
76.3375289499
 21
193.9222962771
 31
0.0
  0
LINE
  5
3B9
  8
COTATION
 10
93.1392393321
 20
193.9222962771
 30
0.0
 11
105.6392393321
 21
193.9222962771
 31
0.0
  0
TEXT
  5
3BA
  8
COTATION
 10
76.3375289499
 20
195.0527283006
 30
-53.4
 40
3.2
  1
12,5
 41
0.7
 11
76.3375289499
 21
193.9222961024
 31
-53.4
 73
     1
  0
ENDBLK
  5
3B3
  8
0
  0
BLOCK
  8
0
  2
_D_16
 70
     0
 10
0.0
 20
0.0
 30
0.0
  3
_D_16
  1

  0
SOLID
  5
3BF
  8
COTATION
 10
118.1392393321
 20
193.9222962771
 30
0.0
 11
114.3292393321
 21
194.4937962771
 31
0.0
 12
114.3292393321
 22
193.3507962771
 32
0.0
 13
114.3292393321
 23
193.3507962771
 33
0.0
  0
SOLID
  5
3C0
  8
COTATION
 10
105.6392393321
 20
193.9222962771
 30
0.0
 11
109.4492393321
 21
193.3507962771
 31
0.0
 12
109.4492393321
 22
194.4937962771
 32
0.0
 13
109.4492393321
 23
194.4937962771
 33
0.0
  0
LINE
  5
3C1
  8
COTATION
 10
118.1392393321
 20
161.4222962771
 30
0.0
 11
118.1392393321
 21
194.9222962771
 31
0.0
  0
LINE
  5
3C2
  8
COTATION
 10
105.6392393321
 20
172.0593308604
 30
0.0
 11
105.6392393321
 21
194.9222962771
 31
0.0
  0
LINE
  5
3C3
  8
COTATION
 10
118.1392393321
 20
193.9222962771
 30
0.0
 11
148.8541213888
 21
193.9222962771
 31
0.0
  0
LINE
  5
3C4
  8
COTATION
 10
118.1392393321
 20
193.9222962771
 30
0.0
 11
105.6392393321
 21
193.9222962771
 31
0.0
  0
TEXT
  5
3C5
  8
COTATION
 10
137.9785657021
 20
195.0527283006
 30
-53.4
 40
3.2
  1
12,5
 50
0.0
 41
0.7
 11
137.9785657021
 21
193.9222961024
 31
-53.4
 73
     1
  0
ENDBLK
  5
3BE
  8
0
  0
BLOCK
  8
0
  2
_D_17
 70
     0
 10
0.0
 20
0.0
 30
0.0
  3
_D_17
  1

  0
SOLID
  5
3CA
  8
COTATION
 10
90.6392393321
 20
128.9222962771
 30
0.0
 11
86.8292393321
 21
129.4937962771
 31
0.0
 12
86.8292393321
 22
128.3507962771
 32
0.0
 13
86.8292393321
 23
128.3507962771
 33
0.0
  0
SOLID
  5
3CB
  8
COTATION
 10
95.6392393321
 20
128.9222962771
 30
0.0
 11
99.4492393321
 21
128.3507962771
 31
0.0
 12
99.4492393321
 22
129.4937962771
 32
0.0
 13
99.4492393321
 23
129.4937962771
 33
0.0
  0
LINE
  5
3CC
  8
COTATION
 10
90.6392393321
 20
142.1722962771
 30
0.0
 11
90.6392393321
 21
127.9222962771
 31
0.0
  0
LINE
  5
3CD
  8
COTATION
 10
95.6392393321
 20
142.1722962771
 30
0.0
 11
95.6392393321
 21
127.9222962771
 31
0.0
  0
LINE
  5
3CE
  8
COTATION
 10
90.6392393321
 20
128.9222962771
 30
0.0
 11
63.9735659865
 21
128.9222962771
 31
0.0
  0
LINE
  5
3CF
  8
COTATION
 10
90.6392393321
 20
128.9222962771
 30
0.0
 11
95.6392393321
 21
128.9222962771
 31
0.0
  0
LINE
  5
3D0
  8
COTATION
 10
95.6392393321
 20
128.9222962771
 30
0.0
 11
99.4392393321
 21
128.9222962771
 31
0.0
  0
TEXT
  5
3D1
  8
COTATION
 10
63.9735659865
 20
130.0527283006
 30
-53.4
 40
3.2
  1
(2x) =
 41
0.7
 11
63.9735659865
 21
128.9222961024
 31
-53.4
 73
     1
  0
TEXT
  5
3D2
  8
COTATION
 10
75.3024550436
 20
130.0527283006
 30
-53.4
 40
3.2
  1
5
 41
0.7
 11
75.3024550436
 21
128.9222961024
 31
-53.4
 73
     1
  0
TEXT
  5
3D3
  8
COTATION
 10
80.2668998299
 20
130.0527283006
 30
-53.4
 40
3.2
  1
=
 41
0.7
 11
80.2668998299
 21
128.9222961024
 31
-53.4
 73
     1
  0
ENDBLK
  5
3C9
  8
0
  0
BLOCK
  8
0
  2
_D_18
 70
     0
 10
0.0
 20
0.0
 30
0.0
  3
_D_18
  1

  0
SOLID
  5
3D8
  8
COTATION
 10
44.6392393321
 20
165.9222962771
 30
0.0
 11
45.2107393321
 21
169.7322962771
 31
0.0
 12
44.0677393321
 22
169.7322962771
 32
0.0
 13
44.0677393321
 23
169.7322962771
 33
0.0
  0
SOLID
  5
3D9
  8
COTATION
 10
44.6392393321
 20
156.4222962771
 30
0.0
 11
44.0677393321
 21
152.6122962771
 31
0.0
 12
45.2107393321
 22
152.6122962771
 32
0.0
 13
45.2107393321
 23
152.6122962771
 33
0.0
  0
LINE
  5
3DA
  8
COTATION
 10
68.9066544747
 20
165.9222962771
 30
0.0
 11
43.6392393321
 21
165.9222962771
 31
0.0
  0
LINE
  5
3DB
  8
COTATION
 10
88.1392393321
 20
156.4222962771
 30
0.0
 11
43.6392393321
 21
156.4222962771
 31
0.0
  0
LINE
  5
3DC
  8
COTATION
 10
44.6392393321
 20
165.9222962771
 30
0.0
 11
44.6392393321
 21
169.7222962771
 31
0.0
  0
LINE
  5
3DD
  8
COTATION
 10
44.6392393321
 20
165.9222962771
 30
0.0
 11
44.6392393321
 21
156.4222962771
 31
0.0
  0
LINE
  5
3DE
  8
COTATION
 10
44.6392393321
 20
156.4222962771
 30
0.0
 11
44.6392393321
 21
152.6222962771
 31
0.0
  0
TEXT
  5
3DF
  8
COTATION
 10
43.5088073086
 20
156.9167407069
 30
-53.4
 40
3.2
  1
9,5
 50
90.0
 41
0.7
 11
44.6392395067
 21
156.9167407069
 31
-53.4
 73
     1
  0
ENDBLK
  5
3D7
  8
0
  0
BLOCK
  8
0
  2
SW_CENTERMARKSYMBOL_1
 70
     0
 10
0.0
 20
0.0
 30
0.0
  3
SW_CENTERMARKSYMBOL_1
  1

  0
LINE
  5
3E3
  8
PV
 62
     0
 10
0.0
 20
0.0
 30
0.0
 11
0.0
 21
2.5
 31
0.0
  0
LINE
  5
3E4
  8
PV
 62
     0
 10
0.0
 20
0.0
 30
0.0
 11
-2.5
 21
0.0
 31
0.0
  0
LINE
  5
3E5
  8
PV
 62
     0
 10
0.0
 20
0.0
 30
0.0
 11
0.0
 21
-2.5
 31
0.0
  0
LINE
  5
3E6
  8
PV
 62
     0
 10
0.0
 20
0.0
 30
0.0
 11
2.5
 21
0.0
 31
0.0
  0
LINE
  5
3E7
  8
PV
 62
     0
 10
0.0
 20
2.5
 30
0.0
 11
0.0
 21
5.0
 31
0.0
  0
LINE
  5
3E8
  8
PV
 62
     0
 10
-2.5
 20
0.0
 30
0.0
 11
-5.0
 21
0.0
 31
0.0
  0
LINE
  5
3E9
  8
PV
 62
     0
 10
0.0
 20
-2.5
 30
0.0
 11
0.0
 21
-5.0
 31
0.0
  0
LINE
  5
3EA
  8
PV
 62
     0
 10
2.5
 20
0.0
 30
0.0
 11
5.0
 21
0.0
 31
0.0
  0
ENDBLK
  5
3E2
  8
0
  0
BLOCK
  8
0
  2
SW_CENTERMARKSYMBOL_2
 70
     0
 10
0.0
 20
0.0
 30
0.0
  3
SW_CENTERMARKSYMBOL_2
  1

  0
LINE
  5
3EF
  8
PV
 62
     0
 10
0.0
 20
0.0
 30
0.0
 11
0.0
 21
2.5
 31
0.0
  0
LINE
  5
3F0
  8
PV
 62
     0
 10
0.0
 20
0.0
 30
0.0
 11
-2.5
 21
0.0
 31
0.0
  0
LINE
  5
3F1
  8
PV
 62
     0
 10
0.0
 20
0.0
 30
0.0
 11
0.0
 21
-2.5
 31
0.0
  0
LINE
  5
3F2
  8
PV
 62
     0
 10
0.0
 20
0.0
 30
0.0
 11
2.5
 21
0.0
 31
0.0
  0
LINE
  5
3F3
  8
PV
 62
     0
 10
0.0
 20
2.5
 30
0.0
 11
0.0
 21
5.0
 31
0.0
  0
LINE
  5
3F4
  8
PV
 62
     0
 10
-2.5
 20
0.0
 30
0.0
 11
-5.0
 21
0.0
 31
0.0
  0
LINE
  5
3F5
  8
PV
 62
     0
 10
0.0
 20
-2.5
 30
0.0
 11
0.0
 21
-5.0
 31
0.0
  0
LINE
  5
3F6
  8
PV
 62
     0
 10
2.5
 20
0.0
 30
0.0
 11
5.0
 21
0.0
 31
0.0
  0
ENDBLK
  5
3EE
  8
0
  0
BLOCK
  8
0
  2
_D_19
 70
     0
 10
0.0
 20
0.0
 30
0.0
  3
_D_19
  1

  0
ARC
  5
436
  8
COTATION
 10
242.3329969266
 20
255.9583806452
 30
0.0
 40
2.539086864406841
 50
90.0
 51
270.0
  0
ARC
  5
437
  8
COTATION
 10
264.7270011639
 20
255.9583806452
 30
0.0
 40
2.539086864406841
 50
270.0
 51
90.0
  0
SOLID
  5
438
  8
COTATION
 10
239.7939100622
 20
277.5149729696
 30
0.0
 11
239.2224100622
 21
273.7049729696
 31
0.0
 12
240.3654100622
 22
273.7049729696
 32
0.0
 13
240.3654100622
 23
273.7049729696
 33
0.0
  0
SOLID
  5
439
  8
COTATION
 10
239.7939100622
 20
262.7149729696
 30
0.0
 11
240.3654100622
 21
266.5249729696
 31
0.0
 12
239.2224100622
 22
266.5249729696
 32
0.0
 13
239.2224100622
 23
266.5249729696
 33
0.0
  0
LINE
  5
43A
  8
COTATION
 10
242.3329969266
 20
258.4974675096
 30
0.0
 11
264.7270011639
 21
258.4974675096
 31
0.0
  0
LINE
  5
43B
  8
COTATION
 10
242.3329969266
 20
253.4192937808
 30
0.0
 11
264.7270011639
 21
253.4192937808
 31
0.0
  0
LINE
  5
43C
  8
COTATION
 10
219.6960477937
 20
277.5149729696
 30
0.0
 11
240.7939100622
 21
277.5149729696
 31
0.0
  0
LINE
  5
43D
  8
COTATION
 10
219.6960477937
 20
262.7149729696
 30
0.0
 11
240.7939100622
 21
262.7149729696
 31
0.0
  0
LINE
  5
43E
  8
COTATION
 10
267.2660880283
 20
253.4192937808
 30
0.0
 11
239.7939100622
 21
253.4192937808
 31
0.0
  0
LINE
  5
43F
  8
COTATION
 10
239.7939100622
 20
253.4192937808
 30
0.0
 11
239.7939100622
 21
262.7149729696
 31
0.0
  0
LINE
  5
440
  8
COTATION
 10
239.7939100622
 20
277.5149729696
 30
0.0
 11
239.7939100622
 21
262.7149729696
 31
0.0
  0
TEXT
  5
441
  8
COTATION
 10
243.9204969266
 20
254.5497257461
 30
0.0
 40
3.2
  1
%%c
 41
0.7
 11
243.9204969266
 21
253.419293548
 31
0.0
 73
     1
  0
TEXT
  5
442
  8
COTATION
 10
248.7445350622
 20
254.5497258043
 30
0.0
 40
3.2
  1
7,4
 41
0.7
 11
248.7445350622
 21
253.4192936062
 31
0.0
 73
     1
  0
TEXT
  5
443
  8
COTATION
 10
255.8331028588
 20
254.4940245926
 30
0.0
 40
2.4
  1
max.
 41
0.7
 11
255.8331028588
 21
253.646200444
 31
0.0
 73
     1
  0
ENDBLK
  5
435
  8
0
  0
BLOCK
  8
0
  2
_D_20
 70
     0
 10
0.0
 20
0.0
 30
0.0
  3
_D_20
  1

  0
SOLID
  5
449
  8
COTATION
 10
219.6960477937
 20
241.1149729696
 30
0.0
 11
215.8860477937
 21
241.6864729696
 31
0.0
 12
215.8860477937
 22
240.5434729696
 32
0.0
 13
215.8860477937
 23
240.5434729696
 33
0.0
  0
SOLID
  5
44A
  8
COTATION
 10
189.6960477937
 20
241.1149729696
 30
0.0
 11
193.5060477937
 21
240.5434729696
 31
0.0
 12
193.5060477937
 22
241.6864729696
 32
0.0
 13
193.5060477937
 23
241.6864729696
 33
0.0
  0
LINE
  5
44B
  8
COTATION
 10
219.6960477937
 20
262.7149729696
 30
0.0
 11
219.6960477937
 21
240.1149729696
 31
0.0
  0
LINE
  5
44C
  8
COTATION
 10
189.6960477937
 20
245.9290380627
 30
0.0
 11
189.6960477937
 21
240.1149729696
 31
0.0
  0
LINE
  5
44D
  8
COTATION
 10
219.6960477937
 20
241.1149729696
 30
0.0
 11
189.6960477937
 21
241.1149729696
 31
0.0
  0
TEXT
  5
44E
  8
COTATION
 10
202.3316791497
 20
242.2454049931
 30
0.0
 40
3.2
  1
15
 50
0.0
 41
0.7
 11
202.3316791497
 21
241.114972795
 31
0.0
 73
     1
  0
ENDBLK
  5
448
  8
0
  0
BLOCK
  8
0
  2
_D_21
 70
     0
 10
0.0
 20
0.0
 30
0.0
  3
_D_21
  1

  0
SOLID
  5
454
  8
COTATION
 10
229.6960477937
 20
274.1149729696
 30
0.0
 11
230.2675477937
 21
277.9249729696
 31
0.0
 12
229.1245477937
 22
277.9249729696
 32
0.0
 13
229.1245477937
 23
277.9249729696
 33
0.0
  0
SOLID
  5
455
  8
COTATION
 10
229.6960477937
 20
266.1149729696
 30
0.0
 11
229.1245477937
 21
262.3049729696
 31
0.0
 12
230.2675477937
 22
262.3049729696
 32
0.0
 13
230.2675477937
 23
262.3049729696
 33
0.0
  0
LINE
  5
456
  8
COTATION
 10
219.6960477937
 20
274.1149729696
 30
0.0
 11
230.6960477937
 21
274.1149729696
 31
0.0
  0
LINE
  5
457
  8
COTATION
 10
219.6960477937
 20
266.1149729696
 30
0.0
 11
230.6960477937
 21
266.1149729696
 31
0.0
  0
LINE
  5
458
  8
COTATION
 10
229.6960477937
 20
274.1149729696
 30
0.0
 11
229.6960477937
 21
277.9149729696
 31
0.0
  0
LINE
  5
459
  8
COTATION
 10
229.6960477937
 20
274.1149729696
 30
0.0
 11
229.6960477937
 21
266.1149729696
 31
0.0
  0
LINE
  5
45A
  8
COTATION
 10
229.6960477937
 20
266.1149729696
 30
0.0
 11
229.6960477937
 21
248.6957969371
 31
0.0
  0
TEXT
  5
45B
  8
COTATION
 10
228.5656157702
 20
250.2832969371
 30
0.0
 40
3.2
  1
M
 50
90.0
 41
0.7
 11
229.6960479683
 21
250.2832969371
 31
0.0
 73
     1
  0
TEXT
  5
45C
  8
COTATION
 10
228.5656157702
 20
254.1997079541
 30
0.0
 40
3.2
  1
4
 50
90.0
 41
0.7
 11
229.6960479683
 21
254.1997079541
 31
0.0
 73
     1
  0
ENDBLK
  5
453
  8
0
  0
BLOCK
  8
0
  2
_D_22
 70
     0
 10
0.0
 20
0.0
 30
0.0
  3
_D_22
  1

  0
SOLID
  5
462
  8
COTATION
 10
206.6960477937
 20
290.9591637169
 30
0.0
 11
202.8860477937
 21
291.5306637169
 31
0.0
 12
202.8860477937
 22
290.3876637169
 32
0.0
 13
202.8860477937
 23
290.3876637169
 33
0.0
  0
SOLID
  5
463
  8
COTATION
 10
219.6960477937
 20
290.9591637169
 30
0.0
 11
223.5060477937
 21
290.3876637169
 31
0.0
 12
223.5060477937
 22
291.5306637169
 32
0.0
 13
223.5060477937
 23
291.5306637169
 33
0.0
  0
LINE
  5
464
  8
COTATION
 10
206.6960477937
 20
274.1149729696
 30
0.0
 11
206.6960477937
 21
291.9591637169
 31
0.0
  0
LINE
  5
465
  8
COTATION
 10
219.6960477937
 20
277.5149729696
 30
0.0
 11
219.6960477937
 21
291.9591637169
 31
0.0
  0
LINE
  5
466
  8
COTATION
 10
206.6960477937
 20
290.9591637169
 30
0.0
 11
202.8960477937
 21
290.9591637169
 31
0.0
  0
LINE
  5
467
  8
COTATION
 10
206.6960477937
 20
290.9591637169
 30
0.0
 11
219.6960477937
 21
290.9591637169
 31
0.0
  0
LINE
  5
468
  8
COTATION
 10
219.6960477937
 20
290.9591637169
 30
0.0
 11
223.4960477937
 21
290.9591637169
 31
0.0
  0
TEXT
  5
469
  8
COTATION
 10
206.5612935564
 20
292.0895957404
 30
0.0
 40
3.2
  1
6,5
 50
360.0
 41
0.7
 11
206.5612935564
 21
290.9591635423
 31
0.0
 73
     1
  0
TEXT
  5
46A
  8
COTATION
 10
213.6498613531
 20
292.0338945288
 30
0.0
 40
2.4
  1
min.
 50
360.0
 41
0.7
 11
213.6498613531
 21
291.1860703802
 31
0.0
 73
     1
  0
ENDBLK
  5
461
  8
0
  0
BLOCK
  8
0
  2
SW_NOTE_6
 70
     0
 10
0.0
 20
0.0
 30
0.0
  3
SW_NOTE_6
  1

  0
TEXT
  5
46E
  8
NOTE
 62
     0
 10
0.0
 20
1.2364102167
 30
0.0
 40
3.5
  1
COUPE A-A 
 41
0.63
 11
0.0
 21
0.0
 31
0.0
 73
     1
  0
TEXT
  5
46F
  8
NOTE
 62
     0
 10
-0.7947925478
 20
-3.2892843137
 30
0.0
 40
3.5
  1
ECHELLE 2 : 1
 41
0.6192307692
 11
-0.7947925478
 21
-4.5256945305
 31
0.0
 73
     1
  0
ENDBLK
  5
46D
  8
0
  0
BLOCK
  8
0
  2
SW_NOTE_7
 70
     0
 10
0.0
 20
0.0
 30
0.0
  3
SW_NOTE_7
  1

  0
LINE
  5
475
  8
NOTE
 62
     0
 10
-12.2149943727
 20
49.1061466149
 30
0.0
 11
79.0985649493
 21
49.1061466149
 31
0.0
  0
LINE
  5
476
  8
NOTE
 62
     0
 10
79.0985649493
 20
49.1061466149
 30
0.0
 11
-12.2149943727
 21
49.1061466149
 31
0.0
  0
LINE
  5
477
  8
NOTE
 62
     0
 10
-12.2149943727
 20
49.1061466149
 30
0.0
 11
79.0985649493
 21
49.1061466149
 31
0.0
  0
LINE
  5
478
  8
NOTE
 62
     0
 10
79.0985649493
 20
49.1061466149
 30
0.0
 11
-12.2149943727
 21
49.1061466149
 31
0.0
  0
LINE
  5
479
  8
NOTE
 62
     0
 10
-12.2149943727
 20
49.1061466149
 30
0.0
 11
79.0985649493
 21
49.1061466149
 31
0.0
  0
LINE
  5
47A
  8
NOTE
 62
     0
 10
79.0985649493
 20
49.1061466149
 30
0.0
 11
-12.2149943727
 21
49.1061466149
 31
0.0
  0
TEXT
  5
47B
  8
NOTE
 62
     0
 10
-12.1346746755
 20
91.131405421
 30
0.0
 40
3.5
  1
Ecrou tubulaire à sertir M4 - Long. 15 mm
 41
0.6317073171
 11
-12.1346746755
 21
89.8949952043
 31
0.0
 73
     1
  0
TEXT
  5
47C
  8
NOTE
 62
     0
 10
-12.1346746755
 20
86.6057108905
 30
0.0
 40
3.5
  1
Crimping tubular nut M4 - Lgth. 15 mm 
 41
0.6263157895
 11
-12.1346746755
 21
85.3693006738
 31
0.0
 73
     1
  0
TEXT
  5
47D
  8
NOTE
 62
     0
 10
-12.1346746755
 20
82.0800163601
 30
0.0
 40
3.5
  1
Type :
 41
0.7
 11
-12.1346746755
 21
80.8436061434
 31
0.0
 73
     1
  0
TEXT
  5
47E
  8
NOTE
 62
     0
 10
-12.1346746755
 20
77.5543218296
 30
0.0
 40
3.5
  1
* CLIFA ABG 571-015-040-110
 41
0.6611111111
 11
-12.1346746755
 21
76.3179116129
 31
0.0
 73
     1
  0
TEXT
  5
47F
  8
NOTE
 62
     0
 10
-12.1346746755
 20
73.0286272992
 30
0.0
 40
3.5
  1
* or/ou PEM BSO-M4-15
 41
0.65
 11
-12.1346746755
 21
71.7922170825
 31
0.0
 73
     1
  0
TEXT
  5
480
  8
NOTE
 62
     0
 10
-12.1346746755
 20
68.5029327687
 30
0.0
 40
3.5
  1
* or equivalent in specified 
 41
0.6396551724
 11
-12.1346746755
 21
67.266522552
 31
0.0
 73
     1
  0
TEXT
  5
481
  8
NOTE
 62
     0
 10
-12.1346746755
 20
63.9772382383
 30
0.0
 40
3.5
  1
 dimensions here under
 41
0.6522727273
 11
-12.1346746755
 21
62.7408280215
 31
0.0
 73
     1
  0
TEXT
  5
482
  8
NOTE
 62
     0
 10
-12.1346746755
 20
59.4515437078
 30
0.0
 40
3.5
  1
* ou équivalent dans les dimensions 
 41
0.6416666667
 11
-12.1346746755
 21
58.2151334911
 31
0.0
 73
     1
  0
TEXT
  5
483
  8
NOTE
 62
     0
 10
-12.1346746755
 20
54.9258491773
 30
0.0
 40
3.5
  1
  spécifiées ci-dessous
 41
0.6543478261
 11
-12.1346746755
 21
53.6894389606
 31
0.0
 73
     1
  0
LINE
  5
484
  8
NOTE
 62
     0
 10
79.0985649493
 20
49.1061466149
 30
0.0
 11
0.0
 21
0.0
 31
0.0
  0
INSERT
  5
485
  8
NOTE
 62
     0
  2
_DOT
 10
0.0
 20
0.0
 30
81.2812192973
 41
1.143
 42
1.143
 50
211.8329292464
  0
ENDBLK
  5
474
  8
0
  0
BLOCK
  8
0
  2
SW_GTOL_1
 70
     0
 10
0.0
 20
0.0
 30
0.0
  3
SW_GTOL_1
  1

  0
LINE
  5
48A
  8
COTATION
 62
     0
 10
-1.5991163766
 20
5.7400001905
 30
0.0
 11
-1.5991163766
 21
-0.6599998095
 31
0.0
  0
LINE
  5
48B
  8
COTATION
 62
     0
 10
-1.5991163766
 20
-0.6599998095
 30
0.0
 11
12.2791166743
 21
-0.6599998095
 31
0.0
  0
LINE
  5
48C
  8
COTATION
 62
     0
 10
12.2791166743
 20
5.7400001905
 30
0.0
 11
-1.5991163766
 21
5.7400001905
 31
0.0
  0
LINE
  5
48D
  8
COTATION
 62
     0
 10
12.2791166743
 20
5.7400001905
 30
0.0
 11
12.2791166743
 21
-0.6599998095
 31
0.0
  0
LINE
  5
48E
  8
COTATION
 62
     0
 10
12.2791166743
 20
5.7400001905
 30
0.0
 11
12.2791166743
 21
-0.6599998095
 31
0.0
  0
LINE
  5
48F
  8
COTATION
 62
     0
 10
12.2791166743
 20
5.7400001905
 30
0.0
 11
12.2791166743
 21
-0.6599998095
 31
0.0
  0
LINE
  5
490
  8
COTATION
 62
     0
 10
12.2791166743
 20
5.7400001905
 30
0.0
 11
12.2791166743
 21
-0.6599998095
 31
0.0
  0
LINE
  5
491
  8
COTATION
 62
     0
 10
12.2791166743
 20
5.7400001905
 30
0.0
 11
12.2791166743
 21
-0.6599998095
 31
0.0
  0
TEXT
  5
492
  8
COTATION
 62
     0
 10
0.0
 20
1.1304321981
 30
0.0
 40
3.2
  1
No01
 41
0.7
 11
0.0
 21
0.0
 31
0.0
 73
     1
  0
ENDBLK
  5
489
  8
0
  0
BLOCK
  8
0
  2
SW_NOTE_8
 70
     0
 10
0.0
 20
0.0
 30
0.0
  3
SW_NOTE_8
  1

  0
TEXT
  5
4B4
  8
NOTE
 62
     0
 10
0.0
 20
1.2364102167
 30
0.0
 40
3.5
  1
Unfolded view - Scale 1/1
 41
0.644
 11
0.0
 21
0.0
 31
0.0
 73
     1
  0
TEXT
  5
4B5
  8
NOTE
 62
     0
 10
5.7531222701
 20
-3.2892843137
 30
0.0
 40
3.5
  1
Only for informations
 41
0.6666666667
 11
5.7531222701
 21
-4.5256945305
 31
0.0
 73
     1
  0
ENDBLK
  5
4B3
  8
0
  0
BLOCK
  8
0
  2
SW_CENTERMARKSYMBOL_3
 70
     0
 10
0.0
 20
0.0
 30
0.0
  3
SW_CENTERMARKSYMBOL_3
  1

  0
LINE
  5
4BA
  8
PV
 62
     0
 10
0.0
 20
0.0
 30
0.0
 11
0.0
 21
2.5
 31
0.0
  0
LINE
  5
4BB
  8
PV
 62
     0
 10
0.0
 20
0.0
 30
0.0
 11
-2.5
 21
0.0
 31
0.0
  0
LINE
  5
4BC
  8
PV
 62
     0
 10
0.0
 20
0.0
 30
0.0
 11
0.0
 21
-2.5
 31
0.0
  0
LINE
  5
4BD
  8
PV
 62
     0
 10
0.0
 20
0.0
 30
0.0
 11
2.5
 21
0.0
 31
0.0
  0
LINE
  5
4BE
  8
PV
 62
     0
 10
0.0
 20
5.0
 30
0.0
 11
0.0
 21
6.1
 31
0.0
  0
LINE
  5
4BF
  8
PV
 62
     0
 10
-5.0
 20
0.0
 30
0.0
 11
-6.1
 21
0.0
 31
0.0
  0
LINE
  5
4C0
  8
PV
 62
     0
 10
0.0
 20
-5.0
 30
0.0
 11
0.0
 21
-6.1
 31
0.0
  0
LINE
  5
4C1
  8
PV
 62
     0
 10
5.0
 20
0.0
 30
0.0
 11
6.1
 21
0.0
 31
0.0
  0
ENDBLK
  5
4B9
  8
0
  0
BLOCK
  8
0
  2
SW_CENTERMARKSYMBOL_4
 70
     0
 10
0.0
 20
0.0
 30
0.0
  3
SW_CENTERMARKSYMBOL_4
  1

  0
LINE
  5
4C6
  8
PV
 62
     0
 10
0.0
 20
0.0
 30
0.0
 11
0.0
 21
2.5
 31
0.0
  0
LINE
  5
4C7
  8
PV
 62
     0
 10
0.0
 20
0.0
 30
0.0
 11
-2.5
 21
0.0
 31
0.0
  0
LINE
  5
4C8
  8
PV
 62
     0
 10
0.0
 20
0.0
 30
0.0
 11
0.0
 21
-2.5
 31
0.0
  0
LINE
  5
4C9
  8
PV
 62
     0
 10
0.0
 20
0.0
 30
0.0
 11
2.5
 21
0.0
 31
0.0
  0
LINE
  5
4CA
  8
PV
 62
     0
 10
0.0
 20
5.0
 30
0.0
 11
0.0
 21
6.1
 31
0.0
  0
LINE
  5
4CB
  8
PV
 62
     0
 10
-5.0
 20
0.0
 30
0.0
 11
-6.1
 21
0.0
 31
0.0
  0
LINE
  5
4CC
  8
PV
 62
     0
 10
0.0
 20
-5.0
 30
0.0
 11
0.0
 21
-6.1
 31
0.0
  0
LINE
  5
4CD
  8
PV
 62
     0
 10
5.0
 20
0.0
 30
0.0
 11
6.1
 21
0.0
 31
0.0
  0
ENDBLK
  5
4C5
  8
0
  0
BLOCK
  8
0
  2
SW_CENTERMARKSYMBOL_5
 70
     0
 10
0.0
 20
0.0
 30
0.0
  3
SW_CENTERMARKSYMBOL_5
  1

  0
LINE
  5
4D2
  8
PV
 62
     0
 10
0.0
 20
0.0
 30
0.0
 11
0.0
 21
2.5
 31
0.0
  0
LINE
  5
4D3
  8
PV
 62
     0
 10
0.0
 20
0.0
 30
0.0
 11
-2.5
 21
0.0
 31
0.0
  0
LINE
  5
4D4
  8
PV
 62
     0
 10
0.0
 20
0.0
 30
0.0
 11
0.0
 21
-2.5
 31
0.0
  0
LINE
  5
4D5
  8
PV
 62
     0
 10
0.0
 20
0.0
 30
0.0
 11
2.5
 21
0.0
 31
0.0
  0
LINE
  5
4D6
  8
PV
 62
     0
 10
0.0
 20
5.0
 30
0.0
 11
0.0
 21
6.1
 31
0.0
  0
LINE
  5
4D7
  8
PV
 62
     0
 10
-5.0
 20
0.0
 30
0.0
 11
-6.1
 21
0.0
 31
0.0
  0
LINE
  5
4D8
  8
PV
 62
     0
 10
0.0
 20
-5.0
 30
0.0
 11
0.0
 21
-6.1
 31
0.0
  0
LINE
  5
4D9
  8
PV
 62
     0
 10
5.0
 20
0.0
 30
0.0
 11
6.1
 21
0.0
 31
0.0
  0
ENDBLK
  5
4D1
  8
0
  0
BLOCK
  8
0
  2
SW_CENTERMARKSYMBOL_6
 70
     0
 10
0.0
 20
0.0
 30
0.0
  3
SW_CENTERMARKSYMBOL_6
  1

  0
LINE
  5
4DE
  8
PV
 62
     0
 10
0.0
 20
0.0
 30
0.0
 11
0.0
 21
2.5
 31
0.0
  0
LINE
  5
4DF
  8
PV
 62
     0
 10
0.0
 20
0.0
 30
0.0
 11
-2.5
 21
0.0
 31
0.0
  0
LINE
  5
4E0
  8
PV
 62
     0
 10
0.0
 20
0.0
 30
0.0
 11
0.0
 21
-2.5
 31
0.0
  0
LINE
  5
4E1
  8
PV
 62
     0
 10
0.0
 20
0.0
 30
0.0
 11
2.5
 21
0.0
 31
0.0
  0
LINE
  5
4E2
  8
PV
 62
     0
 10
0.0
 20
5.0
 30
0.0
 11
0.0
 21
6.1
 31
0.0
  0
LINE
  5
4E3
  8
PV
 62
     0
 10
-5.0
 20
0.0
 30
0.0
 11
-6.1
 21
0.0
 31
0.0
  0
LINE
  5
4E4
  8
PV
 62
     0
 10
0.0
 20
-5.0
 30
0.0
 11
0.0
 21
-6.1
 31
0.0
  0
LINE
  5
4E5
  8
PV
 62
     0
 10
5.0
 20
0.0
 30
0.0
 11
6.1
 21
0.0
 31
0.0
  0
ENDBLK
  5
4DD
  8
0
  0
ENDSEC
  0
SECTION
  2
ENTITIES
  0
LINE
  5
58
  8
0
  6
CONTINUOUS
 62
     7
 10
293.5906613835
 20
10.8093412992
 30
0.0
 11
293.5906613835
 21
4.8093412992
 31
0.0
  0
LINE
  5
59
  8
SLD-0
 62
     9
 10
500.1426088032
 20
20.8499946885
 30
0.0
 11
500.1426088032
 21
10.8093412992
 31
0.0
  0
LINE
  5
5A
  8
LOGO1
 10
403.5338770577
 20
35.1649944438
 30
0.0
 11
407.8678555933
 21
35.1675367056
 31
0.0
  0
LINE
  5
5B
  8
LOGO2
 10
424.2584258818
 20
33.8043571944
 30
0.0
 11
420.6387664774
 21
25.3734542276
 31
0.0
  0
LINE
  5
5C
  8
LOGO1
 10
402.3860359355
 20
34.0162482557
 30
0.0
 11
402.3870279236
 21
29.095546115
 31
0.0
  0
LINE
  5
5D
  8
LOGO1
 10
404.8868857113
 20
33.3065980925
 30
0.0
 11
404.8868857113
 21
29.0957980943
 31
0.0
  0
LINE
  5
5E
  8
LOGO1
 10
406.8916179699
 20
33.3065980925
 30
0.0
 11
404.8868857113
 21
33.3065980925
 31
0.0
  0
LINE
  5
5F
  8
LOGO1
 10
407.5452377717
 20
25.4012555216
 30
0.0
 11
402.3733605461
 21
25.4012555216
 31
0.0
  0
LINE
  5
60
  8
LOGO1
 10
402.3733605461
 20
24.6702258189
 30
0.0
 11
402.3733605461
 21
25.4012555216
 31
0.0
  0
LINE
  5
61
  8
LOGO1
 62
   228
 10
408.3875585634
 20
30.4564436382
 30
0.0
 11
408.3875585634
 21
30.450471361
 31
0.0
  0
LINE
  5
62
  8
LOGO1
 62
   228
 10
403.5225799104
 20
23.521711184
 30
0.0
 11
407.6413684647
 21
23.5242377006
 31
0.0
  0
LINE
  5
63
  8
LOGO1
 10
412.5822793537
 20
27.1101307684
 30
0.0
 11
412.5937645022
 21
26.8264476002
 31
0.0
  0
LINE
  5
64
  8
LOGO1
 62
   228
 10
415.7691783622
 20
30.5151327471
 30
0.0
 11
415.7619427187
 21
33.2806416568
 31
0.0
  0
LINE
  5
65
  8
LOGO1
 62
   228
 10
415.7619427187
 20
33.2806416568
 30
0.0
 11
420.3192496444
 21
33.2806416568
 31
0.0
  0
LINE
  5
66
  8
LOGO1
 10
426.6990199416
 20
27.9947169066
 30
0.0
 11
427.2267625158
 21
27.9947169066
 31
0.0
  0
LINE
  5
67
  8
LOGO1
 62
   228
 10
420.3194523383
 20
35.1675374763
 30
0.0
 11
414.4198053121
 21
35.1688049786
 31
0.0
  0
LINE
  5
68
  8
LOGO1
 10
413.2710437098
 20
24.6678139377
 30
0.0
 11
413.2710437098
 21
34.0202901541
 31
0.0
  0
LINE
  5
69
  8
LOGO1
 62
   228
 10
431.7500553377
 20
25.1297184686
 30
0.0
 11
427.8713090486
 21
33.9360918478
 31
0.0
  0
LINE
  5
6A
  8
LOGO1
 62
   228
 10
427.5713169711
 20
27.6501624513
 30
0.0
 11
427.5713169711
 21
26.5040594815
 31
0.0
  0
LINE
  5
6B
  8
LOGO1
 62
   228
 10
427.5713169711
 20
26.5040594815
 30
0.0
 11
428.2673169708
 21
26.5040594815
 31
0.0
  0
LINE
  5
6C
  8
LOGO1
 62
   228
 10
428.6118714261
 20
26.1595050262
 30
0.0
 11
428.6118714261
 21
25.0122535415
 31
0.0
  0
LINE
  5
6D
  8
LOGO1
 62
   228
 10
428.6118714261
 20
25.0122535415
 30
0.0
 11
429.1605169704
 21
25.0122535415
 31
0.0
  0
LINE
  5
6E
  8
LOGO1
 62
   228
 10
429.5050714257
 20
24.6676990862
 30
0.0
 11
429.5050714257
 21
23.5182581888
 31
0.0
  0
LINE
  5
6F
  8
LOGO1
 62
   228
 10
429.5050714257
 20
23.5182581888
 30
0.0
 11
430.6989759435
 21
23.5182581888
 31
0.0
  0
LINE
  5
70
  8
PV
  6
CONTINUOUS
 62
     7
 10
584.5906613835
 20
10.8093412992
 30
0.0
 11
584.5906613835
 21
408.8093412992
 31
0.0
  0
LINE
  5
71
  8
PV
  6
CONTINUOUS
 62
     7
 10
12.5906613835
 20
10.8093412992
 30
0.0
 11
584.5906613835
 21
10.8093412992
 31
0.0
  0
LINE
  5
72
  8
LOGO1
 10
415.7691783622
 20
30.5151327471
 30
0.0
 11
417.4708345742
 21
30.5142152268
 31
0.0
  0
LINE
  5
73
  8
PV
  6
CONTINUOUS
 62
     7
 10
441.5906613835
 20
10.8093412992
 30
0.0
 11
441.5906613835
 21
4.8093412992
 31
0.0
  0
LINE
  5
74
  8
PV
  6
CONTINUOUS
 62
     7
 10
14.5240612644
 20
301.8093412992
 30
0.0
 11
6.5240612644
 21
301.8093412992
 31
0.0
  0
LINE
  5
75
  8
PV
  6
CONTINUOUS
 62
     7
 10
6.5240612644
 20
301.8093412992
 30
0.0
 11
13.5240612644
 21
299.8093412992
 31
0.0
  0
LINE
  5
76
  8
PV
  6
CONTINUOUS
 62
     7
 10
515.5906613835
 20
10.8093412992
 30
0.0
 11
515.5906613835
 21
4.8093412992
 31
0.0
  0
LINE
  5
77
  8
PV
  6
CONTINUOUS
 62
     7
 10
6.5240612644
 20
301.8093412992
 30
0.0
 11
13.5240612644
 21
302.8093412992
 31
0.0
  0
LINE
  5
78
  8
PV
  6
CONTINUOUS
 62
     7
 10
13.5240612644
 20
302.8093412992
 30
0.0
 11
13.5240612644
 21
299.8093412992
 31
0.0
  0
LINE
  5
79
  8
PV
  6
CONTINUOUS
 62
     7
 10
12.5906613835
 20
408.8093412992
 30
0.0
 11
584.5906613835
 21
408.8093412992
 31
0.0
  0
LINE
  5
7A
  8
PV
  6
CONTINUOUS
 62
     7
 10
590.734339184
 20
414.8955730658
 30
0.0
 11
590.734339184
 21
408.8955730658
 31
0.0
  0
LINE
  5
7B
  8
PV
  6
CONTINUOUS
 62
     7
 10
6.5240612644
 20
4.8093412992
 30
0.0
 11
12.5240612644
 21
4.8093412992
 31
0.0
  0
LINE
  5
7C
  8
PV
  6
CONTINUOUS
 62
     7
 10
378.5906613835
 20
11.8093412992
 30
0.0
 11
381.5906613835
 21
11.8093412992
 31
0.0
  0
LINE
  5
7D
  8
PV
  6
CONTINUOUS
 62
     7
 10
6.6677390649
 20
414.8955730658
 30
0.0
 11
6.6677390649
 21
408.8955730658
 31
0.0
  0
LINE
  5
7E
  8
PV
  6
CONTINUOUS
 62
     7
 10
380.5906613835
 20
4.8093412992
 30
0.0
 11
381.5906613835
 21
11.8093412992
 31
0.0
  0
LINE
  5
7F
  8
PV
  6
CONTINUOUS
 62
     7
 10
380.5906613835
 20
12.8093412992
 30
0.0
 11
380.5906613835
 21
4.8093412992
 31
0.0
  0
LINE
  5
80
  8
PV
  6
CONTINUOUS
 62
     7
 10
380.5906613835
 20
4.8093412992
 30
0.0
 11
378.5906613835
 21
11.8093412992
 31
0.0
  0
LINE
  5
81
  8
PV
  6
CONTINUOUS
 62
     7
 10
6.5240612644
 20
10.8093412992
 30
0.0
 11
6.5240612644
 21
4.8093412992
 31
0.0
  0
LINE
  5
82
  8
PV
  6
CONTINUOUS
 62
     7
 10
12.5906613835
 20
408.8093412992
 30
0.0
 11
12.5906613835
 21
10.8093412992
 31
0.0
  0
LINE
  5
83
  8
PV
  6
CONTINUOUS
 62
     7
 10
584.734339184
 20
414.8955730658
 30
0.0
 11
590.734339184
 21
414.8955730658
 31
0.0
  0
LINE
  5
84
  8
PV
  6
CONTINUOUS
 62
     7
 10
584.5906613835
 20
4.8093412992
 30
0.0
 11
590.5906613835
 21
4.8093412992
 31
0.0
  0
LINE
  5
85
  8
PV
  6
CONTINUOUS
 62
     7
 10
6.5240612644
 20
10.8093412992
 30
0.0
 11
6.5240612644
 21
4.8093412992
 31
0.0
  0
LINE
  5
86
  8
PV
  6
CONTINUOUS
 62
     7
 10
590.5906613835
 20
10.8093412992
 30
0.0
 11
590.5906613835
 21
4.8093412992
 31
0.0
  0
LINE
  5
87
  8
PV
  6
CONTINUOUS
 62
     7
 10
6.6677390649
 20
414.8955730658
 30
0.0
 11
12.6677390649
 21
414.8955730658
 31
0.0
  0
LINE
  5
88
  8
PV
  6
CONTINUOUS
 62
     7
 10
590.5906613835
 20
109.8093412992
 30
0.0
 11
584.5906613835
 21
109.8093412992
 31
0.0
  0
LINE
  5
89
  8
LOGO1
 10
415.7691783607
 20
25.3734542276
 30
0.0
 11
420.6387664774
 21
25.3734542276
 31
0.0
  0
LINE
  5
8A
  8
PV
  6
CONTINUOUS
 62
     7
 10
590.5906613835
 20
161.8093412992
 30
0.0
 11
584.5906613835
 21
161.8093412992
 31
0.0
  0
LINE
  5
8B
  8
PV
  6
CONTINUOUS
 62
     7
 10
590.5906613835
 20
301.8093412992
 30
0.0
 11
584.5906613835
 21
301.8093412992
 31
0.0
  0
LINE
  5
8C
  8
PV
  6
CONTINUOUS
 62
     7
 10
590.5906613835
 20
266.8093412992
 30
0.0
 11
584.5906613835
 21
266.8093412992
 31
0.0
  0
LINE
  5
8D
  8
PV
  6
CONTINUOUS
 62
     7
 10
590.5906613835
 20
319.8093412992
 30
0.0
 11
584.5906613835
 21
319.8093412992
 31
0.0
  0
LINE
  5
8E
  8
PV
  6
CONTINUOUS
 62
     7
 10
590.5906613835
 20
371.8093412992
 30
0.0
 11
584.5906613835
 21
371.8093412992
 31
0.0
  0
LINE
  5
8F
  8
LOGO1
 10
415.7691783607
 20
28.5355453154
 30
0.0
 11
417.4703011322
 21
28.5355453154
 31
0.0
  0
LINE
  5
90
  8
PV
  6
CONTINUOUS
 62
     7
 10
367.5906613835
 20
10.8093412992
 30
0.0
 11
367.5906613835
 21
4.8093412992
 31
0.0
  0
LINE
  5
91
  8
PV
  6
CONTINUOUS
 62
     7
 10
219.5906613835
 20
10.8093412992
 30
0.0
 11
219.5906613835
 21
4.8093412992
 31
0.0
  0
LINE
  5
92
  8
PV
  6
CONTINUOUS
 62
     7
 10
144.5906613835
 20
10.8093412992
 30
0.0
 11
144.5906613835
 21
4.8093412992
 31
0.0
  0
LINE
  5
93
  8
LOGO1
 10
415.7691783607
 20
25.3734542276
 30
0.0
 11
415.7691783607
 21
28.5355453154
 31
0.0
  0
LINE
  5
94
  8
SLD-0
 10
549.3382196402
 20
16.8499946885
 30
0.0
 11
584.5906613835
 21
16.8499946885
 31
0.0
  0
LINE
  5
95
  8
PV
  6
CONTINUOUS
 62
     7
 10
70.5906613835
 20
10.8093412992
 30
0.0
 11
70.5906613835
 21
4.8093412992
 31
0.0
  0
LINE
  5
96
  8
LOGO1
 10
426.6990199416
 20
27.9947169066
 30
0.0
 11
426.6990199416
 21
32.6189822514
 31
0.0
  0
LINE
  5
97
  8
LOGO1
 10
425.5637130114
 20
27.9947169066
 30
0.0
 11
425.5637130114
 21
32.6189822514
 31
0.0
  0
LINE
  5
98
  8
LOGO1
 10
424.6914159822
 20
26.5040594815
 30
0.0
 11
424.6914159822
 21
27.6501624513
 31
0.0
  0
LINE
  5
99
  8
LOGO1
 10
423.6509763787
 20
25.0122535415
 30
0.0
 11
423.6509763787
 21
26.1595050262
 31
0.0
  0
LINE
  5
9A
  8
PV
  6
CONTINUOUS
 62
     7
 10
515.734339184
 20
414.8955730658
 30
0.0
 11
515.734339184
 21
408.8955730658
 31
0.0
  0
LINE
  5
9B
  8
PV
  6
CONTINUOUS
 62
     7
 10
441.734339184
 20
414.8955730658
 30
0.0
 11
441.734339184
 21
408.8955730658
 31
0.0
  0
LINE
  5
9C
  8
PV
  6
CONTINUOUS
 62
     7
 10
70.734339184
 20
414.8955730658
 30
0.0
 11
70.734339184
 21
408.8955730658
 31
0.0
  0
LINE
  5
9D
  8
PV
  6
CONTINUOUS
 62
     7
 10
144.734339184
 20
414.8955730658
 30
0.0
 11
144.734339184
 21
408.8955730658
 31
0.0
  0
LINE
  5
9E
  8
PV
  6
CONTINUOUS
 62
     7
 10
219.734339184
 20
414.8955730658
 30
0.0
 11
219.734339184
 21
408.8955730658
 31
0.0
  0
LINE
  5
9F
  8
PV
  6
CONTINUOUS
 62
     7
 10
293.734339184
 20
414.8955730658
 30
0.0
 11
293.734339184
 21
408.8955730658
 31
0.0
  0
LINE
  5
A0
  8
PV
  6
CONTINUOUS
 62
     7
 10
367.734339184
 20
414.8955730658
 30
0.0
 11
367.734339184
 21
408.8955730658
 31
0.0
  0
LINE
  5
A1
  8
PV
  6
CONTINUOUS
 62
     7
 10
12.5240612644
 20
56.8093412992
 30
0.0
 11
6.5240612644
 21
56.8093412992
 31
0.0
  0
LINE
  5
A2
  8
PV
  6
CONTINUOUS
 62
     7
 10
12.5240612644
 20
371.8093412992
 30
0.0
 11
6.5240612644
 21
371.8093412992
 31
0.0
  0
LINE
  5
A3
  8
PV
  6
CONTINUOUS
 62
     7
 10
12.5240612644
 20
319.8093412992
 30
0.0
 11
6.5240612644
 21
319.8093412992
 31
0.0
  0
LINE
  5
A4
  8
PV
  6
CONTINUOUS
 62
     7
 10
12.5240612644
 20
266.8093412992
 30
0.0
 11
6.5240612644
 21
266.8093412992
 31
0.0
  0
LINE
  5
A5
  8
PV
  6
CONTINUOUS
 62
     7
 10
12.5240612644
 20
301.8093412992
 30
0.0
 11
6.5240612644
 21
301.8093412992
 31
0.0
  0
LINE
  5
A6
  8
PV
  6
CONTINUOUS
 62
     7
 10
12.5240612644
 20
161.8093412992
 30
0.0
 11
6.5240612644
 21
161.8093412992
 31
0.0
  0
LINE
  5
A7
  8
PV
  6
CONTINUOUS
 62
     7
 10
12.5240612644
 20
109.8093412992
 30
0.0
 11
6.5240612644
 21
109.8093412992
 31
0.0
  0
LINE
  5
A8
  8
PV
  6
CONTINUOUS
 62
     7
 10
9.5240612644
 20
301.8093412992
 30
0.0
 11
12.5240612644
 21
301.8093412992
 31
0.0
  0
LINE
  5
A9
  8
PV
  6
CONTINUOUS
 62
     7
 10
168.5906613835
 20
11.8093412992
 30
0.0
 11
171.5906613835
 21
11.8093412992
 31
0.0
  0
LINE
  5
AA
  8
PV
  6
CONTINUOUS
 62
     7
 10
170.5906613835
 20
4.8093412992
 30
0.0
 11
171.5906613835
 21
11.8093412992
 31
0.0
  0
LINE
  5
AB
  8
PV
  6
CONTINUOUS
 62
     7
 10
170.5906613835
 20
12.8093412992
 30
0.0
 11
170.5906613835
 21
4.8093412992
 31
0.0
  0
LINE
  5
AC
  8
PV
  6
CONTINUOUS
 62
     7
 10
170.5906613835
 20
4.8093412992
 30
0.0
 11
168.5906613835
 21
11.8093412992
 31
0.0
  0
LINE
  5
AD
  8
PV
  6
CONTINUOUS
 62
     7
 10
378.734339184
 20
407.8955730658
 30
0.0
 11
381.734339184
 21
407.8955730658
 31
0.0
  0
LINE
  5
AE
  8
PV
  6
CONTINUOUS
 62
     7
 10
380.734339184
 20
414.8955730658
 30
0.0
 11
381.734339184
 21
407.8955730658
 31
0.0
  0
LINE
  5
AF
  8
PV
  6
CONTINUOUS
 62
     7
 10
380.734339184
 20
405.8955730658
 30
0.0
 11
380.734339184
 21
414.8955730658
 31
0.0
  0
LINE
  5
B0
  8
PV
  6
CONTINUOUS
 62
     7
 10
380.734339184
 20
414.8955730658
 30
0.0
 11
378.734339184
 21
407.8955730658
 31
0.0
  0
LINE
  5
B1
  8
PV
  6
CONTINUOUS
 62
     7
 10
168.734339184
 20
407.8955730658
 30
0.0
 11
171.734339184
 21
407.8955730658
 31
0.0
  0
LINE
  5
B2
  8
PV
  6
CONTINUOUS
 62
     7
 10
170.734339184
 20
414.8955730658
 30
0.0
 11
171.734339184
 21
407.8955730658
 31
0.0
  0
LINE
  5
B3
  8
PV
  6
CONTINUOUS
 62
     7
 10
170.734339184
 20
405.8955730658
 30
0.0
 11
170.734339184
 21
414.8955730658
 31
0.0
  0
LINE
  5
B4
  8
PV
  6
CONTINUOUS
 62
     7
 10
170.734339184
 20
414.8955730658
 30
0.0
 11
168.734339184
 21
407.8955730658
 31
0.0
  0
LINE
  5
B5
  8
PV
  6
CONTINUOUS
 62
     7
 10
583.5906613835
 20
302.8093412992
 30
0.0
 11
583.5906613835
 21
299.8093412992
 31
0.0
  0
LINE
  5
B6
  8
PV
  6
CONTINUOUS
 62
     7
 10
590.5906613835
 20
301.8093412992
 30
0.0
 11
583.5906613835
 21
302.8093412992
 31
0.0
  0
LINE
  5
B7
  8
PV
  6
CONTINUOUS
 62
     7
 10
590.5906613835
 20
301.8093412992
 30
0.0
 11
583.5906613835
 21
299.8093412992
 31
0.0
  0
LINE
  5
B8
  8
PV
  6
CONTINUOUS
 62
     7
 10
581.5906613835
 20
301.8093412992
 30
0.0
 11
590.5906613835
 21
301.8093412992
 31
0.0
  0
LINE
  5
B9
  8
PV
  6
CONTINUOUS
 62
     7
 10
584.5906613835
 20
301.8093412992
 30
0.0
 11
590.5906613835
 21
301.8093412992
 31
0.0
  0
LINE
  5
BA
  8
SLD-0
 62
     9
 10
529.3382196402
 20
10.8093412992
 30
0.0
 11
529.3382196402
 21
20.8499946885
 31
0.0
  0
LINE
  5
BB
  8
SLD-0
 62
     9
 10
514.7426088032
 20
20.8499946885
 30
0.0
 11
514.7426088032
 21
10.8093412992
 31
0.0
  0
LINE
  5
BC
  8
0
  6
CONTINUOUS
 62
     9
 10
396.5906613835
 20
74.8499946885
 30
0.0
 11
584.5906613835
 21
74.8499946885
 31
0.0
  0
LINE
  5
BD
  8
SLD-0
 10
549.3382196402
 20
28.8499946885
 30
0.0
 11
584.5906613835
 21
28.8499946885
 31
0.0
  0
LINE
  5
BE
  8
PV
 62
     9
 10
396.5906613835
 20
69.8499946885
 30
0.0
 11
396.5906613835
 21
74.8499946885
 31
0.0
  0
LINE
  5
BF
  8
LOGO1
 10
422.7574318246
 20
23.5192990867
 30
0.0
 11
422.7574318246
 21
24.6676990862
 31
0.0
  0
LINE
  5
C0
  8
SLD-0
 62
     9
 10
549.3382196402
 20
24.8499946885
 30
0.0
 11
584.5906613835
 21
24.8499946885
 31
0.0
  0
LINE
  5
C1
  8
SLD-0
 62
     9
 10
529.3382196402
 20
17.4545662738
 30
0.0
 11
437.3382196402
 21
17.4545662738
 31
0.0
  0
LINE
  5
C2
  8
PV
 10
437.3382196402
 20
20.8499946885
 30
0.0
 11
549.3382196402
 21
20.8499946885
 31
0.0
  0
LINE
  5
C3
  8
PV
 10
549.3382196402
 20
10.8093412992
 30
0.0
 11
549.3382196402
 21
36.8499946885
 31
0.0
  0
LINE
  5
C4
  8
PV
 10
437.3382196402
 20
10.8093412992
 30
0.0
 11
437.3382196402
 21
36.8499946885
 31
0.0
  0
LINE
  5
C5
  8
PV
 62
     9
 10
437.3382196402
 20
24.8499946885
 30
0.0
 11
549.3382196402
 21
24.8499946885
 31
0.0
  0
LINE
  5
C6
  8
PV
 62
     9
 10
437.3382196402
 20
28.8499946885
 30
0.0
 11
549.3382196402
 21
28.8499946885
 31
0.0
  0
LINE
  5
C7
  8
PV
 62
     9
 10
564.2962645591
 20
16.8499946885
 30
0.0
 11
564.2962645591
 21
28.8499946885
 31
0.0
  0
LINE
  5
C8
  8
PV
 62
     9
 10
437.3382196402
 20
32.8499946885
 30
0.0
 11
584.5906613835
 21
32.8499946885
 31
0.0
  0
LINE
  5
C9
  8
PV
 62
     9
 10
491.5798242983
 20
24.8499946885
 30
0.0
 11
491.5798242983
 21
20.8499946885
 31
0.0
  0
LINE
  5
CA
  8
PV
 10
396.5906613835
 20
36.8499946885
 30
0.0
 11
584.5906613835
 21
36.8499946885
 31
0.0
  0
LINE
  5
CB
  8
PV
 62
     9
 10
396.5906613835
 20
40.8499946885
 30
0.0
 11
584.5906613835
 21
40.8499946885
 31
0.0
  0
LINE
  5
CC
  8
PV
 62
     9
 10
396.5906613835
 20
44.8499946885
 30
0.0
 11
584.5906613835
 21
44.8499946885
 31
0.0
  0
LINE
  5
CD
  8
PV
 62
     9
 10
396.5906613835
 20
48.8499946885
 30
0.0
 11
584.5906613835
 21
48.8499946885
 31
0.0
  0
LINE
  5
CE
  8
PV
 62
     9
 10
396.5906613835
 20
52.8499946885
 30
0.0
 11
584.5906613835
 21
52.8499946885
 31
0.0
  0
LINE
  5
CF
  8
PV
 62
     9
 10
396.5906613835
 20
56.8499946885
 30
0.0
 11
584.5906613835
 21
56.8499946885
 31
0.0
  0
LINE
  5
D0
  8
PV
 62
     9
 10
396.5906613835
 20
60.8499946885
 30
0.0
 11
584.5906613835
 21
60.8499946885
 31
0.0
  0
LINE
  5
D1
  8
PV
 10
396.5906613835
 20
69.8499946885
 30
0.0
 11
396.5906613835
 21
10.8297420728
 31
0.0
  0
LINE
  5
D2
  8
PV
 10
396.5906613835
 20
65.3499946885
 30
0.0
 11
584.5906613835
 21
65.3499946885
 31
0.0
  0
LINE
  5
D3
  8
PV
 10
396.5906613835
 20
69.8499946885
 30
0.0
 11
584.5906613835
 21
69.8499946885
 31
0.0
  0
LINE
  5
D4
  8
PV
 62
     9
 10
413.2384120988
 20
60.8499946885
 30
0.0
 11
413.2384120988
 21
36.8499946885
 31
0.0
  0
LINE
  5
D5
  8
PV
 62
     9
 10
423.201328272
 20
60.8499946885
 30
0.0
 11
423.201328272
 21
36.8499946885
 31
0.0
  0
LINE
  5
D6
  8
PV
 62
     9
 10
573.2462128811
 20
60.8499946885
 30
0.0
 11
573.2462128811
 21
36.8499946885
 31
0.0
  0
LINE
  5
D7
  8
PV
 62
     9
 10
562.2462128811
 20
60.8499946885
 30
0.0
 11
562.2462128811
 21
36.8499946885
 31
0.0
  0
LINE
  5
D8
  8
LOGO1
 10
414.4195585608
 20
23.5192990867
 30
0.0
 11
422.7574318246
 21
23.5192990867
 31
0.0
  0
LINE
  5
D9
  8
LOGO1
 10
425.0359704375
 20
27.9947169066
 30
0.0
 11
425.5637130114
 21
27.9947169066
 31
0.0
  0
LINE
  5
DA
  8
LOGO1
 10
423.995530834
 20
26.5040594815
 30
0.0
 11
424.6914159822
 21
26.5040594815
 31
0.0
  0
LINE
  5
DB
  8
LOGO1
 10
423.1019862799
 20
25.0122535415
 30
0.0
 11
423.6509763787
 21
25.0122535415
 31
0.0
  0
LINE
  5
DC
  8
LOGO1
 62
   151
 10
426.8455704368
 20
27.8987010651
 30
0.0
 11
426.9010437041
 21
27.9947169066
 31
0.0
  0
ARC
  5
DD
  8
LOGO1
 10
403.6369568048
 20
29.0957980943
 30
0.0
 40
1.249928906540163
 50
180.0115505333
 51
0.0
  0
ARC
  5
DE
  8
LOGO1
 10
429.1605169704
 20
24.6676990862
 30
0.0
 40
0.3445544553000559
 50
0.0
 51
90.0
  0
ARC
  5
DF
  8
LOGO1
 10
428.2673169708
 20
26.1595050262
 30
0.0
 40
0.3445544552999991
 50
0.0
 51
90.0
  0
ARC
  5
E0
  8
LOGO1
 10
427.2267625158
 20
27.6501624513
 30
0.0
 40
0.3445544552999991
 50
0.0
 51
90.0
  0
ARC
  5
E1
  8
LOGO1
 10
425.0359704375
 20
27.6501624513
 30
0.0
 40
0.3445544552999991
 50
90.0
 51
180.0
  0
ARC
  5
E2
  8
LOGO1
 10
423.995530834
 20
26.1595050262
 30
0.0
 40
0.3445544552999991
 50
90.0
 51
180.0
  0
ARC
  5
E3
  8
LOGO1
 10
423.1019862799
 20
24.6676990862
 30
0.0
 40
0.3445544553000559
 50
90.0
 51
180.0
  0
ARC
  5
E4
  8
LOGO1
 10
426.1313664765
 20
32.6189822514
 30
0.0
 40
0.5676534651068437
 50
0.0
 51
180.0
  0
ARC
  5
E5
  8
LOGO1
 10
420.3192496444
 20
34.2240895774
 30
0.0
 40
0.943447920606971
 50
270.0
 51
89.9876903601
  0
ARC
  5
E6
  8
LOGO1
 10
417.4703011322
 20
29.524880343
 30
0.0
 40
0.9893350275721563
 50
270.0
 51
89.969106545
  0
ARC
  5
E7
  8
LOGO1
 10
403.5345507631
 20
34.0164797904
 30
0.0
 40
1.148514851000051
 50
90.0336090389
 51
180.0115505333
  0
ARC
  5
E8
  8
LOGO1
 10
403.5218753971
 20
24.6702258189
 30
0.0
 40
1.148514851000016
 50
180.0
 51
270.0351459459
  0
ARC
  5
E9
  8
LOGO1
 10
414.4195585608
 20
34.0202901541
 30
0.0
 40
1.148514850999997
 50
89.9876903601
 51
180.0
  0
ARC
  5
EA
  8
LOGO1
 10
414.4195585608
 20
24.6678139377
 30
0.0
 40
1.148514850999984
 50
180.0
 51
270.0
  0
ARC
  5
EB
  8
LOGO1
 10
430.6989759435
 20
24.6667730398
 30
0.0
 40
1.148514850999991
 50
270.0
 51
23.7709783333
  0
POLYLINE
  5
EC
  8
LOGO1
 62
   228
 66
     1
 10
0.0
 20
0.0
 30
0.0
  0
VERTEX
  5
4E7
  8
LOGO1
 62
   228
 10
412.0152575717
 20
28.5484159163
 30
0.0
  0
VERTEX
  5
4E8
  8
LOGO1
 62
   228
 10
411.963593886
 20
28.6089239806
 30
0.0
  0
VERTEX
  5
4E9
  8
LOGO1
 62
   228
 10
411.9097285312
 20
28.6681882691
 30
0.0
  0
VERTEX
  5
4EA
  8
LOGO1
 62
   228
 10
411.853659962
 20
28.7262080341
 30
0.0
  0
VERTEX
  5
4EB
  8
LOGO1
 62
   228
 10
411.7953866331
 20
28.7829825278
 30
0.0
  0
VERTEX
  5
4EC
  8
LOGO1
 62
   228
 10
411.7349069992
 20
28.8385110026
 30
0.0
  0
VERTEX
  5
4ED
  8
LOGO1
 62
   228
 10
411.672219515
 20
28.8927927107
 30
0.0
  0
VERTEX
  5
4EE
  8
LOGO1
 62
   228
 10
411.6073226351
 20
28.9458269043
 30
0.0
  0
VERTEX
  5
4EF
  8
LOGO1
 62
   228
 10
411.5402148143
 20
28.9976128358
 30
0.0
  0
VERTEX
  5
4F0
  8
LOGO1
 62
   228
 10
411.4708945073
 20
29.0481497573
 30
0.0
  0
VERTEX
  5
4F1
  8
LOGO1
 62
   228
 10
411.3993601687
 20
29.0974369213
 30
0.0
  0
VERTEX
  5
4F2
  8
LOGO1
 62
   228
 10
411.3256102533
 20
29.1454735798
 30
0.0
  0
VERTEX
  5
4F3
  8
LOGO1
 62
   228
 10
411.2496432156
 20
29.1922589853
 30
0.0
  0
VERTEX
  5
4F4
  8
LOGO1
 62
   228
 10
411.1714575105
 20
29.23779239
 30
0.0
  0
VERTEX
  5
4F5
  8
LOGO1
 62
   228
 10
411.0910515926
 20
29.282073046
 30
0.0
  0
VERTEX
  5
4F6
  8
LOGO1
 62
   228
 10
411.0084239165
 20
29.3251002059
 30
0.0
  0
VERTEX
  5
4F7
  8
LOGO1
 62
   228
 10
410.9235729371
 20
29.3668731216
 30
0.0
  0
VERTEX
  5
4F8
  8
LOGO1
 62
   228
 10
410.8364971089
 20
29.4073910457
 30
0.0
  0
VERTEX
  5
4F9
  8
LOGO1
 62
   228
 10
410.7471948866
 20
29.4466532302
 30
0.0
  0
VERTEX
  5
4FA
  8
LOGO1
 62
   228
 10
410.655664725
 20
29.4846589276
 30
0.0
  0
VERTEX
  5
4FB
  8
LOGO1
 62
   228
 10
410.5619050788
 20
29.52140739
 30
0.0
  0
VERTEX
  5
4FC
  8
LOGO1
 62
   228
 10
410.4659144025
 20
29.5568978697
 30
0.0
  0
VERTEX
  5
4FD
  8
LOGO1
 62
   228
 10
410.367691151
 20
29.5911296191
 30
0.0
  0
VERTEX
  5
4FE
  8
LOGO1
 62
   228
 10
410.2672337789
 20
29.6241018903
 30
0.0
  0
VERTEX
  5
4FF
  8
LOGO1
 62
   228
 10
410.1645407408
 20
29.6558139356
 30
0.0
  0
SEQEND
  5
9BE
  8
LOGO1
 62
   228
  0
POLYLINE
  5
ED
  8
LOGO1
 62
   228
 66
     1
 10
0.0
 20
0.0
 30
0.0
  0
VERTEX
  5
500
  8
LOGO1
 62
   228
 10
410.1645407408
 20
29.6558139356
 30
0.0
  0
VERTEX
  5
501
  8
LOGO1
 62
   228
 10
410.3154592146
 20
29.7249054369
 30
0.0
  0
VERTEX
  5
502
  8
LOGO1
 62
   228
 10
410.4599533828
 20
29.7972579927
 30
0.0
  0
VERTEX
  5
503
  8
LOGO1
 62
   228
 10
410.5980234449
 20
29.8728713535
 30
0.0
  0
VERTEX
  5
504
  8
LOGO1
 62
   228
 10
410.7296696002
 20
29.9517452703
 30
0.0
  0
VERTEX
  5
505
  8
LOGO1
 62
   228
 10
410.8548920481
 20
30.0338794937
 30
0.0
  0
VERTEX
  5
506
  8
LOGO1
 62
   228
 10
410.973690988
 20
30.1192737745
 30
0.0
  0
VERTEX
  5
507
  8
LOGO1
 62
   228
 10
411.0860666194
 20
30.2079278635
 30
0.0
  0
VERTEX
  5
508
  8
LOGO1
 62
   228
 10
411.1920191416
 20
30.2998415114
 30
0.0
  0
VERTEX
  5
509
  8
LOGO1
 62
   228
 10
411.291548754
 20
30.395014469
 30
0.0
  0
VERTEX
  5
50A
  8
LOGO1
 62
   228
 10
411.384655656
 20
30.493446487
 30
0.0
  0
VERTEX
  5
50B
  8
LOGO1
 62
   228
 10
411.471340047
 20
30.5951373163
 30
0.0
  0
VERTEX
  5
50C
  8
LOGO1
 62
   228
 10
411.5516021264
 20
30.7000867074
 30
0.0
  0
VERTEX
  5
50D
  8
LOGO1
 62
   228
 10
411.6254420936
 20
30.8082944113
 30
0.0
  0
VERTEX
  5
50E
  8
LOGO1
 62
   228
 10
411.692860148
 20
30.9197601787
 30
0.0
  0
VERTEX
  5
50F
  8
LOGO1
 62
   228
 10
411.7538564889
 20
31.0344837602
 30
0.0
  0
VERTEX
  5
510
  8
LOGO1
 62
   228
 10
411.8084313159
 20
31.1524649067
 30
0.0
  0
VERTEX
  5
511
  8
LOGO1
 62
   228
 10
411.8565848282
 20
31.273703369
 30
0.0
  0
VERTEX
  5
512
  8
LOGO1
 62
   228
 10
411.8983172253
 20
31.3981988977
 30
0.0
  0
VERTEX
  5
513
  8
LOGO1
 62
   228
 10
411.9336287065
 20
31.5259512437
 30
0.0
  0
VERTEX
  5
514
  8
LOGO1
 62
   228
 10
411.9625194713
 20
31.6569601577
 30
0.0
  0
VERTEX
  5
515
  8
LOGO1
 62
   228
 10
411.984989719
 20
31.7912253905
 30
0.0
  0
VERTEX
  5
516
  8
LOGO1
 62
   228
 10
412.0010396491
 20
31.9287466927
 30
0.0
  0
VERTEX
  5
517
  8
LOGO1
 62
   228
 10
412.010669461
 20
32.0695238152
 30
0.0
  0
VERTEX
  5
518
  8
LOGO1
 62
   228
 10
412.0138793539
 20
32.2135565088
 30
0.0
  0
SEQEND
  5
9BD
  8
LOGO1
 62
   228
  0
POLYLINE
  5
EE
  8
LOGO1
 62
   228
 66
     1
 10
0.0
 20
0.0
 30
0.0
  0
VERTEX
  5
519
  8
LOGO1
 62
   228
 10
412.0138793539
 20
32.2135565088
 30
0.0
  0
VERTEX
  5
51A
  8
LOGO1
 62
   228
 10
412.0135753597
 20
32.2557936575
 30
0.0
  0
VERTEX
  5
51B
  8
LOGO1
 62
   228
 10
412.0126629119
 20
32.2978592269
 30
0.0
  0
VERTEX
  5
51C
  8
LOGO1
 62
   228
 10
412.0111413125
 20
32.3397527185
 30
0.0
  0
VERTEX
  5
51D
  8
LOGO1
 62
   228
 10
412.0090098636
 20
32.3814736338
 30
0.0
  0
VERTEX
  5
51E
  8
LOGO1
 62
   228
 10
412.0062678675
 20
32.4230214742
 30
0.0
  0
VERTEX
  5
51F
  8
LOGO1
 62
   228
 10
412.0029146262
 20
32.4643957413
 30
0.0
  0
VERTEX
  5
520
  8
LOGO1
 62
   228
 10
411.9989494418
 20
32.5055959367
 30
0.0
  0
VERTEX
  5
521
  8
LOGO1
 62
   228
 10
411.9943716165
 20
32.5466215618
 30
0.0
  0
VERTEX
  5
522
  8
LOGO1
 62
   228
 10
411.9891804523
 20
32.5874721182
 30
0.0
  0
VERTEX
  5
523
  8
LOGO1
 62
   228
 10
411.9833752514
 20
32.6281471072
 30
0.0
  0
VERTEX
  5
524
  8
LOGO1
 62
   228
 10
411.976955316
 20
32.6686460306
 30
0.0
  0
VERTEX
  5
525
  8
LOGO1
 62
   228
 10
411.969919948
 20
32.7089683898
 30
0.0
  0
VERTEX
  5
526
  8
LOGO1
 62
   228
 10
411.9622684497
 20
32.7491136862
 30
0.0
  0
VERTEX
  5
527
  8
LOGO1
 62
   228
 10
411.9540001231
 20
32.7890814214
 30
0.0
  0
VERTEX
  5
528
  8
LOGO1
 62
   228
 10
411.9451142704
 20
32.828871097
 30
0.0
  0
VERTEX
  5
529
  8
LOGO1
 62
   228
 10
411.9356101937
 20
32.8684822144
 30
0.0
  0
VERTEX
  5
52A
  8
LOGO1
 62
   228
 10
411.9254871951
 20
32.9079142751
 30
0.0
  0
VERTEX
  5
52B
  8
LOGO1
 62
   228
 10
411.9147445767
 20
32.9471667807
 30
0.0
  0
VERTEX
  5
52C
  8
LOGO1
 62
   228
 10
411.9033816407
 20
32.9862392327
 30
0.0
  0
VERTEX
  5
52D
  8
LOGO1
 62
   228
 10
411.8913976891
 20
33.0251311326
 30
0.0
  0
VERTEX
  5
52E
  8
LOGO1
 62
   228
 10
411.8787920242
 20
33.0638419818
 30
0.0
  0
VERTEX
  5
52F
  8
LOGO1
 62
   228
 10
411.8655639479
 20
33.102371282
 30
0.0
  0
VERTEX
  5
530
  8
LOGO1
 62
   228
 10
411.8517127624
 20
33.1407185345
 30
0.0
  0
VERTEX
  5
531
  8
LOGO1
 62
   228
 10
411.8372377698
 20
33.178883241
 30
0.0
  0
SEQEND
  5
9BC
  8
LOGO1
 62
   228
  0
POLYLINE
  5
EF
  8
LOGO1
 62
   228
 66
     1
 10
0.0
 20
0.0
 30
0.0
  0
VERTEX
  5
532
  8
LOGO1
 62
   228
 10
411.8372377698
 20
33.178883241
 30
0.0
  0
VERTEX
  5
533
  8
LOGO1
 62
   228
 10
411.8222075953
 20
33.2167747765
 30
0.0
  0
VERTEX
  5
534
  8
LOGO1
 62
   228
 10
411.8066331723
 20
33.2543894521
 30
0.0
  0
VERTEX
  5
535
  8
LOGO1
 62
   228
 10
411.7905134041
 20
33.2917279656
 30
0.0
  0
VERTEX
  5
536
  8
LOGO1
 62
   228
 10
411.7738471941
 20
33.3287910151
 30
0.0
  0
VERTEX
  5
537
  8
LOGO1
 62
   228
 10
411.7566334456
 20
33.3655792983
 30
0.0
  0
VERTEX
  5
538
  8
LOGO1
 62
   228
 10
411.738871062
 20
33.4020935132
 30
0.0
  0
VERTEX
  5
539
  8
LOGO1
 62
   228
 10
411.7205589464
 20
33.4383343577
 30
0.0
  0
VERTEX
  5
53A
  8
LOGO1
 62
   228
 10
411.7016960024
 20
33.4743025295
 30
0.0
  0
VERTEX
  5
53B
  8
LOGO1
 62
   228
 10
411.6822811331
 20
33.5099987267
 30
0.0
  0
VERTEX
  5
53C
  8
LOGO1
 62
   228
 10
411.662313242
 20
33.545423647
 30
0.0
  0
VERTEX
  5
53D
  8
LOGO1
 62
   228
 10
411.6417912324
 20
33.5805779884
 30
0.0
  0
VERTEX
  5
53E
  8
LOGO1
 62
   228
 10
411.6207140076
 20
33.6154624488
 30
0.0
  0
VERTEX
  5
53F
  8
LOGO1
 62
   228
 10
411.5990804708
 20
33.650077726
 30
0.0
  0
VERTEX
  5
540
  8
LOGO1
 62
   228
 10
411.5768895255
 20
33.6844245179
 30
0.0
  0
VERTEX
  5
541
  8
LOGO1
 62
   228
 10
411.554140075
 20
33.7185035224
 30
0.0
  0
VERTEX
  5
542
  8
LOGO1
 62
   228
 10
411.5308310226
 20
33.7523154374
 30
0.0
  0
VERTEX
  5
543
  8
LOGO1
 62
   228
 10
411.5069612717
 20
33.7858609607
 30
0.0
  0
VERTEX
  5
544
  8
LOGO1
 62
   228
 10
411.4825297254
 20
33.8191407903
 30
0.0
  0
VERTEX
  5
545
  8
LOGO1
 62
   228
 10
411.4575352873
 20
33.852155624
 30
0.0
  0
VERTEX
  5
546
  8
LOGO1
 62
   228
 10
411.4319768606
 20
33.8849061597
 30
0.0
  0
VERTEX
  5
547
  8
LOGO1
 62
   228
 10
411.4058533486
 20
33.9173930953
 30
0.0
  0
VERTEX
  5
548
  8
LOGO1
 62
   228
 10
411.3791636547
 20
33.9496171287
 30
0.0
  0
VERTEX
  5
549
  8
LOGO1
 62
   228
 10
411.3519066822
 20
33.9815789577
 30
0.0
  0
VERTEX
  5
54A
  8
LOGO1
 62
   228
 10
411.3240813344
 20
34.0132792803
 30
0.0
  0
SEQEND
  5
9BB
  8
LOGO1
 62
   228
  0
POLYLINE
  5
F0
  8
LOGO1
 62
   228
 66
     1
 10
0.0
 20
0.0
 30
0.0
  0
VERTEX
  5
54B
  8
LOGO1
 62
   228
 10
411.3240813344
 20
34.0132792803
 30
0.0
  0
VERTEX
  5
54C
  8
LOGO1
 62
   228
 10
411.2958565736
 20
34.0444248778
 30
0.0
  0
VERTEX
  5
54D
  8
LOGO1
 62
   228
 10
411.2672872086
 20
34.0751236812
 30
0.0
  0
VERTEX
  5
54E
  8
LOGO1
 62
   228
 10
411.2383731893
 20
34.105375142
 30
0.0
  0
VERTEX
  5
54F
  8
LOGO1
 62
   228
 10
411.2091144661
 20
34.1351787119
 30
0.0
  0
VERTEX
  5
550
  8
LOGO1
 62
   228
 10
411.179510989
 20
34.1645338425
 30
0.0
  0
VERTEX
  5
551
  8
LOGO1
 62
   228
 10
411.1495627082
 20
34.1934399857
 30
0.0
  0
VERTEX
  5
552
  8
LOGO1
 62
   228
 10
411.1192695739
 20
34.2218965929
 30
0.0
  0
VERTEX
  5
553
  8
LOGO1
 62
   228
 10
411.0886315362
 20
34.2499031159
 30
0.0
  0
VERTEX
  5
554
  8
LOGO1
 62
   228
 10
411.0576485452
 20
34.2774590064
 30
0.0
  0
VERTEX
  5
555
  8
LOGO1
 62
   228
 10
411.0263205512
 20
34.3045637159
 30
0.0
  0
VERTEX
  5
556
  8
LOGO1
 62
   228
 10
410.9946475042
 20
34.3312166962
 30
0.0
  0
VERTEX
  5
557
  8
LOGO1
 62
   228
 10
410.9626293544
 20
34.357417399
 30
0.0
  0
VERTEX
  5
558
  8
LOGO1
 62
   228
 10
410.9302660519
 20
34.3831652758
 30
0.0
  0
VERTEX
  5
559
  8
LOGO1
 62
   228
 10
410.897557547
 20
34.4084597784
 30
0.0
  0
VERTEX
  5
55A
  8
LOGO1
 62
   228
 10
410.8645037897
 20
34.4333003584
 30
0.0
  0
VERTEX
  5
55B
  8
LOGO1
 62
   228
 10
410.8311047303
 20
34.4576864675
 30
0.0
  0
VERTEX
  5
55C
  8
LOGO1
 62
   228
 10
410.7973603188
 20
34.4816175573
 30
0.0
  0
VERTEX
  5
55D
  8
LOGO1
 62
   228
 10
410.7632705054
 20
34.5050930796
 30
0.0
  0
VERTEX
  5
55E
  8
LOGO1
 62
   228
 10
410.7288352403
 20
34.5281124859
 30
0.0
  0
VERTEX
  5
55F
  8
LOGO1
 62
   228
 10
410.6940544737
 20
34.550675228
 30
0.0
  0
VERTEX
  5
560
  8
LOGO1
 62
   228
 10
410.6589281555
 20
34.5727807575
 30
0.0
  0
VERTEX
  5
561
  8
LOGO1
 62
   228
 10
410.6234562362
 20
34.594428526
 30
0.0
  0
VERTEX
  5
562
  8
LOGO1
 62
   228
 10
410.5876386656
 20
34.6156179853
 30
0.0
  0
VERTEX
  5
563
  8
LOGO1
 62
   228
 10
410.5514753941
 20
34.636348587
 30
0.0
  0
SEQEND
  5
9BA
  8
LOGO1
 62
   228
  0
POLYLINE
  5
F1
  8
LOGO1
 62
   228
 66
     1
 10
0.0
 20
0.0
 30
0.0
  0
VERTEX
  5
564
  8
LOGO1
 62
   228
 10
410.5514753941
 20
34.636348587
 30
0.0
  0
VERTEX
  5
565
  8
LOGO1
 62
   228
 10
410.5085123066
 20
34.6602866473
 30
0.0
  0
VERTEX
  5
566
  8
LOGO1
 62
   228
 10
410.4651002315
 20
34.6835756772
 30
0.0
  0
VERTEX
  5
567
  8
LOGO1
 62
   228
 10
410.4212376235
 20
34.7062150783
 30
0.0
  0
VERTEX
  5
568
  8
LOGO1
 62
   228
 10
410.3769229373
 20
34.7282042525
 30
0.0
  0
VERTEX
  5
569
  8
LOGO1
 62
   228
 10
410.3321546277
 20
34.7495426016
 30
0.0
  0
VERTEX
  5
56A
  8
LOGO1
 62
   228
 10
410.2869311492
 20
34.7702295275
 30
0.0
  0
VERTEX
  5
56B
  8
LOGO1
 62
   228
 10
410.2412509566
 20
34.7902644319
 30
0.0
  0
VERTEX
  5
56C
  8
LOGO1
 62
   228
 10
410.1951125047
 20
34.8096467167
 30
0.0
  0
VERTEX
  5
56D
  8
LOGO1
 62
   228
 10
410.148514248
 20
34.8283757837
 30
0.0
  0
VERTEX
  5
56E
  8
LOGO1
 62
   228
 10
410.1014546412
 20
34.8464510346
 30
0.0
  0
VERTEX
  5
56F
  8
LOGO1
 62
   228
 10
410.0539321391
 20
34.8638718714
 30
0.0
  0
VERTEX
  5
570
  8
LOGO1
 62
   228
 10
410.0059451964
 20
34.8806376958
 30
0.0
  0
VERTEX
  5
571
  8
LOGO1
 62
   228
 10
409.9574922676
 20
34.8967479096
 30
0.0
  0
VERTEX
  5
572
  8
LOGO1
 62
   228
 10
409.9085718076
 20
34.9122019147
 30
0.0
  0
VERTEX
  5
573
  8
LOGO1
 62
   228
 10
409.859182271
 20
34.9269991128
 30
0.0
  0
VERTEX
  5
574
  8
LOGO1
 62
   228
 10
409.8093221125
 20
34.9411389059
 30
0.0
  0
VERTEX
  5
575
  8
LOGO1
 62
   228
 10
409.7589897867
 20
34.9546206956
 30
0.0
  0
VERTEX
  5
576
  8
LOGO1
 62
   228
 10
409.7081837485
 20
34.9674438839
 30
0.0
  0
VERTEX
  5
577
  8
LOGO1
 62
   228
 10
409.6569024524
 20
34.9796078724
 30
0.0
  0
VERTEX
  5
578
  8
LOGO1
 62
   228
 10
409.6051443531
 20
34.9911120632
 30
0.0
  0
VERTEX
  5
579
  8
LOGO1
 62
   228
 10
409.5529079054
 20
35.0019558578
 30
0.0
  0
VERTEX
  5
57A
  8
LOGO1
 62
   228
 10
409.5001915639
 20
35.0121386583
 30
0.0
  0
VERTEX
  5
57B
  8
LOGO1
 62
   228
 10
409.4469937834
 20
35.0216598664
 30
0.0
  0
VERTEX
  5
57C
  8
LOGO1
 62
   228
 10
409.3933130184
 20
35.0305188838
 30
0.0
  0
SEQEND
  5
9B9
  8
LOGO1
 62
   228
  0
POLYLINE
  5
F2
  8
LOGO1
 62
   228
 66
     1
 10
0.0
 20
0.0
 30
0.0
  0
VERTEX
  5
57D
  8
LOGO1
 62
   228
 10
409.3933130184
 20
35.0305188838
 30
0.0
  0
VERTEX
  5
57E
  8
LOGO1
 62
   228
 10
409.3392044018
 20
35.0390313944
 30
0.0
  0
VERTEX
  5
57F
  8
LOGO1
 62
   228
 10
409.2842654547
 20
35.0475220214
 30
0.0
  0
VERTEX
  5
580
  8
LOGO1
 62
   228
 10
409.2284973238
 20
35.0559605066
 30
0.0
  0
VERTEX
  5
581
  8
LOGO1
 62
   228
 10
409.1719011556
 20
35.0643165919
 30
0.0
  0
VERTEX
  5
582
  8
LOGO1
 62
   228
 10
409.1144780966
 20
35.072560019
 30
0.0
  0
VERTEX
  5
583
  8
LOGO1
 62
   228
 10
409.0562292933
 20
35.0806605298
 30
0.0
  0
VERTEX
  5
584
  8
LOGO1
 62
   228
 10
408.9971558922
 20
35.0885878661
 30
0.0
  0
VERTEX
  5
585
  8
LOGO1
 62
   228
 10
408.9372590399
 20
35.0963117698
 30
0.0
  0
VERTEX
  5
586
  8
LOGO1
 62
   228
 10
408.8765398828
 20
35.1038019825
 30
0.0
  0
VERTEX
  5
587
  8
LOGO1
 62
   228
 10
408.8149995675
 20
35.1110282462
 30
0.0
  0
VERTEX
  5
588
  8
LOGO1
 62
   228
 10
408.7526392405
 20
35.1179603026
 30
0.0
  0
VERTEX
  5
589
  8
LOGO1
 62
   228
 10
408.6894600484
 20
35.1245678937
 30
0.0
  0
VERTEX
  5
58A
  8
LOGO1
 62
   228
 10
408.6254631376
 20
35.1308207611
 30
0.0
  0
VERTEX
  5
58B
  8
LOGO1
 62
   228
 10
408.5606496547
 20
35.1366886468
 30
0.0
  0
VERTEX
  5
58C
  8
LOGO1
 62
   228
 10
408.4950207462
 20
35.1421412925
 30
0.0
  0
VERTEX
  5
58D
  8
LOGO1
 62
   228
 10
408.4285775586
 20
35.1471484401
 30
0.0
  0
VERTEX
  5
58E
  8
LOGO1
 62
   228
 10
408.3613212384
 20
35.1516798313
 30
0.0
  0
VERTEX
  5
58F
  8
LOGO1
 62
   228
 10
408.2932529322
 20
35.155705208
 30
0.0
  0
VERTEX
  5
590
  8
LOGO1
 62
   228
 10
408.2243737865
 20
35.1591943121
 30
0.0
  0
VERTEX
  5
591
  8
LOGO1
 62
   228
 10
408.1546849478
 20
35.1621168852
 30
0.0
  0
VERTEX
  5
592
  8
LOGO1
 62
   228
 10
408.0841875626
 20
35.1644426694
 30
0.0
  0
VERTEX
  5
593
  8
LOGO1
 62
   228
 10
408.0128827774
 20
35.1661414062
 30
0.0
  0
VERTEX
  5
594
  8
LOGO1
 62
   228
 10
407.9407717388
 20
35.1671828377
 30
0.0
  0
VERTEX
  5
595
  8
LOGO1
 62
   228
 10
407.8678555933
 20
35.1675367056
 30
0.0
  0
SEQEND
  5
9B8
  8
LOGO1
 62
   228
  0
POLYLINE
  5
F3
  8
LOGO1
 62
   228
 66
     1
 10
0.0
 20
0.0
 30
0.0
  0
VERTEX
  5
596
  8
LOGO1
 62
   228
 10
406.8916179699
 20
33.3065980925
 30
0.0
  0
VERTEX
  5
597
  8
LOGO1
 62
   228
 10
407.0033868841
 20
33.3064374466
 30
0.0
  0
VERTEX
  5
598
  8
LOGO1
 62
   228
 10
407.1127515438
 20
33.3059158959
 30
0.0
  0
VERTEX
  5
599
  8
LOGO1
 62
   228
 10
407.2197112016
 20
33.3049740207
 30
0.0
  0
VERTEX
  5
59A
  8
LOGO1
 62
   228
 10
407.3242651095
 20
33.3035524012
 30
0.0
  0
VERTEX
  5
59B
  8
LOGO1
 62
   228
 10
407.4264125199
 20
33.3015916179
 30
0.0
  0
VERTEX
  5
59C
  8
LOGO1
 62
   228
 10
407.526152685
 20
33.2990322509
 30
0.0
  0
VERTEX
  5
59D
  8
LOGO1
 62
   228
 10
407.6234848572
 20
33.2958148806
 30
0.0
  0
VERTEX
  5
59E
  8
LOGO1
 62
   228
 10
407.7184082886
 20
33.2918800873
 30
0.0
  0
VERTEX
  5
59F
  8
LOGO1
 62
   228
 10
407.8109222316
 20
33.2871684514
 30
0.0
  0
VERTEX
  5
5A0
  8
LOGO1
 62
   228
 10
407.9010259384
 20
33.2816205531
 30
0.0
  0
VERTEX
  5
5A1
  8
LOGO1
 62
   228
 10
407.9887186614
 20
33.2751769727
 30
0.0
  0
VERTEX
  5
5A2
  8
LOGO1
 62
   228
 10
408.0739996526
 20
33.2677782905
 30
0.0
  0
VERTEX
  5
5A3
  8
LOGO1
 62
   228
 10
408.1568681645
 20
33.2593650869
 30
0.0
  0
VERTEX
  5
5A4
  8
LOGO1
 62
   228
 10
408.2373234493
 20
33.2498779422
 30
0.0
  0
VERTEX
  5
5A5
  8
LOGO1
 62
   228
 10
408.3153647593
 20
33.2392574366
 30
0.0
  0
VERTEX
  5
5A6
  8
LOGO1
 62
   228
 10
408.3909913467
 20
33.2274441504
 30
0.0
  0
VERTEX
  5
5A7
  8
LOGO1
 62
   228
 10
408.4642024637
 20
33.2143786641
 30
0.0
  0
VERTEX
  5
5A8
  8
LOGO1
 62
   228
 10
408.5349973628
 20
33.2000015579
 30
0.0
  0
VERTEX
  5
5A9
  8
LOGO1
 62
   228
 10
408.6033752961
 20
33.184253412
 30
0.0
  0
VERTEX
  5
5AA
  8
LOGO1
 62
   228
 10
408.669335516
 20
33.1670748069
 30
0.0
  0
VERTEX
  5
5AB
  8
LOGO1
 62
   228
 10
408.7328772746
 20
33.1484063227
 30
0.0
  0
VERTEX
  5
5AC
  8
LOGO1
 62
   228
 10
408.7939998242
 20
33.1281885399
 30
0.0
  0
VERTEX
  5
5AD
  8
LOGO1
 62
   228
 10
408.8527024172
 20
33.1063620387
 30
0.0
  0
VERTEX
  5
5AE
  8
LOGO1
 62
   228
 10
408.9089843057
 20
33.0828673995
 30
0.0
  0
SEQEND
  5
9B7
  8
LOGO1
 62
   228
  0
POLYLINE
  5
F4
  8
LOGO1
 62
   228
 66
     1
 10
0.0
 20
0.0
 30
0.0
  0
VERTEX
  5
5AF
  8
LOGO1
 62
   228
 10
408.9089843057
 20
33.0828673995
 30
0.0
  0
VERTEX
  5
5B0
  8
LOGO1
 62
   228
 10
408.9629519003
 20
33.0574617592
 30
0.0
  0
VERTEX
  5
5B1
  8
LOGO1
 62
   228
 10
409.014625805
 20
33.0299987618
 30
0.0
  0
VERTEX
  5
5B2
  8
LOGO1
 62
   228
 10
409.0640057707
 20
33.0004776099
 30
0.0
  0
VERTEX
  5
5B3
  8
LOGO1
 62
   228
 10
409.111091548
 20
32.9688975059
 30
0.0
  0
VERTEX
  5
5B4
  8
LOGO1
 62
   228
 10
409.1558828878
 20
32.9352576521
 30
0.0
  0
VERTEX
  5
5B5
  8
LOGO1
 62
   228
 10
409.1983795408
 20
32.8995572511
 30
0.0
  0
VERTEX
  5
5B6
  8
LOGO1
 62
   228
 10
409.2385812577
 20
32.8617955051
 30
0.0
  0
VERTEX
  5
5B7
  8
LOGO1
 62
   228
 10
409.2764877893
 20
32.8219716167
 30
0.0
  0
VERTEX
  5
5B8
  8
LOGO1
 62
   228
 10
409.3120988863
 20
32.7800847882
 30
0.0
  0
VERTEX
  5
5B9
  8
LOGO1
 62
   228
 10
409.3454142996
 20
32.7361342222
 30
0.0
  0
VERTEX
  5
5BA
  8
LOGO1
 62
   228
 10
409.3764337798
 20
32.6901191209
 30
0.0
  0
VERTEX
  5
5BB
  8
LOGO1
 62
   228
 10
409.4051570778
 20
32.6420386868
 30
0.0
  0
VERTEX
  5
5BC
  8
LOGO1
 62
   228
 10
409.4315839442
 20
32.5918921224
 30
0.0
  0
VERTEX
  5
5BD
  8
LOGO1
 62
   228
 10
409.4557141299
 20
32.53967863
 30
0.0
  0
VERTEX
  5
5BE
  8
LOGO1
 62
   228
 10
409.4775473856
 20
32.4853974121
 30
0.0
  0
VERTEX
  5
5BF
  8
LOGO1
 62
   228
 10
409.4970834621
 20
32.4290476711
 30
0.0
  0
VERTEX
  5
5C0
  8
LOGO1
 62
   228
 10
409.51432211
 20
32.3706286095
 30
0.0
  0
VERTEX
  5
5C1
  8
LOGO1
 62
   228
 10
409.5292630802
 20
32.3101394295
 30
0.0
  0
VERTEX
  5
5C2
  8
LOGO1
 62
   228
 10
409.5419061235
 20
32.2475793338
 30
0.0
  0
VERTEX
  5
5C3
  8
LOGO1
 62
   228
 10
409.5522509905
 20
32.1829475246
 30
0.0
  0
VERTEX
  5
5C4
  8
LOGO1
 62
   228
 10
409.560297432
 20
32.1162432044
 30
0.0
  0
VERTEX
  5
5C5
  8
LOGO1
 62
   228
 10
409.5660451988
 20
32.0474655756
 30
0.0
  0
VERTEX
  5
5C6
  8
LOGO1
 62
   228
 10
409.5694940417
 20
31.9766138407
 30
0.0
  0
VERTEX
  5
5C7
  8
LOGO1
 62
   228
 10
409.5706437114
 20
31.903687202
 30
0.0
  0
SEQEND
  5
9B6
  8
LOGO1
 62
   228
  0
POLYLINE
  5
F5
  8
LOGO1
 62
   228
 66
     1
 10
0.0
 20
0.0
 30
0.0
  0
VERTEX
  5
5C8
  8
LOGO1
 62
   228
 10
409.5706437114
 20
31.903687202
 30
0.0
  0
VERTEX
  5
5C9
  8
LOGO1
 62
   228
 10
409.5702736593
 20
31.8691832952
 30
0.0
  0
VERTEX
  5
5CA
  8
LOGO1
 62
   228
 10
409.5691644003
 20
31.8349556999
 30
0.0
  0
VERTEX
  5
5CB
  8
LOGO1
 62
   228
 10
409.5673172804
 20
31.8010043663
 30
0.0
  0
VERTEX
  5
5CC
  8
LOGO1
 62
   228
 10
409.5647336454
 20
31.7673292446
 30
0.0
  0
VERTEX
  5
5CD
  8
LOGO1
 62
   228
 10
409.5614148412
 20
31.7339302848
 30
0.0
  0
VERTEX
  5
5CE
  8
LOGO1
 62
   228
 10
409.5573622139
 20
31.7008074372
 30
0.0
  0
VERTEX
  5
5CF
  8
LOGO1
 62
   228
 10
409.5525771092
 20
31.6679606519
 30
0.0
  0
VERTEX
  5
5D0
  8
LOGO1
 62
   228
 10
409.5470608731
 20
31.635389879
 30
0.0
  0
VERTEX
  5
5D1
  8
LOGO1
 62
   228
 10
409.5408148516
 20
31.6030950688
 30
0.0
  0
VERTEX
  5
5D2
  8
LOGO1
 62
   228
 10
409.5338403904
 20
31.5710761712
 30
0.0
  0
VERTEX
  5
5D3
  8
LOGO1
 62
   228
 10
409.5261388357
 20
31.5393331366
 30
0.0
  0
VERTEX
  5
5D4
  8
LOGO1
 62
   228
 10
409.5177115332
 20
31.507865915
 30
0.0
  0
VERTEX
  5
5D5
  8
LOGO1
 62
   228
 10
409.5085598289
 20
31.4766744566
 30
0.0
  0
VERTEX
  5
5D6
  8
LOGO1
 62
   228
 10
409.4986850687
 20
31.4457587116
 30
0.0
  0
VERTEX
  5
5D7
  8
LOGO1
 62
   228
 10
409.4880885985
 20
31.4151186301
 30
0.0
  0
VERTEX
  5
5D8
  8
LOGO1
 62
   228
 10
409.4767717642
 20
31.3847541622
 30
0.0
  0
VERTEX
  5
5D9
  8
LOGO1
 62
   228
 10
409.4647359118
 20
31.3546652582
 30
0.0
  0
VERTEX
  5
5DA
  8
LOGO1
 62
   228
 10
409.4519823872
 20
31.3248518681
 30
0.0
  0
VERTEX
  5
5DB
  8
LOGO1
 62
   228
 10
409.4385125362
 20
31.2953139421
 30
0.0
  0
VERTEX
  5
5DC
  8
LOGO1
 62
   228
 10
409.4243277049
 20
31.2660514303
 30
0.0
  0
VERTEX
  5
5DD
  8
LOGO1
 62
   228
 10
409.409429239
 20
31.237064283
 30
0.0
  0
VERTEX
  5
5DE
  8
LOGO1
 62
   228
 10
409.3938184846
 20
31.2083524503
 30
0.0
  0
VERTEX
  5
5DF
  8
LOGO1
 62
   228
 10
409.3774967875
 20
31.1799158822
 30
0.0
  0
VERTEX
  5
5E0
  8
LOGO1
 62
   228
 10
409.3604654937
 20
31.151754529
 30
0.0
  0
SEQEND
  5
9B5
  8
LOGO1
 62
   228
  0
POLYLINE
  5
F6
  8
LOGO1
 62
   228
 66
     1
 10
0.0
 20
0.0
 30
0.0
  0
VERTEX
  5
5E1
  8
LOGO1
 62
   228
 10
409.3604654937
 20
31.151754529
 30
0.0
  0
VERTEX
  5
5E2
  8
LOGO1
 62
   228
 10
409.3377084246
 20
31.1129071607
 30
0.0
  0
VERTEX
  5
5E3
  8
LOGO1
 62
   228
 10
409.3141155418
 20
31.0751242623
 30
0.0
  0
VERTEX
  5
5E4
  8
LOGO1
 62
   228
 10
409.2896884903
 20
31.0384055346
 30
0.0
  0
VERTEX
  5
5E5
  8
LOGO1
 62
   228
 10
409.264428915
 20
31.0027506787
 30
0.0
  0
VERTEX
  5
5E6
  8
LOGO1
 62
   228
 10
409.2383384611
 20
30.9681593954
 30
0.0
  0
VERTEX
  5
5E7
  8
LOGO1
 62
   228
 10
409.2114187734
 20
30.9346313856
 30
0.0
  0
VERTEX
  5
5E8
  8
LOGO1
 62
   228
 10
409.1836714971
 20
30.9021663502
 30
0.0
  0
VERTEX
  5
5E9
  8
LOGO1
 62
   228
 10
409.155098277
 20
30.8707639901
 30
0.0
  0
VERTEX
  5
5EA
  8
LOGO1
 62
   228
 10
409.1257007583
 20
30.8404240063
 30
0.0
  0
VERTEX
  5
5EB
  8
LOGO1
 62
   228
 10
409.0954805859
 20
30.8111460996
 30
0.0
  0
VERTEX
  5
5EC
  8
LOGO1
 62
   228
 10
409.0644394048
 20
30.7829299709
 30
0.0
  0
VERTEX
  5
5ED
  8
LOGO1
 62
   228
 10
409.0325788601
 20
30.7557753213
 30
0.0
  0
VERTEX
  5
5EE
  8
LOGO1
 62
   228
 10
408.9999005968
 20
30.7296818515
 30
0.0
  0
VERTEX
  5
5EF
  8
LOGO1
 62
   228
 10
408.9664062598
 20
30.7046492624
 30
0.0
  0
VERTEX
  5
5F0
  8
LOGO1
 62
   228
 10
408.9320974941
 20
30.6806772551
 30
0.0
  0
VERTEX
  5
5F1
  8
LOGO1
 62
   228
 10
408.8969759449
 20
30.6577655303
 30
0.0
  0
VERTEX
  5
5F2
  8
LOGO1
 62
   228
 10
408.861043257
 20
30.6359137891
 30
0.0
  0
VERTEX
  5
5F3
  8
LOGO1
 62
   228
 10
408.8243010756
 20
30.6151217322
 30
0.0
  0
VERTEX
  5
5F4
  8
LOGO1
 62
   228
 10
408.7867510455
 20
30.5953890607
 30
0.0
  0
VERTEX
  5
5F5
  8
LOGO1
 62
   228
 10
408.7483948118
 20
30.5767154754
 30
0.0
  0
VERTEX
  5
5F6
  8
LOGO1
 62
   228
 10
408.7092340196
 20
30.5591006772
 30
0.0
  0
VERTEX
  5
5F7
  8
LOGO1
 62
   228
 10
408.6692703138
 20
30.542544367
 30
0.0
  0
VERTEX
  5
5F8
  8
LOGO1
 62
   228
 10
408.6285053394
 20
30.5270462458
 30
0.0
  0
VERTEX
  5
5F9
  8
LOGO1
 62
   228
 10
408.5869407415
 20
30.5126060144
 30
0.0
  0
SEQEND
  5
9B4
  8
LOGO1
 62
   228
  0
POLYLINE
  5
F7
  8
LOGO1
 62
   228
 66
     1
 10
0.0
 20
0.0
 30
0.0
  0
VERTEX
  5
5FA
  8
LOGO1
 62
   228
 10
408.5869407415
 20
30.5126060144
 30
0.0
  0
VERTEX
  5
5FB
  8
LOGO1
 62
   228
 10
408.5791930351
 20
30.5100469299
 30
0.0
  0
VERTEX
  5
5FC
  8
LOGO1
 62
   228
 10
408.5713973743
 20
30.507509081
 30
0.0
  0
VERTEX
  5
5FD
  8
LOGO1
 62
   228
 10
408.5635536592
 20
30.5049921685
 30
0.0
  0
VERTEX
  5
5FE
  8
LOGO1
 62
   228
 10
408.5556617903
 20
30.5024958934
 30
0.0
  0
VERTEX
  5
5FF
  8
LOGO1
 62
   228
 10
408.5477216678
 20
30.5000199566
 30
0.0
  0
VERTEX
  5
600
  8
LOGO1
 62
   228
 10
408.539733192
 20
30.497564059
 30
0.0
  0
VERTEX
  5
601
  8
LOGO1
 62
   228
 10
408.5316962633
 20
30.4951279015
 30
0.0
  0
VERTEX
  5
602
  8
LOGO1
 62
   228
 10
408.5236107819
 20
30.492711185
 30
0.0
  0
VERTEX
  5
603
  8
LOGO1
 62
   228
 10
408.5154766481
 20
30.4903136104
 30
0.0
  0
VERTEX
  5
604
  8
LOGO1
 62
   228
 10
408.5072937623
 20
30.4879348786
 30
0.0
  0
VERTEX
  5
605
  8
LOGO1
 62
   228
 10
408.4990620247
 20
30.4855746905
 30
0.0
  0
VERTEX
  5
606
  8
LOGO1
 62
   228
 10
408.4907813356
 20
30.4832327471
 30
0.0
  0
VERTEX
  5
607
  8
LOGO1
 62
   228
 10
408.4824515954
 20
30.4809087493
 30
0.0
  0
VERTEX
  5
608
  8
LOGO1
 62
   228
 10
408.4740727043
 20
30.4786023979
 30
0.0
  0
VERTEX
  5
609
  8
LOGO1
 62
   228
 10
408.4656445627
 20
30.4763133938
 30
0.0
  0
VERTEX
  5
60A
  8
LOGO1
 62
   228
 10
408.4571670709
 20
30.474041438
 30
0.0
  0
VERTEX
  5
60B
  8
LOGO1
 62
   228
 10
408.4486401291
 20
30.4717862314
 30
0.0
  0
VERTEX
  5
60C
  8
LOGO1
 62
   228
 10
408.4400636376
 20
30.4695474749
 30
0.0
  0
VERTEX
  5
60D
  8
LOGO1
 62
   228
 10
408.4314374968
 20
30.4673248693
 30
0.0
  0
VERTEX
  5
60E
  8
LOGO1
 62
   228
 10
408.422761607
 20
30.4651181157
 30
0.0
  0
VERTEX
  5
60F
  8
LOGO1
 62
   228
 10
408.4140358684
 20
30.4629269148
 30
0.0
  0
VERTEX
  5
610
  8
LOGO1
 62
   228
 10
408.4052601814
 20
30.4607509677
 30
0.0
  0
VERTEX
  5
611
  8
LOGO1
 62
   228
 10
408.3964344463
 20
30.4585899752
 30
0.0
  0
VERTEX
  5
612
  8
LOGO1
 62
   228
 10
408.3875585634
 20
30.4564436382
 30
0.0
  0
SEQEND
  5
9B3
  8
LOGO1
 62
   228
  0
POLYLINE
  5
F8
  8
LOGO1
 62
   228
 66
     1
 10
0.0
 20
0.0
 30
0.0
  0
VERTEX
  5
613
  8
LOGO1
 62
   228
 10
408.3875585634
 20
30.450471361
 30
0.0
  0
VERTEX
  5
614
  8
LOGO1
 62
   228
 10
408.3405551611
 20
30.4340273434
 30
0.0
  0
VERTEX
  5
615
  8
LOGO1
 62
   228
 10
408.294692896
 20
30.4151791214
 30
0.0
  0
VERTEX
  5
616
  8
LOGO1
 62
   228
 10
408.2500481365
 20
30.3939989755
 30
0.0
  0
VERTEX
  5
617
  8
LOGO1
 62
   228
 10
408.2066972507
 20
30.3705591865
 30
0.0
  0
VERTEX
  5
618
  8
LOGO1
 62
   228
 10
408.1647166069
 20
30.344932035
 30
0.0
  0
VERTEX
  5
619
  8
LOGO1
 62
   228
 10
408.1241825734
 20
30.3171898017
 30
0.0
  0
VERTEX
  5
61A
  8
LOGO1
 62
   228
 10
408.0851715184
 20
30.2874047672
 30
0.0
  0
VERTEX
  5
61B
  8
LOGO1
 62
   228
 10
408.0477598103
 20
30.2556492122
 30
0.0
  0
VERTEX
  5
61C
  8
LOGO1
 62
   228
 10
408.0120238172
 20
30.2219954174
 30
0.0
  0
VERTEX
  5
61D
  8
LOGO1
 62
   228
 10
407.9780399075
 20
30.1865156635
 30
0.0
  0
VERTEX
  5
61E
  8
LOGO1
 62
   228
 10
407.9458844494
 20
30.149282231
 30
0.0
  0
VERTEX
  5
61F
  8
LOGO1
 62
   228
 10
407.9156338111
 20
30.1103674008
 30
0.0
  0
VERTEX
  5
620
  8
LOGO1
 62
   228
 10
407.8873643609
 20
30.0698434533
 30
0.0
  0
VERTEX
  5
621
  8
LOGO1
 62
   228
 10
407.8611524672
 20
30.0277826694
 30
0.0
  0
VERTEX
  5
622
  8
LOGO1
 62
   228
 10
407.837074498
 20
29.9842573296
 30
0.0
  0
VERTEX
  5
623
  8
LOGO1
 62
   228
 10
407.8152068218
 20
29.9393397147
 30
0.0
  0
VERTEX
  5
624
  8
LOGO1
 62
   228
 10
407.7956258067
 20
29.8931021053
 30
0.0
  0
VERTEX
  5
625
  8
LOGO1
 62
   228
 10
407.7784078211
 20
29.8456167821
 30
0.0
  0
VERTEX
  5
626
  8
LOGO1
 62
   228
 10
407.7636292331
 20
29.7969560256
 30
0.0
  0
VERTEX
  5
627
  8
LOGO1
 62
   228
 10
407.7513664111
 20
29.7471921167
 30
0.0
  0
VERTEX
  5
628
  8
LOGO1
 62
   228
 10
407.7416957233
 20
29.696397336
 30
0.0
  0
VERTEX
  5
629
  8
LOGO1
 62
   228
 10
407.734693538
 20
29.644643964
 30
0.0
  0
VERTEX
  5
62A
  8
LOGO1
 62
   228
 10
407.7304362234
 20
29.5920042816
 30
0.0
  0
VERTEX
  5
62B
  8
LOGO1
 62
   228
 10
407.7290001478
 20
29.5385505693
 30
0.0
  0
SEQEND
  5
9B2
  8
LOGO1
 62
   228
  0
POLYLINE
  5
F9
  8
LOGO1
 62
   228
 66
     1
 10
0.0
 20
0.0
 30
0.0
  0
VERTEX
  5
62C
  8
LOGO1
 62
   228
 10
407.7290001478
 20
29.5385505693
 30
0.0
  0
VERTEX
  5
62D
  8
LOGO1
 62
   228
 10
407.7304362234
 20
29.4851076742
 30
0.0
  0
VERTEX
  5
62E
  8
LOGO1
 62
   228
 10
407.734693538
 20
29.4324719298
 30
0.0
  0
VERTEX
  5
62F
  8
LOGO1
 62
   228
 10
407.7416957233
 20
29.3807159159
 30
0.0
  0
VERTEX
  5
630
  8
LOGO1
 62
   228
 10
407.7513664111
 20
29.3299122122
 30
0.0
  0
VERTEX
  5
631
  8
LOGO1
 62
   228
 10
407.7636292331
 20
29.2801333985
 30
0.0
  0
VERTEX
  5
632
  8
LOGO1
 62
   228
 10
407.7784078211
 20
29.2314520546
 30
0.0
  0
VERTEX
  5
633
  8
LOGO1
 62
   228
 10
407.7956258067
 20
29.1839407602
 30
0.0
  0
VERTEX
  5
634
  8
LOGO1
 62
   228
 10
407.8152068218
 20
29.137672095
 30
0.0
  0
VERTEX
  5
635
  8
LOGO1
 62
   228
 10
407.837074498
 20
29.0927186388
 30
0.0
  0
VERTEX
  5
636
  8
LOGO1
 62
   228
 10
407.8611524672
 20
29.0491529714
 30
0.0
  0
VERTEX
  5
637
  8
LOGO1
 62
   228
 10
407.8873643609
 20
29.0070476726
 30
0.0
  0
VERTEX
  5
638
  8
LOGO1
 62
   228
 10
407.9156338111
 20
28.966475322
 30
0.0
  0
VERTEX
  5
639
  8
LOGO1
 62
   228
 10
407.9458844494
 20
28.9275084995
 30
0.0
  0
VERTEX
  5
63A
  8
LOGO1
 62
   228
 10
407.9780399075
 20
28.8902197848
 30
0.0
  0
VERTEX
  5
63B
  8
LOGO1
 62
   228
 10
408.0120238172
 20
28.8546817577
 30
0.0
  0
VERTEX
  5
63C
  8
LOGO1
 62
   228
 10
408.0477598103
 20
28.8209669979
 30
0.0
  0
VERTEX
  5
63D
  8
LOGO1
 62
   228
 10
408.0851715184
 20
28.7891480852
 30
0.0
  0
VERTEX
  5
63E
  8
LOGO1
 62
   228
 10
408.1241825734
 20
28.7592975993
 30
0.0
  0
VERTEX
  5
63F
  8
LOGO1
 62
   228
 10
408.1647166069
 20
28.7314881201
 30
0.0
  0
VERTEX
  5
640
  8
LOGO1
 62
   228
 10
408.2066972507
 20
28.7057922272
 30
0.0
  0
VERTEX
  5
641
  8
LOGO1
 62
   228
 10
408.2500481365
 20
28.6822825004
 30
0.0
  0
VERTEX
  5
642
  8
LOGO1
 62
   228
 10
408.294692896
 20
28.6610315194
 30
0.0
  0
VERTEX
  5
643
  8
LOGO1
 62
   228
 10
408.3405551611
 20
28.6421118642
 30
0.0
  0
VERTEX
  5
644
  8
LOGO1
 62
   228
 10
408.3875585634
 20
28.6255961143
 30
0.0
  0
SEQEND
  5
9B1
  8
LOGO1
 62
   228
  0
POLYLINE
  5
FA
  8
LOGO1
 62
   228
 66
     1
 10
0.0
 20
0.0
 30
0.0
  0
VERTEX
  5
645
  8
LOGO1
 62
   228
 10
408.3875585634
 20
28.6255961143
 30
0.0
  0
VERTEX
  5
646
  8
LOGO1
 62
   228
 10
408.3922930467
 20
28.6240299169
 30
0.0
  0
VERTEX
  5
647
  8
LOGO1
 62
   228
 10
408.3971648134
 20
28.6224323148
 30
0.0
  0
VERTEX
  5
648
  8
LOGO1
 62
   228
 10
408.4021738635
 20
28.6208033079
 30
0.0
  0
VERTEX
  5
649
  8
LOGO1
 62
   228
 10
408.407320197
 20
28.6191428964
 30
0.0
  0
VERTEX
  5
64A
  8
LOGO1
 62
   228
 10
408.412603814
 20
28.6174510802
 30
0.0
  0
VERTEX
  5
64B
  8
LOGO1
 62
   228
 10
408.4180247144
 20
28.6157278593
 30
0.0
  0
VERTEX
  5
64C
  8
LOGO1
 62
   228
 10
408.4235828981
 20
28.6139732337
 30
0.0
  0
VERTEX
  5
64D
  8
LOGO1
 62
   228
 10
408.4292783653
 20
28.6121872034
 30
0.0
  0
VERTEX
  5
64E
  8
LOGO1
 62
   228
 10
408.435111116
 20
28.6103697683
 30
0.0
  0
VERTEX
  5
64F
  8
LOGO1
 62
   228
 10
408.44108115
 20
28.6085209286
 30
0.0
  0
VERTEX
  5
650
  8
LOGO1
 62
   228
 10
408.4471884674
 20
28.6066406842
 30
0.0
  0
VERTEX
  5
651
  8
LOGO1
 62
   228
 10
408.4534330683
 20
28.6047290351
 30
0.0
  0
VERTEX
  5
652
  8
LOGO1
 62
   228
 10
408.4598149526
 20
28.6027859812
 30
0.0
  0
VERTEX
  5
653
  8
LOGO1
 62
   228
 10
408.4663341203
 20
28.6008115227
 30
0.0
  0
VERTEX
  5
654
  8
LOGO1
 62
   228
 10
408.4729905714
 20
28.5988056594
 30
0.0
  0
VERTEX
  5
655
  8
LOGO1
 62
   228
 10
408.4797843059
 20
28.5967683915
 30
0.0
  0
SEQEND
  5
9B0
  8
LOGO1
 62
   228
  0
POLYLINE
  5
FB
  8
LOGO1
 62
   228
 66
     1
 10
0.0
 20
0.0
 30
0.0
  0
VERTEX
  5
656
  8
LOGO1
 62
   228
 10
408.4797843059
 20
28.5967683915
 30
0.0
  0
VERTEX
  5
657
  8
LOGO1
 62
   228
 10
408.5264273185
 20
28.5884383605
 30
0.0
  0
VERTEX
  5
658
  8
LOGO1
 62
   228
 10
408.5724060468
 20
28.5796985231
 30
0.0
  0
VERTEX
  5
659
  8
LOGO1
 62
   228
 10
408.617717799
 20
28.5705470348
 30
0.0
  0
VERTEX
  5
65A
  8
LOGO1
 62
   228
 10
408.6623598834
 20
28.5609820512
 30
0.0
  0
VERTEX
  5
65B
  8
LOGO1
 62
   228
 10
408.706329608
 20
28.551001728
 30
0.0
  0
VERTEX
  5
65C
  8
LOGO1
 62
   228
 10
408.749624281
 20
28.5406042207
 30
0.0
  0
VERTEX
  5
65D
  8
LOGO1
 62
   228
 10
408.7922412107
 20
28.529787685
 30
0.0
  0
VERTEX
  5
65E
  8
LOGO1
 62
   228
 10
408.8341777051
 20
28.5185502764
 30
0.0
  0
VERTEX
  5
65F
  8
LOGO1
 62
   228
 10
408.8754310725
 20
28.5068901505
 30
0.0
  0
VERTEX
  5
660
  8
LOGO1
 62
   228
 10
408.9159986209
 20
28.494805463
 30
0.0
  0
VERTEX
  5
661
  8
LOGO1
 62
   228
 10
408.9558776586
 20
28.4822943693
 30
0.0
  0
VERTEX
  5
662
  8
LOGO1
 62
   228
 10
408.9950654938
 20
28.4693550252
 30
0.0
  0
VERTEX
  5
663
  8
LOGO1
 62
   228
 10
409.0335594346
 20
28.4559855862
 30
0.0
  0
VERTEX
  5
664
  8
LOGO1
 62
   228
 10
409.0713567892
 20
28.4421842079
 30
0.0
  0
VERTEX
  5
665
  8
LOGO1
 62
   228
 10
409.1084548657
 20
28.427949046
 30
0.0
  0
VERTEX
  5
666
  8
LOGO1
 62
   228
 10
409.1448509723
 20
28.4132782559
 30
0.0
  0
VERTEX
  5
667
  8
LOGO1
 62
   228
 10
409.1805424172
 20
28.3981699933
 30
0.0
  0
VERTEX
  5
668
  8
LOGO1
 62
   228
 10
409.2155265086
 20
28.3826224139
 30
0.0
  0
VERTEX
  5
669
  8
LOGO1
 62
   228
 10
409.2498005546
 20
28.3666336731
 30
0.0
  0
VERTEX
  5
66A
  8
LOGO1
 62
   228
 10
409.2833618633
 20
28.3502019266
 30
0.0
  0
VERTEX
  5
66B
  8
LOGO1
 62
   228
 10
409.3162077431
 20
28.33332533
 30
0.0
  0
VERTEX
  5
66C
  8
LOGO1
 62
   228
 10
409.3483355019
 20
28.3160020389
 30
0.0
  0
VERTEX
  5
66D
  8
LOGO1
 62
   228
 10
409.3797424481
 20
28.2982302089
 30
0.0
  0
VERTEX
  5
66E
  8
LOGO1
 62
   228
 10
409.4104258897
 20
28.2800079956
 30
0.0
  0
SEQEND
  5
9AF
  8
LOGO1
 62
   228
  0
POLYLINE
  5
FC
  8
LOGO1
 62
   228
 66
     1
 10
0.0
 20
0.0
 30
0.0
  0
VERTEX
  5
66F
  8
LOGO1
 62
   228
 10
409.4104258897
 20
28.2800079956
 30
0.0
  0
VERTEX
  5
670
  8
LOGO1
 62
   228
 10
409.4637158239
 20
28.2467101291
 30
0.0
  0
VERTEX
  5
671
  8
LOGO1
 62
   228
 10
409.5147352979
 20
28.2128732482
 30
0.0
  0
VERTEX
  5
672
  8
LOGO1
 62
   228
 10
409.5634845607
 20
28.1783938171
 30
0.0
  0
VERTEX
  5
673
  8
LOGO1
 62
   228
 10
409.6099638617
 20
28.1431683
 30
0.0
  0
VERTEX
  5
674
  8
LOGO1
 62
   228
 10
409.6541734501
 20
28.1070931611
 30
0.0
  0
VERTEX
  5
675
  8
LOGO1
 62
   228
 10
409.6961135752
 20
28.0700648645
 30
0.0
  0
VERTEX
  5
676
  8
LOGO1
 62
   228
 10
409.7357844862
 20
28.0319798744
 30
0.0
  0
VERTEX
  5
677
  8
LOGO1
 62
   228
 10
409.7731864322
 20
27.992734655
 30
0.0
  0
VERTEX
  5
678
  8
LOGO1
 62
   228
 10
409.8083196627
 20
27.9522256705
 30
0.0
  0
VERTEX
  5
679
  8
LOGO1
 62
   228
 10
409.8411844268
 20
27.9103493851
 30
0.0
  0
VERTEX
  5
67A
  8
LOGO1
 62
   228
 10
409.8717809738
 20
27.8670022629
 30
0.0
  0
VERTEX
  5
67B
  8
LOGO1
 62
   228
 10
409.9001095528
 20
27.8220807681
 30
0.0
  0
VERTEX
  5
67C
  8
LOGO1
 62
   228
 10
409.9261704133
 20
27.7754813648
 30
0.0
  0
VERTEX
  5
67D
  8
LOGO1
 62
   228
 10
409.9499638043
 20
27.7271005174
 30
0.0
  0
VERTEX
  5
67E
  8
LOGO1
 62
   228
 10
409.9714899751
 20
27.6768346898
 30
0.0
  0
VERTEX
  5
67F
  8
LOGO1
 62
   228
 10
409.9907491751
 20
27.6245803464
 30
0.0
  0
VERTEX
  5
680
  8
LOGO1
 62
   228
 10
410.0077416534
 20
27.5702339513
 30
0.0
  0
VERTEX
  5
681
  8
LOGO1
 62
   228
 10
410.0224676592
 20
27.5136919687
 30
0.0
  0
VERTEX
  5
682
  8
LOGO1
 62
   228
 10
410.0349274419
 20
27.4548508627
 30
0.0
  0
VERTEX
  5
683
  8
LOGO1
 62
   228
 10
410.0451212506
 20
27.3936070975
 30
0.0
  0
VERTEX
  5
684
  8
LOGO1
 62
   228
 10
410.0530493346
 20
27.3298571374
 30
0.0
  0
VERTEX
  5
685
  8
LOGO1
 62
   228
 10
410.0587119432
 20
27.2634974464
 30
0.0
  0
VERTEX
  5
686
  8
LOGO1
 62
   228
 10
410.0621093256
 20
27.1944244888
 30
0.0
  0
VERTEX
  5
687
  8
LOGO1
 62
   228
 10
410.063241731
 20
27.1225347288
 30
0.0
  0
SEQEND
  5
9AE
  8
LOGO1
 62
   228
  0
POLYLINE
  5
FD
  8
LOGO1
 62
   228
 66
     1
 10
0.0
 20
0.0
 30
0.0
  0
VERTEX
  5
688
  8
LOGO1
 62
   228
 10
410.063241731
 20
27.1225347288
 30
0.0
  0
VERTEX
  5
689
  8
LOGO1
 62
   228
 10
410.0588684766
 20
26.9820347818
 30
0.0
  0
VERTEX
  5
68A
  8
LOGO1
 62
   228
 10
410.0457490123
 20
26.8475197238
 30
0.0
  0
VERTEX
  5
68B
  8
LOGO1
 62
   228
 10
410.023883787
 20
26.7189890065
 30
0.0
  0
VERTEX
  5
68C
  8
LOGO1
 62
   228
 10
409.9932732492
 20
26.5964420814
 30
0.0
  0
VERTEX
  5
68D
  8
LOGO1
 62
   228
 10
409.9539178475
 20
26.4798784002
 30
0.0
  0
VERTEX
  5
68E
  8
LOGO1
 62
   228
 10
409.9058180306
 20
26.3692974147
 30
0.0
  0
VERTEX
  5
68F
  8
LOGO1
 62
   228
 10
409.8489742471
 20
26.2646985765
 30
0.0
  0
VERTEX
  5
690
  8
LOGO1
 62
   228
 10
409.7833869456
 20
26.1660813371
 30
0.0
  0
VERTEX
  5
691
  8
LOGO1
 62
   228
 10
409.7090565749
 20
26.0734451484
 30
0.0
  0
VERTEX
  5
692
  8
LOGO1
 62
   228
 10
409.6259835835
 20
25.986789462
 30
0.0
  0
VERTEX
  5
693
  8
LOGO1
 62
   228
 10
409.53416842
 20
25.9061137295
 30
0.0
  0
VERTEX
  5
694
  8
LOGO1
 62
   228
 10
409.4336115332
 20
25.8314174026
 30
0.0
  0
VERTEX
  5
695
  8
LOGO1
 62
   228
 10
409.3243133717
 20
25.7626999329
 30
0.0
  0
VERTEX
  5
696
  8
LOGO1
 62
   228
 10
409.206274384
 20
25.6999607722
 30
0.0
  0
VERTEX
  5
697
  8
LOGO1
 62
   228
 10
409.0794950188
 20
25.643199372
 30
0.0
  0
VERTEX
  5
698
  8
LOGO1
 62
   228
 10
408.9439757249
 20
25.5924151841
 30
0.0
  0
VERTEX
  5
699
  8
LOGO1
 62
   228
 10
408.7997169507
 20
25.5476076601
 30
0.0
  0
VERTEX
  5
69A
  8
LOGO1
 62
   228
 10
408.6467191449
 20
25.5087762517
 30
0.0
  0
VERTEX
  5
69B
  8
LOGO1
 62
   228
 10
408.4849827563
 20
25.4759204105
 30
0.0
  0
VERTEX
  5
69C
  8
LOGO1
 62
   228
 10
408.3145082334
 20
25.4490395883
 30
0.0
  0
VERTEX
  5
69D
  8
LOGO1
 62
   228
 10
408.1352960248
 20
25.4281332366
 30
0.0
  0
VERTEX
  5
69E
  8
LOGO1
 62
   228
 10
407.9473465792
 20
25.4132008071
 30
0.0
  0
VERTEX
  5
69F
  8
LOGO1
 62
   228
 10
407.7506603453
 20
25.4042417516
 30
0.0
  0
VERTEX
  5
6A0
  8
LOGO1
 62
   228
 10
407.5452377717
 20
25.4012555216
 30
0.0
  0
SEQEND
  5
9AD
  8
LOGO1
 62
   228
  0
POLYLINE
  5
FE
  8
LOGO1
 62
   228
 66
     1
 10
0.0
 20
0.0
 30
0.0
  0
VERTEX
  5
6A1
  8
LOGO1
 62
   228
 10
407.6413684647
 20
23.5242377006
 30
0.0
  0
VERTEX
  5
6A2
  8
LOGO1
 62
   228
 10
407.6828018358
 20
23.5242801052
 30
0.0
  0
VERTEX
  5
6A3
  8
LOGO1
 62
   228
 10
407.7240072985
 20
23.5244070533
 30
0.0
  0
VERTEX
  5
6A4
  8
LOGO1
 62
   228
 10
407.764985451
 20
23.5246181461
 30
0.0
  0
VERTEX
  5
6A5
  8
LOGO1
 62
   228
 10
407.8057368915
 20
23.5249129848
 30
0.0
  0
VERTEX
  5
6A6
  8
LOGO1
 62
   228
 10
407.846262218
 20
23.5252911705
 30
0.0
  0
VERTEX
  5
6A7
  8
LOGO1
 62
   228
 10
407.8865620289
 20
23.5257523045
 30
0.0
  0
VERTEX
  5
6A8
  8
LOGO1
 62
   228
 10
407.9266369223
 20
23.5262959881
 30
0.0
  0
VERTEX
  5
6A9
  8
LOGO1
 62
   228
 10
407.9664874964
 20
23.5269218223
 30
0.0
  0
VERTEX
  5
6AA
  8
LOGO1
 62
   228
 10
408.0061143494
 20
23.5276294085
 30
0.0
  0
VERTEX
  5
6AB
  8
LOGO1
 62
   228
 10
408.0455180795
 20
23.5284183478
 30
0.0
  0
VERTEX
  5
6AC
  8
LOGO1
 62
   228
 10
408.0846992848
 20
23.5292882415
 30
0.0
  0
VERTEX
  5
6AD
  8
LOGO1
 62
   228
 10
408.1236585635
 20
23.5302386907
 30
0.0
  0
VERTEX
  5
6AE
  8
LOGO1
 62
   228
 10
408.1623965138
 20
23.5312692966
 30
0.0
  0
VERTEX
  5
6AF
  8
LOGO1
 62
   228
 10
408.200913734
 20
23.5323796606
 30
0.0
  0
VERTEX
  5
6B0
  8
LOGO1
 62
   228
 10
408.2392108221
 20
23.5335693837
 30
0.0
  0
VERTEX
  5
6B1
  8
LOGO1
 62
   228
 10
408.2772883764
 20
23.5348380673
 30
0.0
  0
VERTEX
  5
6B2
  8
LOGO1
 62
   228
 10
408.3151469951
 20
23.5361853124
 30
0.0
  0
VERTEX
  5
6B3
  8
LOGO1
 62
   228
 10
408.3527872763
 20
23.5376107204
 30
0.0
  0
VERTEX
  5
6B4
  8
LOGO1
 62
   228
 10
408.3902098182
 20
23.5391138923
 30
0.0
  0
VERTEX
  5
6B5
  8
LOGO1
 62
   228
 10
408.427415219
 20
23.5406944296
 30
0.0
  0
VERTEX
  5
6B6
  8
LOGO1
 62
   228
 10
408.464404077
 20
23.5423519332
 30
0.0
  0
VERTEX
  5
6B7
  8
LOGO1
 62
   228
 10
408.5011769902
 20
23.5440860046
 30
0.0
  0
VERTEX
  5
6B8
  8
LOGO1
 62
   228
 10
408.5377345568
 20
23.5458962447
 30
0.0
  0
VERTEX
  5
6B9
  8
LOGO1
 62
   228
 10
408.5740773752
 20
23.547782255
 30
0.0
  0
SEQEND
  5
9AC
  8
LOGO1
 62
   228
  0
POLYLINE
  5
FF
  8
LOGO1
 62
   228
 66
     1
 10
0.0
 20
0.0
 30
0.0
  0
VERTEX
  5
6BA
  8
LOGO1
 62
   228
 10
427.8713090486
 20
33.9360918478
 30
0.0
  0
VERTEX
  5
6BB
  8
LOGO1
 62
   228
 10
427.8590026505
 20
33.9636210359
 30
0.0
  0
VERTEX
  5
6BC
  8
LOGO1
 62
   228
 10
427.8464609165
 20
33.9909942474
 30
0.0
  0
VERTEX
  5
6BD
  8
LOGO1
 62
   228
 10
427.8336841956
 20
34.0182122299
 30
0.0
  0
VERTEX
  5
6BE
  8
LOGO1
 62
   228
 10
427.8206728367
 20
34.0452757311
 30
0.0
  0
VERTEX
  5
6BF
  8
LOGO1
 62
   228
 10
427.8074271887
 20
34.0721854989
 30
0.0
  0
VERTEX
  5
6C0
  8
LOGO1
 62
   228
 10
427.7939476006
 20
34.0989422809
 30
0.0
  0
VERTEX
  5
6C1
  8
LOGO1
 62
   228
 10
427.7802344214
 20
34.1255468249
 30
0.0
  0
VERTEX
  5
6C2
  8
LOGO1
 62
   228
 10
427.7662879999
 20
34.1519998785
 30
0.0
  0
VERTEX
  5
6C3
  8
LOGO1
 62
   228
 10
427.7521086851
 20
34.1783021896
 30
0.0
  0
VERTEX
  5
6C4
  8
LOGO1
 62
   228
 10
427.737696826
 20
34.2044545058
 30
0.0
  0
VERTEX
  5
6C5
  8
LOGO1
 62
   228
 10
427.7230527715
 20
34.2304575749
 30
0.0
  0
VERTEX
  5
6C6
  8
LOGO1
 62
   228
 10
427.7081768705
 20
34.2563121447
 30
0.0
  0
VERTEX
  5
6C7
  8
LOGO1
 62
   228
 10
427.693069472
 20
34.2820189628
 30
0.0
  0
VERTEX
  5
6C8
  8
LOGO1
 62
   228
 10
427.6777309249
 20
34.307578777
 30
0.0
  0
VERTEX
  5
6C9
  8
LOGO1
 62
   228
 10
427.6621615781
 20
34.3329923349
 30
0.0
  0
VERTEX
  5
6CA
  8
LOGO1
 62
   228
 10
427.6463617807
 20
34.3582603845
 30
0.0
  0
VERTEX
  5
6CB
  8
LOGO1
 62
   228
 10
427.6303318815
 20
34.3833836733
 30
0.0
  0
VERTEX
  5
6CC
  8
LOGO1
 62
   228
 10
427.6140722294
 20
34.4083629491
 30
0.0
  0
VERTEX
  5
6CD
  8
LOGO1
 62
   228
 10
427.5975831735
 20
34.4331989596
 30
0.0
  0
VERTEX
  5
6CE
  8
LOGO1
 62
   228
 10
427.5808650627
 20
34.4578924526
 30
0.0
  0
VERTEX
  5
6CF
  8
LOGO1
 62
   228
 10
427.5639182459
 20
34.4824441758
 30
0.0
  0
VERTEX
  5
6D0
  8
LOGO1
 62
   228
 10
427.546743072
 20
34.506854877
 30
0.0
  0
VERTEX
  5
6D1
  8
LOGO1
 62
   228
 10
427.52933989
 20
34.5311253038
 30
0.0
  0
VERTEX
  5
6D2
  8
LOGO1
 62
   228
 10
427.5117090488
 20
34.555256204
 30
0.0
  0
SEQEND
  5
9AB
  8
LOGO1
 62
   228
  0
POLYLINE
  5
100
  8
LOGO1
 62
   228
 66
     1
 10
0.0
 20
0.0
 30
0.0
  0
VERTEX
  5
6D3
  8
LOGO1
 62
   228
 10
427.5117090488
 20
34.555256204
 30
0.0
  0
VERTEX
  5
6D4
  8
LOGO1
 62
   228
 10
427.4935515723
 20
34.5790490467
 30
0.0
  0
VERTEX
  5
6D5
  8
LOGO1
 62
   228
 10
427.4749408214
 20
34.6024772458
 30
0.0
  0
VERTEX
  5
6D6
  8
LOGO1
 62
   228
 10
427.455875749
 20
34.6255410508
 30
0.0
  0
VERTEX
  5
6D7
  8
LOGO1
 62
   228
 10
427.4363553084
 20
34.6482407107
 30
0.0
  0
VERTEX
  5
6D8
  8
LOGO1
 62
   228
 10
427.4163784529
 20
34.6705764749
 30
0.0
  0
VERTEX
  5
6D9
  8
LOGO1
 62
   228
 10
427.3959441355
 20
34.6925485925
 30
0.0
  0
VERTEX
  5
6DA
  8
LOGO1
 62
   228
 10
427.3750513094
 20
34.7141573129
 30
0.0
  0
VERTEX
  5
6DB
  8
LOGO1
 62
   228
 10
427.3536989278
 20
34.7354028852
 30
0.0
  0
VERTEX
  5
6DC
  8
LOGO1
 62
   228
 10
427.331885944
 20
34.7562855588
 30
0.0
  0
VERTEX
  5
6DD
  8
LOGO1
 62
   228
 10
427.309611311
 20
34.7768055828
 30
0.0
  0
VERTEX
  5
6DE
  8
LOGO1
 62
   228
 10
427.286873982
 20
34.7969632065
 30
0.0
  0
VERTEX
  5
6DF
  8
LOGO1
 62
   228
 10
427.2636729103
 20
34.8167586791
 30
0.0
  0
VERTEX
  5
6E0
  8
LOGO1
 62
   228
 10
427.2400070489
 20
34.8361922499
 30
0.0
  0
VERTEX
  5
6E1
  8
LOGO1
 62
   228
 10
427.2158753512
 20
34.8552641682
 30
0.0
  0
VERTEX
  5
6E2
  8
LOGO1
 62
   228
 10
427.1912767701
 20
34.8739746831
 30
0.0
  0
VERTEX
  5
6E3
  8
LOGO1
 62
   228
 10
427.1662102591
 20
34.8923240439
 30
0.0
  0
VERTEX
  5
6E4
  8
LOGO1
 62
   228
 10
427.1406747711
 20
34.9103124999
 30
0.0
  0
VERTEX
  5
6E5
  8
LOGO1
 62
   228
 10
427.1146692593
 20
34.9279403003
 30
0.0
  0
VERTEX
  5
6E6
  8
LOGO1
 62
   228
 10
427.0881926771
 20
34.9452076944
 30
0.0
  0
VERTEX
  5
6E7
  8
LOGO1
 62
   228
 10
427.0612439775
 20
34.9621149313
 30
0.0
  0
VERTEX
  5
6E8
  8
LOGO1
 62
   228
 10
427.0338221137
 20
34.9786622604
 30
0.0
  0
VERTEX
  5
6E9
  8
LOGO1
 62
   228
 10
427.0059260388
 20
34.9948499309
 30
0.0
  0
VERTEX
  5
6EA
  8
LOGO1
 62
   228
 10
426.9775547062
 20
35.0106781919
 30
0.0
  0
VERTEX
  5
6EB
  8
LOGO1
 62
   228
 10
426.9487070688
 20
35.0261472929
 30
0.0
  0
SEQEND
  5
9AA
  8
LOGO1
 62
   228
  0
POLYLINE
  5
101
  8
LOGO1
 62
   228
 66
     1
 10
0.0
 20
0.0
 30
0.0
  0
VERTEX
  5
6EC
  8
LOGO1
 62
   228
 10
426.9487070688
 20
35.0261472929
 30
0.0
  0
VERTEX
  5
6ED
  8
LOGO1
 62
   228
 10
426.9193816729
 20
35.0410073586
 30
0.0
  0
VERTEX
  5
6EE
  8
LOGO1
 62
   228
 10
426.8894629774
 20
35.0552378846
 30
0.0
  0
VERTEX
  5
6EF
  8
LOGO1
 62
   228
 10
426.8589510819
 20
35.0688386218
 30
0.0
  0
VERTEX
  5
6F0
  8
LOGO1
 62
   228
 10
426.8278460861
 20
35.0818093207
 30
0.0
  0
VERTEX
  5
6F1
  8
LOGO1
 62
   228
 10
426.7961480898
 20
35.0941497323
 30
0.0
  0
VERTEX
  5
6F2
  8
LOGO1
 62
   228
 10
426.7638571927
 20
35.1058596072
 30
0.0
  0
VERTEX
  5
6F3
  8
LOGO1
 62
   228
 10
426.7309734944
 20
35.1169386962
 30
0.0
  0
VERTEX
  5
6F4
  8
LOGO1
 62
   228
 10
426.6974970946
 20
35.1273867501
 30
0.0
  0
VERTEX
  5
6F5
  8
LOGO1
 62
   228
 10
426.6634280931
 20
35.1372035196
 30
0.0
  0
VERTEX
  5
6F6
  8
LOGO1
 62
   228
 10
426.6287665895
 20
35.1463887555
 30
0.0
  0
VERTEX
  5
6F7
  8
LOGO1
 62
   228
 10
426.5935126835
 20
35.1549422085
 30
0.0
  0
VERTEX
  5
6F8
  8
LOGO1
 62
   228
 10
426.5576664749
 20
35.1628636295
 30
0.0
  0
VERTEX
  5
6F9
  8
LOGO1
 62
   228
 10
426.5212280633
 20
35.170152769
 30
0.0
  0
VERTEX
  5
6FA
  8
LOGO1
 62
   228
 10
426.4841975485
 20
35.176809378
 30
0.0
  0
VERTEX
  5
6FB
  8
LOGO1
 62
   228
 10
426.4465750301
 20
35.1828332071
 30
0.0
  0
VERTEX
  5
6FC
  8
LOGO1
 62
   228
 10
426.4083606077
 20
35.1882240071
 30
0.0
  0
VERTEX
  5
6FD
  8
LOGO1
 62
   228
 10
426.3695543812
 20
35.1929815289
 30
0.0
  0
VERTEX
  5
6FE
  8
LOGO1
 62
   228
 10
426.3301564503
 20
35.197105523
 30
0.0
  0
VERTEX
  5
6FF
  8
LOGO1
 62
   228
 10
426.2901669145
 20
35.2005957403
 30
0.0
  0
VERTEX
  5
700
  8
LOGO1
 62
   228
 10
426.2495858737
 20
35.2034519316
 30
0.0
  0
VERTEX
  5
701
  8
LOGO1
 62
   228
 10
426.2084134274
 20
35.2056738476
 30
0.0
  0
VERTEX
  5
702
  8
LOGO1
 62
   228
 10
426.1666496755
 20
35.207261239
 30
0.0
  0
VERTEX
  5
703
  8
LOGO1
 62
   228
 10
426.1242947176
 20
35.2082138566
 30
0.0
  0
VERTEX
  5
704
  8
LOGO1
 62
   228
 10
426.0813486533
 20
35.2085314512
 30
0.0
  0
SEQEND
  5
9A9
  8
LOGO1
 62
   228
  0
POLYLINE
  5
102
  8
LOGO1
 62
   228
 66
     1
 10
0.0
 20
0.0
 30
0.0
  0
VERTEX
  5
705
  8
LOGO1
 62
   228
 10
426.0813486533
 20
35.2085314512
 30
0.0
  0
VERTEX
  5
706
  8
LOGO1
 62
   228
 10
426.0390383267
 20
35.2082138566
 30
0.0
  0
VERTEX
  5
707
  8
LOGO1
 62
   228
 10
425.9972979704
 20
35.207261239
 30
0.0
  0
VERTEX
  5
708
  8
LOGO1
 62
   228
 10
425.9561268867
 20
35.2056738476
 30
0.0
  0
VERTEX
  5
709
  8
LOGO1
 62
   228
 10
425.9155243777
 20
35.2034519316
 30
0.0
  0
VERTEX
  5
70A
  8
LOGO1
 62
   228
 10
425.8754897454
 20
35.2005957403
 30
0.0
  0
VERTEX
  5
70B
  8
LOGO1
 62
   228
 10
425.8360222921
 20
35.197105523
 30
0.0
  0
VERTEX
  5
70C
  8
LOGO1
 62
   228
 10
425.7971213197
 20
35.1929815289
 30
0.0
  0
VERTEX
  5
70D
  8
LOGO1
 62
   228
 10
425.7587861306
 20
35.1882240071
 30
0.0
  0
VERTEX
  5
70E
  8
LOGO1
 62
   228
 10
425.7210160266
 20
35.1828332071
 30
0.0
  0
VERTEX
  5
70F
  8
LOGO1
 62
   228
 10
425.6838103101
 20
35.176809378
 30
0.0
  0
VERTEX
  5
710
  8
LOGO1
 62
   228
 10
425.647168283
 20
35.170152769
 30
0.0
  0
VERTEX
  5
711
  8
LOGO1
 62
   228
 10
425.6110892476
 20
35.1628636295
 30
0.0
  0
VERTEX
  5
712
  8
LOGO1
 62
   228
 10
425.5755725059
 20
35.1549422085
 30
0.0
  0
VERTEX
  5
713
  8
LOGO1
 62
   228
 10
425.54061736
 20
35.1463887555
 30
0.0
  0
VERTEX
  5
714
  8
LOGO1
 62
   228
 10
425.5062231121
 20
35.1372035196
 30
0.0
  0
VERTEX
  5
715
  8
LOGO1
 62
   228
 10
425.4723890643
 20
35.1273867501
 30
0.0
  0
VERTEX
  5
716
  8
LOGO1
 62
   228
 10
425.4391145187
 20
35.1169386962
 30
0.0
  0
VERTEX
  5
717
  8
LOGO1
 62
   228
 10
425.4063987774
 20
35.1058596072
 30
0.0
  0
VERTEX
  5
718
  8
LOGO1
 62
   228
 10
425.3742411425
 20
35.0941497323
 30
0.0
  0
VERTEX
  5
719
  8
LOGO1
 62
   228
 10
425.3426409162
 20
35.0818093207
 30
0.0
  0
VERTEX
  5
71A
  8
LOGO1
 62
   228
 10
425.3115974006
 20
35.0688386218
 30
0.0
  0
VERTEX
  5
71B
  8
LOGO1
 62
   228
 10
425.2811098977
 20
35.0552378846
 30
0.0
  0
VERTEX
  5
71C
  8
LOGO1
 62
   228
 10
425.2511777098
 20
35.0410073586
 30
0.0
  0
VERTEX
  5
71D
  8
LOGO1
 62
   228
 10
425.2218001389
 20
35.0261472929
 30
0.0
  0
SEQEND
  5
9A8
  8
LOGO1
 62
   228
  0
POLYLINE
  5
103
  8
LOGO1
 62
   228
 66
     1
 10
0.0
 20
0.0
 30
0.0
  0
VERTEX
  5
71E
  8
LOGO1
 62
   228
 10
425.2218001389
 20
35.0261472929
 30
0.0
  0
VERTEX
  5
71F
  8
LOGO1
 62
   228
 10
425.1929537561
 20
35.010657513
 30
0.0
  0
VERTEX
  5
720
  8
LOGO1
 62
   228
 10
425.1645864196
 20
34.9947682454
 30
0.0
  0
VERTEX
  5
721
  8
LOGO1
 62
   228
 10
425.1366974316
 20
34.9784807861
 30
0.0
  0
VERTEX
  5
722
  8
LOGO1
 62
   228
 10
425.1092860942
 20
34.9617964312
 30
0.0
  0
VERTEX
  5
723
  8
LOGO1
 62
   228
 10
425.0823517094
 20
34.9447164767
 30
0.0
  0
VERTEX
  5
724
  8
LOGO1
 62
   228
 10
425.0558935795
 20
34.9272422187
 30
0.0
  0
VERTEX
  5
725
  8
LOGO1
 62
   228
 10
425.0299110065
 20
34.9093749532
 30
0.0
  0
VERTEX
  5
726
  8
LOGO1
 62
   228
 10
425.0044032926
 20
34.8911159765
 30
0.0
  0
VERTEX
  5
727
  8
LOGO1
 62
   228
 10
424.9793697398
 20
34.8724665844
 30
0.0
  0
VERTEX
  5
728
  8
LOGO1
 62
   228
 10
424.9548096503
 20
34.8534280731
 30
0.0
  0
VERTEX
  5
729
  8
LOGO1
 62
   228
 10
424.9307223263
 20
34.8340017387
 30
0.0
  0
VERTEX
  5
72A
  8
LOGO1
 62
   228
 10
424.9071070697
 20
34.8141888771
 30
0.0
  0
VERTEX
  5
72B
  8
LOGO1
 62
   228
 10
424.8839631828
 20
34.7939907846
 30
0.0
  0
VERTEX
  5
72C
  8
LOGO1
 62
   228
 10
424.8612899676
 20
34.773408757
 30
0.0
  0
VERTEX
  5
72D
  8
LOGO1
 62
   228
 10
424.8390867263
 20
34.7524440906
 30
0.0
  0
VERTEX
  5
72E
  8
LOGO1
 62
   228
 10
424.817352761
 20
34.7310980814
 30
0.0
  0
VERTEX
  5
72F
  8
LOGO1
 62
   228
 10
424.7960873738
 20
34.7093720254
 30
0.0
  0
VERTEX
  5
730
  8
LOGO1
 62
   228
 10
424.7752898668
 20
34.6872672188
 30
0.0
  0
VERTEX
  5
731
  8
LOGO1
 62
   228
 10
424.7549595421
 20
34.6647849575
 30
0.0
  0
VERTEX
  5
732
  8
LOGO1
 62
   228
 10
424.735095702
 20
34.6419265376
 30
0.0
  0
VERTEX
  5
733
  8
LOGO1
 62
   228
 10
424.7156976484
 20
34.6186932553
 30
0.0
  0
VERTEX
  5
734
  8
LOGO1
 62
   228
 10
424.6967646835
 20
34.5950864066
 30
0.0
  0
VERTEX
  5
735
  8
LOGO1
 62
   228
 10
424.6782961094
 20
34.5711072875
 30
0.0
  0
VERTEX
  5
736
  8
LOGO1
 62
   228
 10
424.6602912282
 20
34.5467571941
 30
0.0
  0
SEQEND
  5
9A7
  8
LOGO1
 62
   228
  0
POLYLINE
  5
104
  8
LOGO1
 62
   228
 66
     1
 10
0.0
 20
0.0
 30
0.0
  0
VERTEX
  5
737
  8
LOGO1
 62
   228
 10
424.6602912282
 20
34.5467571941
 30
0.0
  0
VERTEX
  5
738
  8
LOGO1
 62
   228
 10
424.6424756061
 20
34.521901377
 30
0.0
  0
VERTEX
  5
739
  8
LOGO1
 62
   228
 10
424.6247480168
 20
34.496518908
 30
0.0
  0
VERTEX
  5
73A
  8
LOGO1
 62
   228
 10
424.6071091583
 20
34.4706095379
 30
0.0
  0
VERTEX
  5
73B
  8
LOGO1
 62
   228
 10
424.5895597284
 20
34.4441730174
 30
0.0
  0
VERTEX
  5
73C
  8
LOGO1
 62
   228
 10
424.572100425
 20
34.4172090973
 30
0.0
  0
VERTEX
  5
73D
  8
LOGO1
 62
   228
 10
424.5547319461
 20
34.3897175283
 30
0.0
  0
VERTEX
  5
73E
  8
LOGO1
 62
   228
 10
424.5374549894
 20
34.3616980612
 30
0.0
  0
VERTEX
  5
73F
  8
LOGO1
 62
   228
 10
424.5202702528
 20
34.3331504468
 30
0.0
  0
VERTEX
  5
740
  8
LOGO1
 62
   228
 10
424.5031784343
 20
34.3040744358
 30
0.0
  0
VERTEX
  5
741
  8
LOGO1
 62
   228
 10
424.4861802318
 20
34.274469779
 30
0.0
  0
VERTEX
  5
742
  8
LOGO1
 62
   228
 10
424.469276343
 20
34.2443362271
 30
0.0
  0
VERTEX
  5
743
  8
LOGO1
 62
   228
 10
424.4524674659
 20
34.2136735308
 30
0.0
  0
VERTEX
  5
744
  8
LOGO1
 62
   228
 10
424.4357542984
 20
34.1824814411
 30
0.0
  0
VERTEX
  5
745
  8
LOGO1
 62
   228
 10
424.4191375384
 20
34.1507597084
 30
0.0
  0
VERTEX
  5
746
  8
LOGO1
 62
   228
 10
424.4026178836
 20
34.1185080838
 30
0.0
  0
VERTEX
  5
747
  8
LOGO1
 62
   228
 10
424.3861960321
 20
34.0857263178
 30
0.0
  0
VERTEX
  5
748
  8
LOGO1
 62
   228
 10
424.3698726817
 20
34.0524141614
 30
0.0
  0
VERTEX
  5
749
  8
LOGO1
 62
   228
 10
424.3536485303
 20
34.0185713651
 30
0.0
  0
VERTEX
  5
74A
  8
LOGO1
 62
   228
 10
424.3375242758
 20
33.9841976798
 30
0.0
  0
VERTEX
  5
74B
  8
LOGO1
 62
   228
 10
424.321500616
 20
33.9492928562
 30
0.0
  0
VERTEX
  5
74C
  8
LOGO1
 62
   228
 10
424.3055782488
 20
33.9138566451
 30
0.0
  0
VERTEX
  5
74D
  8
LOGO1
 62
   228
 10
424.2897578721
 20
33.8778887973
 30
0.0
  0
VERTEX
  5
74E
  8
LOGO1
 62
   228
 10
424.2740401838
 20
33.8413890635
 30
0.0
  0
VERTEX
  5
74F
  8
LOGO1
 62
   228
 10
424.2584258818
 20
33.8043571944
 30
0.0
  0
SEQEND
  5
9A6
  8
LOGO1
 62
   228
  0
POLYLINE
  5
105
  8
LOGO1
 62
   150
 66
     1
 10
0.0
 20
0.0
 30
0.0
  0
VERTEX
  5
750
  8
LOGO1
 62
   150
 10
412.0152575717
 20
28.5484159163
 30
0.0
  0
VERTEX
  5
751
  8
LOGO1
 62
   150
 10
412.0558005863
 20
28.4980954047
 30
0.0
  0
VERTEX
  5
752
  8
LOGO1
 62
   150
 10
412.0948794937
 20
28.4469397772
 30
0.0
  0
VERTEX
  5
753
  8
LOGO1
 62
   150
 10
412.1324933468
 20
28.3949489841
 30
0.0
  0
VERTEX
  5
754
  8
LOGO1
 62
   150
 10
412.1686411984
 20
28.3421229754
 30
0.0
  0
VERTEX
  5
755
  8
LOGO1
 62
   150
 10
412.2033221014
 20
28.2884617013
 30
0.0
  0
VERTEX
  5
756
  8
LOGO1
 62
   150
 10
412.2365351088
 20
28.2339651119
 30
0.0
  0
VERTEX
  5
757
  8
LOGO1
 62
   150
 10
412.2682792733
 20
28.1786331575
 30
0.0
  0
VERTEX
  5
758
  8
LOGO1
 62
   150
 10
412.2985536479
 20
28.1224657881
 30
0.0
  0
VERTEX
  5
759
  8
LOGO1
 62
   150
 10
412.3273572854
 20
28.0654629539
 30
0.0
  0
VERTEX
  5
75A
  8
LOGO1
 62
   150
 10
412.3546892387
 20
28.0076246051
 30
0.0
  0
VERTEX
  5
75B
  8
LOGO1
 62
   150
 10
412.3805485607
 20
27.9489506917
 30
0.0
  0
VERTEX
  5
75C
  8
LOGO1
 62
   150
 10
412.4049343043
 20
27.8894411641
 30
0.0
  0
VERTEX
  5
75D
  8
LOGO1
 62
   150
 10
412.4278455222
 20
27.8290959722
 30
0.0
  0
VERTEX
  5
75E
  8
LOGO1
 62
   150
 10
412.4492812675
 20
27.7679150663
 30
0.0
  0
VERTEX
  5
75F
  8
LOGO1
 62
   150
 10
412.4692405929
 20
27.7058983965
 30
0.0
  0
VERTEX
  5
760
  8
LOGO1
 62
   150
 10
412.4877225514
 20
27.643045913
 30
0.0
  0
VERTEX
  5
761
  8
LOGO1
 62
   150
 10
412.5047261958
 20
27.5793575659
 30
0.0
  0
VERTEX
  5
762
  8
LOGO1
 62
   150
 10
412.520250579
 20
27.5148333053
 30
0.0
  0
VERTEX
  5
763
  8
LOGO1
 62
   150
 10
412.5342947538
 20
27.4494730815
 30
0.0
  0
VERTEX
  5
764
  8
LOGO1
 62
   150
 10
412.5468577732
 20
27.3832768445
 30
0.0
  0
VERTEX
  5
765
  8
LOGO1
 62
   150
 10
412.55793869
 20
27.3162445446
 30
0.0
  0
VERTEX
  5
766
  8
LOGO1
 62
   150
 10
412.5675365571
 20
27.2483761318
 30
0.0
  0
VERTEX
  5
767
  8
LOGO1
 62
   150
 10
412.5756504274
 20
27.1796715563
 30
0.0
  0
VERTEX
  5
768
  8
LOGO1
 62
   150
 10
412.5822793537
 20
27.1101307684
 30
0.0
  0
SEQEND
  5
9A5
  8
LOGO1
 62
   150
  0
POLYLINE
  5
106
  8
LOGO1
 62
   228
 66
     1
 10
0.0
 20
0.0
 30
0.0
  0
VERTEX
  5
769
  8
LOGO1
 62
   228
 10
410.6356615327
 20
23.9261030469
 30
0.0
  0
VERTEX
  5
76A
  8
LOGO1
 62
   228
 10
410.709914397
 20
23.9577321689
 30
0.0
  0
VERTEX
  5
76B
  8
LOGO1
 62
   228
 10
410.7828786715
 20
23.9907724088
 30
0.0
  0
VERTEX
  5
76C
  8
LOGO1
 62
   228
 10
410.8545554528
 20
24.025224365
 30
0.0
  0
VERTEX
  5
76D
  8
LOGO1
 62
   228
 10
410.9249458377
 20
24.0610886354
 30
0.0
  0
VERTEX
  5
76E
  8
LOGO1
 62
   228
 10
410.9940509228
 20
24.0983658184
 30
0.0
  0
VERTEX
  5
76F
  8
LOGO1
 62
   228
 10
411.0618718048
 20
24.1370565122
 30
0.0
  0
VERTEX
  5
770
  8
LOGO1
 62
   228
 10
411.1284095804
 20
24.1771613148
 30
0.0
  0
VERTEX
  5
771
  8
LOGO1
 62
   228
 10
411.1936653462
 20
24.2186808246
 30
0.0
  0
VERTEX
  5
772
  8
LOGO1
 62
   228
 10
411.2576401989
 20
24.2616156396
 30
0.0
  0
VERTEX
  5
773
  8
LOGO1
 62
   228
 10
411.3203352352
 20
24.3059663581
 30
0.0
  0
VERTEX
  5
774
  8
LOGO1
 62
   228
 10
411.3817515518
 20
24.3517335782
 30
0.0
  0
VERTEX
  5
775
  8
LOGO1
 62
   228
 10
411.4418902453
 20
24.3989178982
 30
0.0
  0
VERTEX
  5
776
  8
LOGO1
 62
   228
 10
411.5007524123
 20
24.4475199162
 30
0.0
  0
VERTEX
  5
777
  8
LOGO1
 62
   228
 10
411.5583391497
 20
24.4975402304
 30
0.0
  0
VERTEX
  5
778
  8
LOGO1
 62
   228
 10
411.614651554
 20
24.548979439
 30
0.0
  0
VERTEX
  5
779
  8
LOGO1
 62
   228
 10
411.6696907219
 20
24.6018381402
 30
0.0
  0
VERTEX
  5
77A
  8
LOGO1
 62
   228
 10
411.7234577501
 20
24.6561169321
 30
0.0
  0
VERTEX
  5
77B
  8
LOGO1
 62
   228
 10
411.7759537352
 20
24.7118164129
 30
0.0
  0
VERTEX
  5
77C
  8
LOGO1
 62
   228
 10
411.827179774
 20
24.7689371809
 30
0.0
  0
VERTEX
  5
77D
  8
LOGO1
 62
   228
 10
411.8771369631
 20
24.8274798342
 30
0.0
  0
VERTEX
  5
77E
  8
LOGO1
 62
   228
 10
411.9258263991
 20
24.887444971
 30
0.0
  0
VERTEX
  5
77F
  8
LOGO1
 62
   228
 10
411.9732491788
 20
24.9488331895
 30
0.0
  0
VERTEX
  5
780
  8
LOGO1
 62
   228
 10
412.0194063989
 20
25.0116450879
 30
0.0
  0
VERTEX
  5
781
  8
LOGO1
 62
   228
 10
412.0642991559
 20
25.0758812643
 30
0.0
  0
SEQEND
  5
9A4
  8
LOGO1
 62
   228
  0
POLYLINE
  5
107
  8
LOGO1
 62
   228
 66
     1
 10
0.0
 20
0.0
 30
0.0
  0
VERTEX
  5
782
  8
LOGO1
 62
   228
 10
412.0642991559
 20
25.0758812643
 30
0.0
  0
VERTEX
  5
783
  8
LOGO1
 62
   228
 10
412.1074976624
 20
25.1410941685
 30
0.0
  0
VERTEX
  5
784
  8
LOGO1
 62
   228
 10
412.1488584953
 20
25.2069793826
 30
0.0
  0
VERTEX
  5
785
  8
LOGO1
 62
   228
 10
412.1883816048
 20
25.2735368567
 30
0.0
  0
VERTEX
  5
786
  8
LOGO1
 62
   228
 10
412.2260669409
 20
25.340766541
 30
0.0
  0
VERTEX
  5
787
  8
LOGO1
 62
   228
 10
412.2619144539
 20
25.4086683857
 30
0.0
  0
VERTEX
  5
788
  8
LOGO1
 62
   228
 10
412.2959240939
 20
25.4772423408
 30
0.0
  0
VERTEX
  5
789
  8
LOGO1
 62
   228
 10
412.328095811
 20
25.5464883566
 30
0.0
  0
VERTEX
  5
78A
  8
LOGO1
 62
   228
 10
412.3584295555
 20
25.6164063832
 30
0.0
  0
VERTEX
  5
78B
  8
LOGO1
 62
   228
 10
412.3869252773
 20
25.6869963708
 30
0.0
  0
VERTEX
  5
78C
  8
LOGO1
 62
   228
 10
412.4135829268
 20
25.7582582694
 30
0.0
  0
VERTEX
  5
78D
  8
LOGO1
 62
   228
 10
412.438402454
 20
25.8301920293
 30
0.0
  0
VERTEX
  5
78E
  8
LOGO1
 62
   228
 10
412.4613838092
 20
25.9027976006
 30
0.0
  0
VERTEX
  5
78F
  8
LOGO1
 62
   228
 10
412.4825269424
 20
25.9760749334
 30
0.0
  0
VERTEX
  5
790
  8
LOGO1
 62
   228
 10
412.5018318038
 20
26.0500239779
 30
0.0
  0
VERTEX
  5
791
  8
LOGO1
 62
   228
 10
412.5192983435
 20
26.1246446843
 30
0.0
  0
VERTEX
  5
792
  8
LOGO1
 62
   228
 10
412.5349265118
 20
26.1999370027
 30
0.0
  0
VERTEX
  5
793
  8
LOGO1
 62
   228
 10
412.5487162587
 20
26.2759008833
 30
0.0
  0
VERTEX
  5
794
  8
LOGO1
 62
   228
 10
412.5606675344
 20
26.3525362761
 30
0.0
  0
VERTEX
  5
795
  8
LOGO1
 62
   228
 10
412.5707802891
 20
26.4298431314
 30
0.0
  0
VERTEX
  5
796
  8
LOGO1
 62
   228
 10
412.5790544729
 20
26.5078213993
 30
0.0
  0
VERTEX
  5
797
  8
LOGO1
 62
   228
 10
412.5854900359
 20
26.58647103
 30
0.0
  0
VERTEX
  5
798
  8
LOGO1
 62
   228
 10
412.5900869284
 20
26.6657919736
 30
0.0
  0
VERTEX
  5
799
  8
LOGO1
 62
   228
 10
412.5928451004
 20
26.7457841803
 30
0.0
  0
VERTEX
  5
79A
  8
LOGO1
 62
   228
 10
412.5937645022
 20
26.8264476002
 30
0.0
  0
SEQEND
  5
9A3
  8
LOGO1
 62
   228
  0
POLYLINE
  5
108
  8
LOGO1
 62
   228
 66
     1
 10
0.0
 20
0.0
 30
0.0
  0
VERTEX
  5
79B
  8
LOGO1
 62
   228
 10
408.5740773752
 20
23.547782255
 30
0.0
  0
VERTEX
  5
79C
  8
LOGO1
 62
   228
 10
408.6084352252
 20
23.5496719375
 30
0.0
  0
VERTEX
  5
79D
  8
LOGO1
 62
   228
 10
408.6425975186
 20
23.5516370909
 30
0.0
  0
VERTEX
  5
79E
  8
LOGO1
 62
   228
 10
408.6765637071
 20
23.553677815
 30
0.0
  0
VERTEX
  5
79F
  8
LOGO1
 62
   228
 10
408.7103332424
 20
23.5557942095
 30
0.0
  0
VERTEX
  5
7A0
  8
LOGO1
 62
   228
 10
408.743905576
 20
23.5579863741
 30
0.0
  0
VERTEX
  5
7A1
  8
LOGO1
 62
   228
 10
408.7772801597
 20
23.5602544085
 30
0.0
  0
VERTEX
  5
7A2
  8
LOGO1
 62
   228
 10
408.8104564452
 20
23.5625984123
 30
0.0
  0
VERTEX
  5
7A3
  8
LOGO1
 62
   228
 10
408.843433884
 20
23.5650184853
 30
0.0
  0
VERTEX
  5
7A4
  8
LOGO1
 62
   228
 10
408.876211928
 20
23.5675147272
 30
0.0
  0
VERTEX
  5
7A5
  8
LOGO1
 62
   228
 10
408.9087900286
 20
23.5700872376
 30
0.0
  0
VERTEX
  5
7A6
  8
LOGO1
 62
   228
 10
408.9411676376
 20
23.5727361163
 30
0.0
  0
VERTEX
  5
7A7
  8
LOGO1
 62
   228
 10
408.9733442067
 20
23.5754614629
 30
0.0
  0
VERTEX
  5
7A8
  8
LOGO1
 62
   228
 10
409.0053191875
 20
23.5782633772
 30
0.0
  0
VERTEX
  5
7A9
  8
LOGO1
 62
   228
 10
409.0370920317
 20
23.5811419589
 30
0.0
  0
VERTEX
  5
7AA
  8
LOGO1
 62
   228
 10
409.0686621909
 20
23.5840973076
 30
0.0
  0
VERTEX
  5
7AB
  8
LOGO1
 62
   228
 10
409.1000291168
 20
23.5871295231
 30
0.0
  0
VERTEX
  5
7AC
  8
LOGO1
 62
   228
 10
409.1311922611
 20
23.590238705
 30
0.0
  0
VERTEX
  5
7AD
  8
LOGO1
 62
   228
 10
409.1621510754
 20
23.593424953
 30
0.0
  0
VERTEX
  5
7AE
  8
LOGO1
 62
   228
 10
409.1929050115
 20
23.5966883669
 30
0.0
  0
VERTEX
  5
7AF
  8
LOGO1
 62
   228
 10
409.2234535209
 20
23.6000290463
 30
0.0
  0
VERTEX
  5
7B0
  8
LOGO1
 62
   228
 10
409.2537960553
 20
23.603447091
 30
0.0
  0
VERTEX
  5
7B1
  8
LOGO1
 62
   228
 10
409.2839320664
 20
23.6069426006
 30
0.0
  0
VERTEX
  5
7B2
  8
LOGO1
 62
   228
 10
409.3138610059
 20
23.6105156748
 30
0.0
  0
VERTEX
  5
7B3
  8
LOGO1
 62
   228
 10
409.3435823253
 20
23.6141664134
 30
0.0
  0
SEQEND
  5
9A2
  8
LOGO1
 62
   228
  0
POLYLINE
  5
109
  8
LOGO1
 62
   228
 66
     1
 10
0.0
 20
0.0
 30
0.0
  0
VERTEX
  5
7B4
  8
LOGO1
 62
   228
 10
409.3435823253
 20
23.6141664134
 30
0.0
  0
VERTEX
  5
7B5
  8
LOGO1
 62
   228
 10
409.4041576356
 20
23.6220105439
 30
0.0
  0
VERTEX
  5
7B6
  8
LOGO1
 62
   228
 10
409.4641414906
 20
23.6302969323
 30
0.0
  0
VERTEX
  5
7B7
  8
LOGO1
 62
   228
 10
409.5235346381
 20
23.6390263763
 30
0.0
  0
VERTEX
  5
7B8
  8
LOGO1
 62
   228
 10
409.5823378258
 20
23.6481996734
 30
0.0
  0
VERTEX
  5
7B9
  8
LOGO1
 62
   228
 10
409.6405518015
 20
23.6578176212
 30
0.0
  0
VERTEX
  5
7BA
  8
LOGO1
 62
   228
 10
409.6981773128
 20
23.6678810173
 30
0.0
  0
VERTEX
  5
7BB
  8
LOGO1
 62
   228
 10
409.7552151076
 20
23.6783906593
 30
0.0
  0
VERTEX
  5
7BC
  8
LOGO1
 62
   228
 10
409.8116659335
 20
23.6893473448
 30
0.0
  0
VERTEX
  5
7BD
  8
LOGO1
 62
   228
 10
409.8675305383
 20
23.7007518713
 30
0.0
  0
VERTEX
  5
7BE
  8
LOGO1
 62
   228
 10
409.9228096697
 20
23.7126050364
 30
0.0
  0
VERTEX
  5
7BF
  8
LOGO1
 62
   228
 10
409.9775040755
 20
23.7249076377
 30
0.0
  0
VERTEX
  5
7C0
  8
LOGO1
 62
   228
 10
410.0316145033
 20
23.7376604728
 30
0.0
  0
VERTEX
  5
7C1
  8
LOGO1
 62
   228
 10
410.0851417009
 20
23.7508643392
 30
0.0
  0
VERTEX
  5
7C2
  8
LOGO1
 62
   228
 10
410.138086416
 20
23.7645200345
 30
0.0
  0
VERTEX
  5
7C3
  8
LOGO1
 62
   228
 10
410.1904493965
 20
23.7786283564
 30
0.0
  0
VERTEX
  5
7C4
  8
LOGO1
 62
   228
 10
410.2422313899
 20
23.7931901024
 30
0.0
  0
VERTEX
  5
7C5
  8
LOGO1
 62
   228
 10
410.293433144
 20
23.80820607
 30
0.0
  0
VERTEX
  5
7C6
  8
LOGO1
 62
   228
 10
410.3440554066
 20
23.8236770569
 30
0.0
  0
VERTEX
  5
7C7
  8
LOGO1
 62
   228
 10
410.3940989254
 20
23.8396038606
 30
0.0
  0
VERTEX
  5
7C8
  8
LOGO1
 62
   228
 10
410.4435644481
 20
23.8559872787
 30
0.0
  0
VERTEX
  5
7C9
  8
LOGO1
 62
   228
 10
410.4924527224
 20
23.8728281088
 30
0.0
  0
VERTEX
  5
7CA
  8
LOGO1
 62
   228
 10
410.5407644962
 20
23.8901271485
 30
0.0
  0
VERTEX
  5
7CB
  8
LOGO1
 62
   228
 10
410.588500517
 20
23.9078851954
 30
0.0
  0
VERTEX
  5
7CC
  8
LOGO1
 62
   228
 10
410.6356615327
 20
23.9261030469
 30
0.0
  0
SEQEND
  5
9A1
  8
LOGO1
 62
   228
  0
POLYLINE
  5
10A
  8
LOGO2
 66
     1
 10
0.0
 20
0.0
 30
0.0
  0
VERTEX
  5
7CD
  8
LOGO2
 10
408.5746450239
 20
23.5478127778
 30
0.0
  0
VERTEX
  5
7CE
  8
LOGO2
 10
408.5361666528
 20
23.3814008342
 30
0.0
  0
VERTEX
  5
7CF
  8
LOGO2
 10
408.5042680847
 20
23.2172234357
 30
0.0
  0
VERTEX
  5
7D0
  8
LOGO2
 10
408.4789712799
 20
23.0553936095
 30
0.0
  0
VERTEX
  5
7D1
  8
LOGO2
 10
408.460293654
 20
22.8960227666
 30
0.0
  0
VERTEX
  5
7D2
  8
LOGO2
 10
408.4482480655
 20
22.7392206251
 30
0.0
  0
VERTEX
  5
7D3
  8
LOGO2
 10
408.4428428071
 20
22.5850951348
 30
0.0
  0
VERTEX
  5
7D4
  8
LOGO2
 10
408.4440816
 20
22.4337524027
 30
0.0
  0
VERTEX
  5
7D5
  8
LOGO2
 10
408.4519635914
 20
22.2852966199
 30
0.0
  0
VERTEX
  5
7D6
  8
LOGO2
 10
408.4664833549
 20
22.1398299902
 30
0.0
  0
VERTEX
  5
7D7
  8
LOGO2
 10
408.4876308946
 20
21.9974526595
 30
0.0
  0
VERTEX
  5
7D8
  8
LOGO2
 10
408.5153916514
 20
21.8582626467
 30
0.0
  0
VERTEX
  5
7D9
  8
LOGO2
 10
408.5497465136
 20
21.7223557765
 30
0.0
  0
VERTEX
  5
7DA
  8
LOGO2
 10
408.5906718298
 20
21.5898256135
 30
0.0
  0
VERTEX
  5
7DB
  8
LOGO2
 10
408.6381394251
 20
21.4607633975
 30
0.0
  0
VERTEX
  5
7DC
  8
LOGO2
 10
408.6921166206
 20
21.3352579806
 30
0.0
  0
VERTEX
  5
7DD
  8
LOGO2
 10
408.752566256
 20
21.2133957666
 30
0.0
  0
VERTEX
  5
7DE
  8
LOGO2
 10
408.8194467151
 20
21.095260651
 30
0.0
  0
VERTEX
  5
7DF
  8
LOGO2
 10
408.8927119543
 20
20.9809339633
 30
0.0
  0
VERTEX
  5
7E0
  8
LOGO2
 10
408.9723115344
 20
20.8704944112
 30
0.0
  0
VERTEX
  5
7E1
  8
LOGO2
 10
409.0581906554
 20
20.7640180264
 30
0.0
  0
VERTEX
  5
7E2
  8
LOGO2
 10
409.1502901944
 20
20.6615781119
 30
0.0
  0
VERTEX
  5
7E3
  8
LOGO2
 10
409.2485467458
 20
20.5632451922
 30
0.0
  0
VERTEX
  5
7E4
  8
LOGO2
 10
409.3528926653
 20
20.469086964
 30
0.0
  0
VERTEX
  5
7E5
  8
LOGO2
 10
409.4632561164
 20
20.3791682501
 30
0.0
  0
VERTEX
  5
7E6
  8
LOGO2
 10
409.57956112
 20
20.2935509548
 30
0.0
  0
VERTEX
  5
7E7
  8
LOGO2
 10
409.7017276063
 20
20.2122940208
 30
0.0
  0
VERTEX
  5
7E8
  8
LOGO2
 10
409.8296714705
 20
20.135453389
 30
0.0
  0
VERTEX
  5
7E9
  8
LOGO2
 10
409.96330463
 20
20.0630819602
 30
0.0
  0
VERTEX
  5
7EA
  8
LOGO2
 10
410.1025350859
 20
19.995229558
 30
0.0
  0
VERTEX
  5
7EB
  8
LOGO2
 10
410.2472669855
 20
19.9319428951
 30
0.0
  0
VERTEX
  5
7EC
  8
LOGO2
 10
410.3974006888
 20
19.873265541
 30
0.0
  0
VERTEX
  5
7ED
  8
LOGO2
 10
410.552832837
 20
19.8192378918
 30
0.0
  0
VERTEX
  5
7EE
  8
LOGO2
 10
410.7134564234
 20
19.7698971426
 30
0.0
  0
VERTEX
  5
7EF
  8
LOGO2
 10
410.8791608675
 20
19.7252772618
 30
0.0
  0
VERTEX
  5
7F0
  8
LOGO2
 10
411.0498320909
 20
19.6854089677
 30
0.0
  0
VERTEX
  5
7F1
  8
LOGO2
 10
411.2253525957
 20
19.6503197076
 30
0.0
  0
VERTEX
  5
7F2
  8
LOGO2
 10
411.4056015456
 20
19.6200336384
 30
0.0
  0
VERTEX
  5
7F3
  8
LOGO2
 10
411.5904548491
 20
19.5945716105
 30
0.0
  0
VERTEX
  5
7F4
  8
LOGO2
 10
411.7797852446
 20
19.5739511531
 30
0.0
  0
VERTEX
  5
7F5
  8
LOGO2
 10
411.9734623887
 20
19.5581864621
 30
0.0
  0
VERTEX
  5
7F6
  8
LOGO2
 10
412.1713529451
 20
19.5472883909
 30
0.0
  0
VERTEX
  5
7F7
  8
LOGO2
 10
412.3733206769
 20
19.5412644421
 30
0.0
  0
VERTEX
  5
7F8
  8
LOGO2
 10
412.5792265405
 20
19.5401187628
 30
0.0
  0
VERTEX
  5
7F9
  8
LOGO2
 10
412.7889287809
 20
19.5438521418
 30
0.0
  0
VERTEX
  5
7FA
  8
LOGO2
 10
413.0022830294
 20
19.5524620088
 30
0.0
  0
VERTEX
  5
7FB
  8
LOGO2
 10
413.2191424034
 20
19.5659424365
 30
0.0
  0
VERTEX
  5
7FC
  8
LOGO2
 10
413.4393576069
 20
19.5842841443
 30
0.0
  0
VERTEX
  5
7FD
  8
LOGO2
 10
413.6627770339
 20
19.6074745049
 30
0.0
  0
VERTEX
  5
7FE
  8
LOGO2
 10
413.8892468723
 20
19.6354975531
 30
0.0
  0
VERTEX
  5
7FF
  8
LOGO2
 10
414.1186112099
 20
19.6683339965
 30
0.0
  0
VERTEX
  5
800
  8
LOGO2
 10
414.3507121418
 20
19.7059612289
 30
0.0
  0
VERTEX
  5
801
  8
LOGO2
 10
414.5853898793
 20
19.7483533462
 30
0.0
  0
VERTEX
  5
802
  8
LOGO2
 10
414.8224828595
 20
19.7954811636
 30
0.0
  0
VERTEX
  5
803
  8
LOGO2
 10
415.0618278569
 20
19.8473122362
 30
0.0
  0
VERTEX
  5
804
  8
LOGO2
 10
415.3032600954
 20
19.9038108811
 30
0.0
  0
VERTEX
  5
805
  8
LOGO2
 10
415.5466133622
 20
19.9649382022
 30
0.0
  0
VERTEX
  5
806
  8
LOGO2
 10
415.7917201218
 20
20.0306521165
 30
0.0
  0
VERTEX
  5
807
  8
LOGO2
 10
416.0384116315
 20
20.1009073837
 30
0.0
  0
VERTEX
  5
808
  8
LOGO2
 10
416.2865180577
 20
20.1756556368
 30
0.0
  0
VERTEX
  5
809
  8
LOGO2
 10
416.5358685928
 20
20.2548454157
 30
0.0
  0
VERTEX
  5
80A
  8
LOGO2
 10
416.7862915723
 20
20.3384222026
 30
0.0
  0
VERTEX
  5
80B
  8
LOGO2
 10
417.0376145938
 20
20.4263284594
 30
0.0
  0
VERTEX
  5
80C
  8
LOGO2
 10
417.2896646351
 20
20.5185036674
 30
0.0
  0
VERTEX
  5
80D
  8
LOGO2
 10
417.5422681735
 20
20.6148843691
 30
0.0
  0
VERTEX
  5
80E
  8
LOGO2
 10
417.7952513051
 20
20.7154042116
 30
0.0
  0
VERTEX
  5
80F
  8
LOGO2
 10
418.048439865
 20
20.8199939925
 30
0.0
  0
VERTEX
  5
810
  8
LOGO2
 10
418.3016595467
 20
20.9285817074
 30
0.0
  0
VERTEX
  5
811
  8
LOGO2
 10
418.554736022
 20
21.0410925996
 30
0.0
  0
VERTEX
  5
812
  8
LOGO2
 10
418.8074950619
 20
21.1574492114
 30
0.0
  0
VERTEX
  5
813
  8
LOGO2
 10
419.0597626553
 20
21.2775714378
 30
0.0
  0
VERTEX
  5
814
  8
LOGO2
 10
419.3113651299
 20
21.401376581
 30
0.0
  0
VERTEX
  5
815
  8
LOGO2
 10
419.562129271
 20
21.5287794081
 30
0.0
  0
VERTEX
  5
816
  8
LOGO2
 10
419.8118824413
 20
21.6596922091
 30
0.0
  0
VERTEX
  5
817
  8
LOGO2
 10
420.0604526992
 20
21.7940248576
 30
0.0
  0
VERTEX
  5
818
  8
LOGO2
 10
420.3076689178
 20
21.9316848731
 30
0.0
  0
VERTEX
  5
819
  8
LOGO2
 10
420.5533609022
 20
22.072577484
 30
0.0
  0
VERTEX
  5
81A
  8
LOGO2
 10
420.7973595067
 20
22.2166056936
 30
0.0
  0
VERTEX
  5
81B
  8
LOGO2
 10
421.0394967518
 20
22.3636703461
 30
0.0
  0
VERTEX
  5
81C
  8
LOGO2
 10
421.279605939
 20
22.5136701957
 30
0.0
  0
VERTEX
  5
81D
  8
LOGO2
 10
421.5175217664
 20
22.6665019757
 30
0.0
  0
VERTEX
  5
81E
  8
LOGO2
 10
421.7530804418
 20
22.8220604696
 30
0.0
  0
VERTEX
  5
81F
  8
LOGO2
 10
421.986119796
 20
22.980238584
 30
0.0
  0
VERTEX
  5
820
  8
LOGO2
 10
422.2164793941
 20
23.1409274218
 30
0.0
  0
VERTEX
  5
821
  8
LOGO2
 10
422.444000646
 20
23.3040163576
 30
0.0
  0
VERTEX
  5
822
  8
LOGO2
 10
422.6685269158
 20
23.4693931135
 30
0.0
  0
VERTEX
  5
823
  8
LOGO2
 10
422.8899036294
 20
23.6369438366
 30
0.0
  0
VERTEX
  5
824
  8
LOGO2
 10
423.107978381
 20
23.8065531774
 30
0.0
  0
VERTEX
  5
825
  8
LOGO2
 10
423.3226010381
 20
23.9781043691
 30
0.0
  0
VERTEX
  5
826
  8
LOGO2
 10
423.5336238445
 20
24.1514793082
 30
0.0
  0
VERTEX
  5
827
  8
LOGO2
 10
423.7409015228
 20
24.3265586353
 30
0.0
  0
VERTEX
  5
828
  8
LOGO2
 10
423.9442913734
 20
24.5032218179
 30
0.0
  0
VERTEX
  5
829
  8
LOGO2
 10
424.1436533735
 20
24.6813472331
 30
0.0
  0
VERTEX
  5
82A
  8
LOGO2
 10
424.3388502734
 20
24.8608122513
 30
0.0
  0
VERTEX
  5
82B
  8
LOGO2
 10
424.5297476905
 20
25.0414933205
 30
0.0
  0
VERTEX
  5
82C
  8
LOGO2
 10
424.7162142025
 20
25.2232660516
 30
0.0
  0
VERTEX
  5
82D
  8
LOGO2
 10
424.8981214372
 20
25.4060053042
 30
0.0
  0
VERTEX
  5
82E
  8
LOGO2
 10
425.0753441616
 20
25.5895852722
 30
0.0
  0
VERTEX
  5
82F
  8
LOGO2
 10
425.2477603673
 20
25.7738795707
 30
0.0
  0
VERTEX
  5
830
  8
LOGO2
 10
425.4152513553
 20
25.9587613233
 30
0.0
  0
VERTEX
  5
831
  8
LOGO2
 10
425.5777018172
 20
26.1441032488
 30
0.0
  0
VERTEX
  5
832
  8
LOGO2
 10
425.7349999146
 20
26.3297777496
 30
0.0
  0
VERTEX
  5
833
  8
LOGO2
 10
425.8870373564
 20
26.5156569988
 30
0.0
  0
VERTEX
  5
834
  8
LOGO2
 10
426.0337094731
 20
26.7016130287
 30
0.0
  0
VERTEX
  5
835
  8
LOGO2
 10
426.1749152891
 20
26.8875178187
 30
0.0
  0
VERTEX
  5
836
  8
LOGO2
 10
426.3105575916
 20
27.0732433836
 30
0.0
  0
VERTEX
  5
837
  8
LOGO2
 10
426.4405429985
 20
27.2586618614
 30
0.0
  0
VERTEX
  5
838
  8
LOGO2
 10
426.5647820219
 20
27.4436456016
 30
0.0
  0
VERTEX
  5
839
  8
LOGO2
 10
426.68318913
 20
27.6280672529
 30
0.0
  0
VERTEX
  5
83A
  8
LOGO2
 10
426.795682806
 20
27.8117998512
 30
0.0
  0
SEQEND
  5
9A0
  8
LOGO2
  0
POLYLINE
  5
10B
  8
LOGO2
 66
     1
 10
0.0
 20
0.0
 30
0.0
  0
VERTEX
  5
83B
  8
LOGO2
 10
413.2710437098
 20
29.597180582
 30
0.0
  0
VERTEX
  5
83C
  8
LOGO2
 10
413.0526097291
 20
29.4267264259
 30
0.0
  0
VERTEX
  5
83D
  8
LOGO2
 10
412.8376708749
 20
29.2543312497
 30
0.0
  0
VERTEX
  5
83E
  8
LOGO2
 10
412.6263761719
 20
29.0801145808
 30
0.0
  0
VERTEX
  5
83F
  8
LOGO2
 10
412.4188721182
 20
28.9041972097
 30
0.0
  0
VERTEX
  5
840
  8
LOGO2
 10
412.2153025834
 20
28.7267011062
 30
0.0
  0
SEQEND
  5
99F
  8
LOGO2
  0
POLYLINE
  5
10C
  8
LOGO2
 66
     1
 10
0.0
 20
0.0
 30
0.0
  0
VERTEX
  5
841
  8
LOGO2
 10
424.2120354815
 20
33.6963047728
 30
0.0
  0
VERTEX
  5
842
  8
LOGO2
 10
424.0115497847
 20
33.7072654509
 30
0.0
  0
VERTEX
  5
843
  8
LOGO2
 10
423.8068850987
 20
33.7132264566
 30
0.0
  0
VERTEX
  5
844
  8
LOGO2
 10
423.5981859496
 20
33.7141835806
 30
0.0
  0
VERTEX
  5
845
  8
LOGO2
 10
423.3855997123
 20
33.710136147
 30
0.0
  0
VERTEX
  5
846
  8
LOGO2
 10
423.1692765068
 20
33.7010870138
 30
0.0
  0
VERTEX
  5
847
  8
LOGO2
 10
422.9493690921
 20
33.6870425713
 30
0.0
  0
VERTEX
  5
848
  8
LOGO2
 10
422.726032758
 20
33.668012737
 30
0.0
  0
VERTEX
  5
849
  8
LOGO2
 10
422.4994252158
 20
33.6440109491
 30
0.0
  0
VERTEX
  5
84A
  8
LOGO2
 10
422.2697064868
 20
33.6150541567
 30
0.0
  0
VERTEX
  5
84B
  8
LOGO2
 10
422.0370387891
 20
33.5811628079
 30
0.0
  0
VERTEX
  5
84C
  8
LOGO2
 10
421.8015864236
 20
33.5423608355
 30
0.0
  0
VERTEX
  5
84D
  8
LOGO2
 10
421.5635156573
 20
33.4986756398
 30
0.0
  0
VERTEX
  5
84E
  8
LOGO2
 10
421.3229946064
 20
33.4501380696
 30
0.0
  0
VERTEX
  5
84F
  8
LOGO2
 10
421.0801931172
 20
33.3967824003
 30
0.0
  0
VERTEX
  5
850
  8
LOGO2
 10
420.8352826467
 20
33.3386463094
 30
0.0
  0
VERTEX
  5
851
  8
LOGO2
 10
420.5884361408
 20
33.2757708505
 30
0.0
  0
VERTEX
  5
852
  8
LOGO2
 10
420.3398279128
 20
33.2082004235
 30
0.0
  0
VERTEX
  5
853
  8
LOGO2
 10
420.0896335199
 20
33.1359827442
 30
0.0
  0
VERTEX
  5
854
  8
LOGO2
 10
419.8380296396
 20
33.0591688097
 30
0.0
  0
VERTEX
  5
855
  8
LOGO2
 10
419.5851939444
 20
32.9778128631
 30
0.0
  0
VERTEX
  5
856
  8
LOGO2
 10
419.3313049769
 20
32.8919723546
 30
0.0
  0
VERTEX
  5
857
  8
LOGO2
 10
419.0765420235
 20
32.8017079014
 30
0.0
  0
VERTEX
  5
858
  8
LOGO2
 10
418.8210849877
 20
32.7070832447
 30
0.0
  0
VERTEX
  5
859
  8
LOGO2
 10
418.565114263
 20
32.6081652047
 30
0.0
  0
VERTEX
  5
85A
  8
LOGO2
 10
418.3088106059
 20
32.5050236334
 30
0.0
  0
VERTEX
  5
85B
  8
LOGO2
 10
418.0523550078
 20
32.3977313652
 30
0.0
  0
VERTEX
  5
85C
  8
LOGO2
 10
417.7959285675
 20
32.2863641658
 30
0.0
  0
VERTEX
  5
85D
  8
LOGO2
 10
417.5397123632
 20
32.1710006782
 30
0.0
  0
VERTEX
  5
85E
  8
LOGO2
 10
417.2838873247
 20
32.0517223675
 30
0.0
  0
VERTEX
  5
85F
  8
LOGO2
 10
417.0286341054
 20
31.9286134633
 30
0.0
  0
VERTEX
  5
860
  8
LOGO2
 10
416.774132955
 20
31.8017609004
 30
0.0
  0
VERTEX
  5
861
  8
LOGO2
 10
416.5205635921
 20
31.6712542568
 30
0.0
  0
VERTEX
  5
862
  8
LOGO2
 10
416.2681050774
 20
31.5371856913
 30
0.0
  0
VERTEX
  5
863
  8
LOGO2
 10
416.0169356871
 20
31.3996498778
 30
0.0
  0
SEQEND
  5
99E
  8
LOGO2
  0
POLYLINE
  5
10D
  8
SLD-0
 66
     1
 10
0.0
 20
0.0
 30
0.0
  0
VERTEX
  5
864
  8
SLD-0
 10
426.5548174661
 20
32.9970294916
 30
0.0
  0
VERTEX
  5
865
  8
SLD-0
 10
426.4605943977
 20
33.0576993471
 30
0.0
  0
VERTEX
  5
866
  8
SLD-0
 10
426.3630464048
 20
33.1158137937
 30
0.0
  0
SEQEND
  5
99D
  8
SLD-0
  0
INSERT
  5
10E
  8
0
  6
CONTINUOUS
 62
     7
  2
BLOC2_1
 10
530.3954163704
 20
12.7407193599
 30
0.0
 41
1.75
 42
1.75
 43
1.75
  0
INSERT
  5
119
  8
NOTE
  2
SW_NOTE_0
 10
494.8172995458
 20
130.5753455309
 30
0.0
  0
TEXT
  5
11A
  8
PV
 62
     7
 10
31.5906613835
 20
6.0357881054
 30
0.0
 40
3.0
  1
H
 41
0.7
 11
31.5906613835
 21
4.9760079196
 31
0.0
 73
     1
  0
TEXT
  5
11B
  8
PV
 62
     7
 10
106.5906613835
 20
6.0357881054
 30
0.0
 40
3.0
  1
G
 41
0.7
 11
106.5906613835
 21
4.9760079196
 31
0.0
 73
     1
  0
TEXT
  5
11C
  8
PV
 62
     7
 10
180.5906613835
 20
6.0357881054
 30
0.0
 40
3.0
  1
F
 41
0.7
 11
180.5906613835
 21
4.9760079196
 31
0.0
 73
     1
  0
TEXT
  5
11D
  8
PV
 62
     7
 10
254.5906613835
 20
6.0357881054
 30
0.0
 40
3.0
  1
E
 41
0.7
 11
254.5906613835
 21
4.9760079196
 31
0.0
 73
     1
  0
TEXT
  5
11E
  8
PV
 62
     7
 10
328.5906613835
 20
6.0357881054
 30
0.0
 40
3.0
  1
D
 41
0.7
 11
328.5906613835
 21
4.9760079196
 31
0.0
 73
     1
  0
TEXT
  5
11F
  8
PV
 62
     7
 10
585.5906613835
 20
81.0357881054
 30
0.0
 40
3.0
  1
2
 41
0.7
 11
585.5906613835
 21
79.9760079196
 31
0.0
 73
     1
  0
TEXT
  5
120
  8
PV
 62
     7
 10
585.5906613835
 20
134.0357881054
 30
0.0
 40
3.0
  1
3
 41
0.7
 11
585.5906613835
 21
132.9760079196
 31
0.0
 73
     1
  0
TEXT
  5
121
  8
PV
 62
     7
 10
585.5906613835
 20
291.0357881054
 30
0.0
 40
3.0
  1
6
 41
0.7
 11
585.5906613835
 21
289.9760079196
 31
0.0
 73
     1
  0
TEXT
  5
122
  8
PV
 62
     7
 10
585.5906613835
 20
239.0357881054
 30
0.0
 40
3.0
  1
5
 41
0.7
 11
585.5906613835
 21
237.9760079196
 31
0.0
 73
     1
  0
TEXT
  5
123
  8
PV
 62
     7
 10
585.5906613835
 20
344.0357881054
 30
0.0
 40
3.0
  1
7
 41
0.7
 11
585.5906613835
 21
342.9760079196
 31
0.0
 73
     1
  0
TEXT
  5
124
  8
PV
 62
     7
 10
585.5906613835
 20
186.0357881054
 30
0.0
 40
3.0
  1
4
 41
0.7
 11
585.5906613835
 21
184.9760079196
 31
0.0
 73
     1
  0
TEXT
  5
125
  8
PV
 62
     7
 10
585.5906613835
 20
396.0357881054
 30
0.0
 40
3.0
  1
8
 41
0.7
 11
585.5906613835
 21
394.9760079196
 31
0.0
 73
     1
  0
TEXT
  5
126
  8
PV
 62
     7
 10
402.5906613835
 20
6.0357881054
 30
0.0
 40
3.0
  1
C
 41
0.7
 11
402.5906613835
 21
4.9760079196
 31
0.0
 73
     1
  0
TEXT
  5
127
  8
PV
 62
     7
 10
551.5906613835
 20
6.0357881054
 30
0.0
 40
3.0
  1
A
 41
0.7
 11
551.5906613835
 21
4.9760079196
 31
0.0
 73
     1
  0
TEXT
  5
128
  8
PV
 62
     7
 10
477.5906613835
 20
6.0357881054
 30
0.0
 40
3.0
  1
B
 41
0.7
 11
477.5906613835
 21
4.9760079196
 31
0.0
 73
     1
  0
TEXT
  5
129
  8
PV
 62
     7
 10
402.734339184
 20
410.122019872
 30
0.0
 40
3.0
  1
C
 41
0.7
 11
402.734339184
 21
409.0622396862
 31
0.0
 73
     1
  0
TEXT
  5
12A
  8
PV
 62
     7
 10
551.734339184
 20
410.122019872
 30
0.0
 40
3.0
  1
A
 41
0.7
 11
551.734339184
 21
409.0622396862
 31
0.0
 73
     1
  0
TEXT
  5
12B
  8
PV
 62
     7
 10
328.734339184
 20
410.122019872
 30
0.0
 40
3.0
  1
D
 41
0.7
 11
328.734339184
 21
409.0622396862
 31
0.0
 73
     1
  0
TEXT
  5
12C
  8
PV
 62
     7
 10
477.734339184
 20
410.122019872
 30
0.0
 40
3.0
  1
B
 41
0.7
 11
477.734339184
 21
409.0622396862
 31
0.0
 73
     1
  0
TEXT
  5
12D
  8
PV
 62
     7
 10
31.734339184
 20
410.122019872
 30
0.0
 40
3.0
  1
H
 41
0.7
 11
31.734339184
 21
409.0622396862
 31
0.0
 73
     1
  0
TEXT
  5
12E
  8
PV
 62
     7
 10
180.734339184
 20
410.122019872
 30
0.0
 40
3.0
  1
F
 41
0.7
 11
180.734339184
 21
409.0622396862
 31
0.0
 73
     1
  0
TEXT
  5
12F
  8
PV
 62
     7
 10
254.734339184
 20
410.122019872
 30
0.0
 40
3.0
  1
E
 41
0.7
 11
254.734339184
 21
409.0622396862
 31
0.0
 73
     1
  0
TEXT
  5
130
  8
PV
 62
     7
 10
106.734339184
 20
410.122019872
 30
0.0
 40
3.0
  1
G
 41
0.7
 11
106.734339184
 21
409.0622396862
 31
0.0
 73
     1
  0
TEXT
  5
131
  8
PV
 62
     7
 10
7.5898200332
 20
28.9294140772
 30
0.0
 40
3.0
  1
1
 41
0.7
 11
7.5898200332
 21
27.8696338914
 31
0.0
 73
     1
  0
TEXT
  5
132
  8
PV
 62
     7
 10
7.5898200332
 20
343.9294140772
 30
0.0
 40
3.0
  1
7
 41
0.7
 11
7.5898200332
 21
342.8696338914
 31
0.0
 73
     1
  0
TEXT
  5
133
  8
PV
 62
     7
 10
7.5898200332
 20
80.9294140772
 30
0.0
 40
3.0
  1
2
 41
0.7
 11
7.5898200332
 21
79.8696338914
 31
0.0
 73
     1
  0
TEXT
  5
134
  8
PV
 62
     7
 10
7.5898200332
 20
133.9294140772
 30
0.0
 40
3.0
  1
3
 41
0.7
 11
7.5898200332
 21
132.8696338914
 31
0.0
 73
     1
  0
TEXT
  5
135
  8
PV
 62
     7
 10
7.5898200332
 20
185.9294140772
 30
0.0
 40
3.0
  1
4
 41
0.7
 11
7.5898200332
 21
184.8696338914
 31
0.0
 73
     1
  0
TEXT
  5
136
  8
PV
 62
     7
 10
7.5898200332
 20
238.9294140772
 30
0.0
 40
3.0
  1
5
 41
0.7
 11
7.5898200332
 21
237.8696338914
 31
0.0
 73
     1
  0
TEXT
  5
137
  8
PV
 62
     7
 10
7.5898200332
 20
290.9294140772
 30
0.0
 40
3.0
  1
6
 41
0.7
 11
7.5898200332
 21
289.8696338914
 31
0.0
 73
     1
  0
TEXT
  5
138
  8
PV
 62
     7
 10
7.5898200332
 20
395.9294140772
 30
0.0
 40
3.0
  1
8
 41
0.7
 11
7.5898200332
 21
394.8696338914
 31
0.0
 73
     1
  0
INSERT
  5
140
  8
PV
  2
SW_NOTE_1
 10
588.3870939717
 20
11.0037358829
 30
0.0
  0
TEXT
  5
141
  8
PV
 10
440.1644629696
 20
12.4259233494
 30
0.0
 40
4.4
  1
41.8178 . 02 . PM . 01
 41
0.6045454545
 11
440.1644629696
 21
10.8715790769
 31
0.0
 73
     1
  0
TEXT
  5
142
  8
PV
 10
566.3652583984
 20
38.1444864892
 30
0.0
 40
2.0
  1
-
 41
0.7
 11
566.3652583984
 21
37.4379663654
 31
0.0
 73
     1
  0
TEXT
  5
143
  8
PV
 10
566.3258344188
 20
42.1363209952
 30
0.0
 40
2.0
  1
-
 41
0.7
 11
566.3258344188
 21
41.4298008714
 31
0.0
 73
     1
  0
TEXT
  5
144
  8
PV
 10
566.3258344188
 20
46.0546768622
 30
0.0
 40
2.0
  1
02
 41
0.7
 11
566.3258344188
 21
45.3481567384
 31
0.0
 73
     1
  0
TEXT
  5
145
  8
PV
 10
566.3258344188
 20
50.08827849
 30
0.0
 40
2.0
  1
01
 41
0.7
 11
566.3258344188
 21
49.3817583662
 31
0.0
 73
     1
  0
TEXT
  5
146
  8
PV
 10
577.5861797188
 20
37.9128664824
 30
0.0
 40
2.0
  1
-
 41
0.7
 11
577.5861797188
 21
37.2063463586
 31
0.0
 73
     1
  0
TEXT
  5
147
  8
PV
 10
577.5823974363
 20
45.8737807329
 30
0.0
 40
2.0
  1
01
 41
0.7
 11
577.5823974363
 21
45.167260609
 31
0.0
 73
     1
  0
TEXT
  5
148
  8
PV
 10
577.5632959845
 20
49.870998212
 30
0.0
 40
2.0
  1
02
 41
0.7
 11
577.5632959845
 21
49.1644780882
 31
0.0
 73
     1
  0
TEXT
  5
149
  8
PV
 10
577.5632959845
 20
41.9190407172
 30
0.0
 40
2.0
  1
-
 41
0.7
 11
577.5632959845
 21
41.2125205934
 31
0.0
 73
     1
  0
TEXT
  5
14A
  8
PV
 10
425.6908145916
 20
38.0423135608
 30
0.0
 40
2.0
  1
-
 41
0.7
 11
425.6908145916
 21
37.3357934369
 31
0.0
 73
     1
  0
TEXT
  5
14B
  8
PV
 10
425.6908145916
 20
42.0439024773
 30
0.0
 40
2.0
  1
-
 41
0.7
 11
425.6908145916
 21
41.3373823534
 31
0.0
 73
     1
  0
TEXT
  5
14C
  8
PV
 10
425.6908145916
 20
46.0070761402
 30
0.0
 40
2.0
  1
CHANGE TUBULAR NUT LENGTH AND LOCATION + ADDTION OF 3 SLOTS
 41
0.6406779661
 11
425.6908145916
 21
45.3005560163
 31
0.0
 73
     1
  0
TEXT
  5
14D
  8
PV
 10
425.6908145916
 20
49.9830548876
 30
0.0
 40
2.0
  1
Add unfolded view for iunformation
 41
0.6588235294
 11
425.6908145916
 21
49.2765347637
 31
0.0
 73
     1
  0
TEXT
  5
14E
  8
PV
 10
415.3290735668
 20
38.0423135608
 30
0.0
 40
2.0
  1
-
 41
0.7
 11
415.3290735668
 21
37.3357934369
 31
0.0
 73
     1
  0
TEXT
  5
14F
  8
PV
 10
415.3290735668
 20
42.0250797452
 30
0.0
 40
2.0
  1
-
 41
0.7
 11
415.3290735668
 21
41.3185596213
 31
0.0
 73
     1
  0
TEXT
  5
150
  8
PV
 10
415.3021194023
 20
46.0186673927
 30
0.0
 40
2.0
  1
PR
 41
0.7
 11
415.3021194023
 21
45.3121472689
 31
0.0
 73
     1
  0
TEXT
  5
151
  8
PV
 10
415.3278460582
 20
49.980242329
 30
0.0
 40
2.0
  1
NBE
 41
0.7
 11
415.3278460582
 21
49.2737222051
 31
0.0
 73
     1
  0
TEXT
  5
152
  8
PV
 10
398.8931852708
 20
38.0475629607
 30
0.0
 40
2.0
  1
-
 41
0.7
 11
398.8931852708
 21
37.3410428368
 31
0.0
 73
     1
  0
TEXT
  5
153
  8
PV
 10
398.9013453163
 20
42.0051922702
 30
0.0
 40
2.0
  1
-
 41
0.7
 11
398.9013453163
 21
41.2986721464
 31
0.0
 73
     1
  0
TEXT
  5
154
  8
PV
 10
398.8931852708
 20
46.0197658864
 30
0.0
 40
2.0
  1
24/04/12
 41
0.7
 11
398.8931852708
 21
45.3132457626
 31
0.0
 73
     1
  0
TEXT
  5
155
  8
PV
 10
398.8931852708
 20
49.977395196
 30
0.0
 40
2.0
  1
14/12/10
 41
0.7
 11
398.8931852708
 21
49.2708750721
 31
0.0
 73
     1
  0
TEXT
  5
156
  8
PV
 10
438.9278781482
 20
33.7310753856
 30
0.0
 40
2.2
  1
PROD. NAME : E269 - Laser Bracket plate 
 41
0.63
 11
438.9278781482
 21
32.9539032493
 31
0.0
 73
     1
  0
TEXT
  5
157
  8
PV
 10
438.903305149
 20
21.9350671487
 30
0.0
 40
2.0
  1
MATERIAL: See Note 1
 41
0.6475
 11
438.903305149
 21
21.2285470248
 31
0.0
 73
     1
  0
TEXT
  5
158
  8
PV
 10
566.3258344188
 20
54.0133275694
 30
0.0
 40
2.0
  1
01
 41
0.7
 11
566.3258344188
 21
53.3068074456
 31
0.0
 73
     1
  0
TEXT
  5
159
  8
PV
 10
577.5632959845
 20
54.0133275694
 30
0.0
 40
2.0
  1
01
 41
0.7
 11
577.5632959845
 21
53.3068074456
 31
0.0
 73
     1
  0
TEXT
  5
15A
  8
PV
 10
425.9159366751
 20
53.9553585312
 30
0.0
 40
2.0
  1
Add external dimensions + Add Cable opening
 41
0.6511627907
 11
425.9159366751
 21
53.2488384073
 31
0.0
 73
     1
  0
TEXT
  5
15B
  8
PV
 10
415.2412218154
 20
53.5890338952
 30
0.0
 40
2.0
  1
NBE
 41
0.7
 11
415.2412218154
 21
52.8825137713
 31
0.0
 73
     1
  0
TEXT
  5
15C
  8
PV
 10
397.6749058147
 20
66.5681613329
 30
0.0
 40
2.0
  1
THIS DRAWING IS THE PROPERTY OF BEA AND MAY NOT BE REPRODUCED WITHOUT WRITTEN AGREEMENT
 41
0.6436781609
 11
397.6749058147
 21
65.8616412091
 31
0.0
 73
     1
  0
TEXT
  5
15D
  8
PV
 10
475.7550930738
 20
61.7798465232
 30
0.0
 40
2.2
  1
MODIFICATIONS LIST
 41
0.7
 11
475.7550930738
 21
61.002674387
 31
0.0
 73
     1
  0
TEXT
  5
15E
  8
PV
 10
575.5376015728
 20
58.0849600282
 30
0.0
 40
2.0
  1
Rev :
 41
0.7
 11
575.5376015728
 21
57.3784399043
 31
0.0
 73
     1
  0
TEXT
  5
15F
  8
PV
 10
564.3433691488
 20
58.0849600282
 30
0.0
 40
2.0
  1
Ver :
 41
0.7
 11
564.3433691488
 21
57.3784399043
 31
0.0
 73
     1
  0
TEXT
  5
160
  8
PV
 10
425.7545021544
 20
58.2391520443
 30
0.0
 40
2.0
  1
Description :
 41
0.7
 11
425.7545021544
 21
57.5326319205
 31
0.0
 73
     1
  0
TEXT
  5
161
  8
PV
 10
415.5113620632
 20
58.2699361648
 30
0.0
 40
2.0
  1
By :
 41
0.7
 11
415.5113620632
 21
57.563416041
 31
0.0
 73
     1
  0
TEXT
  5
162
  8
PV
 10
399.0593828123
 20
53.9914748582
 30
0.0
 40
2.0
  1
13/12/10
 41
0.7
 11
399.0593828123
 21
53.2849547343
 31
0.0
 73
     1
  0
TEXT
  5
163
  8
PV
 10
399.2961353124
 20
58.2157968739
 30
0.0
 40
2.0
  1
Date : 
 41
0.6
 11
399.2961353124
 21
57.50927675
 31
0.0
 73
     1
  0
TEXT
  5
164
  8
PV
 10
438.9381013623
 20
29.7608788228
 30
0.0
 40
2.2
  1
TITLE : Laser Bracket Plate  
 41
0.6275862069
 11
438.9381013623
 21
28.9837066866
 31
0.0
 73
     1
  0
TEXT
  5
165
  8
PV
 10
503.5896023692
 20
12.4259233494
 30
0.0
 40
4.4
  1
1:1
 41
0.7
 11
503.5896023692
 21
10.8715790769
 31
0.0
 73
     1
  0
TEXT
  5
166
  8
PV
 10
519.2785220064
 20
18.5077268693
 30
0.0
 40
2.0
  1
Size
 41
0.7
 11
519.2785220064
 21
17.8012067455
 31
0.0
 73
     1
  0
TEXT
  5
167
  8
PV
 10
551.4220571214
 20
33.9870724198
 30
0.0
 40
2.0
  1
DRAWER : PR
 41
0.6363636364
 11
551.4220571214
 21
33.2805522959
 31
0.0
 73
     1
  0
TEXT
  5
168
  8
PV
 10
551.2682014054
 20
29.9774171753
 30
0.0
 40
2.0
  1
DATE : 07/12/2010
 41
0.6588235294
 11
551.2682014054
 21
29.2708970514
 31
0.0
 73
     1
  0
TEXT
  5
169
  8
PV
 10
438.8881976778
 20
25.8943087891
 30
0.0
 40
2.0
  1
GENERAL TOLERANCE : ± 0.2 mm
 41
0.6375
 11
438.8881976778
 21
25.1877886652
 31
0.0
 73
     1
  0
TEXT
  5
16A
  8
PV
 10
494.111551359
 20
21.9018847062
 30
0.0
 40
2.0
  1
TREATEMENT: See Note 2
 41
0.6522727273
 11
494.111551359
 21
21.1953645824
 31
0.0
 73
     1
  0
TEXT
  5
16B
  8
PV
 10
567.6364963493
 20
25.9373274209
 30
0.0
 40
2.0
  1
APPROVED
 41
0.7
 11
567.6364963493
 21
25.2308072971
 31
0.0
 73
     1
  0
TEXT
  5
16C
  8
PV
 10
551.3495274681
 20
25.9419144624
 30
0.0
 40
2.0
  1
VERIFIED
 41
0.7
 11
551.3495274681
 21
25.2353943385
 31
0.0
 73
     1
  0
TEXT
  5
16D
  8
PV
 10
554.175286699
 20
12.4598651287
 30
0.0
 40
3.5
  1
PAGE: 1 / 1
 41
0.6045454545
 11
554.175286699
 21
11.223454912
 31
0.0
 73
     1
  0
TEXT
  5
16E
  8
PV
 10
463.5434512114
 20
18.4938380558
 30
0.0
 40
2.0
  1
Ver.Obj
 41
0.7
 11
463.5434512114
 21
17.7873179319
 31
0.0
 73
     1
  0
TEXT
  5
16F
  8
PV
 10
446.8465795598
 20
18.4938380558
 30
0.0
 40
2.0
  1
Objet 
 41
0.7
 11
446.8465795598
 21
17.7873179319
 31
0.0
 73
     1
  0
TEXT
  5
170
  8
PV
 10
477.576042655
 20
18.4938380558
 30
0.0
 40
2.0
  1
Doc. 
 41
0.7
 11
477.576042655
 21
17.7873179319
 31
0.0
 73
     1
  0
TEXT
  5
171
  8
LOGO1
 10
408.8437921985
 20
12.9887719592
 30
0.0
 40
1.3229166667
  1
WWW.BEA.BE
 41
0.7
 11
408.8437921985
 21
12.5214383356
 31
0.0
 73
     1
  0
TEXT
  5
172
  8
PV
 10
487.577222462
 20
18.4938380558
 30
0.0
 40
2.0
  1
Rev.Doc. 
 41
0.7
 11
487.577222462
 21
17.7873179319
 31
0.0
 73
     1
  0
TEXT
  5
173
  8
PV
 10
397.6749058147
 20
71.3683641607
 30
0.0
 40
2.0
  1
Part Volume : 15142.17  mm³  - Part Weight : 118.11 gr
 41
0.6222222222
 11
397.6749058147
 21
70.6618440369
 31
0.0
 73
     1
  0
TEXT
  5
174
  8
PV
 10
504.1844303947
 20
18.5077268693
 30
0.0
 40
2.0
  1
Scale
 41
0.7
 11
504.1844303947
 21
17.8012067455
 31
0.0
 73
     1
  0
TEXT
  5
175
  8
PV
 10
517.9979928146
 20
12.4866021583
 30
0.0
 40
4.4
  1
A2
 41
0.7
 11
517.9979928146
 21
10.9322578859
 31
0.0
 73
     1
  0
INSERT
  5
17C
  8
SLD-0
  2
SW_NOTE_2
 10
401.3220164304
 20
14.9354909382
 30
0.0
  0
INSERT
  5
199
  8
PV
  2
SW_TABLEANNOTATION_0
 10
216.2838895978
 20
47.9677828576
 30
0.0
  0
LINE
  5
19A
  8
0
  6
CONTINUOUS
 62
     7
 10
356.118545895
 20
120.435304426
 30
0.0
 11
346.9261577396
 21
115.1286516992
 31
0.0
  0
LINE
  5
19B
  8
0
  6
CONTINUOUS
 62
     7
 10
350.6258570504
 20
108.7198901175
 30
0.0
 11
359.8182452058
 21
114.0265428444
 31
0.0
  0
LINE
  5
19C
  8
0
  6
CONTINUOUS
 62
     7
 10
326.618545895
 20
171.5308030993
 30
0.0
 11
317.4261577396
 21
166.2241503725
 31
0.0
  0
LINE
  5
19D
  8
0
  6
CONTINUOUS
 62
     7
 10
321.1258570504
 20
159.8153887909
 30
0.0
 11
330.3182452058
 21
165.1220415177
 31
0.0
  0
LINE
  5
19E
  8
0
  6
CONTINUOUS
 62
     7
 10
326.618545895
 20
137.4652919325
 30
0.0
 11
317.4261577396
 21
132.1586392057
 31
0.0
  0
LINE
  5
19F
  8
0
  6
CONTINUOUS
 62
     7
 10
321.1258570504
 20
125.7498776241
 30
0.0
 11
330.3182452058
 21
131.0565303509
 31
0.0
  0
LINE
  5
1A0
  8
0
  6
CONTINUOUS
 62
     7
 10
356.118545895
 20
154.5008155928
 30
0.0
 11
346.9261577396
 21
149.194162866
 31
0.0
  0
LINE
  5
1A1
  8
0
  6
CONTINUOUS
 62
     7
 10
350.6258570504
 20
142.7854012843
 30
0.0
 11
359.8182452058
 21
148.0920540112
 31
0.0
  0
LINE
  5
1A2
  8
0
  6
CONTINUOUS
 62
     7
 10
337.4935218162
 20
173.8098778248
 30
0.0
 11
337.4935218162
 21
172.176796201
 31
0.0
  0
LINE
  5
1A3
  8
0
  6
CONTINUOUS
 62
     7
 10
329.3617938326
 20
178.5042244678
 30
0.0
 11
329.3617938326
 21
176.871142844
 31
0.0
  0
LINE
  5
1A4
  8
0
  6
CONTINUOUS
 62
     7
 10
359.71392203
 20
180.3350728934
 30
0.0
 11
327.8941168766
 21
198.7042554094
 31
0.0
  0
LINE
  5
1A5
  8
0
  6
CONTINUOUS
 62
     7
 10
319.8158522866
 20
184.0149792226
 30
0.0
 11
319.8158522866
 21
182.3818975988
 31
0.0
  0
LINE
  5
1A6
  8
0
  6
CONTINUOUS
 62
     7
 10
310.9770175218
 20
189.1175299215
 30
0.0
 11
310.9770175218
 21
187.4844482977
 31
0.0
  0
LINE
  5
1A7
  8
0
  6
CONTINUOUS
 62
     7
 10
362.7168108368
 20
109.002767339
 30
0.0
 11
364.1310243992
 21
109.8191754508
 31
0.0
  0
POLYLINE
  5
1A8
  8
0
  6
CONTINUOUS
 62
     7
 66
     1
 10
0.0
 20
0.0
 30
0.0
  0
VERTEX
  5
867
  8
0
  6
CONTINUOUS
 62
     7
 10
351.1646837265
 20
109.3127867848
 30
0.0
  0
VERTEX
  5
868
  8
0
  6
CONTINUOUS
 62
     7
 10
350.867288014
 20
108.9015800023
 30
0.0
  0
VERTEX
  5
869
  8
0
  6
CONTINUOUS
 62
     7
 10
350.4650267587
 20
108.6419435634
 30
0.0
  0
VERTEX
  5
86A
  8
0
  6
CONTINUOUS
 62
     7
 10
349.9780710199
 20
108.5468967234
 30
0.0
  0
VERTEX
  5
86B
  8
0
  6
CONTINUOUS
 62
     7
 10
349.4308387915
 20
108.6212055278
 30
0.0
  0
VERTEX
  5
86C
  8
0
  6
CONTINUOUS
 62
     7
 10
348.8507705826
 20
108.8611438227
 30
0.0
  0
VERTEX
  5
86D
  8
0
  6
CONTINUOUS
 62
     7
 10
348.2669534352
 20
109.2546801002
 30
0.0
  0
VERTEX
  5
86E
  8
0
  6
CONTINUOUS
 62
     7
 10
347.708662379
 20
109.782080808
 30
0.0
  0
VERTEX
  5
86F
  8
0
  6
CONTINUOUS
 62
     7
 10
347.2038924588
 20
110.4168998725
 30
0.0
  0
VERTEX
  5
870
  8
0
  6
CONTINUOUS
 62
     7
 10
346.777954946
 20
111.127304815
 30
0.0
  0
VERTEX
  5
871
  8
0
  6
CONTINUOUS
 62
     7
 10
346.4522081262
 20
111.8776729652
 30
0.0
  0
VERTEX
  5
872
  8
0
  6
CONTINUOUS
 62
     7
 10
346.242986305
 20
112.6303777309
 30
0.0
  0
VERTEX
  5
873
  8
0
  6
CONTINUOUS
 62
     7
 10
346.1607807383
 20
113.347675352
 30
0.0
  0
VERTEX
  5
874
  8
0
  6
CONTINUOUS
 62
     7
 10
346.2097135564
 20
113.9935975307
 30
0.0
  0
VERTEX
  5
875
  8
0
  6
CONTINUOUS
 62
     7
 10
346.3873310634
 20
114.5357550319
 30
0.0
  0
VERTEX
  5
876
  8
0
  6
CONTINUOUS
 62
     7
 10
346.684726776
 20
114.9469618144
 30
0.0
  0
VERTEX
  5
877
  8
0
  6
CONTINUOUS
 62
     7
 10
347.0869880312
 20
115.2065982533
 30
0.0
  0
VERTEX
  5
878
  8
0
  6
CONTINUOUS
 62
     7
 10
347.5739437701
 20
115.3016450933
 30
0.0
  0
VERTEX
  5
879
  8
0
  6
CONTINUOUS
 62
     7
 10
348.1211759984
 20
115.2273362889
 30
0.0
  0
VERTEX
  5
87A
  8
0
  6
CONTINUOUS
 62
     7
 10
348.7012442074
 20
114.987397994
 30
0.0
  0
VERTEX
  5
87B
  8
0
  6
CONTINUOUS
 62
     7
 10
349.2850613547
 20
114.5938617165
 30
0.0
  0
VERTEX
  5
87C
  8
0
  6
CONTINUOUS
 62
     7
 10
349.8433524109
 20
114.0664610087
 30
0.0
  0
VERTEX
  5
87D
  8
0
  6
CONTINUOUS
 62
     7
 10
350.3481223312
 20
113.4316419442
 30
0.0
  0
VERTEX
  5
87E
  8
0
  6
CONTINUOUS
 62
     7
 10
350.7740598439
 20
112.7212370017
 30
0.0
  0
VERTEX
  5
87F
  8
0
  6
CONTINUOUS
 62
     7
 10
351.0998066638
 20
111.9708688515
 30
0.0
  0
VERTEX
  5
880
  8
0
  6
CONTINUOUS
 62
     7
 10
351.3090284849
 20
111.2181640858
 30
0.0
  0
VERTEX
  5
881
  8
0
  6
CONTINUOUS
 62
     7
 10
351.3912340517
 20
110.5008664647
 30
0.0
  0
VERTEX
  5
882
  8
0
  6
CONTINUOUS
 62
     7
 10
351.3423012336
 20
109.854944286
 30
0.0
  0
VERTEX
  5
883
  8
0
  6
CONTINUOUS
 62
     7
 10
351.1646837265
 20
109.3127867848
 30
0.0
  0
SEQEND
  5
99C
  8
0
  6
CONTINUOUS
 62
     7
  0
POLYLINE
  5
1A9
  8
0
  6
CONTINUOUS
 62
     7
 66
     1
 10
0.0
 20
0.0
 30
0.0
  0
VERTEX
  5
884
  8
0
  6
CONTINUOUS
 62
     7
 10
347.4848309995
 20
113.3358839481
 30
0.0
  0
VERTEX
  5
885
  8
0
  6
CONTINUOUS
 62
     7
 10
347.3697404008
 20
112.908971366
 30
0.0
  0
VERTEX
  5
886
  8
0
  6
CONTINUOUS
 62
     7
 10
347.3923050135
 20
112.3856694423
 30
0.0
  0
VERTEX
  5
887
  8
0
  6
CONTINUOUS
 62
     7
 10
347.5503160561
 20
111.8172026154
 30
0.0
  0
VERTEX
  5
888
  8
0
  6
CONTINUOUS
 62
     7
 10
347.8283063068
 20
111.259216379
 30
0.0
  0
VERTEX
  5
889
  8
0
  6
CONTINUOUS
 62
     7
 10
348.1990641431
 20
110.7663303136
 30
0.0
  0
VERTEX
  5
88A
  8
0
  6
CONTINUOUS
 62
     7
 10
348.6262972047
 20
110.3867915415
 30
0.0
  0
VERTEX
  5
88B
  8
0
  6
CONTINUOUS
 62
     7
 10
349.0681849428
 20
110.157751962
 30
0.0
  0
VERTEX
  5
88C
  8
0
  6
CONTINUOUS
 62
     7
 10
349.4814723068
 20
110.1016315651
 30
0.0
  0
VERTEX
  5
88D
  8
0
  6
CONTINUOUS
 62
     7
 10
349.8257038499
 20
110.2239238062
 30
0.0
  0
VERTEX
  5
88E
  8
0
  6
CONTINUOUS
 62
     7
 10
350.0671837904
 20
110.5126578686
 30
0.0
  0
VERTEX
  5
88F
  8
0
  6
CONTINUOUS
 62
     7
 10
350.1822743892
 20
110.9395704507
 30
0.0
  0
VERTEX
  5
890
  8
0
  6
CONTINUOUS
 62
     7
 10
350.1597097765
 20
111.4628723744
 30
0.0
  0
VERTEX
  5
891
  8
0
  6
CONTINUOUS
 62
     7
 10
350.0016987339
 20
112.0313392013
 30
0.0
  0
VERTEX
  5
892
  8
0
  6
CONTINUOUS
 62
     7
 10
349.7237084831
 20
112.5893254377
 30
0.0
  0
VERTEX
  5
893
  8
0
  6
CONTINUOUS
 62
     7
 10
349.3529506468
 20
113.0822115031
 30
0.0
  0
VERTEX
  5
894
  8
0
  6
CONTINUOUS
 62
     7
 10
348.9257175853
 20
113.4617502752
 30
0.0
  0
VERTEX
  5
895
  8
0
  6
CONTINUOUS
 62
     7
 10
348.4838298472
 20
113.6907898547
 30
0.0
  0
VERTEX
  5
896
  8
0
  6
CONTINUOUS
 62
     7
 10
348.0705424832
 20
113.7469102516
 30
0.0
  0
VERTEX
  5
897
  8
0
  6
CONTINUOUS
 62
     7
 10
347.72631094
 20
113.6246180105
 30
0.0
  0
VERTEX
  5
898
  8
0
  6
CONTINUOUS
 62
     7
 10
347.4848309995
 20
113.3358839481
 30
0.0
  0
SEQEND
  5
99B
  8
0
  6
CONTINUOUS
 62
     7
  0
POLYLINE
  5
1AA
  8
0
  6
CONTINUOUS
 62
     7
 66
     1
 10
0.0
 20
0.0
 30
0.0
  0
VERTEX
  5
899
  8
0
  6
CONTINUOUS
 62
     7
 10
321.6646837265
 20
160.4082854582
 30
0.0
  0
VERTEX
  5
89A
  8
0
  6
CONTINUOUS
 62
     7
 10
321.367288014
 20
159.9970786756
 30
0.0
  0
VERTEX
  5
89B
  8
0
  6
CONTINUOUS
 62
     7
 10
320.9650267587
 20
159.7374422367
 30
0.0
  0
VERTEX
  5
89C
  8
0
  6
CONTINUOUS
 62
     7
 10
320.4780710199
 20
159.6423953968
 30
0.0
  0
VERTEX
  5
89D
  8
0
  6
CONTINUOUS
 62
     7
 10
319.9308387915
 20
159.7167042011
 30
0.0
  0
VERTEX
  5
89E
  8
0
  6
CONTINUOUS
 62
     7
 10
319.3507705826
 20
159.956642496
 30
0.0
  0
VERTEX
  5
89F
  8
0
  6
CONTINUOUS
 62
     7
 10
318.7669534352
 20
160.3501787735
 30
0.0
  0
VERTEX
  5
8A0
  8
0
  6
CONTINUOUS
 62
     7
 10
318.208662379
 20
160.8775794813
 30
0.0
  0
VERTEX
  5
8A1
  8
0
  6
CONTINUOUS
 62
     7
 10
317.7038924588
 20
161.5123985458
 30
0.0
  0
VERTEX
  5
8A2
  8
0
  6
CONTINUOUS
 62
     7
 10
317.277954946
 20
162.2228034883
 30
0.0
  0
VERTEX
  5
8A3
  8
0
  6
CONTINUOUS
 62
     7
 10
316.9522081262
 20
162.9731716385
 30
0.0
  0
VERTEX
  5
8A4
  8
0
  6
CONTINUOUS
 62
     7
 10
316.742986305
 20
163.7258764042
 30
0.0
  0
VERTEX
  5
8A5
  8
0
  6
CONTINUOUS
 62
     7
 10
316.6607807383
 20
164.4431740253
 30
0.0
  0
VERTEX
  5
8A6
  8
0
  6
CONTINUOUS
 62
     7
 10
316.7097135564
 20
165.0890962041
 30
0.0
  0
VERTEX
  5
8A7
  8
0
  6
CONTINUOUS
 62
     7
 10
316.8873310634
 20
165.6312537052
 30
0.0
  0
VERTEX
  5
8A8
  8
0
  6
CONTINUOUS
 62
     7
 10
317.184726776
 20
166.0424604877
 30
0.0
  0
VERTEX
  5
8A9
  8
0
  6
CONTINUOUS
 62
     7
 10
317.5869880312
 20
166.3020969266
 30
0.0
  0
VERTEX
  5
8AA
  8
0
  6
CONTINUOUS
 62
     7
 10
318.0739437701
 20
166.3971437666
 30
0.0
  0
VERTEX
  5
8AB
  8
0
  6
CONTINUOUS
 62
     7
 10
318.6211759984
 20
166.3228349623
 30
0.0
  0
VERTEX
  5
8AC
  8
0
  6
CONTINUOUS
 62
     7
 10
319.2012442074
 20
166.0828966673
 30
0.0
  0
VERTEX
  5
8AD
  8
0
  6
CONTINUOUS
 62
     7
 10
319.7850613547
 20
165.6893603898
 30
0.0
  0
VERTEX
  5
8AE
  8
0
  6
CONTINUOUS
 62
     7
 10
320.3433524109
 20
165.161959682
 30
0.0
  0
VERTEX
  5
8AF
  8
0
  6
CONTINUOUS
 62
     7
 10
320.8481223312
 20
164.5271406175
 30
0.0
  0
VERTEX
  5
8B0
  8
0
  6
CONTINUOUS
 62
     7
 10
321.2740598439
 20
163.816735675
 30
0.0
  0
VERTEX
  5
8B1
  8
0
  6
CONTINUOUS
 62
     7
 10
321.5998066638
 20
163.0663675248
 30
0.0
  0
VERTEX
  5
8B2
  8
0
  6
CONTINUOUS
 62
     7
 10
321.8090284849
 20
162.3136627591
 30
0.0
  0
VERTEX
  5
8B3
  8
0
  6
CONTINUOUS
 62
     7
 10
321.8912340517
 20
161.596365138
 30
0.0
  0
VERTEX
  5
8B4
  8
0
  6
CONTINUOUS
 62
     7
 10
321.8423012336
 20
160.9504429593
 30
0.0
  0
VERTEX
  5
8B5
  8
0
  6
CONTINUOUS
 62
     7
 10
321.6646837265
 20
160.4082854582
 30
0.0
  0
SEQEND
  5
99A
  8
0
  6
CONTINUOUS
 62
     7
  0
POLYLINE
  5
1AB
  8
0
  6
CONTINUOUS
 62
     7
 66
     1
 10
0.0
 20
0.0
 30
0.0
  0
VERTEX
  5
8B6
  8
0
  6
CONTINUOUS
 62
     7
 10
317.9848309995
 20
164.4313826214
 30
0.0
  0
VERTEX
  5
8B7
  8
0
  6
CONTINUOUS
 62
     7
 10
317.8697404008
 20
164.0044700393
 30
0.0
  0
VERTEX
  5
8B8
  8
0
  6
CONTINUOUS
 62
     7
 10
317.8923050135
 20
163.4811681157
 30
0.0
  0
VERTEX
  5
8B9
  8
0
  6
CONTINUOUS
 62
     7
 10
318.0503160561
 20
162.9127012887
 30
0.0
  0
VERTEX
  5
8BA
  8
0
  6
CONTINUOUS
 62
     7
 10
318.3283063068
 20
162.3547150523
 30
0.0
  0
VERTEX
  5
8BB
  8
0
  6
CONTINUOUS
 62
     7
 10
318.6990641431
 20
161.8618289869
 30
0.0
  0
VERTEX
  5
8BC
  8
0
  6
CONTINUOUS
 62
     7
 10
319.1262972047
 20
161.4822902148
 30
0.0
  0
VERTEX
  5
8BD
  8
0
  6
CONTINUOUS
 62
     7
 10
319.5681849428
 20
161.2532506353
 30
0.0
  0
VERTEX
  5
8BE
  8
0
  6
CONTINUOUS
 62
     7
 10
319.9814723068
 20
161.1971302384
 30
0.0
  0
VERTEX
  5
8BF
  8
0
  6
CONTINUOUS
 62
     7
 10
320.3257038499
 20
161.3194224795
 30
0.0
  0
VERTEX
  5
8C0
  8
0
  6
CONTINUOUS
 62
     7
 10
320.5671837904
 20
161.6081565419
 30
0.0
  0
VERTEX
  5
8C1
  8
0
  6
CONTINUOUS
 62
     7
 10
320.6822743892
 20
162.035069124
 30
0.0
  0
VERTEX
  5
8C2
  8
0
  6
CONTINUOUS
 62
     7
 10
320.6597097765
 20
162.5583710477
 30
0.0
  0
VERTEX
  5
8C3
  8
0
  6
CONTINUOUS
 62
     7
 10
320.5016987339
 20
163.1268378746
 30
0.0
  0
VERTEX
  5
8C4
  8
0
  6
CONTINUOUS
 62
     7
 10
320.2237084831
 20
163.6848241111
 30
0.0
  0
VERTEX
  5
8C5
  8
0
  6
CONTINUOUS
 62
     7
 10
319.8529506468
 20
164.1777101764
 30
0.0
  0
VERTEX
  5
8C6
  8
0
  6
CONTINUOUS
 62
     7
 10
319.4257175853
 20
164.5572489486
 30
0.0
  0
VERTEX
  5
8C7
  8
0
  6
CONTINUOUS
 62
     7
 10
318.9838298472
 20
164.786288528
 30
0.0
  0
VERTEX
  5
8C8
  8
0
  6
CONTINUOUS
 62
     7
 10
318.5705424832
 20
164.8424089249
 30
0.0
  0
VERTEX
  5
8C9
  8
0
  6
CONTINUOUS
 62
     7
 10
318.22631094
 20
164.7201166839
 30
0.0
  0
VERTEX
  5
8CA
  8
0
  6
CONTINUOUS
 62
     7
 10
317.9848309995
 20
164.4313826214
 30
0.0
  0
SEQEND
  5
999
  8
0
  6
CONTINUOUS
 62
     7
  0
POLYLINE
  5
1AC
  8
0
  6
CONTINUOUS
 62
     7
 66
     1
 10
0.0
 20
0.0
 30
0.0
  0
VERTEX
  5
8CB
  8
0
  6
CONTINUOUS
 62
     7
 10
321.6646837265
 20
126.3427742914
 30
0.0
  0
VERTEX
  5
8CC
  8
0
  6
CONTINUOUS
 62
     7
 10
321.367288014
 20
125.9315675088
 30
0.0
  0
VERTEX
  5
8CD
  8
0
  6
CONTINUOUS
 62
     7
 10
320.9650267587
 20
125.6719310699
 30
0.0
  0
VERTEX
  5
8CE
  8
0
  6
CONTINUOUS
 62
     7
 10
320.4780710199
 20
125.57688423
 30
0.0
  0
VERTEX
  5
8CF
  8
0
  6
CONTINUOUS
 62
     7
 10
319.9308387915
 20
125.6511930343
 30
0.0
  0
VERTEX
  5
8D0
  8
0
  6
CONTINUOUS
 62
     7
 10
319.3507705826
 20
125.8911313292
 30
0.0
  0
VERTEX
  5
8D1
  8
0
  6
CONTINUOUS
 62
     7
 10
318.7669534352
 20
126.2846676067
 30
0.0
  0
VERTEX
  5
8D2
  8
0
  6
CONTINUOUS
 62
     7
 10
318.208662379
 20
126.8120683146
 30
0.0
  0
VERTEX
  5
8D3
  8
0
  6
CONTINUOUS
 62
     7
 10
317.7038924588
 20
127.446887379
 30
0.0
  0
VERTEX
  5
8D4
  8
0
  6
CONTINUOUS
 62
     7
 10
317.277954946
 20
128.1572923215
 30
0.0
  0
VERTEX
  5
8D5
  8
0
  6
CONTINUOUS
 62
     7
 10
316.9522081262
 20
128.9076604717
 30
0.0
  0
VERTEX
  5
8D6
  8
0
  6
CONTINUOUS
 62
     7
 10
316.742986305
 20
129.6603652374
 30
0.0
  0
VERTEX
  5
8D7
  8
0
  6
CONTINUOUS
 62
     7
 10
316.6607807383
 20
130.3776628585
 30
0.0
  0
VERTEX
  5
8D8
  8
0
  6
CONTINUOUS
 62
     7
 10
316.7097135564
 20
131.0235850373
 30
0.0
  0
VERTEX
  5
8D9
  8
0
  6
CONTINUOUS
 62
     7
 10
316.8873310634
 20
131.5657425384
 30
0.0
  0
VERTEX
  5
8DA
  8
0
  6
CONTINUOUS
 62
     7
 10
317.184726776
 20
131.9769493209
 30
0.0
  0
VERTEX
  5
8DB
  8
0
  6
CONTINUOUS
 62
     7
 10
317.5869880312
 20
132.2365857598
 30
0.0
  0
VERTEX
  5
8DC
  8
0
  6
CONTINUOUS
 62
     7
 10
318.0739437701
 20
132.3316325998
 30
0.0
  0
VERTEX
  5
8DD
  8
0
  6
CONTINUOUS
 62
     7
 10
318.6211759984
 20
132.2573237955
 30
0.0
  0
VERTEX
  5
8DE
  8
0
  6
CONTINUOUS
 62
     7
 10
319.2012442074
 20
132.0173855005
 30
0.0
  0
VERTEX
  5
8DF
  8
0
  6
CONTINUOUS
 62
     7
 10
319.7850613547
 20
131.6238492231
 30
0.0
  0
VERTEX
  5
8E0
  8
0
  6
CONTINUOUS
 62
     7
 10
320.3433524109
 20
131.0964485152
 30
0.0
  0
VERTEX
  5
8E1
  8
0
  6
CONTINUOUS
 62
     7
 10
320.8481223312
 20
130.4616294507
 30
0.0
  0
VERTEX
  5
8E2
  8
0
  6
CONTINUOUS
 62
     7
 10
321.2740598439
 20
129.7512245082
 30
0.0
  0
VERTEX
  5
8E3
  8
0
  6
CONTINUOUS
 62
     7
 10
321.5998066638
 20
129.000856358
 30
0.0
  0
VERTEX
  5
8E4
  8
0
  6
CONTINUOUS
 62
     7
 10
321.8090284849
 20
128.2481515923
 30
0.0
  0
VERTEX
  5
8E5
  8
0
  6
CONTINUOUS
 62
     7
 10
321.8912340517
 20
127.5308539712
 30
0.0
  0
VERTEX
  5
8E6
  8
0
  6
CONTINUOUS
 62
     7
 10
321.8423012336
 20
126.8849317925
 30
0.0
  0
VERTEX
  5
8E7
  8
0
  6
CONTINUOUS
 62
     7
 10
321.6646837265
 20
126.3427742914
 30
0.0
  0
SEQEND
  5
998
  8
0
  6
CONTINUOUS
 62
     7
  0
POLYLINE
  5
1AD
  8
0
  6
CONTINUOUS
 62
     7
 66
     1
 10
0.0
 20
0.0
 30
0.0
  0
VERTEX
  5
8E8
  8
0
  6
CONTINUOUS
 62
     7
 10
317.9848309995
 20
130.3658714546
 30
0.0
  0
VERTEX
  5
8E9
  8
0
  6
CONTINUOUS
 62
     7
 10
317.8697404008
 20
129.9389588725
 30
0.0
  0
VERTEX
  5
8EA
  8
0
  6
CONTINUOUS
 62
     7
 10
317.8923050135
 20
129.4156569489
 30
0.0
  0
VERTEX
  5
8EB
  8
0
  6
CONTINUOUS
 62
     7
 10
318.0503160561
 20
128.8471901219
 30
0.0
  0
VERTEX
  5
8EC
  8
0
  6
CONTINUOUS
 62
     7
 10
318.3283063068
 20
128.2892038855
 30
0.0
  0
VERTEX
  5
8ED
  8
0
  6
CONTINUOUS
 62
     7
 10
318.6990641431
 20
127.7963178201
 30
0.0
  0
VERTEX
  5
8EE
  8
0
  6
CONTINUOUS
 62
     7
 10
319.1262972047
 20
127.416779048
 30
0.0
  0
VERTEX
  5
8EF
  8
0
  6
CONTINUOUS
 62
     7
 10
319.5681849428
 20
127.1877394685
 30
0.0
  0
VERTEX
  5
8F0
  8
0
  6
CONTINUOUS
 62
     7
 10
319.9814723068
 20
127.1316190716
 30
0.0
  0
VERTEX
  5
8F1
  8
0
  6
CONTINUOUS
 62
     7
 10
320.3257038499
 20
127.2539113127
 30
0.0
  0
VERTEX
  5
8F2
  8
0
  6
CONTINUOUS
 62
     7
 10
320.5671837904
 20
127.5426453751
 30
0.0
  0
VERTEX
  5
8F3
  8
0
  6
CONTINUOUS
 62
     7
 10
320.6822743892
 20
127.9695579572
 30
0.0
  0
VERTEX
  5
8F4
  8
0
  6
CONTINUOUS
 62
     7
 10
320.6597097765
 20
128.4928598809
 30
0.0
  0
VERTEX
  5
8F5
  8
0
  6
CONTINUOUS
 62
     7
 10
320.5016987339
 20
129.0613267078
 30
0.0
  0
VERTEX
  5
8F6
  8
0
  6
CONTINUOUS
 62
     7
 10
320.2237084831
 20
129.6193129443
 30
0.0
  0
VERTEX
  5
8F7
  8
0
  6
CONTINUOUS
 62
     7
 10
319.8529506468
 20
130.1121990096
 30
0.0
  0
VERTEX
  5
8F8
  8
0
  6
CONTINUOUS
 62
     7
 10
319.4257175853
 20
130.4917377818
 30
0.0
  0
VERTEX
  5
8F9
  8
0
  6
CONTINUOUS
 62
     7
 10
318.9838298472
 20
130.7207773612
 30
0.0
  0
VERTEX
  5
8FA
  8
0
  6
CONTINUOUS
 62
     7
 10
318.5705424832
 20
130.7768977581
 30
0.0
  0
VERTEX
  5
8FB
  8
0
  6
CONTINUOUS
 62
     7
 10
318.22631094
 20
130.6546055171
 30
0.0
  0
VERTEX
  5
8FC
  8
0
  6
CONTINUOUS
 62
     7
 10
317.9848309995
 20
130.3658714546
 30
0.0
  0
SEQEND
  5
997
  8
0
  6
CONTINUOUS
 62
     7
  0
POLYLINE
  5
1AE
  8
0
  6
CONTINUOUS
 62
     7
 66
     1
 10
0.0
 20
0.0
 30
0.0
  0
VERTEX
  5
8FD
  8
0
  6
CONTINUOUS
 62
     7
 10
351.1646837265
 20
143.3782979516
 30
0.0
  0
VERTEX
  5
8FE
  8
0
  6
CONTINUOUS
 62
     7
 10
350.867288014
 20
142.9670911691
 30
0.0
  0
VERTEX
  5
8FF
  8
0
  6
CONTINUOUS
 62
     7
 10
350.4650267587
 20
142.7074547302
 30
0.0
  0
VERTEX
  5
900
  8
0
  6
CONTINUOUS
 62
     7
 10
349.9780710199
 20
142.6124078902
 30
0.0
  0
VERTEX
  5
901
  8
0
  6
CONTINUOUS
 62
     7
 10
349.4308387915
 20
142.6867166946
 30
0.0
  0
VERTEX
  5
902
  8
0
  6
CONTINUOUS
 62
     7
 10
348.8507705826
 20
142.9266549895
 30
0.0
  0
VERTEX
  5
903
  8
0
  6
CONTINUOUS
 62
     7
 10
348.2669534352
 20
143.320191267
 30
0.0
  0
VERTEX
  5
904
  8
0
  6
CONTINUOUS
 62
     7
 10
347.708662379
 20
143.8475919748
 30
0.0
  0
VERTEX
  5
905
  8
0
  6
CONTINUOUS
 62
     7
 10
347.2038924588
 20
144.4824110393
 30
0.0
  0
VERTEX
  5
906
  8
0
  6
CONTINUOUS
 62
     7
 10
346.777954946
 20
145.1928159818
 30
0.0
  0
VERTEX
  5
907
  8
0
  6
CONTINUOUS
 62
     7
 10
346.4522081262
 20
145.943184132
 30
0.0
  0
VERTEX
  5
908
  8
0
  6
CONTINUOUS
 62
     7
 10
346.242986305
 20
146.6958888977
 30
0.0
  0
VERTEX
  5
909
  8
0
  6
CONTINUOUS
 62
     7
 10
346.1607807383
 20
147.4131865188
 30
0.0
  0
VERTEX
  5
90A
  8
0
  6
CONTINUOUS
 62
     7
 10
346.2097135564
 20
148.0591086975
 30
0.0
  0
VERTEX
  5
90B
  8
0
  6
CONTINUOUS
 62
     7
 10
346.3873310634
 20
148.6012661986
 30
0.0
  0
VERTEX
  5
90C
  8
0
  6
CONTINUOUS
 62
     7
 10
346.684726776
 20
149.0124729812
 30
0.0
  0
VERTEX
  5
90D
  8
0
  6
CONTINUOUS
 62
     7
 10
347.0869880312
 20
149.2721094201
 30
0.0
  0
VERTEX
  5
90E
  8
0
  6
CONTINUOUS
 62
     7
 10
347.5739437701
 20
149.3671562601
 30
0.0
  0
VERTEX
  5
90F
  8
0
  6
CONTINUOUS
 62
     7
 10
348.1211759984
 20
149.2928474557
 30
0.0
  0
VERTEX
  5
910
  8
0
  6
CONTINUOUS
 62
     7
 10
348.7012442074
 20
149.0529091608
 30
0.0
  0
VERTEX
  5
911
  8
0
  6
CONTINUOUS
 62
     7
 10
349.2850613547
 20
148.6593728833
 30
0.0
  0
VERTEX
  5
912
  8
0
  6
CONTINUOUS
 62
     7
 10
349.8433524109
 20
148.1319721755
 30
0.0
  0
VERTEX
  5
913
  8
0
  6
CONTINUOUS
 62
     7
 10
350.3481223312
 20
147.497153111
 30
0.0
  0
VERTEX
  5
914
  8
0
  6
CONTINUOUS
 62
     7
 10
350.7740598439
 20
146.7867481685
 30
0.0
  0
VERTEX
  5
915
  8
0
  6
CONTINUOUS
 62
     7
 10
351.0998066638
 20
146.0363800183
 30
0.0
  0
VERTEX
  5
916
  8
0
  6
CONTINUOUS
 62
     7
 10
351.3090284849
 20
145.2836752526
 30
0.0
  0
VERTEX
  5
917
  8
0
  6
CONTINUOUS
 62
     7
 10
351.3912340517
 20
144.5663776315
 30
0.0
  0
VERTEX
  5
918
  8
0
  6
CONTINUOUS
 62
     7
 10
351.3423012336
 20
143.9204554528
 30
0.0
  0
VERTEX
  5
919
  8
0
  6
CONTINUOUS
 62
     7
 10
351.1646837265
 20
143.3782979516
 30
0.0
  0
SEQEND
  5
996
  8
0
  6
CONTINUOUS
 62
     7
  0
POLYLINE
  5
1AF
  8
0
  6
CONTINUOUS
 62
     7
 66
     1
 10
0.0
 20
0.0
 30
0.0
  0
VERTEX
  5
91A
  8
0
  6
CONTINUOUS
 62
     7
 10
347.4848309995
 20
147.4013951149
 30
0.0
  0
VERTEX
  5
91B
  8
0
  6
CONTINUOUS
 62
     7
 10
347.3697404008
 20
146.9744825328
 30
0.0
  0
VERTEX
  5
91C
  8
0
  6
CONTINUOUS
 62
     7
 10
347.3923050135
 20
146.4511806091
 30
0.0
  0
VERTEX
  5
91D
  8
0
  6
CONTINUOUS
 62
     7
 10
347.5503160561
 20
145.8827137822
 30
0.0
  0
VERTEX
  5
91E
  8
0
  6
CONTINUOUS
 62
     7
 10
347.8283063068
 20
145.3247275458
 30
0.0
  0
VERTEX
  5
91F
  8
0
  6
CONTINUOUS
 62
     7
 10
348.1990641431
 20
144.8318414804
 30
0.0
  0
VERTEX
  5
920
  8
0
  6
CONTINUOUS
 62
     7
 10
348.6262972047
 20
144.4523027083
 30
0.0
  0
VERTEX
  5
921
  8
0
  6
CONTINUOUS
 62
     7
 10
349.0681849428
 20
144.2232631288
 30
0.0
  0
VERTEX
  5
922
  8
0
  6
CONTINUOUS
 62
     7
 10
349.4814723068
 20
144.1671427319
 30
0.0
  0
VERTEX
  5
923
  8
0
  6
CONTINUOUS
 62
     7
 10
349.8257038499
 20
144.289434973
 30
0.0
  0
VERTEX
  5
924
  8
0
  6
CONTINUOUS
 62
     7
 10
350.0671837904
 20
144.5781690354
 30
0.0
  0
VERTEX
  5
925
  8
0
  6
CONTINUOUS
 62
     7
 10
350.1822743892
 20
145.0050816175
 30
0.0
  0
VERTEX
  5
926
  8
0
  6
CONTINUOUS
 62
     7
 10
350.1597097765
 20
145.5283835412
 30
0.0
  0
VERTEX
  5
927
  8
0
  6
CONTINUOUS
 62
     7
 10
350.0016987339
 20
146.0968503681
 30
0.0
  0
VERTEX
  5
928
  8
0
  6
CONTINUOUS
 62
     7
 10
349.7237084831
 20
146.6548366045
 30
0.0
  0
VERTEX
  5
929
  8
0
  6
CONTINUOUS
 62
     7
 10
349.3529506468
 20
147.1477226699
 30
0.0
  0
VERTEX
  5
92A
  8
0
  6
CONTINUOUS
 62
     7
 10
348.9257175853
 20
147.527261442
 30
0.0
  0
VERTEX
  5
92B
  8
0
  6
CONTINUOUS
 62
     7
 10
348.4838298472
 20
147.7563010215
 30
0.0
  0
VERTEX
  5
92C
  8
0
  6
CONTINUOUS
 62
     7
 10
348.0705424832
 20
147.8124214184
 30
0.0
  0
VERTEX
  5
92D
  8
0
  6
CONTINUOUS
 62
     7
 10
347.72631094
 20
147.6901291773
 30
0.0
  0
VERTEX
  5
92E
  8
0
  6
CONTINUOUS
 62
     7
 10
347.4848309995
 20
147.4013951149
 30
0.0
  0
SEQEND
  5
995
  8
0
  6
CONTINUOUS
 62
     7
  0
POLYLINE
  5
1B0
  8
0
  6
CONTINUOUS
 62
     7
 66
     1
 10
0.0
 20
0.0
 30
0.0
  0
VERTEX
  5
92F
  8
0
  6
CONTINUOUS
 62
     7
 10
344.9861625034
 20
182.9944690828
 30
0.0
  0
VERTEX
  5
930
  8
0
  6
CONTINUOUS
 62
     7
 10
345.5558069895
 20
183.2406421826
 30
0.0
  0
VERTEX
  5
931
  8
0
  6
CONTINUOUS
 62
     7
 10
346.2225162325
 20
183.3841961396
 30
0.0
  0
VERTEX
  5
932
  8
0
  6
CONTINUOUS
 62
     7
 10
346.9322774143
 20
183.4135010659
 30
0.0
  0
VERTEX
  5
933
  8
0
  6
CONTINUOUS
 62
     7
 10
347.6275899053
 20
183.3261828507
 30
0.0
  0
VERTEX
  5
934
  8
0
  6
CONTINUOUS
 62
     7
 10
348.2521236226
 20
183.1293154965
 30
0.0
  0
VERTEX
  5
935
  8
0
  6
CONTINUOUS
 62
     7
 10
348.7552825586
 20
182.8388480255
 30
0.0
  0
VERTEX
  5
936
  8
0
  6
CONTINUOUS
 62
     7
 10
349.0963037688
 20
182.4783123847
 30
0.0
  0
VERTEX
  5
937
  8
0
  6
CONTINUOUS
 62
     7
 10
349.2475597429
 20
182.0769170276
 30
0.0
  0
VERTEX
  5
938
  8
0
  6
CONTINUOUS
 62
     7
 10
349.1967966213
 20
181.6671806188
 30
0.0
  0
VERTEX
  5
939
  8
0
  6
CONTINUOUS
 62
     7
 10
348.9481269303
 20
181.2822975653
 30
0.0
  0
VERTEX
  5
93A
  8
0
  6
CONTINUOUS
 62
     7
 10
348.5216964093
 20
180.9534488032
 30
0.0
  0
SEQEND
  5
994
  8
0
  6
CONTINUOUS
 62
     7
  0
LINE
  5
1B1
  8
0
  6
CONTINUOUS
 62
     7
 10
334.9098908715
 20
177.177561286
 30
0.0
 11
344.9861625034
 21
182.9944690828
 31
0.0
  0
ARC
  5
1B2
  8
0
  6
CONTINUOUS
 62
     7
 10
332.6117938326
 20
181.6128723122
 30
0.0
 40
4.995321200712966
 50
242.6096722366
 51
297.3903277634
  0
ARC
  5
1B3
  8
0
  6
CONTINUOUS
 62
     7
 10
330.8172096308
 20
178.5042244678
 30
0.0
 40
1.418999779711374
 50
110.7834207995
 51
249.2165792005
  0
LINE
  5
1B4
  8
0
  6
CONTINUOUS
 62
     7
 10
343.9255023316
 20
187.6888157258
 30
0.0
 11
330.3136967937
 21
179.8308876495
 31
0.0
  0
ARC
  5
1B5
  8
0
  6
CONTINUOUS
 62
     7
 10
343.8480388182
 20
187.8929177537
 30
0.0
 40
0.2183076584172026
 50
290.7834207995
 51
69.2165792005
  0
LINE
  5
1B6
  8
0
  6
CONTINUOUS
 62
     7
 10
357.7140845647
 20
180.1370406914
 30
0.0
 11
343.9255023316
 21
188.0970197817
 31
0.0
  0
LINE
  5
1B7
  8
0
  6
CONTINUOUS
 62
     7
 10
357.7140845647
 20
180.1370406914
 30
0.0
 11
343.7487256363
 21
172.0750105872
 31
0.0
  0
ARC
  5
1B8
  8
0
  6
CONTINUOUS
 62
     7
 10
341.4506285974
 20
176.5103216133
 30
0.0
 40
4.995321200713067
 50
242.6096722366
 51
297.3903277634
  0
LINE
  5
1B9
  8
0
  6
CONTINUOUS
 62
     7
 10
339.1525315586
 20
172.0750105872
 30
0.0
 11
338.4454247774
 21
172.4832146431
 31
0.0
  0
ARC
  5
1BA
  8
0
  6
CONTINUOUS
 62
     7
 10
338.9489376145
 20
173.8098778248
 30
0.0
 40
1.418999779711368
 50
110.7834207995
 51
249.2165792005
  0
LINE
  5
1BB
  8
0
  6
CONTINUOUS
 62
     7
 10
348.5216964093
 20
180.9534488032
 30
0.0
 11
338.4454247774
 21
175.1365410065
 31
0.0
  0
LINE
  5
1BC
  8
0
  6
CONTINUOUS
 62
     7
 10
343.7487256363
 20
172.0750105872
 30
0.0
 11
343.7487256363
 21
170.4419289634
 31
0.0
  0
ARC
  5
1BD
  8
0
  6
CONTINUOUS
 62
     7
 10
341.4506285974
 20
174.8772399895
 30
0.0
 40
4.995321200713017
 50
242.6096722366
 51
297.3903277634
  0
LINE
  5
1BE
  8
0
  6
CONTINUOUS
 62
     7
 10
339.1525315586
 20
170.4419289634
 30
0.0
 11
339.1525315586
 21
172.0750105872
 31
0.0
  0
ARC
  5
1BF
  8
0
  6
CONTINUOUS
 62
     7
 10
358.8182142198
 20
178.7834024551
 30
0.0
 40
1.746836789713988
 50
350.7859630095
 51
129.2032852357
  0
LINE
  5
1C0
  8
0
  6
CONTINUOUS
 62
     7
 10
360.5425116895
 20
178.5036936675
 30
0.0
 11
360.5425116895
 21
177.6871528556
 31
0.0
  0
LINE
  5
1C1
  8
0
  6
CONTINUOUS
 62
     7
 10
360.5425116895
 20
177.6871528556
 30
0.0
 11
359.1282981271
 21
176.8707447438
 31
0.0
  0
LINE
  5
1C2
  8
0
  6
CONTINUOUS
 62
     7
 10
359.1282981271
 20
177.6872855557
 30
0.0
 11
359.1282981271
 21
176.8707447438
 31
0.0
  0
ARC
  5
1C3
  8
0
  6
CONTINUOUS
 62
     7
 10
358.2661493922
 20
177.8271399495
 30
0.0
 40
0.8734183948569917
 50
350.7859630095
 51
129.2032852357
  0
LINE
  5
1C4
  8
0
  6
CONTINUOUS
 62
     7
 10
343.7487256363
 20
170.4419289634
 30
0.0
 11
357.7140845647
 21
178.5039590676
 31
0.0
  0
LINE
  5
1C5
  8
0
  6
CONTINUOUS
 62
     7
 10
338.4454247774
 20
172.4832146431
 30
0.0
 11
338.4454247774
 21
170.8501330193
 31
0.0
  0
LINE
  5
1C6
  8
0
  6
CONTINUOUS
 62
     7
 10
339.1525315586
 20
170.4419289634
 30
0.0
 11
338.4454247774
 21
170.8501330193
 31
0.0
  0
ARC
  5
1C7
  8
0
  6
CONTINUOUS
 62
     7
 10
339.1200072693
 20
172.3389919259
 30
0.0
 40
1.634552655105121
 50
185.6947992512
 51
245.6253417064
  0
LINE
  5
1C8
  8
0
  6
CONTINUOUS
 62
     7
 10
359.1282981271
 20
176.8707447438
 30
0.0
 11
369.1922553936
 21
138.4843082259
 31
0.0
  0
POLYLINE
  5
1C9
  8
0
  6
CONTINUOUS
 62
     7
 66
     1
 10
0.0
 20
0.0
 30
0.0
  0
VERTEX
  5
93B
  8
0
  6
CONTINUOUS
 62
     7
 10
369.1922553936
 20
138.4843082259
 30
0.0
  0
VERTEX
  5
93C
  8
0
  6
CONTINUOUS
 62
     7
 10
369.7736179612
 20
136.0375114809
 30
0.0
  0
VERTEX
  5
93D
  8
0
  6
CONTINUOUS
 62
     7
 10
370.2264664716
 20
133.6233386018
 30
0.0
  0
VERTEX
  5
93E
  8
0
  6
CONTINUOUS
 62
     7
 10
370.5486093636
 20
131.2534729834
 30
0.0
  0
VERTEX
  5
93F
  8
0
  6
CONTINUOUS
 62
     7
 10
370.7384876258
 20
128.9393835956
 30
0.0
  0
VERTEX
  5
940
  8
0
  6
CONTINUOUS
 62
     7
 10
370.7951823421
 20
126.6922694791
 30
0.0
  0
VERTEX
  5
941
  8
0
  6
CONTINUOUS
 62
     7
 10
370.7184191382
 20
124.5230055477
 30
0.0
  0
VERTEX
  5
942
  8
0
  6
CONTINUOUS
 62
     7
 10
370.5085695098
 20
122.4420899588
 30
0.0
  0
VERTEX
  5
943
  8
0
  6
CONTINUOUS
 62
     7
 10
370.1666490246
 20
120.459593308
 30
0.0
  0
VERTEX
  5
944
  8
0
  6
CONTINUOUS
 62
     7
 10
369.6943124076
 20
118.5851098922
 30
0.0
  0
VERTEX
  5
945
  8
0
  6
CONTINUOUS
 62
     7
 10
369.0938455329
 20
116.827711278
 30
0.0
  0
VERTEX
  5
946
  8
0
  6
CONTINUOUS
 62
     7
 10
368.3681543612
 20
115.1959023999
 30
0.0
  0
VERTEX
  5
947
  8
0
  6
CONTINUOUS
 62
     7
 10
367.5207508766
 20
113.6975804004
 30
0.0
  0
VERTEX
  5
948
  8
0
  6
CONTINUOUS
 62
     7
 10
366.5557360901
 20
112.3399964123
 30
0.0
  0
VERTEX
  5
949
  8
0
  6
CONTINUOUS
 62
     7
 10
365.4777801928
 20
111.1297204662
 30
0.0
  0
VERTEX
  5
94A
  8
0
  6
CONTINUOUS
 62
     7
 10
364.2920999547
 20
110.0726096952
 30
0.0
  0
VERTEX
  5
94B
  8
0
  6
CONTINUOUS
 62
     7
 10
363.0044334778
 20
109.1737799892
 30
0.0
  0
VERTEX
  5
94C
  8
0
  6
CONTINUOUS
 62
     7
 10
361.6210124271
 20
108.4375812365
 30
0.0
  0
VERTEX
  5
94D
  8
0
  6
CONTINUOUS
 62
     7
 10
360.1485318715
 20
107.8675762726
 30
0.0
  0
VERTEX
  5
94E
  8
0
  6
CONTINUOUS
 62
     7
 10
358.5941178841
 20
107.4665236378
 30
0.0
  0
VERTEX
  5
94F
  8
0
  6
CONTINUOUS
 62
     7
 10
356.9652930547
 20
107.2363642271
 30
0.0
  0
VERTEX
  5
950
  8
0
  6
CONTINUOUS
 62
     7
 10
355.2699400847
 20
107.1782118977
 30
0.0
  0
VERTEX
  5
951
  8
0
  6
CONTINUOUS
 62
     7
 10
353.5162636385
 20
107.2923480777
 30
0.0
  0
VERTEX
  5
952
  8
0
  6
CONTINUOUS
 62
     7
 10
351.712750637
 20
107.5782204049
 30
0.0
  0
VERTEX
  5
953
  8
0
  6
CONTINUOUS
 62
     7
 10
349.8681291855
 20
108.0344453995
 30
0.0
  0
VERTEX
  5
954
  8
0
  6
CONTINUOUS
 62
     7
 10
347.9913263335
 20
108.6588151597
 30
0.0
  0
VERTEX
  5
955
  8
0
  6
CONTINUOUS
 62
     7
 10
346.0914248724
 20
109.4483080466
 30
0.0
  0
VERTEX
  5
956
  8
0
  6
CONTINUOUS
 62
     7
 10
344.1776193797
 20
110.3991033078
 30
0.0
  0
VERTEX
  5
957
  8
0
  6
CONTINUOUS
 62
     7
 10
342.2591717211
 20
111.5065995674
 30
0.0
  0
VERTEX
  5
958
  8
0
  6
CONTINUOUS
 62
     7
 10
340.3453662284
 20
112.7654370948
 30
0.0
  0
VERTEX
  5
959
  8
0
  6
CONTINUOUS
 62
     7
 10
338.4454647673
 20
114.1695237431
 30
0.0
  0
VERTEX
  5
95A
  8
0
  6
CONTINUOUS
 62
     7
 10
336.5686619153
 20
115.7120644319
 30
0.0
  0
VERTEX
  5
95B
  8
0
  6
CONTINUOUS
 62
     7
 10
334.7240404638
 20
117.3855940321
 30
0.0
  0
VERTEX
  5
95C
  8
0
  6
CONTINUOUS
 62
     7
 10
332.9205274623
 20
119.1820134935
 30
0.0
  0
VERTEX
  5
95D
  8
0
  6
CONTINUOUS
 62
     7
 10
331.1668510161
 20
121.0926290403
 30
0.0
  0
VERTEX
  5
95E
  8
0
  6
CONTINUOUS
 62
     7
 10
329.4714980461
 20
123.1081942442
 30
0.0
  0
VERTEX
  5
95F
  8
0
  6
CONTINUOUS
 62
     7
 10
327.8426732167
 20
125.2189547732
 30
0.0
  0
VERTEX
  5
960
  8
0
  6
CONTINUOUS
 62
     7
 10
326.2882592293
 20
127.4146955968
 30
0.0
  0
VERTEX
  5
961
  8
0
  6
CONTINUOUS
 62
     7
 10
325.6559353655
 20
128.3650361702
 30
0.0
  0
SEQEND
  5
993
  8
0
  6
CONTINUOUS
 62
     7
  0
POLYLINE
  5
1CA
  8
0
  6
CONTINUOUS
 62
     7
 66
     1
 10
0.0
 20
0.0
 30
0.0
  0
VERTEX
  5
962
  8
0
  6
CONTINUOUS
 62
     7
 10
321.9560075705
 20
134.7736658507
 30
0.0
  0
VERTEX
  5
963
  8
0
  6
CONTINUOUS
 62
     7
 10
320.959010908
 20
136.8298589315
 30
0.0
  0
VERTEX
  5
964
  8
0
  6
CONTINUOUS
 62
     7
 10
319.8810550107
 20
139.284716265
 30
0.0
  0
VERTEX
  5
965
  8
0
  6
CONTINUOUS
 62
     7
 10
318.9160402242
 20
141.7564826096
 30
0.0
  0
VERTEX
  5
966
  8
0
  6
CONTINUOUS
 62
     7
 10
318.0686367396
 20
144.2331958467
 30
0.0
  0
VERTEX
  5
967
  8
0
  6
CONTINUOUS
 62
     7
 10
317.3429455679
 20
146.7028699172
 30
0.0
  0
VERTEX
  5
968
  8
0
  6
CONTINUOUS
 62
     7
 10
316.7424786932
 20
149.1535528279
 30
0.0
  0
VERTEX
  5
969
  8
0
  6
CONTINUOUS
 62
     7
 10
316.2701420762
 20
151.5733844936
 30
0.0
  0
VERTEX
  5
96A
  8
0
  6
CONTINUOUS
 62
     7
 10
315.928221591
 20
153.9506541336
 30
0.0
  0
VERTEX
  5
96B
  8
0
  6
CONTINUOUS
 62
     7
 10
315.7183719626
 20
156.2738569463
 30
0.0
  0
VERTEX
  5
96C
  8
0
  6
CONTINUOUS
 62
     7
 10
315.6416087587
 20
158.5317497864
 30
0.0
  0
VERTEX
  5
96D
  8
0
  6
CONTINUOUS
 62
     7
 10
315.698303475
 20
160.7134055768
 30
0.0
  0
VERTEX
  5
96E
  8
0
  6
CONTINUOUS
 62
     7
 10
315.8881817372
 20
162.8082661894
 30
0.0
  0
VERTEX
  5
96F
  8
0
  6
CONTINUOUS
 62
     7
 10
316.2103246292
 20
164.8061935417
 30
0.0
  0
VERTEX
  5
970
  8
0
  6
CONTINUOUS
 62
     7
 10
316.6631731396
 20
166.6975186598
 30
0.0
  0
VERTEX
  5
971
  8
0
  6
CONTINUOUS
 62
     7
 10
317.2445357072
 20
168.4730884717
 30
0.0
  0
SEQEND
  5
992
  8
0
  6
CONTINUOUS
 62
     7
  0
LINE
  5
1CB
  8
0
  6
CONTINUOUS
 62
     7
 10
317.2445357072
 20
168.4730884717
 30
0.0
 11
321.8223145393
 21
180.6484847659
 31
0.0
  0
LINE
  5
1CC
  8
0
  6
CONTINUOUS
 62
     7
 10
324.3684048025
 20
187.4202531478
 30
0.0
 11
325.544440071
 21
190.5481227926
 31
0.0
  0
LINE
  5
1CD
  8
0
  6
CONTINUOUS
 62
     7
 10
330.3136967937
 20
177.177561286
 30
0.0
 11
330.3136967937
 21
175.5444796623
 31
0.0
  0
LINE
  5
1CE
  8
0
  6
CONTINUOUS
 62
     7
 10
334.9098908715
 20
177.177561286
 30
0.0
 11
334.9098908715
 21
175.5444796623
 31
0.0
  0
ARC
  5
1CF
  8
0
  6
CONTINUOUS
 62
     7
 10
332.6117938326
 20
179.9797906884
 30
0.0
 40
4.995321200712915
 50
242.6096722366
 51
297.3903277634
  0
ARC
  5
1D0
  8
0
  6
CONTINUOUS
 62
     7
 10
330.9882792857
 20
177.0333385689
 30
0.0
 40
1.634552655104591
 50
185.6947992512
 51
245.6253417064
  0
LINE
  5
1D1
  8
0
  6
CONTINUOUS
 62
     7
 10
344.9861625034
 20
181.361387459
 30
0.0
 11
344.9861625034
 21
182.9944690828
 31
0.0
  0
LINE
  5
1D2
  8
0
  6
CONTINUOUS
 62
     7
 10
334.9098908715
 20
175.5444796623
 30
0.0
 11
344.9861625034
 21
181.361387459
 31
0.0
  0
LINE
  5
1D3
  8
0
  6
CONTINUOUS
 62
     7
 10
370.606468956
 20
139.3007163378
 30
0.0
 11
369.1922553936
 21
138.4843082259
 31
0.0
  0
LINE
  5
1D4
  8
0
  6
CONTINUOUS
 62
     7
 10
360.5425116895
 20
177.6871528556
 30
0.0
 11
370.606468956
 21
139.3007163378
 31
0.0
  0
LINE
  5
1D5
  8
0
  6
CONTINUOUS
 62
     7
 10
339.6828616445
 20
190.5462441171
 30
0.0
 11
343.9255023316
 21
188.0970197817
 31
0.0
  0
LINE
  5
1D6
  8
0
  6
CONTINUOUS
 62
     7
 10
339.6828616445
 20
190.5462441171
 30
0.0
 11
325.8942794113
 21
198.5062232074
 31
0.0
  0
ARC
  5
1D7
  8
0
  6
CONTINUOUS
 62
     7
 10
327.0659596307
 20
196.8706978909
 30
0.0
 40
2.01190894360716
 50
65.6928809539
 51
125.6175774752
  0
LINE
  5
1D8
  8
0
  6
CONTINUOUS
 62
     7
 10
339.6828616445
 20
188.9131624934
 30
0.0
 11
342.8646122917
 21
187.0763769418
 31
0.0
  0
ARC
  5
1D9
  8
0
  6
CONTINUOUS
 62
     7
 10
346.7411878933
 20
178.2640288985
 30
0.0
 40
3.560020248835676
 50
54.3650148484
 51
119.536759468
  0
LINE
  5
1DA
  8
0
  6
CONTINUOUS
 62
     7
 10
330.8440268796
 20
191.158550201
 30
0.0
 11
320.7677552477
 21
185.3416424043
 31
0.0
  0
POLYLINE
  5
1DB
  8
0
  6
CONTINUOUS
 62
     7
 66
     1
 10
0.0
 20
0.0
 30
0.0
  0
VERTEX
  5
972
  8
0
  6
CONTINUOUS
 62
     7
 10
327.3084929737
 20
193.1995704806
 30
0.0
  0
VERTEX
  5
973
  8
0
  6
CONTINUOUS
 62
     7
 10
327.8781374599
 20
193.4457435804
 30
0.0
  0
VERTEX
  5
974
  8
0
  6
CONTINUOUS
 62
     7
 10
328.5448467028
 20
193.5892975374
 30
0.0
  0
VERTEX
  5
975
  8
0
  6
CONTINUOUS
 62
     7
 10
329.2546078847
 20
193.6186024637
 30
0.0
  0
VERTEX
  5
976
  8
0
  6
CONTINUOUS
 62
     7
 10
329.9499203757
 20
193.5312842485
 30
0.0
  0
VERTEX
  5
977
  8
0
  6
CONTINUOUS
 62
     7
 10
330.5744540929
 20
193.3344168943
 30
0.0
  0
VERTEX
  5
978
  8
0
  6
CONTINUOUS
 62
     7
 10
331.077613029
 20
193.0439494233
 30
0.0
  0
VERTEX
  5
979
  8
0
  6
CONTINUOUS
 62
     7
 10
331.4186342392
 20
192.6834137825
 30
0.0
  0
VERTEX
  5
97A
  8
0
  6
CONTINUOUS
 62
     7
 10
331.5698902132
 20
192.2820184254
 30
0.0
  0
VERTEX
  5
97B
  8
0
  6
CONTINUOUS
 62
     7
 10
331.5191270916
 20
191.8722820166
 30
0.0
  0
VERTEX
  5
97C
  8
0
  6
CONTINUOUS
 62
     7
 10
331.2704574006
 20
191.4873989631
 30
0.0
  0
VERTEX
  5
97D
  8
0
  6
CONTINUOUS
 62
     7
 10
330.8440268796
 20
191.158550201
 30
0.0
  0
SEQEND
  5
991
  8
0
  6
CONTINUOUS
 62
     7
  0
LINE
  5
1DC
  8
0
  6
CONTINUOUS
 62
     7
 10
317.2322213418
 20
187.3826626838
 30
0.0
 11
327.3084929737
 21
193.1995704806
 31
0.0
  0
ARC
  5
1DD
  8
0
  6
CONTINUOUS
 62
     7
 10
314.9341243029
 20
191.8179737099
 30
0.0
 40
4.99532120071322
 50
242.6096722366
 51
297.3903277634
  0
LINE
  5
1DE
  8
0
  6
CONTINUOUS
 62
     7
 10
312.6360272641
 20
187.3826626838
 30
0.0
 11
311.9289204829
 21
187.7908667397
 31
0.0
  0
ARC
  5
1DF
  8
0
  6
CONTINUOUS
 62
     7
 10
312.43243332
 20
189.1175299215
 30
0.0
 40
1.418999779711368
 50
110.7834207995
 51
249.2165792005
  0
LINE
  5
1E0
  8
0
  6
CONTINUOUS
 62
     7
 10
325.8942794113
 20
198.5062232074
 30
0.0
 11
311.9289204829
 21
190.4441931032
 31
0.0
  0
ARC
  5
1E1
  8
0
  6
CONTINUOUS
 62
     7
 10
339.3293082539
 20
189.8638885747
 30
0.0
 40
0.7685109539555072
 50
62.6096722366
 51
117.3903277634
  0
LINE
  5
1E2
  8
0
  6
CONTINUOUS
 62
     7
 10
325.3639493254
 20
182.6883160408
 30
0.0
 11
338.9757548633
 21
190.5462441171
 31
0.0
  0
ARC
  5
1E3
  8
0
  6
CONTINUOUS
 62
     7
 10
323.0658522866
 20
187.123627067
 30
0.0
 40
4.995321200712891
 50
242.6096722366
 51
297.3903277634
  0
ARC
  5
1E4
  8
0
  6
CONTINUOUS
 62
     7
 10
321.2712680848
 20
184.0149792226
 30
0.0
 40
1.418999779711388
 50
110.7834207995
 51
249.2165792005
  0
LINE
  5
1E5
  8
0
  6
CONTINUOUS
 62
     7
 10
320.7677552477
 20
182.6883160408
 30
0.0
 11
320.7677552477
 21
181.0552344171
 31
0.0
  0
LINE
  5
1E6
  8
0
  6
CONTINUOUS
 62
     7
 10
325.3639493254
 20
182.6883160408
 30
0.0
 11
325.3639493254
 21
181.0552344171
 31
0.0
  0
ARC
  5
1E7
  8
0
  6
CONTINUOUS
 62
     7
 10
323.0658522866
 20
185.4905454432
 30
0.0
 40
4.995321200713017
 50
242.6096722366
 51
297.3903277634
  0
LINE
  5
1E8
  8
0
  6
CONTINUOUS
 62
     7
 10
338.9757548633
 20
188.9131624934
 30
0.0
 11
338.9757548633
 21
190.5462441171
 31
0.0
  0
LINE
  5
1E9
  8
0
  6
CONTINUOUS
 62
     7
 10
325.3639493254
 20
181.0552344171
 30
0.0
 11
338.9757548633
 21
188.9131624934
 31
0.0
  0
ARC
  5
1EA
  8
0
  6
CONTINUOUS
 62
     7
 10
321.4423377397
 20
182.5440933237
 30
0.0
 40
1.634552655104952
 50
185.6947992512
 51
245.6253417064
  0
LINE
  5
1EB
  8
0
  6
CONTINUOUS
 62
     7
 10
312.6360272641
 20
185.7495810601
 30
0.0
 11
312.6360272641
 21
187.3826626838
 31
0.0
  0
LINE
  5
1EC
  8
0
  6
CONTINUOUS
 62
     7
 10
317.2322213418
 20
187.3826626838
 30
0.0
 11
317.2322213418
 21
185.7495810601
 31
0.0
  0
ARC
  5
1ED
  8
0
  6
CONTINUOUS
 62
     7
 10
314.9341243029
 20
190.1848920862
 30
0.0
 40
4.995321200713018
 50
242.6096722366
 51
297.3903277634
  0
LINE
  5
1EE
  8
0
  6
CONTINUOUS
 62
     7
 10
311.9289204829
 20
187.7908667397
 30
0.0
 11
311.9289204829
 21
186.157785116
 31
0.0
  0
LINE
  5
1EF
  8
0
  6
CONTINUOUS
 62
     7
 10
312.6360272641
 20
185.7495810601
 30
0.0
 11
311.9289204829
 21
186.157785116
 31
0.0
  0
LINE
  5
1F0
  8
0
  6
CONTINUOUS
 62
     7
 10
327.3084929737
 20
191.5664888568
 30
0.0
 11
327.3084929737
 21
193.1995704806
 31
0.0
  0
LINE
  5
1F1
  8
0
  6
CONTINUOUS
 62
     7
 10
317.2322213418
 20
185.7495810601
 30
0.0
 11
327.3084929737
 21
191.5664888568
 31
0.0
  0
ARC
  5
1F2
  8
0
  6
CONTINUOUS
 62
     7
 10
312.6035029748
 20
187.6466440226
 30
0.0
 40
1.634552655104822
 50
185.6947992512
 51
245.6253417064
  0
LINE
  5
1F3
  8
0
  6
CONTINUOUS
 62
     7
 10
339.6828616445
 20
188.9131624934
 30
0.0
 11
339.6828616445
 21
190.5462441171
 31
0.0
  0
ARC
  5
1F4
  8
0
  6
CONTINUOUS
 62
     7
 10
339.3293082539
 20
188.2308069509
 30
0.0
 40
0.7685109539553304
 50
62.6096722366
 51
117.3903277634
  0
ARC
  5
1F5
  8
0
  6
CONTINUOUS
 62
     7
 10
329.0635183637
 20
188.4691302962
 30
0.0
 40
3.560020248836133
 50
54.3650148484
 51
119.536759468
  0
POLYLINE
  5
1F6
  8
0
  6
CONTINUOUS
 62
     7
 66
     1
 10
0.0
 20
0.0
 30
0.0
  0
VERTEX
  5
97E
  8
0
  6
CONTINUOUS
 62
     7
 10
370.606468956
 20
139.3007163378
 30
0.0
  0
VERTEX
  5
97F
  8
0
  6
CONTINUOUS
 62
     7
 10
371.1878315235
 20
136.8539195928
 30
0.0
  0
VERTEX
  5
980
  8
0
  6
CONTINUOUS
 62
     7
 10
371.640680034
 20
134.4397467136
 30
0.0
  0
VERTEX
  5
981
  8
0
  6
CONTINUOUS
 62
     7
 10
371.962822926
 20
132.0698810952
 30
0.0
  0
VERTEX
  5
982
  8
0
  6
CONTINUOUS
 62
     7
 10
372.1527011882
 20
129.7557917074
 30
0.0
  0
VERTEX
  5
983
  8
0
  6
CONTINUOUS
 62
     7
 10
372.2093959045
 20
127.508677591
 30
0.0
  0
VERTEX
  5
984
  8
0
  6
CONTINUOUS
 62
     7
 10
372.1326327006
 20
125.3394136595
 30
0.0
  0
VERTEX
  5
985
  8
0
  6
CONTINUOUS
 62
     7
 10
371.9227830722
 20
123.2584980706
 30
0.0
  0
VERTEX
  5
986
  8
0
  6
CONTINUOUS
 62
     7
 10
371.580862587
 20
121.2760014198
 30
0.0
  0
VERTEX
  5
987
  8
0
  6
CONTINUOUS
 62
     7
 10
371.10852597
 20
119.401518004
 30
0.0
  0
VERTEX
  5
988
  8
0
  6
CONTINUOUS
 62
     7
 10
370.5080590953
 20
117.6441193898
 30
0.0
  0
VERTEX
  5
989
  8
0
  6
CONTINUOUS
 62
     7
 10
369.7823679236
 20
116.0123105117
 30
0.0
  0
VERTEX
  5
98A
  8
0
  6
CONTINUOUS
 62
     7
 10
368.934964439
 20
114.5139885123
 30
0.0
  0
VERTEX
  5
98B
  8
0
  6
CONTINUOUS
 62
     7
 10
367.9699496524
 20
113.1564045242
 30
0.0
  0
VERTEX
  5
98C
  8
0
  6
CONTINUOUS
 62
     7
 10
366.8919937551
 20
111.9461285781
 30
0.0
  0
VERTEX
  5
98D
  8
0
  6
CONTINUOUS
 62
     7
 10
365.706313517
 20
110.889017807
 30
0.0
  0
VERTEX
  5
98E
  8
0
  6
CONTINUOUS
 62
     7
 10
364.4186470402
 20
109.990188101
 30
0.0
  0
VERTEX
  5
98F
  8
0
  6
CONTINUOUS
 62
     7
 10
364.1310243992
 20
109.8191754508
 30
0.0
  0
SEQEND
  5
990
  8
0
  6
CONTINUOUS
 62
     7
  0
LINE
  5
1F7
  8
0
  6
CONTINUOUS
 62
     8
 10
359.1282981271
 20
177.6872855557
 30
0.0
 11
357.7138546966
 21
178.5038263676
 31
0.0
  0
LINE
  5
1F8
  8
0
  6
CONTINUOUS
 62
     8
 10
342.8643824235
 20
187.0762442418
 30
0.0
 11
339.6698846788
 21
188.920388536
 31
0.0
  0
LINE
  5
1F9
  8
0
  6
CONTINUOUS
 62
     8
 10
343.9255023316
 20
187.6888157258
 30
0.0
 11
343.9255023316
 21
188.0970197817
 31
0.0
  0
INSERT
  5
209
  8
NOTE
  2
SW_NOTE_3
 10
321.7032672779
 20
194.8875642736
 30
0.0
  0
INSERT
  5
211
  8
NOTE
  2
SW_NOTE_4
 10
318.1812760807
 20
161.8183135194
 30
0.0
  0
CIRCLE
  5
212
  8
0
  6
CONTINUOUS
 62
     7
 10
126.4988893771
 20
262.0883792736
 30
0.0
 40
3.700000000000045
  0
CIRCLE
  5
213
  8
0
  6
CONTINUOUS
 62
     7
 10
126.4988893771
 20
262.0883792736
 30
0.0
 40
1.999999999999998
  0
CIRCLE
  5
214
  8
0
  6
CONTINUOUS
 62
     7
 10
126.4988893771
 20
262.0883792736
 30
0.0
 40
1.649999999999998
  0
CIRCLE
  5
215
  8
0
  6
CONTINUOUS
 62
     7
 10
84.7795892871
 20
303.8076793636
 30
0.0
 40
3.700000000000022
  0
CIRCLE
  5
216
  8
0
  6
CONTINUOUS
 62
     7
 10
84.7795892871
 20
303.8076793636
 30
0.0
 40
2.000000000000008
  0
CIRCLE
  5
217
  8
0
  6
CONTINUOUS
 62
     7
 10
84.7795892871
 20
303.8076793636
 30
0.0
 40
1.650000000000008
  0
CIRCLE
  5
218
  8
0
  6
CONTINUOUS
 62
     7
 10
84.7795892871
 20
262.0883792736
 30
0.0
 40
3.700000000000045
  0
CIRCLE
  5
219
  8
0
  6
CONTINUOUS
 62
     7
 10
84.7795892871
 20
262.0883792736
 30
0.0
 40
1.999999999999985
  0
CIRCLE
  5
21A
  8
0
  6
CONTINUOUS
 62
     7
 10
84.7795892871
 20
262.0883792736
 30
0.0
 40
1.649999999999985
  0
CIRCLE
  5
21B
  8
0
  6
CONTINUOUS
 62
     7
 10
126.4988893771
 20
303.8076793636
 30
0.0
 40
3.700000000000048
  0
CIRCLE
  5
21C
  8
0
  6
CONTINUOUS
 62
     7
 10
126.4988893771
 20
303.8076793636
 30
0.0
 40
1.999999999999995
  0
CIRCLE
  5
21D
  8
0
  6
CONTINUOUS
 62
     7
 10
126.4988893771
 20
303.8076793636
 30
0.0
 40
1.649999999999995
  0
LINE
  5
21E
  8
0
  6
CONTINUOUS
 62
     7
 10
87.3892393321
 20
338.9480293186
 30
0.0
 11
87.3892393321
 21
340.9480293186
 31
0.0
  0
LINE
  5
21F
  8
0
  6
CONTINUOUS
 62
     7
 10
87.3892393321
 20
340.9480293186
 30
0.0
 11
90.6392393321
 21
340.9480293186
 31
0.0
  0
LINE
  5
220
  8
0
  6
CONTINUOUS
 62
     7
 10
90.6392393321
 20
340.9480293186
 30
0.0
 11
90.6392393321
 21
338.9480293186
 31
0.0
  0
LINE
  5
221
  8
0
  6
CONTINUOUS
 62
     7
 10
90.6392393321
 20
338.9480293186
 30
0.0
 11
87.3892393321
 21
338.9480293186
 31
0.0
  0
LINE
  5
222
  8
0
  6
CONTINUOUS
 62
     7
 10
83.1392393321
 20
338.9480293186
 30
0.0
 11
83.1392393321
 21
340.9480293186
 31
0.0
  0
LINE
  5
223
  8
0
  6
CONTINUOUS
 62
     7
 10
83.1392393321
 20
340.9480293186
 30
0.0
 11
86.3892393321
 21
340.9480293186
 31
0.0
  0
LINE
  5
224
  8
0
  6
CONTINUOUS
 62
     7
 10
86.3892393321
 20
340.9480293186
 30
0.0
 11
86.3892393321
 21
338.9480293186
 31
0.0
  0
LINE
  5
225
  8
0
  6
CONTINUOUS
 62
     7
 10
86.3892393321
 20
338.9480293186
 30
0.0
 11
83.1392393321
 21
338.9480293186
 31
0.0
  0
LINE
  5
226
  8
0
  6
CONTINUOUS
 62
     7
 10
87.3892393321
 20
338.9480293186
 30
0.0
 11
86.3892393321
 21
338.9480293186
 31
0.0
  0
LINE
  5
227
  8
0
  6
CONTINUOUS
 62
     7
 10
87.3892393321
 20
340.9480293186
 30
0.0
 11
86.3892393321
 21
340.9480293186
 31
0.0
  0
LINE
  5
228
  8
0
  6
CONTINUOUS
 62
     7
 10
112.3892393321
 20
340.9480293186
 30
0.0
 11
112.3892393321
 21
338.9480293186
 31
0.0
  0
LINE
  5
229
  8
0
  6
CONTINUOUS
 62
     7
 10
112.3892393321
 20
338.9480293186
 30
0.0
 11
109.1392393321
 21
338.9480293186
 31
0.0
  0
LINE
  5
22A
  8
0
  6
CONTINUOUS
 62
     7
 10
109.1392393321
 20
338.9480293186
 30
0.0
 11
109.1392393321
 21
340.9480293186
 31
0.0
  0
LINE
  5
22B
  8
0
  6
CONTINUOUS
 62
     7
 10
109.1392393321
 20
340.9480293186
 30
0.0
 11
112.3892393321
 21
340.9480293186
 31
0.0
  0
LINE
  5
22C
  8
0
  6
CONTINUOUS
 62
     7
 10
124.8892393321
 20
338.9480293186
 30
0.0
 11
124.8892393321
 21
340.9480293186
 31
0.0
  0
LINE
  5
22D
  8
0
  6
CONTINUOUS
 62
     7
 10
123.8892393321
 20
340.9480293186
 30
0.0
 11
123.8892393321
 21
338.9480293186
 31
0.0
  0
LINE
  5
22E
  8
0
  6
CONTINUOUS
 62
     7
 10
124.8892393321
 20
338.9480293186
 30
0.0
 11
123.8892393321
 21
338.9480293186
 31
0.0
  0
LINE
  5
22F
  8
0
  6
CONTINUOUS
 62
     7
 10
124.8892393321
 20
340.9480293186
 30
0.0
 11
123.8892393321
 21
340.9480293186
 31
0.0
  0
LINE
  5
230
  8
0
  6
CONTINUOUS
 62
     7
 10
98.8892393321
 20
340.9480293186
 30
0.0
 11
98.8892393321
 21
338.9480293186
 31
0.0
  0
LINE
  5
231
  8
0
  6
CONTINUOUS
 62
     7
 10
102.1392393321
 20
340.9480293186
 30
0.0
 11
102.1392393321
 21
338.9480293186
 31
0.0
  0
LINE
  5
232
  8
0
  6
CONTINUOUS
 62
     7
 10
102.1392393321
 20
338.9480293186
 30
0.0
 11
98.8892393321
 21
338.9480293186
 31
0.0
  0
LINE
  5
233
  8
0
  6
CONTINUOUS
 62
     7
 10
98.8892393321
 20
340.9480293186
 30
0.0
 11
102.1392393321
 21
340.9480293186
 31
0.0
  0
LINE
  5
234
  8
0
  6
CONTINUOUS
 62
     7
 10
120.6392393321
 20
338.9480293186
 30
0.0
 11
120.6392393321
 21
340.9480293186
 31
0.0
  0
LINE
  5
235
  8
0
  6
CONTINUOUS
 62
     7
 10
123.8892393321
 20
338.9480293186
 30
0.0
 11
120.6392393321
 21
338.9480293186
 31
0.0
  0
LINE
  5
236
  8
0
  6
CONTINUOUS
 62
     7
 10
120.6392393321
 20
340.9480293186
 30
0.0
 11
123.8892393321
 21
340.9480293186
 31
0.0
  0
LINE
  5
237
  8
0
  6
CONTINUOUS
 62
     7
 10
128.1392393321
 20
340.9480293186
 30
0.0
 11
128.1392393321
 21
338.9480293186
 31
0.0
  0
LINE
  5
238
  8
0
  6
CONTINUOUS
 62
     7
 10
128.1392393321
 20
338.9480293186
 30
0.0
 11
124.8892393321
 21
338.9480293186
 31
0.0
  0
LINE
  5
239
  8
0
  6
CONTINUOUS
 62
     7
 10
124.8892393321
 20
340.9480293186
 30
0.0
 11
128.1392393321
 21
340.9480293186
 31
0.0
  0
LINE
  5
23A
  8
0
  6
CONTINUOUS
 62
     7
 10
115.6392393321
 20
340.9480293186
 30
0.0
 11
115.6392393321
 21
338.9480293186
 31
0.0
  0
LINE
  5
23B
  8
0
  6
CONTINUOUS
 62
     7
 10
115.6392393321
 20
338.9480293186
 30
0.0
 11
112.3892393321
 21
338.9480293186
 31
0.0
  0
LINE
  5
23C
  8
0
  6
CONTINUOUS
 62
     7
 10
112.3892393321
 20
340.9480293186
 30
0.0
 11
115.6392393321
 21
340.9480293186
 31
0.0
  0
LINE
  5
23D
  8
0
  6
CONTINUOUS
 62
     7
 10
95.6392393321
 20
338.9480293186
 30
0.0
 11
95.6392393321
 21
340.9480293186
 31
0.0
  0
LINE
  5
23E
  8
0
  6
CONTINUOUS
 62
     7
 10
98.8892393321
 20
338.9480293186
 30
0.0
 11
95.6392393321
 21
338.9480293186
 31
0.0
  0
LINE
  5
23F
  8
0
  6
CONTINUOUS
 62
     7
 10
95.6392393321
 20
340.9480293186
 30
0.0
 11
98.8892393321
 21
340.9480293186
 31
0.0
  0
LINE
  5
240
  8
0
  6
CONTINUOUS
 62
     7
 10
90.6392393321
 20
338.9480293186
 30
0.0
 11
95.6392393321
 21
338.9480293186
 31
0.0
  0
LINE
  5
241
  8
0
  6
CONTINUOUS
 62
     7
 10
90.6392393321
 20
340.9480293186
 30
0.0
 11
95.6392393321
 21
340.9480293186
 31
0.0
  0
LINE
  5
242
  8
0
  6
CONTINUOUS
 62
     7
 10
115.6392393321
 20
338.9480293186
 30
0.0
 11
120.6392393321
 21
338.9480293186
 31
0.0
  0
LINE
  5
243
  8
0
  6
CONTINUOUS
 62
     7
 10
115.6392393321
 20
340.9480293186
 30
0.0
 11
120.6392393321
 21
340.9480293186
 31
0.0
  0
LINE
  5
244
  8
0
  6
CONTINUOUS
 62
     7
 10
108.6392393321
 20
338.9480293186
 30
0.0
 11
108.6392393321
 21
340.9480293186
 31
0.0
  0
LINE
  5
245
  8
0
  6
CONTINUOUS
 62
     7
 10
108.6392393321
 20
338.9480293186
 30
0.0
 11
109.1392393321
 21
338.9480293186
 31
0.0
  0
LINE
  5
246
  8
0
  6
CONTINUOUS
 62
     7
 10
108.6392393321
 20
340.9480293186
 30
0.0
 11
109.1392393321
 21
340.9480293186
 31
0.0
  0
LINE
  5
247
  8
0
  6
CONTINUOUS
 62
     7
 10
102.6392393321
 20
338.9480293186
 30
0.0
 11
102.6392393321
 21
340.9480293186
 31
0.0
  0
LINE
  5
248
  8
0
  6
CONTINUOUS
 62
     7
 10
102.1392393321
 20
338.9480293186
 30
0.0
 11
102.6392393321
 21
338.9480293186
 31
0.0
  0
LINE
  5
249
  8
0
  6
CONTINUOUS
 62
     7
 10
102.1392393321
 20
340.9480293186
 30
0.0
 11
102.6392393321
 21
340.9480293186
 31
0.0
  0
LINE
  5
24A
  8
0
  6
CONTINUOUS
 62
     7
 10
102.6392393321
 20
338.9480293186
 30
0.0
 11
108.6392393321
 21
338.9480293186
 31
0.0
  0
LINE
  5
24B
  8
0
  6
CONTINUOUS
 62
     7
 10
128.1392393321
 20
336.9480293186
 30
0.0
 11
83.1392393321
 21
336.9480293186
 31
0.0
  0
LINE
  5
24C
  8
0
  6
CONTINUOUS
 62
     7
 10
128.1392393321
 20
338.9480293186
 30
0.0
 11
128.1392393321
 21
336.9480293186
 31
0.0
  0
LINE
  5
24D
  8
0
  6
CONTINUOUS
 62
     7
 10
83.1392393321
 20
336.9480293186
 30
0.0
 11
83.1392393321
 21
338.9480293186
 31
0.0
  0
LINE
  5
24E
  8
0
  6
CONTINUOUS
 62
     7
 10
102.6392393321
 20
340.9480293186
 30
0.0
 11
108.6392393321
 21
340.9480293186
 31
0.0
  0
LINE
  5
24F
  8
0
  6
CONTINUOUS
 62
     7
 10
128.1392393321
 20
335.9480293186
 30
0.0
 11
142.3718241895
 21
296.0521206527
 31
0.0
  0
ARC
  5
250
  8
0
  6
CONTINUOUS
 62
     7
 10
105.6392393321
 20
282.9480293186
 30
0.0
 40
39.00000000000004
 50
160.3664986388
 51
19.6335013612
  0
LINE
  5
251
  8
0
  6
CONTINUOUS
 62
     7
 10
68.9066544747
 20
296.0521206527
 30
0.0
 11
83.1392393321
 21
335.9480293186
 31
0.0
  0
LINE
  5
252
  8
0
  6
CONTINUOUS
 62
     7
 10
128.1392393321
 20
336.9480293186
 30
0.0
 11
128.1392393321
 21
335.9480293186
 31
0.0
  0
LINE
  5
253
  8
0
  6
CONTINUOUS
 62
     7
 10
83.1392393321
 20
335.9480293186
 30
0.0
 11
83.1392393321
 21
336.9480293186
 31
0.0
  0
POINT
  5
254
  8
COTATION
  6
CONTINUOUS
 10
84.7795892871
 20
262.0883792736
 30
0.0
  0
POINT
  5
255
  8
COTATION
  6
CONTINUOUS
 10
66.6392393321
 20
282.9480293186
 30
0.0
  0
POINT
  5
256
  8
COTATION
  6
CONTINUOUS
 10
144.6392393321
 20
282.9480293186
 30
0.0
  0
POINT
  5
257
  8
COTATION
  6
CONTINUOUS
 10
105.6392393321
 20
254.9004883368
 30
0.0
  0
POINT
  5
258
  8
COTATION
  6
CONTINUOUS
 10
105.6392393321
 20
243.9480293186
 30
0.0
  0
POINT
  5
259
  8
COTATION
  6
CONTINUOUS
 10
124.3892393321
 20
340.9480293186
 30
0.0
  0
DIMENSION
  5
25A
  8
COTATION
  2
_D
 10
144.6392393321
 20
365.3883854019
 30
0.0
 11
105.6392393321
 21
365.3883854019
 31
0.0
 70
   160
  1
(=<>=)
  3
SLDDIMSTYLE0
 13
66.6392393321
 23
282.9480293186
 33
0.0
 14
144.6392393321
 24
282.9480293186
 34
0.0
 50
0.0
  0
DIMENSION
  5
269
  8
COTATION
  2
_D_1
 10
105.6392393321
 20
282.9480293186
 30
0.0
 11
140.8095326981
 21
247.7777559526
 31
0.0
 70
   164
  1
<>
  3
SLDDIMSTYLE1
 15
133.2164037984
 25
255.3708648523
 35
0.0
 40
0.0
  0
DIMENSION
  5
273
  8
COTATION
  2
_D_2
 10
162.0326547137
 20
282.9480293186
 30
0.0
 11
162.0326547137
 21
311.9480293186
 31
0.0
 70
   160
  1
<>
  3
SLDDIMSTYLE0
 13
124.8892393321
 23
340.9480293186
 33
0.0
 14
128.9988893771
 24
282.9480293186
 34
0.0
 50
90.0
  0
DIMENSION
  5
27D
  8
COTATION
  2
_D_3
 10
105.6392393321
 20
282.9480293186
 30
0.0
 11
61.7075771495
 21
257.584076558
 31
0.0
 70
   164
  1
<>
  3
SLDDIMSTYLE2
 15
80.0914899205
 25
268.1980293186
 35
0.0
 40
0.0
  0
DIMENSION
  5
28B
  8
COTATION
  2
_D_4
 10
83.1392393321
 20
356.9480293186
 30
0.0
 11
105.6392393321
 21
356.9480293186
 31
0.0
 70
   160
  1
=<>=
  3
SLDDIMSTYLE0
 13
128.1392393321
 23
335.9480293186
 33
0.0
 14
83.1392393321
 24
340.9480293186
 34
0.0
  0
DIMENSION
  5
297
  8
COTATION
  2
_D_5
 10
73.1384506276
 20
340.9480293186
 30
0.0
 11
73.1384506276
 21
347.6992806621
 31
0.0
 70
   160
  1
<>
  3
SLDDIMSTYLE3
 13
128.1392393321
 23
335.9480293186
 33
0.0
 14
123.8892393321
 24
340.9480293186
 34
0.0
 50
90.0
  0
DIMENSION
  5
2A4
  8
COTATION
  2
_D_6
 10
32.6392393321
 20
340.9480293186
 30
0.0
 11
32.6392393321
 21
292.4480293186
 31
0.0
 70
   160
  1
(<>)
  3
SLDDIMSTYLE0
 13
105.6392393321
 23
243.9480293186
 33
0.0
 14
83.1392393321
 24
340.9480293186
 34
0.0
 50
90.0
  0
DIMENSION
  5
2B0
  8
COTATION
  2
_D_7
 10
122.1148273337
 20
299.4236173203
 30
0.0
 11
150.1661798469
 21
301.3916919708
 31
0.0
 70
   162
  1
<>
  3
SLDDIMSTYLE4
 13
128.9988893771
 23
282.9480293186
 33
0.0
 14
82.2795892871
 24
282.9480293186
 34
0.0
 15
130.8829514205
 25
308.191741407
 35
0.0
 16
150.1661798469
 26
301.3916919708
 36
0.0
  0
DIMENSION
  5
2BF
  8
COTATION
  2
_D_8
 10
130.8829514205
 20
257.7043172302
 30
0.0
 11
125.4099788898
 21
290.0062369864
 31
0.0
 70
   162
  1
<>
  3
SLDDIMSTYLE4
 13
122.1148273337
 23
299.4236173203
 33
0.0
 14
130.8829514205
 24
308.191741407
 34
0.0
 15
122.1148273337
 25
266.472441317
 35
0.0
 16
126.6321056952
 26
282.9480293186
 36
0.0
  0
INSERT
  5
2D4
  8
NOTE
  2
SW_NOTE_5
 10
104.3266442835
 20
370.895790788
 30
0.0
  0
TEXT
  5
2D5
  8
NOTE
 10
48.6695512788
 20
286.4372056128
 30
0.0
 40
3.5
  1
4x
 41
0.7
 11
48.6695512788
 21
285.2007953961
 31
0.0
 73
     1
  0
INSERT
  5
2F8
  8
COTATION
  2
SW_GTOL_0
 10
81.8848888891
 20
306.1121770542
 30
0.0
  0
INSERT
  5
320
  8
COTATION
  2
SW_CENTERMARKSYMBOL_0
 10
126.4988893771
 20
303.8076793636
 30
0.0
  0
LINE
  5
321
  8
0
  6
CENTER
 62
     7
 10
84.7795892871
 20
282.2863018912
 30
0.0
 11
84.7795892871
 21
241.8904566561
 31
0.0
  0
LINE
  5
322
  8
0
  6
CONTINUOUS
 62
     7
 10
72.5437342947
 20
280.2863018912
 30
0.0
 11
84.7795892871
 21
280.2863018912
 31
0.0
  0
SOLID
  5
323
  8
0
  6
CONTINUOUS
 62
     7
 10
84.7795892871
 20
280.2863018912
 30
0.0
 11
78.7795892871
 21
281.7863018912
 31
0.0
 12
78.7795892871
 22
278.7863018912
 32
0.0
 13
78.7795892871
 23
278.7863018912
 33
0.0
  0
LINE
  5
324
  8
0
  6
CONTINUOUS
 62
     7
 10
71.6302022777
 20
243.8904566561
 30
0.0
 11
84.7795892871
 21
243.8904566561
 31
0.0
  0
SOLID
  5
325
  8
0
  6
CONTINUOUS
 62
     7
 10
84.7795892871
 20
243.8904566561
 30
0.0
 11
78.7795892871
 21
245.3904566561
 31
0.0
 12
78.7795892871
 22
242.3904566561
 32
0.0
 13
78.7795892871
 23
242.3904566561
 33
0.0
  0
TEXT
  5
326
  8
0
  6
CONTINUOUS
 62
     7
 10
72.7795892871
 20
284.0200391793
 30
0.0
 40
6.35
  1
A
 41
0.7
 11
72.7795892871
 21
290.3700391793
 31
0.0
 73
     3
  0
TEXT
  5
327
  8
0
  6
CONTINUOUS
 62
     7
 10
72.7795892871
 20
247.6241939442
 30
0.0
 40
6.35
  1
A
 41
0.7
 11
72.7795892871
 21
253.9741939442
 31
0.0
 73
     3
  0
LINE
  5
328
  8
0
  6
CONTINUOUS
 62
     7
 10
323.5866675668
 20
300.1076793636
 30
0.0
 11
336.5866675668
 21
300.1076793636
 31
0.0
  0
LINE
  5
329
  8
0
  6
CONTINUOUS
 62
     7
 10
336.5866675668
 20
307.5076793636
 30
0.0
 11
323.5866675668
 21
307.5076793636
 31
0.0
  0
LINE
  5
32A
  8
0
  6
CONTINUOUS
 62
     7
 10
323.5866675668
 20
258.3883792736
 30
0.0
 11
336.5866675668
 21
258.3883792736
 31
0.0
  0
LINE
  5
32B
  8
0
  6
CONTINUOUS
 62
     7
 10
336.5866675668
 20
265.7883792736
 30
0.0
 11
323.5866675668
 21
265.7883792736
 31
0.0
  0
LINE
  5
32C
  8
0
  6
CONTINUOUS
 62
     7
 10
321.5866675668
 20
243.9480293186
 30
0.0
 11
323.5866675668
 21
243.9480293186
 31
0.0
  0
LINE
  5
32D
  8
0
  6
CONTINUOUS
 62
     7
 10
336.5866675668
 20
300.1076793636
 30
0.0
 11
336.5866675668
 21
307.5076793636
 31
0.0
  0
LINE
  5
32E
  8
0
  6
CONTINUOUS
 62
     7
 10
336.5866675668
 20
258.3883792736
 30
0.0
 11
336.5866675668
 21
265.7883792736
 31
0.0
  0
LINE
  5
32F
  8
0
  6
CONTINUOUS
 62
     7
 10
321.5866675668
 20
296.0521206527
 30
0.0
 11
323.5866675668
 21
296.0521206527
 31
0.0
  0
LINE
  5
330
  8
0
  6
CONTINUOUS
 62
     7
 10
323.5866675668
 20
243.9480293186
 30
0.0
 11
323.5866675668
 21
296.0521206527
 31
0.0
  0
LINE
  5
331
  8
0
  6
CONTINUOUS
 62
     7
 10
321.5866675668
 20
243.9480293186
 30
0.0
 11
321.5866675668
 21
296.0521206527
 31
0.0
  0
LINE
  5
332
  8
0
  6
CONTINUOUS
 62
     7
 10
321.5866675668
 20
335.9480293186
 30
0.0
 11
323.5866675668
 21
335.9480293186
 31
0.0
  0
LINE
  5
333
  8
0
  6
CONTINUOUS
 62
     7
 10
323.5866675668
 20
296.0521206527
 30
0.0
 11
323.5866675668
 21
335.9480293186
 31
0.0
  0
LINE
  5
334
  8
0
  6
CONTINUOUS
 62
     7
 10
321.5866675668
 20
296.0521206527
 30
0.0
 11
321.5866675668
 21
335.9480293186
 31
0.0
  0
ARC
  5
335
  8
0
  6
CONTINUOUS
 62
     7
 10
325.5866675668
 20
336.9480293186
 30
0.0
 40
2.0
 50
90.0
 51
180.0
  0
ARC
  5
336
  8
0
  6
CONTINUOUS
 62
     7
 10
325.5866675668
 20
336.9480293186
 30
0.0
 40
4.0
 50
90.0
 51
180.0
  0
LINE
  5
337
  8
0
  6
CONTINUOUS
 62
     7
 10
325.5866675668
 20
340.9480293186
 30
0.0
 11
345.3366675668
 21
340.9480293186
 31
0.0
  0
LINE
  5
338
  8
0
  6
CONTINUOUS
 62
     7
 10
345.3366675668
 20
338.9480293186
 30
0.0
 11
345.3366675668
 21
340.9480293186
 31
0.0
  0
LINE
  5
339
  8
0
  6
CONTINUOUS
 62
     7
 10
325.5866675668
 20
338.9480293186
 30
0.0
 11
345.3366675668
 21
338.9480293186
 31
0.0
  0
LINE
  5
33A
  8
0
  6
CONTINUOUS
 62
     7
 10
323.5866675668
 20
335.9480293186
 30
0.0
 11
323.5866675668
 21
336.9480293186
 31
0.0
  0
LINE
  5
33B
  8
0
  6
CONTINUOUS
 62
     7
 10
321.5866675668
 20
335.9480293186
 30
0.0
 11
321.5866675668
 21
336.9480293186
 31
0.0
  0
LINE
  5
33C
  8
0
  6
CONTINUOUS
 62
     7
 10
348.5866675668
 20
340.9480293186
 30
0.0
 11
348.5866675668
 21
338.9480293186
 31
0.0
  0
LINE
  5
33D
  8
0
  6
CONTINUOUS
 62
     7
 10
345.3366675668
 20
340.9480293186
 30
0.0
 11
348.5866675668
 21
340.9480293186
 31
0.0
  0
LINE
  5
33E
  8
0
  6
CONTINUOUS
 62
     7
 10
348.5866675668
 20
338.9480293186
 30
0.0
 11
345.3366675668
 21
338.9480293186
 31
0.0
  0
DIMENSION
  5
33F
  8
COTATION
  2
_D_9
 10
361.7204929712
 20
338.9480293186
 30
0.0
 11
361.7204929712
 21
350.9480293186
 31
0.0
 70
   160
  1
<>
  3
SLDDIMSTYLE3
 13
348.5866675668
 23
340.9480293186
 33
0.0
 14
348.5866675668
 24
338.9480293186
 34
0.0
 50
90.0
  0
LINE
  5
34B
  8
0
  6
CONTINUOUS
 62
     7
 10
81.0795892871
 20
163.9222962771
 30
0.0
 11
81.0795892871
 21
150.9222962771
 31
0.0
  0
LINE
  5
34C
  8
0
  6
CONTINUOUS
 62
     7
 10
130.1988893771
 20
150.9222962771
 30
0.0
 11
130.1988893771
 21
163.9222962771
 31
0.0
  0
LINE
  5
34D
  8
0
  6
CONTINUOUS
 62
     7
 10
144.6392393321
 20
163.9222962771
 30
0.0
 11
144.6392393321
 21
165.9222962771
 31
0.0
  0
LINE
  5
34E
  8
0
  6
CONTINUOUS
 62
     7
 10
66.6392393321
 20
165.9222962771
 30
0.0
 11
66.6392393321
 21
163.9222962771
 31
0.0
  0
LINE
  5
34F
  8
0
  6
CONTINUOUS
 62
     7
 10
81.0795892871
 20
150.9222962771
 30
0.0
 11
83.1392393321
 21
150.9222962771
 31
0.0
  0
LINE
  5
350
  8
0
  6
CONTINUOUS
 62
     7
 10
128.1392393321
 20
150.9222962771
 30
0.0
 11
130.1988893771
 21
150.9222962771
 31
0.0
  0
LINE
  5
351
  8
0
  6
CONTINUOUS
 62
     7
 10
128.1392393321
 20
161.9222962771
 30
0.0
 11
108.6392393321
 21
161.9222962771
 31
0.0
  0
LINE
  5
352
  8
0
  6
CONTINUOUS
 62
     7
 10
102.6392393321
 20
161.9222962771
 30
0.0
 11
108.6392393321
 21
161.9222962771
 31
0.0
  0
LINE
  5
353
  8
0
  6
CONTINUOUS
 62
     7
 10
102.6392393321
 20
161.9222962771
 30
0.0
 11
83.1392393321
 21
161.9222962771
 31
0.0
  0
LINE
  5
354
  8
0
  6
CONTINUOUS
 62
     7
 10
83.1392393321
 20
165.9222962771
 30
0.0
 11
83.1392393321
 21
161.9222962771
 31
0.0
  0
LINE
  5
355
  8
0
  6
CONTINUOUS
 62
     7
 10
128.1392393321
 20
165.9222962771
 30
0.0
 11
83.1392393321
 21
165.9222962771
 31
0.0
  0
LINE
  5
356
  8
0
  6
CONTINUOUS
 62
     7
 10
128.1392393321
 20
161.9222962771
 30
0.0
 11
128.1392393321
 21
165.9222962771
 31
0.0
  0
LINE
  5
357
  8
0
  6
CONTINUOUS
 62
     7
 10
95.6392393321
 20
156.4222962771
 30
0.0
 11
95.6392393321
 21
142.1722962771
 31
0.0
  0
LINE
  5
358
  8
0
  6
CONTINUOUS
 62
     7
 10
90.6392393321
 20
142.1722962771
 30
0.0
 11
90.6392393321
 21
156.4222962771
 31
0.0
  0
ARC
  5
359
  8
0
  6
CONTINUOUS
 62
     7
 10
87.3892393321
 20
142.1722962771
 30
0.0
 40
3.25
 50
270.0
 51
0.0
  0
LINE
  5
35A
  8
0
  6
CONTINUOUS
 62
     7
 10
87.3892393321
 20
138.9222962771
 30
0.0
 11
86.3892393321
 21
138.9222962771
 31
0.0
  0
ARC
  5
35B
  8
0
  6
CONTINUOUS
 62
     7
 10
86.3892393321
 20
142.1722962771
 30
0.0
 40
3.25
 50
180.0
 51
270.0
  0
ARC
  5
35C
  8
0
  6
CONTINUOUS
 62
     7
 10
102.6392393321
 20
161.4222962771
 30
0.0
 40
0.4999999999999858
 50
90.0
 51
180.0
  0
LINE
  5
35D
  8
0
  6
CONTINUOUS
 62
     7
 10
102.1392393321
 20
142.1722962771
 30
0.0
 11
102.1392393321
 21
161.4222962771
 31
0.0
  0
ARC
  5
35E
  8
0
  6
CONTINUOUS
 62
     7
 10
98.8892393321
 20
142.1722962771
 30
0.0
 40
3.25
 50
270.0
 51
0.0
  0
ARC
  5
35F
  8
0
  6
CONTINUOUS
 62
     7
 10
98.8892393321
 20
142.1722962771
 30
0.0
 40
3.250000000000014
 50
180.0
 51
270.0
  0
ARC
  5
360
  8
0
  6
CONTINUOUS
 62
     7
 10
93.1392393321
 20
156.4222962771
 30
0.0
 40
2.5
 50
0.0
 51
180.0
  0
LINE
  5
361
  8
0
  6
CONTINUOUS
 62
     7
 10
83.1392393321
 20
161.9222962771
 30
0.0
 11
83.1392393321
 21
142.1722962771
 31
0.0
  0
LINE
  5
362
  8
0
  6
CONTINUOUS
 62
     7
 10
115.6392393321
 20
142.1722962771
 30
0.0
 11
115.6392393321
 21
156.4222962771
 31
0.0
  0
ARC
  5
363
  8
0
  6
CONTINUOUS
 62
     7
 10
112.3892393321
 20
142.1722962771
 30
0.0
 40
3.25
 50
270.0
 51
0.0
  0
ARC
  5
364
  8
0
  6
CONTINUOUS
 62
     7
 10
112.3892393321
 20
142.1722962771
 30
0.0
 40
3.250000000000014
 50
180.0
 51
270.0
  0
ARC
  5
365
  8
0
  6
CONTINUOUS
 62
     7
 10
124.8892393321
 20
142.1722962771
 30
0.0
 40
3.250000000000014
 50
270.0
 51
0.0
  0
LINE
  5
366
  8
0
  6
CONTINUOUS
 62
     7
 10
124.8892393321
 20
138.9222962771
 30
0.0
 11
123.8892393321
 21
138.9222962771
 31
0.0
  0
ARC
  5
367
  8
0
  6
CONTINUOUS
 62
     7
 10
123.8892393321
 20
142.1722962771
 30
0.0
 40
3.25
 50
180.0
 51
270.0
  0
LINE
  5
368
  8
0
  6
CONTINUOUS
 62
     7
 10
120.6392393321
 20
156.4222962771
 30
0.0
 11
120.6392393321
 21
142.1722962771
 31
0.0
  0
ARC
  5
369
  8
0
  6
CONTINUOUS
 62
     7
 10
108.6392393321
 20
161.4222962771
 30
0.0
 40
0.5
 50
0.0
 51
90.0
  0
ARC
  5
36A
  8
0
  6
CONTINUOUS
 62
     7
 10
118.1392393321
 20
156.4222962771
 30
0.0
 40
2.5
 50
0.0
 51
180.0
  0
LINE
  5
36B
  8
0
  6
CONTINUOUS
 62
     7
 10
109.1392393321
 20
161.4222962771
 30
0.0
 11
109.1392393321
 21
142.1722962771
 31
0.0
  0
LINE
  5
36C
  8
0
  6
CONTINUOUS
 62
     7
 10
128.1392393321
 20
161.9222962771
 30
0.0
 11
128.1392393321
 21
142.1722962771
 31
0.0
  0
LINE
  5
36D
  8
0
  6
CONTINUOUS
 62
     7
 10
68.9066544747
 20
165.9222962771
 30
0.0
 11
68.9066544747
 21
163.9222962771
 31
0.0
  0
LINE
  5
36E
  8
0
  6
CONTINUOUS
 62
     7
 10
68.9066544747
 20
163.9222962771
 30
0.0
 11
83.1392393321
 21
163.9222962771
 31
0.0
  0
LINE
  5
36F
  8
0
  6
CONTINUOUS
 62
     7
 10
68.9066544747
 20
165.9222962771
 30
0.0
 11
83.1392393321
 21
165.9222962771
 31
0.0
  0
LINE
  5
370
  8
0
  6
CONTINUOUS
 62
     7
 10
142.3718241895
 20
165.9222962771
 30
0.0
 11
142.3718241895
 21
163.9222962771
 31
0.0
  0
LINE
  5
371
  8
0
  6
CONTINUOUS
 62
     7
 10
128.1392393321
 20
163.9222962771
 30
0.0
 11
142.3718241895
 21
163.9222962771
 31
0.0
  0
LINE
  5
372
  8
0
  6
CONTINUOUS
 62
     7
 10
128.1392393321
 20
165.9222962771
 30
0.0
 11
142.3718241895
 21
165.9222962771
 31
0.0
  0
LINE
  5
373
  8
0
  6
CONTINUOUS
 62
     7
 10
142.3718241895
 20
163.9222962771
 30
0.0
 11
144.6392393321
 21
163.9222962771
 31
0.0
  0
LINE
  5
374
  8
0
  6
CONTINUOUS
 62
     7
 10
66.6392393321
 20
163.9222962771
 30
0.0
 11
68.9066544747
 21
163.9222962771
 31
0.0
  0
LINE
  5
375
  8
0
  6
CONTINUOUS
 62
     7
 10
142.3718241895
 20
165.9222962771
 30
0.0
 11
144.6392393321
 21
165.9222962771
 31
0.0
  0
LINE
  5
376
  8
0
  6
CONTINUOUS
 62
     7
 10
66.6392393321
 20
165.9222962771
 30
0.0
 11
68.9066544747
 21
165.9222962771
 31
0.0
  0
DIMENSION
  5
377
  8
COTATION
  2
_D_10
 10
109.1392393321
 20
187.9222962771
 30
0.0
 11
85.4201680968
 21
187.9222962771
 31
0.0
 70
   160
  1
=<>=
  3
SLDDIMSTYLE3
 13
102.1392393321
 23
161.4222962771
 33
0.0
 14
109.1392393321
 24
161.4222962771
 34
0.0
  0
DIMENSION
  5
385
  8
COTATION
  2
_D_11
 10
151.9135471274
 20
165.9222962771
 30
0.0
 11
151.9135471274
 21
163.9222962771
 31
0.0
 70
   160
  1
<>
  3
SLDDIMSTYLE5
 13
108.6392393321
 23
161.9222962771
 33
0.0
 14
128.1392393321
 24
165.9222962771
 34
0.0
 50
90.0
  0
DIMENSION
  5
392
  8
COTATION
  2
_D_12
 10
162.6212107364
 20
138.9222962771
 30
0.0
 11
162.6212107364
 21
152.4222962771
 31
0.0
 70
   160
  1
<>
  3
SLDDIMSTYLE0
 13
128.1392393321
 23
165.9222962771
 33
0.0
 14
124.8892393321
 24
138.9222962771
 34
0.0
 50
90.0
  0
DIMENSION
  5
39C
  8
COTATION
  2
_D_13
 10
124.8892393321
 20
142.1722962771
 30
0.0
 11
145.3424850126
 21
121.7190705965
 31
0.0
 70
   164
  1
<> (8x)
  3
SLDDIMSTYLE1
 15
127.187336371
 25
139.8741992382
 35
0.0
 40
0.0
  0
DIMENSION
  5
3A6
  8
COTATION
  2
_D_14
 10
108.6392393321
 20
161.4222962771
 30
0.0
 11
124.7772845166
 21
177.5603414616
 31
0.0
 70
   164
  1
<> (4x)
  3
SLDDIMSTYLE1
 15
108.9927927227
 25
161.7758496676
 35
0.0
 40
0.0
  0
DIMENSION
  5
3B0
  8
COTATION
  2
_D_15
 10
105.6392393321
 20
193.9222962771
 30
0.0
 11
81.7753067932
 21
193.9222962771
 31
0.0
 70
   160
  1
<>
  3
SLDDIMSTYLE0
 13
93.1392393321
 23
161.4222962771
 33
0.0
 14
105.6392393321
 24
172.0593308604
 34
0.0
  0
DIMENSION
  5
3BB
  8
COTATION
  2
_D_16
 10
105.6392393321
 20
193.9222962771
 30
0.0
 11
143.4163435454
 21
193.9222962771
 31
0.0
 70
   160
  1
<>
  3
SLDDIMSTYLE0
 13
118.1392393321
 23
161.4222962771
 33
0.0
 14
105.6392393321
 24
172.0593308604
 34
0.0
  0
DIMENSION
  5
3C6
  8
COTATION
  2
_D_17
 10
95.6392393321
 20
128.9222962771
 30
0.0
 11
73.4135661555
 21
128.9222962771
 31
0.0
 70
   160
  1
(2x) =<>=
  3
SLDDIMSTYLE3
 13
90.6392393321
 23
142.1722962771
 33
0.0
 14
95.6392393321
 24
142.1722962771
 34
0.0
  0
DIMENSION
  5
3D4
  8
COTATION
  2
_D_18
 10
44.6392393321
 20
156.4222962771
 30
0.0
 11
44.6392393321
 21
161.1722962771
 31
0.0
 70
   160
  1
<>
  3
SLDDIMSTYLE3
 13
68.9066544747
 23
165.9222962771
 33
0.0
 14
88.1392393321
 24
156.4222962771
 34
0.0
 50
90.0
  0
INSERT
  5
3EB
  8
PV
  2
SW_CENTERMARKSYMBOL_1
 10
93.1392393321
 20
156.4222962771
 30
0.0
  0
INSERT
  5
3F7
  8
PV
  2
SW_CENTERMARKSYMBOL_2
 10
118.1392393321
 20
156.4222962771
 30
0.0
  0
LINE
  5
3F8
  8
COTATION
  6
CENTERX2
 10
105.6392393321
 20
172.0593308604
 30
0.0
 11
105.6392393321
 21
132.0927090354
 31
0.0
  0
LINE
  5
3F9
  8
COTATION
  6
CENTERX2
 10
105.6392393321
 20
167.9222962771
 30
0.0
 11
105.6392393321
 21
161.9222962771
 31
0.0
  0
LINE
  5
3FA
  8
0
  6
CONTINUOUS
 62
     7
 10
193.6960477937
 20
304.6565781492
 30
0.0
 11
189.6960477937
 21
300.6565781492
 31
0.0
  0
LINE
  5
3FB
  8
0
  6
CONTINUOUS
 62
     7
 10
193.6960477937
 20
291.1861939676
 30
0.0
 11
189.6960477937
 21
287.1861939676
 31
0.0
  0
LINE
  5
3FC
  8
0
  6
CONTINUOUS
 62
     7
 10
193.6960477937
 20
277.715809786
 30
0.0
 11
193.2952109773
 21
277.3149729696
 31
0.0
  0
LINE
  5
3FD
  8
0
  6
CONTINUOUS
 62
     7
 10
190.5700317206
 20
310.5108182047
 30
0.0
 11
189.6960477937
 21
309.6368342779
 31
0.0
  0
LINE
  5
3FE
  8
0
  6
CONTINUOUS
 62
     7
 10
193.6960477937
 20
300.1664500962
 30
0.0
 11
189.6960477937
 21
296.1664500962
 31
0.0
  0
LINE
  5
3FF
  8
0
  6
CONTINUOUS
 62
     7
 10
193.6960477937
 20
286.6960659146
 30
0.0
 11
189.6960477937
 21
282.6960659146
 31
0.0
  0
LINE
  5
400
  8
0
  6
CONTINUOUS
 62
     7
 10
192.3655951589
 20
262.9149729696
 30
0.0
 11
189.6960477937
 21
260.2454256044
 31
0.0
  0
LINE
  5
401
  8
0
  6
CONTINUOUS
 62
     7
 10
193.6960477937
 20
250.7750414228
 30
0.0
 11
189.6960477937
 21
246.7750414228
 31
0.0
  0
LINE
  5
402
  8
0
  6
CONTINUOUS
 62
     7
 10
193.6960477937
 20
259.7552975514
 30
0.0
 11
189.6960477937
 21
255.7552975514
 31
0.0
  0
LINE
  5
403
  8
0
  6
CONTINUOUS
 62
     7
 10
193.6960477937
 20
246.2849133698
 30
0.0
 11
193.3401724866
 21
245.9290380627
 31
0.0
  0
LINE
  5
404
  8
0
  6
CONTINUOUS
 62
     7
 10
193.4952109773
 20
277.5149729696
 30
0.0
 11
189.6960477937
 21
273.715809786
 31
0.0
  0
LINE
  5
405
  8
0
  6
CONTINUOUS
 62
     7
 10
198.4084754285
 20
268.9578532392
 30
0.0
 11
192.1655951589
 21
262.7149729696
 31
0.0
  0
LINE
  5
406
  8
0
  6
CONTINUOUS
 62
     7
 10
206.9655951589
 20
277.5149729696
 30
0.0
 11
202.8655951589
 21
273.4149729696
 31
0.0
  0
LINE
  5
407
  8
0
  6
CONTINUOUS
 62
     7
 10
209.0359793405
 20
266.1149729696
 30
0.0
 11
205.6359793405
 21
262.7149729696
 31
0.0
  0
LINE
  5
408
  8
0
  6
CONTINUOUS
 62
     7
 10
219.6263726271
 20
276.7053662562
 30
0.0
 11
217.0359793405
 21
274.1149729696
 31
0.0
  0
LINE
  5
409
  8
0
  6
CONTINUOUS
 62
     7
 10
219.6960477937
 20
263.3046572412
 30
0.0
 11
219.1063635221
 21
262.7149729696
 31
0.0
  0
LINE
  5
40A
  8
0
  6
CONTINUOUS
 62
     7
 10
197.9853390303
 20
277.5149729696
 30
0.0
 11
189.6960477937
 21
269.225681733
 31
0.0
  0
LINE
  5
40B
  8
0
  6
CONTINUOUS
 62
     7
 10
200.7557232119
 20
266.8149729696
 30
0.0
 11
196.6557232119
 21
262.7149729696
 31
0.0
  0
LINE
  5
40C
  8
0
  6
CONTINUOUS
 62
     7
 10
211.4557232119
 20
277.5149729696
 30
0.0
 11
208.0557232119
 21
274.1149729696
 31
0.0
  0
LINE
  5
40D
  8
0
  6
CONTINUOUS
 62
     7
 10
213.5261073935
 20
266.1149729696
 30
0.0
 11
210.1261073935
 21
262.7149729696
 31
0.0
  0
LINE
  5
40E
  8
0
  6
CONTINUOUS
 62
     7
 10
189.6960477937
 20
233.8342730596
 30
0.0
 11
193.6960477937
 21
233.8342730596
 31
0.0
  0
LINE
  5
40F
  8
0
  6
CONTINUOUS
 62
     7
 10
189.6960477937
 20
262.2149729696
 30
0.0
 11
190.6960477937
 21
262.2149729696
 31
0.0
  0
LINE
  5
410
  8
0
  6
CONTINUOUS
 62
     7
 10
190.6960477937
 20
278.0149729696
 30
0.0
 11
189.6960477937
 21
278.0149729696
 31
0.0
  0
LINE
  5
411
  8
0
  6
CONTINUOUS
 62
     7
 10
191.6960477937
 20
276.9149729696
 30
0.0
 11
190.6960477937
 21
276.9149729696
 31
0.0
  0
LINE
  5
412
  8
0
  6
CONTINUOUS
 62
     7
 10
191.6960477937
 20
277.5149729696
 30
0.0
 11
191.6960477937
 21
276.9149729696
 31
0.0
  0
LINE
  5
413
  8
0
  6
CONTINUOUS
 62
     7
 10
219.6960477937
 20
277.5149729696
 30
0.0
 11
191.6960477937
 21
277.5149729696
 31
0.0
  0
LINE
  5
414
  8
0
  6
CONTINUOUS
 62
     7
 10
219.6960477937
 20
274.1149729696
 30
0.0
 11
219.6960477937
 21
277.5149729696
 31
0.0
  0
LINE
  5
415
  8
0
  6
CONTINUOUS
 62
     7
 10
206.6960477937
 20
274.1149729696
 30
0.0
 11
219.6960477937
 21
274.1149729696
 31
0.0
  0
LINE
  5
416
  8
0
  6
CONTINUOUS
 62
     7
 10
206.6960477937
 20
273.4149729696
 30
0.0
 11
206.6960477937
 21
274.1149729696
 31
0.0
  0
LINE
  5
417
  8
0
  6
CONTINUOUS
 62
     7
 10
199.6960477937
 20
273.4149729696
 30
0.0
 11
206.6960477937
 21
273.4149729696
 31
0.0
  0
LINE
  5
418
  8
0
  6
CONTINUOUS
 62
     7
 10
197.7132077509
 20
270.1149729696
 30
0.0
 11
199.6960477937
 21
273.4149729696
 31
0.0
  0
LINE
  5
419
  8
0
  6
CONTINUOUS
 62
     7
 10
199.6960477937
 20
266.8149729696
 30
0.0
 11
197.7132077509
 21
270.1149729696
 31
0.0
  0
LINE
  5
41A
  8
0
  6
CONTINUOUS
 62
     7
 10
206.6960477937
 20
266.8149729696
 30
0.0
 11
199.6960477937
 21
266.8149729696
 31
0.0
  0
LINE
  5
41B
  8
0
  6
CONTINUOUS
 62
     7
 10
206.6960477937
 20
266.1149729696
 30
0.0
 11
206.6960477937
 21
266.8149729696
 31
0.0
  0
LINE
  5
41C
  8
0
  6
CONTINUOUS
 62
     7
 10
219.6960477937
 20
266.1149729696
 30
0.0
 11
206.6960477937
 21
266.1149729696
 31
0.0
  0
LINE
  5
41D
  8
0
  6
CONTINUOUS
 62
     7
 10
219.6960477937
 20
262.7149729696
 30
0.0
 11
219.6960477937
 21
266.1149729696
 31
0.0
  0
LINE
  5
41E
  8
0
  6
CONTINUOUS
 62
     7
 10
191.6960477937
 20
262.7149729696
 30
0.0
 11
219.6960477937
 21
262.7149729696
 31
0.0
  0
LINE
  5
41F
  8
0
  6
CONTINUOUS
 62
     7
 10
191.6960477937
 20
263.3149729696
 30
0.0
 11
191.6960477937
 21
262.7149729696
 31
0.0
  0
LINE
  5
420
  8
0
  6
CONTINUOUS
 62
     7
 10
190.6960477937
 20
263.3149729696
 30
0.0
 11
191.6960477937
 21
263.3149729696
 31
0.0
  0
LINE
  5
421
  8
0
  6
CONTINUOUS
 62
     7
 10
190.6960477937
 20
276.9149729696
 30
0.0
 11
190.6960477937
 21
278.0149729696
 31
0.0
  0
LINE
  5
422
  8
0
  6
CONTINUOUS
 62
     7
 10
190.6960477937
 20
262.2149729696
 30
0.0
 11
190.6960477937
 21
263.3149729696
 31
0.0
  0
LINE
  5
423
  8
0
  6
CONTINUOUS
 62
     7
 10
189.6960477937
 20
278.0149729696
 30
0.0
 11
189.6960477937
 21
262.2149729696
 31
0.0
  0
LINE
  5
424
  8
0
  6
CONTINUOUS
 62
     7
 10
219.6960477937
 20
266.1149729696
 30
0.0
 11
219.6960477937
 21
274.1149729696
 31
0.0
  0
LINE
  5
425
  8
0
  6
CONTINUOUS
 62
     7
 10
199.6960477937
 20
266.8149729696
 30
0.0
 11
199.6960477937
 21
273.4149729696
 31
0.0
  0
LINE
  5
426
  8
0
  6
CONTINUOUS
 62
     7
 10
206.6960477937
 20
266.8149729696
 30
0.0
 11
206.6960477937
 21
273.4149729696
 31
0.0
  0
LINE
  5
427
  8
0
  6
CONTINUOUS
 62
     7
 10
189.6960477937
 20
245.9290380627
 30
0.0
 11
193.6960477937
 21
245.9290380627
 31
0.0
  0
LINE
  5
428
  8
0
  6
CONTINUOUS
 62
     7
 10
193.6960477937
 20
233.8342730596
 30
0.0
 11
193.6960477937
 21
245.9290380627
 31
0.0
  0
LINE
  5
429
  8
0
  6
CONTINUOUS
 62
     7
 10
189.6960477937
 20
233.8342730596
 30
0.0
 11
189.6960477937
 21
245.9290380627
 31
0.0
  0
LINE
  5
42A
  8
0
  6
CONTINUOUS
 62
     7
 10
189.6960477937
 20
277.3149729696
 30
0.0
 11
193.6960477937
 21
277.3149729696
 31
0.0
  0
LINE
  5
42B
  8
0
  6
CONTINUOUS
 62
     7
 10
193.6960477937
 20
310.5108182047
 30
0.0
 11
189.6960477937
 21
310.5108182047
 31
0.0
  0
LINE
  5
42C
  8
0
  6
CONTINUOUS
 62
     7
 10
193.6960477937
 20
310.5108182047
 30
0.0
 11
193.6960477937
 21
277.3149729696
 31
0.0
  0
LINE
  5
42D
  8
0
  6
CONTINUOUS
 62
     7
 10
189.6960477937
 20
310.5108182047
 30
0.0
 11
189.6960477937
 21
277.3149729696
 31
0.0
  0
LINE
  5
42E
  8
0
  6
CONTINUOUS
 62
     7
 10
193.6960477937
 20
262.9149729696
 30
0.0
 11
189.6960477937
 21
262.9149729696
 31
0.0
  0
LINE
  5
42F
  8
0
  6
CONTINUOUS
 62
     7
 10
193.6960477937
 20
262.9149729696
 30
0.0
 11
193.6960477937
 21
245.9290380627
 31
0.0
  0
LINE
  5
430
  8
0
  6
CONTINUOUS
 62
     7
 10
189.6960477937
 20
262.9149729696
 30
0.0
 11
189.6960477937
 21
245.9290380627
 31
0.0
  0
DIMENSION
  5
431
  8
COTATION
  2
_D_19
 10
239.7939100622
 20
262.7149729696
 30
0.0
 11
239.7939100622
 21
255.9583806452
 31
0.0
 70
   160
  1
%%c<> max. 
  3
SLDDIMSTYLE6
 13
219.6960477937
 23
277.5149729696
 33
0.0
 14
219.6960477937
 24
262.7149729696
 34
0.0
 50
90.0
  0
DIMENSION
  5
444
  8
COTATION
  2
_D_20
 10
189.6960477937
 20
241.1149729696
 30
0.0
 11
204.6960477937
 21
241.1149729696
 31
0.0
 70
   160
  1
<>
  3
SLDDIMSTYLE7
 13
219.6960477937
 23
262.7149729696
 33
0.0
 14
189.6960477937
 24
245.9290380627
 34
0.0
  0
DIMENSION
  5
44F
  8
COTATION
  2
_D_21
 10
229.6960477937
 20
266.1149729696
 30
0.0
 11
229.6960477937
 21
253.4236867677
 31
0.0
 70
   160
  1
M<>
  3
SLDDIMSTYLE8
 13
219.6960477937
 23
274.1149729696
 33
0.0
 14
219.6960477937
 24
266.1149729696
 34
0.0
 50
90.0
  0
DIMENSION
  5
45D
  8
COTATION
  2
_D_22
 10
219.6960477937
 20
290.9591637169
 30
0.0
 11
213.1960477937
 21
290.9591637169
 31
0.0
 70
   160
  1
<> min. 
  3
SLDDIMSTYLE9
 13
206.6960477937
 23
274.1149729696
 33
0.0
 14
219.6960477937
 24
277.5149729696
 34
0.0
  0
INSERT
  5
470
  8
NOTE
  2
SW_NOTE_6
 10
200.9052212343
 20
212.3422514918
 30
0.0
  0
TEXT
  5
471
  8
NOTE
 10
202.1304163108
 20
305.7053525622
 30
0.0
 40
3.5
  1
Inserts specifications :
 41
0.6708333333
 11
202.1304163108
 21
304.4689423455
 31
0.0
 73
     1
  0
INSERT
  5
486
  8
NOTE
  2
SW_NOTE_7
 10
217.8823672541
 20
276.2116499952
 30
0.0
  0
INSERT
  5
493
  8
COTATION
  2
SW_GTOL_1
 10
241.3930264387
 20
247.6792935903
 30
0.0
  0
LINE
  5
494
  8
0
  6
CENTERX2
 62
     7
 10
508.7159608509
 20
327.4480293186
 30
0.0
 11
463.7159608509
 21
327.4480293186
 31
0.0
  0
CIRCLE
  5
495
  8
0
  6
CONTINUOUS
 62
     7
 10
507.0756108959
 20
291.9514848734
 30
0.0
 40
3.599999999999966
  0
CIRCLE
  5
496
  8
0
  6
CONTINUOUS
 62
     7
 10
465.3563108059
 20
250.2321847834
 30
0.0
 40
3.600000000000023
  0
CIRCLE
  5
497
  8
0
  6
CONTINUOUS
 62
     7
 10
465.3563108059
 20
291.9514848734
 30
0.0
 40
3.60000000000008
  0
ARC
  5
498
  8
0
  6
CONTINUOUS
 62
     7
 10
505.4659608509
 20
349.5542238088
 30
0.0
 40
3.249999999999943
 50
0.0
 51
90.0
  0
LINE
  5
499
  8
0
  6
CONTINUOUS
 62
     7
 10
508.7159608509
 20
324.0918348284
 30
0.0
 11
522.9485457083
 21
284.1959261625
 31
0.0
  0
ARC
  5
49A
  8
0
  6
CONTINUOUS
 62
     7
 10
486.2159608509
 20
271.0918348284
 30
0.0
 40
39.00000000000005
 50
160.3664986388
 51
19.6335013612
  0
LINE
  5
49B
  8
0
  6
CONTINUOUS
 62
     7
 10
449.4833759935
 20
284.1959261625
 30
0.0
 11
463.7159608509
 21
324.0918348284
 31
0.0
  0
LINE
  5
49C
  8
0
  6
CONTINUOUS
 62
     7
 10
463.7159608509
 20
324.0918348284
 30
0.0
 11
463.7159608509
 21
349.5542238088
 31
0.0
  0
ARC
  5
49D
  8
0
  6
CONTINUOUS
 62
     7
 10
466.9659608509
 20
349.5542238088
 30
0.0
 40
3.250000000000057
 50
90.0
 51
180.0
  0
LINE
  5
49E
  8
0
  6
CONTINUOUS
 62
     7
 10
467.9659608509
 20
352.8042238088
 30
0.0
 11
466.9659608509
 21
352.8042238088
 31
0.0
  0
ARC
  5
49F
  8
0
  6
CONTINUOUS
 62
     7
 10
467.9659608509
 20
349.5542238088
 30
0.0
 40
3.25
 50
0.0
 51
90.0
  0
LINE
  5
4A0
  8
0
  6
CONTINUOUS
 62
     7
 10
471.2159608509
 20
349.5542238088
 30
0.0
 11
471.2159608509
 21
335.3042238088
 31
0.0
  0
ARC
  5
4A1
  8
0
  6
CONTINUOUS
 62
     7
 10
473.7159608509
 20
335.3042238088
 30
0.0
 40
2.5
 50
180.0
 51
0.0
  0
LINE
  5
4A2
  8
0
  6
CONTINUOUS
 62
     7
 10
476.2159608509
 20
335.3042238088
 30
0.0
 11
476.2159608509
 21
349.5542238088
 31
0.0
  0
ARC
  5
4A3
  8
0
  6
CONTINUOUS
 62
     7
 10
479.4659608509
 20
349.5542238088
 30
0.0
 40
3.25
 50
0.0
 51
180.0
  0
LINE
  5
4A4
  8
0
  6
CONTINUOUS
 62
     7
 10
482.7159608509
 20
349.5542238088
 30
0.0
 11
482.7159608509
 21
330.3042238088
 31
0.0
  0
ARC
  5
4A5
  8
0
  6
CONTINUOUS
 62
     7
 10
483.2159608509
 20
330.3042238088
 30
0.0
 40
0.5
 50
180.0
 51
270.0
  0
LINE
  5
4A6
  8
0
  6
CONTINUOUS
 62
     7
 10
489.2159608509
 20
329.8042238088
 30
0.0
 11
483.2159608509
 21
329.8042238088
 31
0.0
  0
ARC
  5
4A7
  8
0
  6
CONTINUOUS
 62
     7
 10
489.2159608509
 20
330.3042238088
 30
0.0
 40
0.5
 50
270.0
 51
0.0
  0
LINE
  5
4A8
  8
0
  6
CONTINUOUS
 62
     7
 10
489.7159608509
 20
330.3042238088
 30
0.0
 11
489.7159608509
 21
349.5542238088
 31
0.0
  0
ARC
  5
4A9
  8
0
  6
CONTINUOUS
 62
     7
 10
492.9659608509
 20
349.5542238088
 30
0.0
 40
3.250000000000057
 50
0.0
 51
180.0
  0
LINE
  5
4AA
  8
0
  6
CONTINUOUS
 62
     7
 10
496.2159608509
 20
349.5542238088
 30
0.0
 11
496.2159608509
 21
335.3042238088
 31
0.0
  0
ARC
  5
4AB
  8
0
  6
CONTINUOUS
 62
     7
 10
498.7159608509
 20
335.3042238088
 30
0.0
 40
2.500000000000057
 50
180.0
 51
0.0
  0
LINE
  5
4AC
  8
0
  6
CONTINUOUS
 62
     7
 10
501.2159608509
 20
335.3042238088
 30
0.0
 11
501.2159608509
 21
349.5542238088
 31
0.0
  0
ARC
  5
4AD
  8
0
  6
CONTINUOUS
 62
     7
 10
504.4659608509
 20
349.5542238088
 30
0.0
 40
3.25
 50
90.0
 51
180.0
  0
LINE
  5
4AE
  8
0
  6
CONTINUOUS
 62
     7
 10
505.4659608509
 20
352.8042238088
 30
0.0
 11
504.4659608509
 21
352.8042238088
 31
0.0
  0
CIRCLE
  5
4AF
  8
0
  6
CONTINUOUS
 62
     7
 10
507.0756108959
 20
250.2321847834
 30
0.0
 40
3.599999999999966
  0
LINE
  5
4B0
  8
0
  6
CONTINUOUS
 62
     7
 10
508.7159608509
 20
349.5542238088
 30
0.0
 11
508.7159608509
 21
324.0918348284
 31
0.0
  0
INSERT
  5
4B6
  8
NOTE
  2
SW_NOTE_8
 10
457.9663920111
 20
221.2331385909
 30
0.0
  0
INSERT
  5
4C2
  8
PV
  2
SW_CENTERMARKSYMBOL_3
 10
465.3563108059
 20
291.9514848734
 30
0.0
  0
INSERT
  5
4CE
  8
PV
  2
SW_CENTERMARKSYMBOL_4
 10
465.3563108059
 20
250.2321847834
 30
0.0
  0
INSERT
  5
4DA
  8
PV
  2
SW_CENTERMARKSYMBOL_5
 10
507.0756108959
 20
250.2321847834
 30
0.0
  0
INSERT
  5
4E6
  8
PV
  2
SW_CENTERMARKSYMBOL_6
 10
507.0756108959
 20
291.9514848734
 30
0.0
  0
ENDSEC
  0
EOF
