  0
SECTION
  2
HEADER
  9
$ACADVER
  1
AC1015
  9
$ACADMAINTVER
 70
           6
  9
$DWGCODEPAGE
  3
ISO8859-1
  9
$INSBASE
 10
0.0
 20
0.0
 30
0.0
  9
$EXTMIN
 10
-443.204033259458
 20
-320.522109154989
 30
0.0
  9
$EXTMAX
 10
150.795966740542
 20
99.477890845011
 30
0.0
  9
$LIMMIN
 10
0.0
 20
0.0
  9
$LIMMAX
 10
12.0
 20
9.0
  9
$ORTHOMODE
 70
           0
  9
$REGENMODE
 70
           1
  9
$FILLMODE
 70
           1
  9
$QTEXTMODE
 70
           0
  9
$MIRRTEXT
 70
           1
  9
$LTSCALE
 40
1.0
  9
$ATTMODE
 70
           1
  9
$TEXTSIZE
 40
0.2
  9
$TRACEWID
 40
0.05
  9
$TEXTSTYLE
  7
STANDARD
  9
$CLAYER
  8
0
  9
$CELTYPE
  6
CONTINUOUS
  9
$CECOLOR
 62
         256
  9
$CELTSCALE
 40
1.0
  9
$DISPSILH
 70
           0
  9
$DIMSCALE
 40
1.0
  9
$DIMASZ
 40
3.80999994278
  9
$DIMEXO
 40
0.0625
  9
$DIMDLI
 40
0.38
  9
$DIMRND
 40
0.0
  9
$DIMDLE
 40
0.0
  9
$DIMEXE
 40
0.09
  9
$DIMTP
 40
0.0
  9
$DIMTM
 40
0.0
  9
$DIMTXT
 40
3.200000047684
  9
$DIMCEN
 40
0.09
  9
$DIMTSZ
 40
0.0
  9
$DIMTOL
 70
           0
  9
$DIMLIM
 70
           0
  9
$DIMTIH
 70
           1
  9
$DIMTOH
 70
           1
  9
$DIMSE1
 70
           0
  9
$DIMSE2
 70
           0
  9
$DIMTAD
 70
           0
  9
$DIMZIN
 70
           0
  9
$DIMBLK
  1

  9
$DIMASO
 70
           1
  9
$DIMSHO
 70
           1
  9
$DIMPOST
  1

  9
$DIMAPOST
  1

  9
$DIMALT
 70
           0
  9
$DIMALTD
 70
           2
  9
$DIMALTF
 40
25.4
  9
$DIMLFAC
 40
1.0
  9
$DIMTOFL
 70
           0
  9
$DIMTVP
 40
0.0
  9
$DIMTIX
 70
           0
  9
$DIMSOXD
 70
           0
  9
$DIMSAH
 70
           0
  9
$DIMBLK1
  1

  9
$DIMBLK2
  1

  9
$DIMSTYLE
  2
STANDARD
  9
$DIMCLRD
 70
           0
  9
$DIMCLRE
 70
           0
  9
$DIMCLRT
 70
           0
  9
$DIMTFAC
 40
1.0
  9
$DIMGAP
 40
0.09
  9
$DIMJUST
 70
           0
  9
$DIMSD1
 70
           0
  9
$DIMSD2
 70
           0
  9
$DIMTOLJ
 70
           1
  9
$DIMTZIN
 70
           0
  9
$DIMALTZ
 70
           0
  9
$DIMALTTZ
 70
           0
  9
$DIMUPT
 70
           0
  9
$DIMDEC
 70
           2
  9
$DIMTDEC
 70
           2
  9
$DIMALTU
 70
           2
  9
$DIMALTTD
 70
           2
  9
$DIMTXSTY
  7
STANDARD
  9
$DIMAUNIT
 70
           0
  9
$DIMADEC
 70
           0
  9
$DIMALTRND
 40
0.0
  9
$DIMAZIN
 70
           0
  9
$DIMDSEP
 70
           0
  9
$DIMATFIT
 70
           3
  9
$DIMFRAC
 70
           0
  9
$DIMLDRBLK
  1

  9
$DIMLUNIT
 70
           2
  9
$DIMLWD
 70
           0
  9
$DIMLWE
 70
           0
  9
$DIMTMOVE
 70
           0
  9
$LUNITS
 70
           2
  9
$LUPREC
 70
           4
  9
$SKETCHINC
 40
0.1
  9
$FILLETRAD
 40
0.0
  9
$AUNITS
 70
           0
  9
$AUPREC
 70
           0
  9
$MENU
  1
acad
  9
$ELEVATION
 40
0.0
  9
$PELEVATION
 40
0.0
  9
$THICKNESS
 40
0.0
  9
$LIMCHECK
 70
           0
  9
$CHAMFERA
 40
0.0
  9
$CHAMFERB
 40
0.0
  9
$CHAMFERC
 40
0.0
  9
$CHAMFERD
 40
0.0
  9
$SKPOLY
 70
           0
  9
$TDCREATE
 40
2444240.000000000
  9
$TDUCREATE
 40
0.000000000
  9
$TDUPDATE
 40
2454019.449505116
  9
$TDUUPDATE
 40
2454019.407838449
  9
$TDINDWG
 40
0.0007407292
  9
$TDUSRTIMER
 40
0.0007291551
  9
$USRTIMER
 70
           1
  9
$ANGBASE
 50
0.0
  9
$ANGDIR
 70
           0
  9
$PDMODE
 70
           0
  9
$PDSIZE
 40
0.0
  9
$PLINEWID
 40
0.0
  9
$SPLFRAME
 70
           0
  9
$SPLINETYPE
 70
           6
  9
$SPLINESEGS
 70
           8
  9
$HANDSEED
  5
96A
  9
$SURFTAB1
 70
           6
  9
$SURFTAB2
 70
           6
  9
$SURFTYPE
 70
           6
  9
$SURFU
 70
           6
  9
$SURFV
 70
           6
  9
$UCSBASE
  2

  9
$UCSNAME
  2

  9
$UCSORG
 10
0.0
 20
0.0
 30
0.0
  9
$UCSXDIR
 10
1.0
 20
0.0
 30
0.0
  9
$UCSYDIR
 10
0.0
 20
1.0
 30
0.0
  9
$UCSORTHOREF
  2

  9
$UCSORTHOVIEW
 70
           0
  9
$UCSORGTOP
 10
0.0
 20
0.0
 30
0.0
  9
$UCSORGBOTTOM
 10
0.0
 20
0.0
 30
0.0
  9
$UCSORGLEFT
 10
0.0
 20
0.0
 30
0.0
  9
$UCSORGRIGHT
 10
0.0
 20
0.0
 30
0.0
  9
$UCSORGFRONT
 10
0.0
 20
0.0
 30
0.0
  9
$UCSORGBACK
 10
0.0
 20
0.0
 30
0.0
  9
$PUCSBASE
  2

  9
$PUCSNAME
  2

  9
$PUCSORG
 10
0.0
 20
0.0
 30
0.0
  9
$PUCSXDIR
 10
1.0
 20
0.0
 30
0.0
  9
$PUCSYDIR
 10
0.0
 20
1.0
 30
0.0
  9
$PUCSORTHOREF
  2

  9
$PUCSORTHOVIEW
 70
           0
  9
$PUCSORGTOP
 10
0.0
 20
0.0
 30
0.0
  9
$PUCSORGBOTTOM
 10
0.0
 20
0.0
 30
0.0
  9
$PUCSORGLEFT
 10
0.0
 20
0.0
 30
0.0
  9
$PUCSORGRIGHT
 10
0.0
 20
0.0
 30
0.0
  9
$PUCSORGFRONT
 10
0.0
 20
0.0
 30
0.0
  9
$PUCSORGBACK
 10
0.0
 20
0.0
 30
0.0
  9
$USERI1
 70
           0
  9
$USERI2
 70
           0
  9
$USERI3
 70
           0
  9
$USERI4
 70
           0
  9
$USERI5
 70
           0
  9
$USERR1
 40
0.0
  9
$USERR2
 40
0.0
  9
$USERR3
 40
0.0
  9
$USERR4
 40
0.0
  9
$USERR5
 40
0.0
  9
$WORLDVIEW
 70
           1
  9
$SHADEDGE
 70
           3
  9
$SHADEDIF
 70
          70
  9
$TILEMODE
 70
           1
  9
$MAXACTVP
 70
          16
  9
$PINSBASE
 10
0.0
 20
0.0
 30
0.0
  9
$PLIMCHECK
 70
           0
  9
$PEXTMIN
 10
1.000000000000E+20
 20
1.000000000000E+20
 30
1.000000000000E+20
  9
$PEXTMAX
 10
-1.000000000000E+20
 20
-1.000000000000E+20
 30
-1.000000000000E+20
  9
$PLIMMIN
 10
0.0
 20
0.0
  9
$PLIMMAX
 10
12.0
 20
9.0
  9
$UNITMODE
 70
           0
  9
$VISRETAIN
 70
           0
  9
$PLINEGEN
 70
           0
  9
$PSLTSCALE
 70
           1
  9
$TREEDEPTH
 70
        3020
  9
$CMLSTYLE
  2
Standard
  9
$CMLJUST
 70
           0
  9
$CMLSCALE
 40
1.0
  9
$PROXYGRAPHICS
 70
           0
  9
$MEASUREMENT
 70
           0
  9
$CELWEIGHT
370
           0
  9
$ENDCAPS
280
           0
  9
$JOINSTYLE
280
           0
  9
$LWDISPLAY
290
           0
  9
$INSUNITS
 70
           0
  9
$HYPERLINKBASE
  1

  9
$STYLESHEET
  1

  9
$XEDIT
290
           0
  9
$CEPSNTYPE
380
           0
  9
$PSTYLEMODE
290
           1
  9
$FINGERPRINTGUID
  2

  9
$VERSIONGUID
  2

  9
$EXTNAMES
290
           1
  9
$PSVPSCALE
 40
0.0
  0
ENDSEC
  0
SECTION
  2
CLASSES
  0
CLASS
  1
LWPOLYLINE
  2
AcDbPolyline
  3
"AutoCAD"
 90
        0
280
           0
281
           1
  0
CLASS
  1
IMAGE
  2
AcDbRasterImage
  3
ISM
 90
      127
280
           0
281
           1
  0
CLASS
  1
OLE2FRAME
  2
AcDbOle2Frame
  3
""
 90
        0
280
           0
281
           1
  0
CLASS
  1
HATCH
  2
AcDbHatch
  3
"ACAD_SEDONA"
 90
        0
280
           0
281
           1
  0
CLASS
  1
DICTIONARYVAR
  2
AcDbDictionaryVar
  3
"AutoCAD"
 90
        0
280
           0
281
           0
  0
CLASS
  1
RASTERVARIABLES
  2
AcDbRasterVariables
  3
ISM
 90
        0
280
           0
281
           0
  0
CLASS
  1
IMAGEDEF
  2
AcDbRasterImageDef
  3
ISM
 90
        0
280
           0
281
           0
  0
CLASS
  1
IMAGEDEF_REACTOR
  2
AcDbRasterImageDefReactor
  3
ISM
 90
        1
280
           0
281
           0
  0
CLASS
  1
IDBUFFER
  2
AcDbIdBuffer
  3
"Acad"
 90
        0
280
           0
281
           0
  0
CLASS
  1
SPATIAL_FILTER
  2
AcDbSpatialFilter
  3
"Acad"
 90
        0
280
           0
281
           0
  0
CLASS
  1
XRECORD
  2
AcDbXrecord
  3
"<Built In>"
 90
        0
280
           0
281
           0
  0
CLASS
  1
SORTENTSTABLE
  2
AcDbSortentsTable
  3
"AutoCAD"
 90
        0
280
           0
281
           0
  0
CLASS
  1
LAYER_INDEX
  2
AcDbLayerIndex
  3
"Acad"
 90
        0
280
           0
281
           0
  0
CLASS
  1
SPATIAL_INDEX
  2
AcDbSpatialIndex
  3
"Acad"
 90
        0
280
           0
281
           0
  0
CLASS
  1
OBJECT_PTR
  2
CAseDLPNTableRecord
  3
"ASE-LPNTableRecord"
 90
        1
280
           0
281
           0
  0
CLASS
  1
DxfZombieEntity
  2
AcDbDxfZombieEntity
  3
"AutoCAD"
 90
        0
280
           0
281
           1
  0
CLASS
  1
DxfZombieObject
  2
AcDbDxfZombieObject
  3
"AutoCAD"
 90
        0
280
           0
281
           0
  0
CLASS
  1
LAYOUT
  2
AcDbLayout
  3
AutoCAD 2000
 90
        0
280
           0
281
           0
  0
CLASS
  1
PLOTSETTINGS
  2
AcDbPlotSettings
  3
AutoCAD 2000
 90
        0
280
           0
281
           0
  0
CLASS
  1
ACDBDICTIONARYWDFLT
  2
AcDbDictionaryWithDefault
  3
AutoCAD 2000
 90
        0
280
           0
281
           0
  0
CLASS
  1
ACDBPLACEHOLDER
  2
AcDbPlaceHolder
  3
AutoCAD 2000
 90
        0
280
           0
281
           0
  0
CLASS
  1
VBA_PROJECT
  2
AcDbVbaProject
  3
acadvba
 90
        0
280
           0
281
           0
  0
CLASS
  1
WIPEOUT
  2
AcDbWipeout
  3
WipeOut|AutoCAD Express Tool|expresstools@autodesk.com
 90
      127
280
           0
281
           1
  0
CLASS
  1
WIPEOUTVARIABLES
  2
AcDbWipeoutVariables
  3
WipeOut|AutoCAD Express Tool|expresstools@autodesk.com
 90
        0
280
           0
281
           0
  0
CLASS
  1
RTEXT
  2
RText
  3
RText|AutoCAD Express Tool|expresstools@autodesk.com
 90
        0
280
           0
281
           1
  0
CLASS
  1
ARCALIGNEDTEXT
  2
AcDbArcAlignedText
  3
ATEXT|AutoCAD Express Tool|expresstools@autodesk.com
 90
        0
280
           0
281
           1
  0
CLASS
  1
DIMASSOC
  2
AcDbDimAssoc
  3
AcDbDimAssoc|Product Desc:     AcDim ARX App For Dimension|Company:          Autodesk, Inc.|WEB Address:      www.autodesk.com
 90
        1
280
           0
281
           0
  0
ENDSEC
  0
SECTION
  2
TABLES
  0
TABLE
  2
VPORT
  5
7
100
AcDbSymbolTable
 70
           1
  0
VPORT
  5
15
100
AcDbSymbolTableRecord
100
AcDbViewportTableRecord
  2
*ACTIVE
 70
           0
 10
0.0
 20
0.0
 11
1.0
 21
1.0
 12
-137.222371745402
 22
-128.905864366893
 13
0.0
 23
0.0
 14
6.349999904633
 24
6.349999904633
 15
6.349999904633
 25
6.349999904633
 16
0.0
 26
0.0
 36
1.0
 17
0.0
 27
0.0
 37
0.0
 40
508.693981431221
 41
1.604229
 42
50.0
 43
0.0
 44
0.0
 50
0.0
 51
0.0
 71
           0
 72
         100
 73
           1
 74
           1
 75
           0
 76
           0
 77
           0
 78
           0
281
           0
 65
           0
110
0.0
120
0.0
130
0.0
111
1.0
121
0.0
131
0.0
112
0.0
122
1.0
132
0.0
345
0
346
0
 79
           0
146
0.0
  0
ENDTAB
  0
TABLE
  2
LTYPE
  5
4
100
AcDbSymbolTable
 70
          24
  0
LTYPE
  5
11
100
AcDbSymbolTableRecord
100
AcDbLinetypeTableRecord
  2
ByBlock
 70
          64
  3

 72
          65
 73
           0
 40
0.0
  0
LTYPE
  5
12
100
AcDbSymbolTableRecord
100
AcDbLinetypeTableRecord
  2
ByLayer
 70
          64
  3

 72
          65
 73
           0
 40
0.0
  0
LTYPE
  5
13
100
AcDbSymbolTableRecord
100
AcDbLinetypeTableRecord
  2
CONTINUOUS
 70
          64
  3
Style 1 Solid Line
 72
          65
 73
           0
 40
0.0
  0
LTYPE
  5
1D
100
AcDbSymbolTableRecord
100
AcDbLinetypeTableRecord
  2
DASHED
 70
          64
  3
Style 1 Dashed Line
 72
          65
 73
           2
 40
0.3
 49
0.17
 74
           0
 49
-0.13
 74
           0
  0
LTYPE
  5
1E
100
AcDbSymbolTableRecord
100
AcDbLinetypeTableRecord
  2
MCLT_DSH1
 70
          64
  3
Style 2 Dashed Line 1
 72
          65
 73
           2
 40
0.075
 49
0.04
 74
           0
 49
-0.035
 74
           0
  0
LTYPE
  5
1F
100
AcDbSymbolTableRecord
100
AcDbLinetypeTableRecord
  2
MCLT_DSH2
 70
          64
  3
Style 2 Dashed Line 2
 72
          65
 73
           2
 40
0.15
 49
0.11
 74
           0
 49
-0.04
 74
           0
  0
LTYPE
  5
20
100
AcDbSymbolTableRecord
100
AcDbLinetypeTableRecord
  2
MCLT_DSH3
 70
          64
  3
Style 2 Dashed Line 3
 72
          65
 73
           2
 40
0.2
 49
0.15
 74
           0
 49
-0.05
 74
           0
  0
LTYPE
  5
21
100
AcDbSymbolTableRecord
100
AcDbLinetypeTableRecord
  2
MCLT_DSH4
 70
          64
  3
Style 2 Dashed Line 4
 72
          65
 73
           2
 40
0.36
 49
0.28
 74
           0
 49
-0.08
 74
           0
  0
LTYPE
  5
22
100
AcDbSymbolTableRecord
100
AcDbLinetypeTableRecord
  2
MCLT_DSH5
 70
          64
  3
Style 2 Dashed Line 5
 72
          65
 73
           2
 40
0.47
 49
0.39
 74
           0
 49
-0.08
 74
           0
  0
LTYPE
  5
23
100
AcDbSymbolTableRecord
100
AcDbLinetypeTableRecord
  2
MCLT_DSH6
 70
          64
  3
Style 2 Dashed Line 6
 72
          65
 73
           2
 40
0.9
 49
0.81
 74
           0
 49
-0.09
 74
           0
  0
LTYPE
  5
24
100
AcDbSymbolTableRecord
100
AcDbLinetypeTableRecord
  2
CENTER
 70
          64
  3
Style 1 Center Line
 72
          65
 73
           4
 40
0.7
 49
0.4
 74
           0
 49
-0.1
 74
           0
 49
0.1
 74
           0
 49
-0.1
 74
           0
  0
LTYPE
  5
25
100
AcDbSymbolTableRecord
100
AcDbLinetypeTableRecord
  2
MCLT_CL1
 70
          64
  3
Style 2 Center Line 1
 72
          65
 73
           4
 40
0.7
 49
0.45
 74
           0
 49
-0.06
 74
           0
 49
0.13
 74
           0
 49
-0.06
 74
           0
  0
LTYPE
  5
26
100
AcDbSymbolTableRecord
100
AcDbLinetypeTableRecord
  2
MCLT_CL2
 70
          64
  3
Style 2 Center Line 2
 72
          65
 73
           4
 40
1.24
 49
1.01
 74
           0
 49
-0.06
 74
           0
 49
0.11
 74
           0
 49
-0.06
 74
           0
  0
LTYPE
  5
27
100
AcDbSymbolTableRecord
100
AcDbLinetypeTableRecord
  2
MCLT_CL3
 70
          64
  3
Style 2 Center Line 3
 72
          65
 73
           4
 40
1.2
 49
0.98
 74
           0
 49
-0.06
 74
           0
 49
0.1
 74
           0
 49
-0.06
 74
           0
  0
LTYPE
  5
28
100
AcDbSymbolTableRecord
100
AcDbLinetypeTableRecord
  2
MCLT_CL4
 70
          64
  3
Style 2 Center Line 4
 72
          65
 73
           4
 40
2.2
 49
1.93
 74
           0
 49
-0.07
 74
           0
 49
0.13
 74
           0
 49
-0.07
 74
           0
  0
LTYPE
  5
29
100
AcDbSymbolTableRecord
100
AcDbLinetypeTableRecord
  2
MCLT_CL5
 70
          64
  3
Style 2 Center Line 5
 72
          65
 73
           4
 40
2.2
 49
1.88
 74
           0
 49
-0.07
 74
           0
 49
0.18
 74
           0
 49
-0.07
 74
           0
  0
LTYPE
  5
2A
100
AcDbSymbolTableRecord
100
AcDbLinetypeTableRecord
  2
PHANTOM
 70
          64
  3
Style 1 Phantom Line
 72
          65
 73
           6
 40
1.0
 49
0.5
 74
           0
 49
-0.1
 74
           0
 49
0.1
 74
           0
 49
-0.1
 74
           0
 49
0.1
 74
           0
 49
-0.1
 74
           0
  0
LTYPE
  5
2B
100
AcDbSymbolTableRecord
100
AcDbLinetypeTableRecord
  2
MCLT_PL1
 70
          64
  3
Style 2 Phantom Line 1
 72
          65
 73
           6
 40
1.0
 49
0.6
 74
           0
 49
-0.08
 74
           0
 49
0.08
 74
           0
 49
-0.08
 74
           0
 49
0.08
 74
           0
 49
-0.08
 74
           0
  0
LTYPE
  5
2C
100
AcDbSymbolTableRecord
100
AcDbLinetypeTableRecord
  2
MCLT_PL2
 70
          64
  3
Style 2 Phantom Line 2
 72
          65
 73
           6
 40
1.08
 49
0.6
 74
           0
 49
-0.08
 74
           0
 49
0.12
 74
           0
 49
-0.08
 74
           0
 49
0.12
 74
           0
 49
-0.08
 74
           0
  0
LTYPE
  5
2D
100
AcDbSymbolTableRecord
100
AcDbLinetypeTableRecord
  2
MCLT_PL3
 70
          64
  3
Style 2 Phantom Line 3
 72
          65
 73
           6
 40
2.0
 49
1.44
 74
           0
 49
-0.08
 74
           0
 49
0.16
 74
           0
 49
-0.08
 74
           0
 49
0.16
 74
           0
 49
-0.08
 74
           0
  0
LTYPE
  5
2E
100
AcDbSymbolTableRecord
100
AcDbLinetypeTableRecord
  2
MCLT_SBK1
 70
          64
  3
Style 2 Set Back Line 1
 72
          65
 73
           8
 40
3.42
 49
2.08
 74
           0
 49
-0.08
 74
           0
 49
0.1
 74
           0
 49
-0.08
 74
           0
 49
0.1
 74
           0
 49
-0.08
 74
           0
 49
0.1
 74
           0
 49
-0.8
 74
           0
  0
LTYPE
  5
2F
100
AcDbSymbolTableRecord
100
AcDbLinetypeTableRecord
  2
MCLT_SBK2
 70
          64
  3
Style 2 Set Back Line 2
 72
          65
 73
           8
 40
5.15
 49
3.0
 74
           0
 49
-0.8
 74
           0
 49
0.13
 74
           0
 49
-0.08
 74
           0
 49
0.13
 74
           0
 49
-0.08
 74
           0
 49
0.13
 74
           0
 49
-0.8
 74
           0
  0
LTYPE
  5
30
100
AcDbSymbolTableRecord
100
AcDbLinetypeTableRecord
  2
MCLT_STCH
 70
          64
  3
Style 2 Stitch Line
 72
          65
 73
           2
 40
0.25
 49
0.0
 74
           0
 49
-0.25
 74
           0
  0
LTYPE
  5
31
100
AcDbSymbolTableRecord
100
AcDbLinetypeTableRecord
  2
MCLT_MTCH
 70
          64
  3
Style 2 Match Line
 72
          65
 73
           6
 40
2.72
 49
1.44
 74
           0
 49
-0.8
 74
           0
 49
0.16
 74
           0
 49
-0.08
 74
           0
 49
0.16
 74
           0
 49
-0.08
 74
           0
  0
ENDTAB
  0
TABLE
  2
LAYER
  5
2
100
AcDbSymbolTable
 70
           7
  0
LAYER
  5
14
100
AcDbSymbolTableRecord
100
AcDbLayerTableRecord
  2
0
 70
           0
 62
           7
  6
CONTINUOUS
290
           1
370
          -3
390
962
  0
LAYER
  5
32
100
AcDbSymbolTableRecord
100
AcDbLayerTableRecord
  2
EV
 70
           0
 62
           7
  6
CONTINUOUS
290
           1
370
          -3
390
962
  0
LAYER
  5
33
100
AcDbSymbolTableRecord
100
AcDbLayerTableRecord
  2
I2
 70
           0
 62
           7
  6
CONTINUOUS
290
           1
370
          -3
390
962
  0
LAYER
  5
34
100
AcDbSymbolTableRecord
100
AcDbLayerTableRecord
  2
IV
 70
           0
 62
           7
  6
CONTINUOUS
290
           1
370
          -3
390
962
  0
LAYER
  5
35
100
AcDbSymbolTableRecord
100
AcDbLayerTableRecord
  2
PV
 70
           0
 62
           7
  6
CONTINUOUS
290
           1
370
          -3
390
962
  0
LAYER
  5
36
100
AcDbSymbolTableRecord
100
AcDbLayerTableRecord
  2
S2
 70
           0
 62
           7
  6
CONTINUOUS
290
           1
370
          -3
390
962
  0
LAYER
  5
37
100
AcDbSymbolTableRecord
100
AcDbLayerTableRecord
  2
SV
 70
           0
 62
           7
  6
CONTINUOUS
290
           1
370
          -3
390
962
  0
ENDTAB
  0
TABLE
  2
STYLE
  5
3
100
AcDbSymbolTable
 70
           2
  0
STYLE
  5
17
100
AcDbSymbolTableRecord
100
AcDbTextStyleTableRecord
  2
STANDARD
 70
           0
 40
0.0
 41
1.0
 50
0.0
 71
           0
 42
4.167200137415
  3
MONOTXT
  4

  0
STYLE
  5
38
100
AcDbSymbolTableRecord
100
AcDbTextStyleTableRecord
  2
MICROCADAM
 70
           0
 40
4.167200137415
 41
1.0
 50
0.0
 71
           0
 42
4.167200137415
  3
MONOTXT
  4

  0
ENDTAB
  0
TABLE
  2
VIEW
  5
5
100
AcDbSymbolTable
 70
           0
  0
ENDTAB
  0
TABLE
  2
UCS
  5
6
100
AcDbSymbolTable
 70
           0
  0
ENDTAB
  0
TABLE
  2
APPID
  5
8
100
AcDbSymbolTable
 70
           1
  0
APPID
  5
16
100
AcDbSymbolTableRecord
100
AcDbRegAppTableRecord
  2
ACAD
 70
           0
  0
ENDTAB
  0
TABLE
  2
DIMSTYLE
  5
9
100
AcDbSymbolTable
 70
           1
100
AcDbDimStyleTable
 71
           0
  0
DIMSTYLE
105
18
100
AcDbSymbolTableRecord
100
AcDbDimStyleTableRecord
  2
STANDARD
 70
           0
  3

  4

 40
1.0
 41
3.80999994278
 42
0.0625
 43
0.38
 44
0.09
 45
0.0
 46
0.0
 47
0.0
 48
0.0
 71
           0
 72
           0
 73
           1
 74
           1
 75
           0
 76
           0
 77
           0
 78
           0
 79
           0
140
3.200000047684
141
0.09
142
0.0
143
25.4
144
1.0
145
0.0
146
1.0
147
0.09
148
0.0
170
           0
171
           2
172
           0
173
           0
174
           0
175
           0
176
           0
177
           0
178
           0
179
           0
271
           2
272
           2
273
           2
274
           2
275
           0
276
           0
277
           2
278
           0
279
           0
280
           0
281
           0
282
           0
283
           1
284
           0
285
           0
286
           0
288
           0
289
           3
340
17
341
0
342
0
343
0
344
0
371
          -2
372
          -2
  0
ENDTAB
  0
TABLE
  2
BLOCK_RECORD
  5
1
100
AcDbSymbolTable
 70
           5
  0
BLOCK_RECORD
  5
A
100
AcDbSymbolTableRecord
100
AcDbBlockTableRecord
  2
*MODEL_SPACE
340
965
  0
BLOCK_RECORD
  5
B
100
AcDbSymbolTableRecord
100
AcDbBlockTableRecord
  2
*PAPER_SPACE
340
966
  0
BLOCK_RECORD
  5
4DC
100
AcDbSymbolTableRecord
100
AcDbBlockTableRecord
  2
*D0
340
0
  0
BLOCK_RECORD
  5
4DE
100
AcDbSymbolTableRecord
100
AcDbBlockTableRecord
  2
*D1
340
0
  0
BLOCK_RECORD
  5
4E0
100
AcDbSymbolTableRecord
100
AcDbBlockTableRecord
  2
*D2
340
0
  0
BLOCK_RECORD
  5
4E2
100
AcDbSymbolTableRecord
100
AcDbBlockTableRecord
  2
*D3
340
0
  0
BLOCK_RECORD
  5
7CF
100
AcDbSymbolTableRecord
100
AcDbBlockTableRecord
  2
SYMTB130-002-VT001
340
0
102
{BLKREFS
331
95D
102
}
  0
ENDTAB
  0
ENDSEC
  0
SECTION
  2
BLOCKS
  0
BLOCK
  5
D
100
AcDbEntity
  8
0
390
0
100
AcDbBlockBegin
  2
*MODEL_SPACE
 70
           0
 10
0.0
 20
0.0
 30
0.0
  3
*MODEL_SPACE
  1

  0
ENDBLK
  5
E
100
AcDbEntity
  8
0
390
0
100
AcDbBlockEnd
  0
BLOCK
  5
F
100
AcDbEntity
 67
           1
  8
0
390
0
100
AcDbBlockBegin
  2
*PAPER_SPACE
 70
           0
 10
0.0
 20
0.0
 30
0.0
  3
*PAPER_SPACE
  1

  0
ENDBLK
  5
10
100
AcDbEntity
 67
           1
  8
0
390
0
100
AcDbBlockEnd
  0
BLOCK
  5
7A7
100
AcDbEntity
  8
S2
390
962
  6
CONTINUOUS
 62
          92
 48
25.39999961853
100
AcDbBlockBegin
  2
*D0
 70
           1
 10
0.0
 20
0.0
 30
0.0
  3
*D0
  1

  0
LINE
  5
7A8
100
AcDbEntity
  8
S2
390
962
  6
CONTINUOUS
 62
          92
 48
25.39999961853
100
AcDbLine
 10
70.0
 20
80.831488636962
 30
0.0
 11
119.5
 21
80.831488636962
 31
0.0
  0
LINE
  5
7A9
100
AcDbEntity
  8
S2
390
962
  6
CONTINUOUS
 62
          92
 48
25.39999961853
100
AcDbLine
 10
72.810260128108
 20
81.415000252034
 30
0.0
 11
70.0
 21
80.831488636962
 31
0.0
  0
LINE
  5
7AA
100
AcDbEntity
  8
S2
390
962
  6
CONTINUOUS
 62
          92
 48
25.39999961853
100
AcDbLine
 10
70.0
 20
80.831488636962
 30
0.0
 11
72.810260128108
 21
80.247977021889
 31
0.0
  0
LINE
  5
7AB
100
AcDbEntity
  8
S2
390
962
  6
CONTINUOUS
 62
          92
 48
25.39999961853
100
AcDbLine
 10
116.689739871893
 20
80.247977021889
 30
0.0
 11
119.5
 21
80.831488636962
 31
0.0
  0
LINE
  5
7AC
100
AcDbEntity
  8
S2
390
962
  6
CONTINUOUS
 62
          92
 48
25.39999961853
100
AcDbLine
 10
119.5
 20
80.831488636962
 30
0.0
 11
116.689739871893
 21
81.415000252034
 31
0.0
  0
LINE
  5
7AD
100
AcDbEntity
  8
S2
390
962
  6
CONTINUOUS
 62
          92
 48
25.39999961853
100
AcDbLine
 10
70.0
 20
41.50000762939
 30
0.0
 11
70.0
 21
83.117488636962
 31
0.0
  0
LINE
  5
7AE
100
AcDbEntity
  8
S2
390
962
  6
CONTINUOUS
 62
          92
 48
25.39999961853
100
AcDbLine
 10
119.5
 20
24.5
 30
0.0
 11
119.5
 21
83.117488636962
 31
0.0
  0
TEXT
  5
7AF
100
AcDbEntity
  8
S2
390
962
  6
CONTINUOUS
 62
          92
 48
25.39999961853
100
AcDbText
 10
87.067462322732
 20
83.331488636962
 30
0.0
 40
3.0
  1
49.5
 41
0.833333333333
  7
MICROCADAM
100
AcDbText
  0
ENDBLK
  5
7B0
100
AcDbEntity
  8
0
390
962
100
AcDbBlockEnd
  0
BLOCK
  5
7B1
100
AcDbEntity
  8
S2
390
962
  6
CONTINUOUS
 62
          92
 48
25.39999961853
100
AcDbBlockBegin
  2
*D1
 70
           1
 10
0.0
 20
0.0
 30
0.0
  3
*D1
  1

  0
LINE
  5
7B2
100
AcDbEntity
  8
S2
390
962
  6
CONTINUOUS
 62
          92
 48
25.39999961853
100
AcDbLine
 10
32.310606729161
 20
-2.499992370606
 30
0.0
 11
32.310606729161
 21
45.50000762939
 31
0.0
  0
LINE
  5
7B3
100
AcDbEntity
  8
S2
390
962
  6
CONTINUOUS
 62
          92
 48
25.39999961853
100
AcDbLine
 10
31.727095114089
 20
0.310267757501
 30
0.0
 11
32.310606729161
 21
-2.499992370606
 31
0.0
  0
LINE
  5
7B4
100
AcDbEntity
  8
S2
390
962
  6
CONTINUOUS
 62
          92
 48
25.39999961853
100
AcDbLine
 10
32.310606729161
 20
-2.499992370606
 30
0.0
 11
32.894118344233
 21
0.310267757501
 31
0.0
  0
LINE
  5
7B5
100
AcDbEntity
  8
S2
390
962
  6
CONTINUOUS
 62
          92
 48
25.39999961853
100
AcDbLine
 10
32.894118344233
 20
42.689747501283
 30
0.0
 11
32.310606729161
 21
45.50000762939
 31
0.0
  0
LINE
  5
7B6
100
AcDbEntity
  8
S2
390
962
  6
CONTINUOUS
 62
          92
 48
25.39999961853
100
AcDbLine
 10
32.310606729161
 20
45.50000762939
 30
0.0
 11
31.727095114089
 21
42.689747501283
 31
0.0
  0
LINE
  5
7B7
100
AcDbEntity
  8
S2
390
962
  6
CONTINUOUS
 62
          92
 48
25.39999961853
100
AcDbLine
 10
70.0
 20
-2.499992370606
 30
0.0
 11
30.024606729161
 21
-2.499992370606
 31
0.0
  0
LINE
  5
7B8
100
AcDbEntity
  8
S2
390
962
  6
CONTINUOUS
 62
          92
 48
25.39999961853
100
AcDbLine
 10
74.0
 20
45.50000762939
 30
0.0
 11
30.024606729161
 21
45.50000762939
 31
0.0
  0
TEXT
  5
7B9
100
AcDbEntity
  8
S2
390
962
  6
CONTINUOUS
 62
          92
 48
25.39999961853
100
AcDbText
 10
29.810606729161
 20
20.000941357014
 30
0.0
 40
3.0
  1
48
 50
90.0
 41
0.833333333333
  7
MICROCADAM
100
AcDbText
  0
ENDBLK
  5
7BA
100
AcDbEntity
  8
0
390
962
100
AcDbBlockEnd
  0
BLOCK
  5
7BB
100
AcDbEntity
  8
S2
390
962
  6
CONTINUOUS
 62
          92
 48
25.39999961853
100
AcDbBlockBegin
  2
*D2
 70
           1
 10
0.0
 20
0.0
 30
0.0
  3
*D2
  1

  0
LINE
  5
7BC
100
AcDbEntity
  8
S2
390
962
  6
CONTINUOUS
 62
          92
 48
25.39999961853
100
AcDbLine
 10
70.0
 20
70.173780796392
 30
0.0
 11
87.002136230469
 21
70.173780796392
 31
0.0
  0
LINE
  5
7BD
100
AcDbEntity
  8
S2
390
962
  6
CONTINUOUS
 62
          92
 48
25.39999961853
100
AcDbLine
 10
72.810260128108
 20
70.757292411464
 30
0.0
 11
70.0
 21
70.173780796392
 31
0.0
  0
LINE
  5
7BE
100
AcDbEntity
  8
S2
390
962
  6
CONTINUOUS
 62
          92
 48
25.39999961853
100
AcDbLine
 10
70.0
 20
70.173780796392
 30
0.0
 11
72.810260128108
 21
69.590269181319
 31
0.0
  0
LINE
  5
7BF
100
AcDbEntity
  8
S2
390
962
  6
CONTINUOUS
 62
          92
 48
25.39999961853
100
AcDbLine
 10
84.191876102362
 20
69.590269181319
 30
0.0
 11
87.002136230469
 21
70.173780796392
 31
0.0
  0
LINE
  5
7C0
100
AcDbEntity
  8
S2
390
962
  6
CONTINUOUS
 62
          92
 48
25.39999961853
100
AcDbLine
 10
87.002136230469
 20
70.173780796392
 30
0.0
 11
84.191876102362
 21
70.757292411464
 31
0.0
  0
LINE
  5
7C1
100
AcDbEntity
  8
S2
390
962
  6
CONTINUOUS
 62
          92
 48
25.39999961853
100
AcDbLine
 10
70.0
 20
41.50000762939
 30
0.0
 11
70.0
 21
72.459780796392
 31
0.0
  0
LINE
  5
7C2
100
AcDbEntity
  8
S2
390
962
  6
CONTINUOUS
 62
          92
 48
25.39999961853
100
AcDbLine
 10
87.002136230469
 20
66.544075012202
 30
0.0
 11
87.002136230469
 21
72.459780796392
 31
0.0
  0
TEXT
  5
7C3
100
AcDbEntity
  8
S2
390
962
  6
CONTINUOUS
 62
          92
 48
25.39999961853
100
AcDbText
 10
76.351904600424
 20
72.673780796392
 30
0.0
 40
3.0
  1
17
 41
0.833333333333
  7
MICROCADAM
100
AcDbText
  0
ENDBLK
  5
7C4
100
AcDbEntity
  8
0
390
962
100
AcDbBlockEnd
  0
BLOCK
  5
7C5
100
AcDbEntity
  8
S2
390
962
  6
CONTINUOUS
 62
          92
 48
25.39999961853
100
AcDbBlockBegin
  2
*D3
 70
           1
 10
0.0
 20
0.0
 30
0.0
  3
*D3
  1

  0
LINE
  5
7C6
100
AcDbEntity
  8
S2
390
962
  6
CONTINUOUS
 62
          92
 48
25.39999961853
100
AcDbLine
 10
42.343116221649
 20
45.50000762939
 30
0.0
 11
42.343116221649
 21
18.998176574702
 31
0.0
  0
LINE
  5
7C7
100
AcDbEntity
  8
S2
390
962
  6
CONTINUOUS
 62
          92
 48
25.39999961853
100
AcDbLine
 10
42.926627836721
 20
42.689747501283
 30
0.0
 11
42.343116221649
 21
45.50000762939
 31
0.0
  0
LINE
  5
7C8
100
AcDbEntity
  8
S2
390
962
  6
CONTINUOUS
 62
          92
 48
25.39999961853
100
AcDbLine
 10
42.343116221649
 20
45.50000762939
 30
0.0
 11
41.759604606576
 21
42.689747501283
 31
0.0
  0
LINE
  5
7C9
100
AcDbEntity
  8
S2
390
962
  6
CONTINUOUS
 62
          92
 48
25.39999961853
100
AcDbLine
 10
41.759604606576
 20
21.80843670281
 30
0.0
 11
42.343116221649
 21
18.998176574702
 31
0.0
  0
LINE
  5
7CA
100
AcDbEntity
  8
S2
390
962
  6
CONTINUOUS
 62
          92
 48
25.39999961853
100
AcDbLine
 10
42.343116221649
 20
18.998176574702
 30
0.0
 11
42.926627836721
 21
21.80843670281
 31
0.0
  0
LINE
  5
7CB
100
AcDbEntity
  8
S2
390
962
  6
CONTINUOUS
 62
          92
 48
25.39999961853
100
AcDbLine
 10
75.0
 20
45.50000762939
 30
0.0
 11
40.057116221649
 21
45.50000762939
 31
0.0
  0
LINE
  5
7CC
100
AcDbEntity
  8
S2
390
962
  6
CONTINUOUS
 62
          92
 48
25.39999961853
100
AcDbLine
 10
47.826904296875
 20
18.998176574702
 30
0.0
 11
40.057116221649
 21
18.998176574702
 31
0.0
  0
TEXT
  5
7CD
100
AcDbEntity
  8
S2
390
962
  6
CONTINUOUS
 62
          92
 48
25.39999961853
100
AcDbText
 10
39.843116221649
 20
27.749092102046
 30
0.0
 40
3.0
  1
26.5
 50
90.0
 41
0.833333333333
  7
MICROCADAM
100
AcDbText
  0
ENDBLK
  5
7CE
100
AcDbEntity
  8
0
390
962
100
AcDbBlockEnd
  0
BLOCK
  5
7D0
100
AcDbEntity
  8
0
390
962
  6
CONTINUOUS
 62
           7
 48
25.39999961853
100
AcDbBlockBegin
  2
SYMTB130-002-VT001
 70
          64
 10
0.0
 20
0.0
 30
0.0
  3
SYMTB130-002-VT001
  1

  0
LINE
  5
7D1
100
AcDbEntity
  8
0
390
962
  6
CENTER
 62
           3
 48
25.39999961853
100
AcDbLine
 10
404.189208984375
 20
50.304000854492
 30
0.0
 11
404.189208984375
 21
46.307998657227
 31
0.0
  0
LINE
  5
7D2
100
AcDbEntity
  8
0
390
962
  6
CENTER
 62
           3
 48
25.39999961853
100
AcDbLine
 10
406.956481933594
 20
48.304000854492
 30
0.0
 11
394.485687255859
 21
48.304000854492
 31
0.0
  0
LINE
  5
7D3
100
AcDbEntity
  8
0
390
962
  6
CONTINUOUS
 62
           1
 48
25.39999961853
100
AcDbLine
 10
395.189208984375
 20
49.104000091553
 30
0.0
 11
395.189208984375
 21
47.504001617432
 31
0.0
  0
LINE
  5
7D4
100
AcDbEntity
  8
0
390
962
  6
CONTINUOUS
 62
           1
 48
25.39999961853
100
AcDbLine
 10
399.189208984375
 20
49.804000854492
 30
0.0
 11
399.189208984375
 21
46.804000854492
 31
0.0
  0
LINE
  5
7D5
100
AcDbEntity
  8
0
390
962
  6
CONTINUOUS
 62
           1
 48
25.39999961853
100
AcDbLine
 10
395.189208984375
 20
49.104000091553
 30
0.0
 11
399.189208984375
 21
49.804000854492
 31
0.0
  0
LINE
  5
7D6
100
AcDbEntity
  8
0
390
962
  6
CONTINUOUS
 62
           1
 48
25.39999961853
100
AcDbLine
 10
395.189208984375
 20
47.504001617432
 30
0.0
 11
399.189208984375
 21
46.804000854492
 31
0.0
  0
LINE
  5
7D7
100
AcDbEntity
  8
0
390
962
  6
CONTINUOUS
 62
           4
 48
25.39999961853
100
AcDbLine
 10
393.189208984375
 20
50.304000854492
 30
0.0
 11
393.189208984375
 21
46.307998657227
 31
0.0
  0
LINE
  5
7D8
100
AcDbEntity
  8
0
390
962
  6
CONTINUOUS
 62
           4
 48
25.39999961853
100
AcDbLine
 10
453.700988769531
 20
26.061599731445
 30
0.0
 11
453.700988769531
 21
20.266399383545
 31
0.0
  0
LINE
  5
7D9
100
AcDbEntity
  8
0
390
962
  6
CONTINUOUS
 62
           4
 48
25.39999961853
100
AcDbLine
 10
421.701019287109
 20
26.061599731445
 30
0.0
 11
421.701019287109
 21
20.266399383545
 31
0.0
  0
LINE
  5
7DA
100
AcDbEntity
  8
0
390
962
  6
CONTINUOUS
 62
           4
 48
25.39999961853
100
AcDbLine
 10
421.434600830078
 20
26.061599731445
 30
0.0
 11
421.434600830078
 21
20.266399383545
 31
0.0
  0
LINE
  5
7DB
100
AcDbEntity
  8
0
390
962
  6
CONTINUOUS
 62
           4
 48
25.39999961853
100
AcDbLine
 10
408.189208984375
 20
54.299999237061
 30
0.0
 11
408.189208984375
 21
46.307998657227
 31
0.0
  0
LINE
  5
7DC
100
AcDbEntity
  8
0
390
962
  6
CONTINUOUS
 62
           4
 48
25.39999961853
100
AcDbLine
 10
438.463592529297
 20
54.299999237061
 30
0.0
 11
372.130004882813
 21
54.299999237061
 31
0.0
  0
LINE
  5
7DD
100
AcDbEntity
  8
0
390
962
  6
CONTINUOUS
 62
           4
 48
25.39999961853
100
AcDbLine
 10
438.463592529297
 20
50.304000854492
 30
0.0
 11
372.130004882813
 21
50.304000854492
 31
0.0
  0
LINE
  5
7DE
100
AcDbEntity
  8
0
390
962
  6
CONTINUOUS
 62
           4
 48
25.39999961853
100
AcDbLine
 10
438.463592529297
 20
46.307998657227
 30
0.0
 11
372.130004882813
 21
46.307998657227
 31
0.0
  0
LINE
  5
7DF
100
AcDbEntity
  8
0
390
962
  6
CONTINUOUS
 62
           4
 48
25.39999961853
100
AcDbLine
 10
438.463592529297
 20
42.312000274658
 30
0.0
 11
372.130004882813
 21
42.312000274658
 31
0.0
  0
LINE
  5
7E0
100
AcDbEntity
  8
0
390
962
  6
CONTINUOUS
 62
           4
 48
25.39999961853
100
AcDbLine
 10
438.463592529297
 20
38.31600189209
 30
0.0
 11
372.130004882813
 21
38.31600189209
 31
0.0
  0
LINE
  5
7E1
100
AcDbEntity
  8
0
390
962
  6
CONTINUOUS
 62
           4
 48
25.39999961853
100
AcDbLine
 10
438.463592529297
 20
34.319999694824
 30
0.0
 11
372.130004882813
 21
34.319999694824
 31
0.0
  0
LINE
  5
7E2
100
AcDbEntity
  8
0
390
962
  6
CONTINUOUS
 62
           4
 48
25.39999961853
100
AcDbLine
 10
438.463592529297
 20
58.296001434326
 30
0.0
 11
438.463592529297
 21
26.32799911499
 31
0.0
  0
LINE
  5
7E3
100
AcDbEntity
  8
0
390
962
  6
CONTINUOUS
 62
           4
 48
25.39999961853
100
AcDbLine
 10
451.383972167969
 20
54.299999237061
 30
0.0
 11
451.383972167969
 21
26.32799911499
 31
0.0
  0
LINE
  5
7E4
100
AcDbEntity
  8
0
390
962
  6
CONTINUOUS
 62
           4
 48
25.39999961853
100
AcDbLine
 10
458.710021972656
 20
54.299999237061
 30
0.0
 11
458.710021972656
 21
26.32799911499
 31
0.0
  0
LINE
  5
7E5
100
AcDbEntity
  8
0
390
962
  6
CONTINUOUS
 62
           4
 48
25.39999961853
100
AcDbLine
 10
515.007995605469
 20
54.299999237061
 30
0.0
 11
515.007995605469
 21
26.32799911499
 31
0.0
  0
LINE
  5
7E6
100
AcDbEntity
  8
0
390
962
  6
CONTINUOUS
 62
           4
 48
25.39999961853
100
AcDbLine
 10
522.733581542969
 20
58.296001434326
 30
0.0
 11
522.733581542969
 21
20.266399383545
 31
0.0
  0
LINE
  5
7E7
100
AcDbEntity
  8
0
390
962
  6
CONTINUOUS
 62
           4
 48
25.39999961853
100
AcDbLine
 10
523.0
 20
58.562400817871
 30
0.0
 11
523.0
 21
20.0
 31
0.0
  0
LINE
  5
7E8
100
AcDbEntity
  8
0
390
962
  6
CONTINUOUS
 62
           4
 48
25.39999961853
100
AcDbLine
 10
371.863586425781
 20
34.319999694824
 30
0.0
 11
343.266479492188
 21
34.319999694824
 31
0.0
  0
LINE
  5
7E9
100
AcDbEntity
  8
0
390
962
  6
CONTINUOUS
 62
           4
 48
25.39999961853
100
AcDbLine
 10
371.863586425781
 20
38.31600189209
 30
0.0
 11
343.266479492188
 21
38.31600189209
 31
0.0
  0
LINE
  5
7EA
100
AcDbEntity
  8
0
390
962
  6
CONTINUOUS
 62
           4
 48
25.39999961853
100
AcDbLine
 10
371.863586425781
 20
58.296001434326
 30
0.0
 11
371.863586425781
 21
20.266399383545
 31
0.0
  0
LINE
  5
7EB
100
AcDbEntity
  8
0
390
962
  6
CONTINUOUS
 62
           4
 48
25.39999961853
100
AcDbLine
 10
343.266479492188
 20
58.296001434326
 30
0.0
 11
343.266479492188
 21
20.266399383545
 31
0.0
  0
LINE
  5
7EC
100
AcDbEntity
  8
0
390
962
  6
CONTINUOUS
 62
           4
 48
25.39999961853
100
AcDbLine
 10
523.0
 20
58.562400817871
 30
0.0
 11
372.130004882813
 21
58.562400817871
 31
0.0
  0
LINE
  5
7ED
100
AcDbEntity
  8
0
390
962
  6
CONTINUOUS
 62
           4
 48
25.39999961853
100
AcDbLine
 10
372.130004882813
 20
58.562400817871
 30
0.0
 11
343.000061035156
 21
58.562400817871
 31
0.0
  0
LINE
  5
7EE
100
AcDbEntity
  8
0
390
962
  6
CONTINUOUS
 62
           4
 48
25.39999961853
100
AcDbLine
 10
343.000061035156
 20
58.562400817871
 30
0.0
 11
343.000061035156
 21
20.0
 31
0.0
  0
LINE
  5
7EF
100
AcDbEntity
  8
0
390
962
  6
CONTINUOUS
 62
           4
 48
25.39999961853
100
AcDbLine
 10
372.130004882813
 20
58.296001434326
 30
0.0
 11
343.266479492188
 21
58.296001434326
 31
0.0
  0
LINE
  5
7F0
100
AcDbEntity
  8
0
390
962
  6
CONTINUOUS
 62
           4
 48
25.39999961853
100
AcDbLine
 10
343.588806152344
 20
42.169330596924
 30
0.0
 11
343.588806152344
 21
57.753730773926
 31
0.0
  0
LINE
  5
7F1
100
AcDbEntity
  8
0
390
962
  6
CONTINUOUS
 62
           4
 48
25.39999961853
100
AcDbLine
 10
343.588806152344
 20
57.753730773926
 30
0.0
 11
371.161193847656
 21
57.753730773926
 31
0.0
  0
LINE
  5
7F2
100
AcDbEntity
  8
0
390
962
  6
CONTINUOUS
 62
           4
 48
25.39999961853
100
AcDbLine
 10
371.161193847656
 20
57.753730773926
 30
0.0
 11
371.460906982422
 21
57.753730773926
 31
0.0
  0
LINE
  5
7F3
100
AcDbEntity
  8
0
390
962
  6
CONTINUOUS
 62
           4
 48
25.39999961853
100
AcDbLine
 10
371.460906982422
 20
57.753730773926
 30
0.0
 11
371.460906982422
 21
42.169330596924
 31
0.0
  0
LINE
  5
7F4
100
AcDbEntity
  8
0
390
962
  6
CONTINUOUS
 62
           4
 48
25.39999961853
100
AcDbLine
 10
371.460906982422
 20
42.169330596924
 30
0.0
 11
343.588806152344
 21
42.169330596924
 31
0.0
  0
LINE
  5
7F5
100
AcDbEntity
  8
0
390
962
  6
CONTINUOUS
 62
           4
 48
25.39999961853
100
AcDbLine
 10
343.588806152344
 20
45.166328430176
 30
0.0
 11
362.074157714844
 21
45.166328430176
 31
0.0
  0
LINE
  5
7F6
100
AcDbEntity
  8
0
390
962
  6
CONTINUOUS
 62
           4
 48
25.39999961853
100
AcDbLine
 10
343.588806152344
 20
45.46603012085
 30
0.0
 11
362.170196533203
 21
45.46603012085
 31
0.0
  0
LINE
  5
7F7
100
AcDbEntity
  8
0
390
962
  6
CONTINUOUS
 62
           4
 48
25.39999961853
100
AcDbLine
 10
346.585784912109
 20
45.765731811523
 30
0.0
 11
346.585784912109
 21
54.157329559326
 31
0.0
  0
LINE
  5
7F8
100
AcDbEntity
  8
0
390
962
  6
CONTINUOUS
 62
           4
 48
25.39999961853
100
AcDbLine
 10
346.585784912109
 20
54.157329559326
 30
0.0
 11
351.380981445313
 21
54.157329559326
 31
0.0
  0
LINE
  5
7F9
100
AcDbEntity
  8
0
390
962
  6
CONTINUOUS
 62
           4
 48
25.39999961853
100
AcDbLine
 10
349.882507324219
 20
52.359130859375
 30
0.0
 11
349.283081054688
 21
52.359130859375
 31
0.0
  0
LINE
  5
7FA
100
AcDbEntity
  8
0
390
962
  6
CONTINUOUS
 62
           4
 48
25.39999961853
100
AcDbLine
 10
349.283081054688
 20
52.359130859375
 30
0.0
 11
349.283081054688
 21
51.460029602051
 31
0.0
  0
LINE
  5
7FB
100
AcDbEntity
  8
0
390
962
  6
CONTINUOUS
 62
           4
 48
25.39999961853
100
AcDbLine
 10
349.283081054688
 20
51.460029602051
 30
0.0
 11
349.882507324219
 21
51.460029602051
 31
0.0
  0
LINE
  5
7FC
100
AcDbEntity
  8
0
390
962
  6
CONTINUOUS
 62
           4
 48
25.39999961853
100
AcDbLine
 10
350.182189941406
 20
47.863628387451
 30
0.0
 11
349.283081054688
 21
47.863628387451
 31
0.0
  0
LINE
  5
7FD
100
AcDbEntity
  8
0
390
962
  6
CONTINUOUS
 62
           4
 48
25.39999961853
100
AcDbLine
 10
349.283081054688
 20
47.863628387451
 30
0.0
 11
349.283081054688
 21
49.062431335449
 31
0.0
  0
LINE
  5
7FE
100
AcDbEntity
  8
0
390
962
  6
CONTINUOUS
 62
           4
 48
25.39999961853
100
AcDbLine
 10
349.283081054688
 20
49.062431335449
 30
0.0
 11
350.182189941406
 21
49.062431335449
 31
0.0
  0
LINE
  5
7FF
100
AcDbEntity
  8
0
390
962
  6
CONTINUOUS
 62
           4
 48
25.39999961853
100
AcDbLine
 10
346.585784912109
 20
45.765731811523
 30
0.0
 11
346.585784912109
 21
54.157329559326
 31
0.0
  0
LINE
  5
800
100
AcDbEntity
  8
0
390
962
  6
CONTINUOUS
 62
           4
 48
25.39999961853
100
AcDbLine
 10
354.078308105469
 20
45.765731811523
 30
0.0
 11
354.078308105469
 21
54.157329559326
 31
0.0
  0
LINE
  5
801
100
AcDbEntity
  8
0
390
962
  6
CONTINUOUS
 62
           4
 48
25.39999961853
100
AcDbLine
 10
359.472900390625
 20
45.765731811523
 30
0.0
 11
359.472900390625
 21
47.863628387451
 31
0.0
  0
LINE
  5
802
100
AcDbEntity
  8
0
390
962
  6
CONTINUOUS
 62
           4
 48
25.39999961853
100
AcDbLine
 10
354.078308105469
 20
54.157329559326
 30
0.0
 11
359.472900390625
 21
54.157329559326
 31
0.0
  0
LINE
  5
803
100
AcDbEntity
  8
0
390
962
  6
CONTINUOUS
 62
           4
 48
25.39999961853
100
AcDbLine
 10
356.775604248047
 20
52.059429168701
 30
0.0
 11
359.472900390625
 21
52.059429168701
 31
0.0
  0
LINE
  5
804
100
AcDbEntity
  8
0
390
962
  6
CONTINUOUS
 62
           4
 48
25.39999961853
100
AcDbLine
 10
356.775604248047
 20
47.863628387451
 30
0.0
 11
359.472900390625
 21
47.863628387451
 31
0.0
  0
LINE
  5
805
100
AcDbEntity
  8
0
390
962
  6
CONTINUOUS
 62
           4
 48
25.39999961853
100
AcDbLine
 10
356.775604248047
 20
50.8606300354
 30
0.0
 11
358.873504638672
 21
50.8606300354
 31
0.0
  0
LINE
  5
806
100
AcDbEntity
  8
0
390
962
  6
CONTINUOUS
 62
           4
 48
25.39999961853
100
AcDbLine
 10
358.873504638672
 20
50.8606300354
 30
0.0
 11
358.873504638672
 21
49.062431335449
 31
0.0
  0
LINE
  5
807
100
AcDbEntity
  8
0
390
962
  6
CONTINUOUS
 62
           4
 48
25.39999961853
100
AcDbLine
 10
358.873504638672
 20
49.062431335449
 30
0.0
 11
356.775604248047
 21
49.062431335449
 31
0.0
  0
LINE
  5
808
100
AcDbEntity
  8
0
390
962
  6
CONTINUOUS
 62
           4
 48
25.39999961853
100
AcDbLine
 10
359.472900390625
 20
52.059429168701
 30
0.0
 11
359.472900390625
 21
54.157329559326
 31
0.0
  0
LINE
  5
809
100
AcDbEntity
  8
0
390
962
  6
CONTINUOUS
 62
           4
 48
25.39999961853
100
AcDbLine
 10
356.775604248047
 20
50.8606300354
 30
0.0
 11
356.775604248047
 21
52.059429168701
 31
0.0
  0
LINE
  5
80A
100
AcDbEntity
  8
0
390
962
  6
CONTINUOUS
 62
           4
 48
25.39999961853
100
AcDbLine
 10
356.775604248047
 20
47.863628387451
 30
0.0
 11
356.775604248047
 21
49.062431335449
 31
0.0
  0
LINE
  5
80B
100
AcDbEntity
  8
0
390
962
  6
CONTINUOUS
 62
           4
 48
25.39999961853
100
AcDbLine
 10
360.072296142578
 20
45.765731811523
 30
0.0
 11
362.769592285156
 21
54.157329559326
 31
0.0
  0
LINE
  5
80C
100
AcDbEntity
  8
0
390
962
  6
CONTINUOUS
 62
           4
 48
25.39999961853
100
AcDbLine
 10
362.769592285156
 20
54.157329559326
 30
0.0
 11
365.7666015625
 21
54.157329559326
 31
0.0
  0
LINE
  5
80D
100
AcDbEntity
  8
0
390
962
  6
CONTINUOUS
 62
           4
 48
25.39999961853
100
AcDbLine
 10
365.7666015625
 20
54.157329559326
 30
0.0
 11
368.463897705078
 21
45.765731811523
 31
0.0
  0
LINE
  5
80E
100
AcDbEntity
  8
0
390
962
  6
CONTINUOUS
 62
           4
 48
25.39999961853
100
AcDbLine
 10
362.170196533203
 20
45.765731811523
 30
0.0
 11
362.170196533203
 21
46.365131378174
 31
0.0
  0
LINE
  5
80F
100
AcDbEntity
  8
0
390
962
  6
CONTINUOUS
 62
           4
 48
25.39999961853
100
AcDbLine
 10
362.170196533203
 20
46.365131378174
 30
0.0
 11
362.769592285156
 21
46.365131378174
 31
0.0
  0
LINE
  5
810
100
AcDbEntity
  8
0
390
962
  6
CONTINUOUS
 62
           4
 48
25.39999961853
100
AcDbLine
 10
362.769592285156
 20
46.365131378174
 30
0.0
 11
362.769592285156
 21
46.964530944824
 31
0.0
  0
LINE
  5
811
100
AcDbEntity
  8
0
390
962
  6
CONTINUOUS
 62
           4
 48
25.39999961853
100
AcDbLine
 10
362.769592285156
 20
46.964530944824
 30
0.0
 11
363.368988037109
 21
46.964530944824
 31
0.0
  0
LINE
  5
812
100
AcDbEntity
  8
0
390
962
  6
CONTINUOUS
 62
           4
 48
25.39999961853
100
AcDbLine
 10
363.368988037109
 20
46.964530944824
 30
0.0
 11
363.368988037109
 21
47.563930511475
 31
0.0
  0
LINE
  5
813
100
AcDbEntity
  8
0
390
962
  6
CONTINUOUS
 62
           4
 48
25.39999961853
100
AcDbLine
 10
363.368988037109
 20
47.563930511475
 30
0.0
 11
363.668701171875
 21
47.563930511475
 31
0.0
  0
LINE
  5
814
100
AcDbEntity
  8
0
390
962
  6
CONTINUOUS
 62
           4
 48
25.39999961853
100
AcDbLine
 10
363.668701171875
 20
47.563930511475
 30
0.0
 11
363.968383789063
 21
47.563930511475
 31
0.0
  0
LINE
  5
815
100
AcDbEntity
  8
0
390
962
  6
CONTINUOUS
 62
           4
 48
25.39999961853
100
AcDbLine
 10
363.968383789063
 20
47.563930511475
 30
0.0
 11
363.968383789063
 21
52.119369506836
 31
0.0
  0
LINE
  5
816
100
AcDbEntity
  8
0
390
962
  6
CONTINUOUS
 62
           4
 48
25.39999961853
100
AcDbLine
 10
364.567779541016
 20
47.563930511475
 30
0.0
 11
365.167205810547
 21
47.563930511475
 31
0.0
  0
LINE
  5
817
100
AcDbEntity
  8
0
390
962
  6
CONTINUOUS
 62
           4
 48
25.39999961853
100
AcDbLine
 10
365.167205810547
 20
47.563930511475
 30
0.0
 11
365.167205810547
 21
46.964530944824
 31
0.0
  0
LINE
  5
818
100
AcDbEntity
  8
0
390
962
  6
CONTINUOUS
 62
           4
 48
25.39999961853
100
AcDbLine
 10
365.167205810547
 20
46.964530944824
 30
0.0
 11
365.7666015625
 21
46.964530944824
 31
0.0
  0
LINE
  5
819
100
AcDbEntity
  8
0
390
962
  6
CONTINUOUS
 62
           4
 48
25.39999961853
100
AcDbLine
 10
365.7666015625
 20
46.964530944824
 30
0.0
 11
365.7666015625
 21
46.365131378174
 31
0.0
  0
LINE
  5
81A
100
AcDbEntity
  8
0
390
962
  6
CONTINUOUS
 62
           4
 48
25.39999961853
100
AcDbLine
 10
365.7666015625
 20
46.365131378174
 30
0.0
 11
366.365997314453
 21
46.365131378174
 31
0.0
  0
LINE
  5
81B
100
AcDbEntity
  8
0
390
962
  6
CONTINUOUS
 62
           4
 48
25.39999961853
100
AcDbLine
 10
366.365997314453
 20
46.365131378174
 30
0.0
 11
366.365997314453
 21
45.765731811523
 31
0.0
  0
LINE
  5
81C
100
AcDbEntity
  8
0
390
962
  6
CONTINUOUS
 62
           4
 48
25.39999961853
100
AcDbLine
 10
364.567779541016
 20
52.119369506836
 30
0.0
 11
364.567779541016
 21
47.563930511475
 31
0.0
  0
LINE
  5
81D
100
AcDbEntity
  8
0
390
962
  6
CONTINUOUS
 62
           4
 48
25.39999961853
100
AcDbLine
 10
346.585784912109
 20
45.765731811523
 30
0.0
 11
351.380981445313
 21
45.765731811523
 31
0.0
  0
LINE
  5
81E
100
AcDbEntity
  8
0
390
962
  6
CONTINUOUS
 62
           4
 48
25.39999961853
100
AcDbLine
 10
354.078308105469
 20
45.765731811523
 30
0.0
 11
359.472900390625
 21
45.765731811523
 31
0.0
  0
LINE
  5
81F
100
AcDbEntity
  8
0
390
962
  6
CONTINUOUS
 62
           4
 48
25.39999961853
100
AcDbLine
 10
368.463897705078
 20
45.765731811523
 30
0.0
 11
366.365997314453
 21
45.765731811523
 31
0.0
  0
LINE
  5
820
100
AcDbEntity
  8
0
390
962
  6
CONTINUOUS
 62
           4
 48
25.39999961853
100
AcDbLine
 10
362.170196533203
 20
45.765731811523
 30
0.0
 11
360.072296142578
 21
45.765731811523
 31
0.0
  0
LINE
  5
821
100
AcDbEntity
  8
0
390
962
  6
CONTINUOUS
 62
           4
 48
25.39999961853
100
AcDbLine
 10
362.170196533203
 20
45.46603012085
 30
0.0
 11
364.268096923828
 21
43.967529296875
 31
0.0
  0
LINE
  5
822
100
AcDbEntity
  8
0
390
962
  6
CONTINUOUS
 62
           4
 48
25.39999961853
100
AcDbLine
 10
364.268096923828
 20
43.967529296875
 30
0.0
 11
366.365997314453
 21
45.46603012085
 31
0.0
  0
LINE
  5
823
100
AcDbEntity
  8
0
390
962
  6
CONTINUOUS
 62
           4
 48
25.39999961853
100
AcDbLine
 10
366.365997314453
 20
45.46603012085
 30
0.0
 11
371.460906982422
 21
45.46603012085
 31
0.0
  0
LINE
  5
824
100
AcDbEntity
  8
0
390
962
  6
CONTINUOUS
 62
           4
 48
25.39999961853
100
AcDbLine
 10
366.462036132813
 20
45.166328430176
 30
0.0
 11
371.460906982422
 21
45.166328430176
 31
0.0
  0
LINE
  5
825
100
AcDbEntity
  8
0
390
962
  6
CONTINUOUS
 62
           4
 48
25.39999961853
100
AcDbLine
 10
364.268096923828
 20
43.599227905273
 30
0.0
 11
366.462036132813
 21
45.166328430176
 31
0.0
  0
LINE
  5
826
100
AcDbEntity
  8
0
390
962
  6
CONTINUOUS
 62
           4
 48
25.39999961853
100
AcDbLine
 10
362.074157714844
 20
45.166328430176
 30
0.0
 11
364.268096923828
 21
43.599227905273
 31
0.0
  0
LINE
  5
827
100
AcDbEntity
  8
0
390
962
  6
CONTINUOUS
 62
           4
 48
25.39999961853
100
AcDbLine
 10
522.733581542969
 20
26.061599731445
 30
0.0
 11
343.266479492188
 21
26.061599731445
 31
0.0
  0
LINE
  5
828
100
AcDbEntity
  8
0
390
962
  6
CONTINUOUS
 62
           4
 48
25.39999961853
100
AcDbLine
 10
522.733581542969
 20
20.266399383545
 30
0.0
 11
343.266479492188
 21
20.266399383545
 31
0.0
  0
LINE
  5
829
100
AcDbEntity
  8
0
390
962
  6
CONTINUOUS
 62
           4
 48
25.39999961853
100
AcDbLine
 10
502.0
 20
20.0
 30
0.0
 11
343.000061035156
 21
20.0
 31
0.0
  0
LINE
  5
82A
100
AcDbEntity
  8
0
390
962
  6
CONTINUOUS
 62
           4
 48
25.39999961853
100
AcDbLine
 10
438.730010986328
 20
58.296001434326
 30
0.0
 11
438.730010986328
 21
26.32799911499
 31
0.0
  0
LINE
  5
82B
100
AcDbEntity
  8
0
390
962
  6
CONTINUOUS
 62
           4
 48
25.39999961853
100
AcDbLine
 10
376.126007080078
 20
58.296001434326
 30
0.0
 11
376.126007080078
 21
26.32799911499
 31
0.0
  0
LINE
  5
82C
100
AcDbEntity
  8
0
390
962
  6
CONTINUOUS
 62
           4
 48
25.39999961853
100
AcDbLine
 10
372.130004882813
 20
58.296001434326
 30
0.0
 11
372.130004882813
 21
20.266399383545
 31
0.0
  0
LINE
  5
82D
100
AcDbEntity
  8
0
390
962
  6
CONTINUOUS
 62
           4
 48
25.39999961853
100
AcDbLine
 10
522.733581542969
 20
58.296001434326
 30
0.0
 11
372.130004882813
 21
58.296001434326
 31
0.0
  0
LINE
  5
82E
100
AcDbEntity
  8
0
390
962
  6
CONTINUOUS
 62
           4
 48
25.39999961853
100
AcDbLine
 10
522.733581542969
 20
54.299999237061
 30
0.0
 11
438.730010986328
 21
54.299999237061
 31
0.0
  0
LINE
  5
82F
100
AcDbEntity
  8
0
390
962
  6
CONTINUOUS
 62
           4
 48
25.39999961853
100
AcDbLine
 10
522.733581542969
 20
50.304000854492
 30
0.0
 11
438.730010986328
 21
50.304000854492
 31
0.0
  0
LINE
  5
830
100
AcDbEntity
  8
0
390
962
  6
CONTINUOUS
 62
           4
 48
25.39999961853
100
AcDbLine
 10
522.733581542969
 20
46.307998657227
 30
0.0
 11
438.730010986328
 21
46.307998657227
 31
0.0
  0
LINE
  5
831
100
AcDbEntity
  8
0
390
962
  6
CONTINUOUS
 62
           4
 48
25.39999961853
100
AcDbLine
 10
522.733581542969
 20
42.312000274658
 30
0.0
 11
438.730010986328
 21
42.312000274658
 31
0.0
  0
LINE
  5
832
100
AcDbEntity
  8
0
390
962
  6
CONTINUOUS
 62
           4
 48
25.39999961853
100
AcDbLine
 10
522.733581542969
 20
38.31600189209
 30
0.0
 11
438.730010986328
 21
38.31600189209
 31
0.0
  0
LINE
  5
833
100
AcDbEntity
  8
0
390
962
  6
CONTINUOUS
 62
           4
 48
25.39999961853
100
AcDbLine
 10
522.733581542969
 20
34.319999694824
 30
0.0
 11
438.730010986328
 21
34.319999694824
 31
0.0
  0
LINE
  5
834
100
AcDbEntity
  8
0
390
962
  6
CONTINUOUS
 62
           4
 48
25.39999961853
100
AcDbLine
 10
522.733581542969
 20
30.323999404907
 30
0.0
 11
438.730010986328
 21
30.323999404907
 31
0.0
  0
LINE
  5
835
100
AcDbEntity
  8
0
390
962
  6
CONTINUOUS
 62
           4
 48
25.39999961853
100
AcDbLine
 10
522.733581542969
 20
26.32799911499
 30
0.0
 11
343.266479492188
 21
26.32799911499
 31
0.0
  0
LINE
  5
836
100
AcDbEntity
  8
0
390
962
  6
CONTINUOUS
 62
           4
 48
25.39999961853
100
AcDbLine
 10
502.0
 20
20.0
 30
0.0
 11
343.000061035156
 21
20.0
 31
0.0
  0
LINE
  5
837
100
AcDbEntity
  8
0
390
962
  6
CONTINUOUS
 62
           4
 48
25.39999961853
100
AcDbLine
 10
498.48687664042
 20
20.0
 30
0.0
 11
343.000061035156
 21
20.0
 31
0.0
  0
LINE
  5
838
100
AcDbEntity
  8
0
390
962
  6
CONTINUOUS
 62
           4
 48
25.39999961853
100
AcDbLine
 10
355.720581054688
 20
38.31600189209
 30
0.0
 11
355.720581054688
 21
26.061599731445
 31
0.0
  0
LINE
  5
839
100
AcDbEntity
  8
0
390
962
  6
CONTINUOUS
 62
           4
 48
25.39999961853
100
AcDbLine
 10
507.277995605469
 20
50.304000854492
 30
0.0
 11
507.277995605469
 21
26.32799911499
 31
0.0
  0
LINE
  5
83A
100
AcDbEntity
  8
0
390
962
  6
CONTINUOUS
 62
         190
 48
25.39999961853
100
AcDbLine
 10
452.189208984375
 20
30.304000854492
 30
0.0
 11
452.189208984375
 21
26.307998657227
 31
0.0
  0
LINE
  5
83B
100
AcDbEntity
  8
0
390
962
  6
CONTINUOUS
 62
         190
 48
25.39999961853
100
AcDbLine
 10
512.701019287109
 20
6.061599731445
 30
0.0
 11
512.701019287109
 21
0.266399383545
 31
0.0
  0
LINE
  5
83C
100
AcDbEntity
  8
0
390
962
  6
CONTINUOUS
 62
         190
 48
25.39999961853
100
AcDbLine
 10
480.701019287109
 20
6.061599731445
 30
0.0
 11
480.701019287109
 21
0.266399383545
 31
0.0
  0
LINE
  5
83D
100
AcDbEntity
  8
0
390
962
  6
CONTINUOUS
 62
         190
 48
25.39999961853
100
AcDbLine
 10
480.434600830078
 20
6.061599731445
 30
0.0
 11
480.434600830078
 21
0.266399383545
 31
0.0
  0
LINE
  5
83E
100
AcDbEntity
  8
0
390
962
  6
CONTINUOUS
 62
         190
 48
25.39999961853
100
AcDbLine
 10
467.189208984375
 20
34.299999237061
 30
0.0
 11
467.189208984375
 21
26.307998657227
 31
0.0
  0
LINE
  5
83F
100
AcDbEntity
  8
0
390
962
  6
CONTINUOUS
 62
         190
 48
25.39999961853
100
AcDbLine
 10
497.463592529297
 20
34.299999237061
 30
0.0
 11
431.130004882813
 21
34.299999237061
 31
0.0
  0
LINE
  5
840
100
AcDbEntity
  8
0
390
962
  6
CONTINUOUS
 62
         190
 48
25.39999961853
100
AcDbLine
 10
497.463592529297
 20
30.304000854492
 30
0.0
 11
431.130004882813
 21
30.304000854492
 31
0.0
  0
LINE
  5
841
100
AcDbEntity
  8
0
390
962
  6
CONTINUOUS
 62
         190
 48
25.39999961853
100
AcDbLine
 10
497.463592529297
 20
26.307998657227
 30
0.0
 11
431.130004882813
 21
26.307998657227
 31
0.0
  0
LINE
  5
842
100
AcDbEntity
  8
0
390
962
  6
CONTINUOUS
 62
         190
 48
25.39999961853
100
AcDbLine
 10
497.463592529297
 20
22.312000274658
 30
0.0
 11
431.130004882813
 21
22.312000274658
 31
0.0
  0
LINE
  5
843
100
AcDbEntity
  8
0
390
962
  6
CONTINUOUS
 62
         190
 48
25.39999961853
100
AcDbLine
 10
497.463592529297
 20
18.31600189209
 30
0.0
 11
431.130004882813
 21
18.31600189209
 31
0.0
  0
LINE
  5
844
100
AcDbEntity
  8
0
390
962
  6
CONTINUOUS
 62
         190
 48
25.39999961853
100
AcDbLine
 10
497.463592529297
 20
14.319999694824
 30
0.0
 11
431.130004882813
 21
14.319999694824
 31
0.0
  0
LINE
  5
845
100
AcDbEntity
  8
0
390
962
  6
CONTINUOUS
 62
         190
 48
25.39999961853
100
AcDbLine
 10
497.463592529297
 20
38.296001434326
 30
0.0
 11
497.463592529297
 21
6.32799911499
 31
0.0
  0
LINE
  5
846
100
AcDbEntity
  8
0
390
962
  6
CONTINUOUS
 62
         190
 48
25.39999961853
100
AcDbLine
 10
510.384002685547
 20
34.299999237061
 30
0.0
 11
510.384002685547
 21
6.32799911499
 31
0.0
  0
LINE
  5
847
100
AcDbEntity
  8
0
390
962
  6
CONTINUOUS
 62
         190
 48
25.39999961853
100
AcDbLine
 10
517.709991455078
 20
34.299999237061
 30
0.0
 11
517.709991455078
 21
6.32799911499
 31
0.0
  0
LINE
  5
848
100
AcDbEntity
  8
0
390
962
  6
CONTINUOUS
 62
         190
 48
25.39999961853
100
AcDbLine
 10
574.007995605469
 20
34.299999237061
 30
0.0
 11
574.007995605469
 21
6.32799911499
 31
0.0
  0
LINE
  5
849
100
AcDbEntity
  8
0
390
962
  6
CONTINUOUS
 62
         190
 48
25.39999961853
100
AcDbLine
 10
581.733612060547
 20
38.296001434326
 30
0.0
 11
581.733612060547
 21
0.266399383545
 31
0.0
  0
LINE
  5
84A
100
AcDbEntity
  8
0
390
962
  6
CONTINUOUS
 62
         190
 48
25.39999961853
100
AcDbLine
 10
582.0
 20
38.562400817871
 30
0.0
 11
582.0
 21
0.0
 31
0.0
  0
LINE
  5
84B
100
AcDbEntity
  8
0
390
962
  6
CONTINUOUS
 62
         190
 48
25.39999961853
100
AcDbLine
 10
430.863586425781
 20
14.319999694824
 30
0.0
 11
402.266464233398
 21
14.319999694824
 31
0.0
  0
LINE
  5
84C
100
AcDbEntity
  8
0
390
962
  6
CONTINUOUS
 62
         190
 48
25.39999961853
100
AcDbLine
 10
430.863586425781
 20
18.31600189209
 30
0.0
 11
402.266464233398
 21
18.31600189209
 31
0.0
  0
LINE
  5
84D
100
AcDbEntity
  8
0
390
962
  6
CONTINUOUS
 62
         190
 48
25.39999961853
100
AcDbLine
 10
430.863586425781
 20
38.296001434326
 30
0.0
 11
430.863586425781
 21
0.266399383545
 31
0.0
  0
LINE
  5
84E
100
AcDbEntity
  8
0
390
962
  6
CONTINUOUS
 62
         190
 48
25.39999961853
100
AcDbLine
 10
402.266464233398
 20
38.296001434326
 30
0.0
 11
402.266464233398
 21
0.266399383545
 31
0.0
  0
LINE
  5
84F
100
AcDbEntity
  8
0
390
962
  6
CONTINUOUS
 62
         190
 48
25.39999961853
100
AcDbLine
 10
582.0
 20
38.562400817871
 30
0.0
 11
431.130004882813
 21
38.562400817871
 31
0.0
  0
LINE
  5
850
100
AcDbEntity
  8
0
390
962
  6
CONTINUOUS
 62
         190
 48
25.39999961853
100
AcDbLine
 10
431.130004882813
 20
38.562400817871
 30
0.0
 11
402.000076293945
 21
38.562400817871
 31
0.0
  0
LINE
  5
851
100
AcDbEntity
  8
0
390
962
  6
CONTINUOUS
 62
         190
 48
25.39999961853
100
AcDbLine
 10
402.000076293945
 20
38.562400817871
 30
0.0
 11
402.000076293945
 21
0.0
 31
0.0
  0
LINE
  5
852
100
AcDbEntity
  8
0
390
962
  6
CONTINUOUS
 62
         190
 48
25.39999961853
100
AcDbLine
 10
431.130004882813
 20
38.296001434326
 30
0.0
 11
402.266464233398
 21
38.296001434326
 31
0.0
  0
LINE
  5
853
100
AcDbEntity
  8
0
390
962
  6
CONTINUOUS
 62
         190
 48
25.39999961853
100
AcDbLine
 10
402.588790893555
 20
22.169330596924
 30
0.0
 11
402.588790893555
 21
37.753730773926
 31
0.0
  0
LINE
  5
854
100
AcDbEntity
  8
0
390
962
  6
CONTINUOUS
 62
         190
 48
25.39999961853
100
AcDbLine
 10
402.588790893555
 20
37.753730773926
 30
0.0
 11
430.161193847656
 21
37.753730773926
 31
0.0
  0
LINE
  5
855
100
AcDbEntity
  8
0
390
962
  6
CONTINUOUS
 62
         190
 48
25.39999961853
100
AcDbLine
 10
430.161193847656
 20
37.753730773926
 30
0.0
 11
430.460906982422
 21
37.753730773926
 31
0.0
  0
LINE
  5
856
100
AcDbEntity
  8
0
390
962
  6
CONTINUOUS
 62
         190
 48
25.39999961853
100
AcDbLine
 10
430.460906982422
 20
37.753730773926
 30
0.0
 11
430.460906982422
 21
22.169330596924
 31
0.0
  0
LINE
  5
857
100
AcDbEntity
  8
0
390
962
  6
CONTINUOUS
 62
         190
 48
25.39999961853
100
AcDbLine
 10
430.460906982422
 20
22.169330596924
 30
0.0
 11
402.588790893555
 21
22.169330596924
 31
0.0
  0
LINE
  5
858
100
AcDbEntity
  8
0
390
962
  6
CONTINUOUS
 62
         190
 48
25.39999961853
100
AcDbLine
 10
581.733612060547
 20
6.061599731445
 30
0.0
 11
402.266464233398
 21
6.061599731445
 31
0.0
  0
LINE
  5
859
100
AcDbEntity
  8
0
390
962
  6
CONTINUOUS
 62
         190
 48
25.39999961853
100
AcDbLine
 10
581.733612060547
 20
0.266399383545
 30
0.0
 11
402.266464233398
 21
0.266399383545
 31
0.0
  0
LINE
  5
85A
100
AcDbEntity
  8
0
390
962
  6
CONTINUOUS
 62
         190
 48
25.39999961853
100
AcDbLine
 10
561.0
 20
0.0
 30
0.0
 11
402.000076293945
 21
0.0
 31
0.0
  0
LINE
  5
85B
100
AcDbEntity
  8
0
390
962
  6
CONTINUOUS
 62
         190
 48
25.39999961853
100
AcDbLine
 10
497.730010986328
 20
38.296001434326
 30
0.0
 11
497.730010986328
 21
6.32799911499
 31
0.0
  0
LINE
  5
85C
100
AcDbEntity
  8
0
390
962
  6
CONTINUOUS
 62
         190
 48
25.39999961853
100
AcDbLine
 10
435.126007080078
 20
38.296001434326
 30
0.0
 11
435.126007080078
 21
6.32799911499
 31
0.0
  0
LINE
  5
85D
100
AcDbEntity
  8
0
390
962
  6
CONTINUOUS
 62
         190
 48
25.39999961853
100
AcDbLine
 10
431.130004882813
 20
38.296001434326
 30
0.0
 11
431.130004882813
 21
0.266399383545
 31
0.0
  0
LINE
  5
85E
100
AcDbEntity
  8
0
390
962
  6
CONTINUOUS
 62
         190
 48
25.39999961853
100
AcDbLine
 10
581.733612060547
 20
38.296001434326
 30
0.0
 11
431.130004882813
 21
38.296001434326
 31
0.0
  0
LINE
  5
85F
100
AcDbEntity
  8
0
390
962
  6
CONTINUOUS
 62
         190
 48
25.39999961853
100
AcDbLine
 10
581.733612060547
 20
34.299999237061
 30
0.0
 11
497.730010986328
 21
34.299999237061
 31
0.0
  0
LINE
  5
860
100
AcDbEntity
  8
0
390
962
  6
CONTINUOUS
 62
         190
 48
25.39999961853
100
AcDbLine
 10
581.733612060547
 20
30.304000854492
 30
0.0
 11
497.730010986328
 21
30.304000854492
 31
0.0
  0
LINE
  5
861
100
AcDbEntity
  8
0
390
962
  6
CONTINUOUS
 62
         190
 48
25.39999961853
100
AcDbLine
 10
581.733612060547
 20
26.307998657227
 30
0.0
 11
497.730010986328
 21
26.307998657227
 31
0.0
  0
LINE
  5
862
100
AcDbEntity
  8
0
390
962
  6
CONTINUOUS
 62
         190
 48
25.39999961853
100
AcDbLine
 10
581.733612060547
 20
22.312000274658
 30
0.0
 11
497.730010986328
 21
22.312000274658
 31
0.0
  0
LINE
  5
863
100
AcDbEntity
  8
0
390
962
  6
CONTINUOUS
 62
         190
 48
25.39999961853
100
AcDbLine
 10
581.733612060547
 20
18.31600189209
 30
0.0
 11
497.730010986328
 21
18.31600189209
 31
0.0
  0
LINE
  5
864
100
AcDbEntity
  8
0
390
962
  6
CONTINUOUS
 62
         190
 48
25.39999961853
100
AcDbLine
 10
581.733612060547
 20
14.319999694824
 30
0.0
 11
497.730010986328
 21
14.319999694824
 31
0.0
  0
LINE
  5
865
100
AcDbEntity
  8
0
390
962
  6
CONTINUOUS
 62
         190
 48
25.39999961853
100
AcDbLine
 10
581.733612060547
 20
10.323999404907
 30
0.0
 11
497.730010986328
 21
10.323999404907
 31
0.0
  0
LINE
  5
866
100
AcDbEntity
  8
0
390
962
  6
CONTINUOUS
 62
         190
 48
25.39999961853
100
AcDbLine
 10
581.733612060547
 20
6.32799911499
 30
0.0
 11
402.266464233398
 21
6.32799911499
 31
0.0
  0
LINE
  5
867
100
AcDbEntity
  8
0
390
962
  6
CONTINUOUS
 62
         190
 48
25.39999961853
100
AcDbLine
 10
561.0
 20
0.0
 30
0.0
 11
402.000076293945
 21
0.0
 31
0.0
  0
LINE
  5
868
100
AcDbEntity
  8
0
390
962
  6
CONTINUOUS
 62
         190
 48
25.39999961853
100
AcDbLine
 10
561.0
 20
0.0
 30
0.0
 11
402.000076293945
 21
0.0
 31
0.0
  0
LINE
  5
869
100
AcDbEntity
  8
0
390
962
  6
CONTINUOUS
 62
         190
 48
25.39999961853
100
AcDbLine
 10
414.720565795898
 20
18.31600189209
 30
0.0
 11
414.720565795898
 21
6.061599731445
 31
0.0
  0
LINE
  5
86A
100
AcDbEntity
  8
0
390
962
  6
CONTINUOUS
 62
         190
 48
25.39999961853
100
AcDbLine
 10
582.0
 20
0.0
 30
0.0
 11
582.0
 21
408.0
 31
0.0
  0
LINE
  5
86B
100
AcDbEntity
  8
0
390
962
  6
CONTINUOUS
 62
         190
 48
25.39999961853
100
AcDbLine
 10
0.0
 20
0.0
 30
0.0
 11
582.0
 21
0.0
 31
0.0
  0
LINE
  5
86C
100
AcDbEntity
  8
0
390
962
  6
CONTINUOUS
 62
         190
 48
25.39999961853
100
AcDbLine
 10
439.6
 20
0.0
 30
0.0
 11
439.6
 21
-6.0
 31
0.0
  0
LINE
  5
86D
100
AcDbEntity
  8
0
390
962
  6
CONTINUOUS
 62
         190
 48
25.39999961853
100
AcDbLine
 10
2.2
 20
204.0
 30
0.0
 11
-6.0
 21
204.0
 31
0.0
  0
LINE
  5
86E
100
AcDbEntity
  8
0
390
962
  6
CONTINUOUS
 62
         190
 48
25.39999961853
100
AcDbLine
 10
566.277995605469
 20
30.304000854492
 30
0.0
 11
566.277995605469
 21
6.32799911499
 31
0.0
  0
LINE
  5
86F
100
AcDbEntity
  8
0
390
962
  6
CONTINUOUS
 62
         190
 48
25.39999961853
100
AcDbLine
 10
-6.0
 20
204.0
 30
0.0
 11
1.0
 21
202.124355652982
 31
0.0
  0
LINE
  5
870
100
AcDbEntity
  8
0
390
962
  6
CONTINUOUS
 62
         190
 48
25.39999961853
100
AcDbLine
 10
513.8
 20
0.0
 30
0.0
 11
513.8
 21
-6.0
 31
0.0
  0
LINE
  5
871
100
AcDbEntity
  8
0
390
962
  6
CONTINUOUS
 62
         190
 48
25.39999961853
100
AcDbLine
 10
-6.0
 20
204.0
 30
0.0
 11
1.0
 21
205.875644347018
 31
0.0
  0
LINE
  5
872
100
AcDbEntity
  8
0
390
962
  6
CONTINUOUS
 62
         190
 48
25.39999961853
100
AcDbLine
 10
1.0
 20
205.875644347018
 30
0.0
 11
1.0
 21
202.124355652982
 31
0.0
  0
LINE
  5
873
100
AcDbEntity
  8
0
390
962
  6
CONTINUOUS
 62
         190
 48
25.39999961853
100
AcDbLine
 10
0.0
 20
408.0
 30
0.0
 11
582.0
 21
408.0
 31
0.0
  0
LINE
  5
874
100
AcDbEntity
  8
0
390
962
  6
CONTINUOUS
 62
         190
 48
25.39999961853
100
AcDbLine
 10
588.0
 20
414.0
 30
0.0
 11
588.0
 21
408.0
 31
0.0
  0
LINE
  5
875
100
AcDbEntity
  8
0
390
962
  6
CONTINUOUS
 62
         190
 48
25.39999961853
100
AcDbLine
 10
-6.0
 20
-6.0
 30
0.0
 11
0.0
 21
-6.0
 31
0.0
  0
LINE
  5
876
100
AcDbEntity
  8
0
390
962
  6
CONTINUOUS
 62
         190
 48
25.39999961853
100
AcDbLine
 10
289.324355652982
 20
1.0
 30
0.0
 11
293.075644347018
 21
1.0
 31
0.0
  0
LINE
  5
877
100
AcDbEntity
  8
0
390
962
  6
CONTINUOUS
 62
         190
 48
25.39999961853
100
AcDbLine
 10
-6.0
 20
414.0
 30
0.0
 11
-6.0
 21
408.0
 31
0.0
  0
LINE
  5
878
100
AcDbEntity
  8
0
390
962
  6
CONTINUOUS
 62
         190
 48
25.39999961853
100
AcDbLine
 10
291.2
 20
-6.0
 30
0.0
 11
293.075644347018
 21
1.0
 31
0.0
  0
LINE
  5
879
100
AcDbEntity
  8
0
390
962
  6
CONTINUOUS
 62
         190
 48
25.39999961853
100
AcDbLine
 10
291.2
 20
2.2
 30
0.0
 11
291.2
 21
-6.0
 31
0.0
  0
LINE
  5
87A
100
AcDbEntity
  8
0
390
962
  6
CONTINUOUS
 62
         190
 48
25.39999961853
100
AcDbLine
 10
291.2
 20
-6.0
 30
0.0
 11
289.324355652982
 21
1.0
 31
0.0
  0
LINE
  5
87B
100
AcDbEntity
  8
0
390
962
  6
CONTINUOUS
 62
         190
 48
25.39999961853
100
AcDbLine
 10
-6.0
 20
0.0
 30
0.0
 11
-6.0
 21
-6.0
 31
0.0
  0
LINE
  5
87C
100
AcDbEntity
  8
0
390
962
  6
CONTINUOUS
 62
         190
 48
25.39999961853
100
AcDbLine
 10
0.0
 20
408.0
 30
0.0
 11
0.0
 21
0.0
 31
0.0
  0
LINE
  5
87D
100
AcDbEntity
  8
0
390
962
  6
CONTINUOUS
 62
         190
 48
25.39999961853
100
AcDbLine
 10
582.0
 20
414.0
 30
0.0
 11
588.0
 21
414.0
 31
0.0
  0
LINE
  5
87E
100
AcDbEntity
  8
0
390
962
  6
CONTINUOUS
 62
         190
 48
25.39999961853
100
AcDbLine
 10
582.0
 20
-6.0
 30
0.0
 11
588.0
 21
-6.0
 31
0.0
  0
LINE
  5
87F
100
AcDbEntity
  8
0
390
962
  6
CONTINUOUS
 62
         190
 48
25.39999961853
100
AcDbLine
 10
-6.0
 20
0.0
 30
0.0
 11
-6.0
 21
-6.0
 31
0.0
  0
LINE
  5
880
100
AcDbEntity
  8
0
390
962
  6
CONTINUOUS
 62
         190
 48
25.39999961853
100
AcDbLine
 10
588.0
 20
0.0
 30
0.0
 11
588.0
 21
-6.0
 31
0.0
  0
LINE
  5
881
100
AcDbEntity
  8
0
390
962
  6
CONTINUOUS
 62
         190
 48
25.39999961853
100
AcDbLine
 10
-6.0
 20
414.0
 30
0.0
 11
0.0
 21
414.0
 31
0.0
  0
LINE
  5
882
100
AcDbEntity
  8
0
390
962
  6
CONTINUOUS
 62
         190
 48
25.39999961853
100
AcDbLine
 10
588.0
 20
99.0
 30
0.0
 11
582.0
 21
99.0
 31
0.0
  0
LINE
  5
883
100
AcDbEntity
  8
0
390
962
  6
CONTINUOUS
 62
         190
 48
25.39999961853
100
AcDbLine
 10
588.0
 20
151.5
 30
0.0
 11
582.0
 21
151.5
 31
0.0
  0
LINE
  5
884
100
AcDbEntity
  8
0
390
962
  6
CONTINUOUS
 62
         190
 48
25.39999961853
100
AcDbLine
 10
588.0
 20
204.0
 30
0.0
 11
582.0
 21
204.0
 31
0.0
  0
LINE
  5
885
100
AcDbEntity
  8
0
390
962
  6
CONTINUOUS
 62
         190
 48
25.39999961853
100
AcDbLine
 10
588.0
 20
256.5
 30
0.0
 11
582.0
 21
256.5
 31
0.0
  0
LINE
  5
886
100
AcDbEntity
  8
0
390
962
  6
CONTINUOUS
 62
         190
 48
25.39999961853
100
AcDbLine
 10
588.0
 20
309.0
 30
0.0
 11
582.0
 21
309.0
 31
0.0
  0
LINE
  5
887
100
AcDbEntity
  8
0
390
962
  6
CONTINUOUS
 62
         190
 48
25.39999961853
100
AcDbLine
 10
588.0
 20
361.5
 30
0.0
 11
582.0
 21
361.5
 31
0.0
  0
LINE
  5
888
100
AcDbEntity
  8
0
390
962
  6
CONTINUOUS
 62
         190
 48
25.39999961853
100
AcDbLine
 10
588.0
 20
46.5
 30
0.0
 11
582.0
 21
46.5
 31
0.0
  0
LINE
  5
889
100
AcDbEntity
  8
0
390
962
  6
CONTINUOUS
 62
         190
 48
25.39999961853
100
AcDbLine
 10
365.4
 20
0.0
 30
0.0
 11
365.4
 21
-6.0
 31
0.0
  0
LINE
  5
88A
100
AcDbEntity
  8
0
390
962
  6
CONTINUOUS
 62
         190
 48
25.39999961853
100
AcDbLine
 10
217.0
 20
0.0
 30
0.0
 11
217.0
 21
-6.0
 31
0.0
  0
LINE
  5
88B
100
AcDbEntity
  8
0
390
962
  6
CONTINUOUS
 62
         190
 48
25.39999961853
100
AcDbLine
 10
142.8
 20
0.0
 30
0.0
 11
142.8
 21
-6.0
 31
0.0
  0
LINE
  5
88C
100
AcDbEntity
  8
0
390
962
  6
CONTINUOUS
 62
         190
 48
25.39999961853
100
AcDbLine
 10
68.6
 20
0.0
 30
0.0
 11
68.6
 21
-6.0
 31
0.0
  0
LINE
  5
88D
100
AcDbEntity
  8
0
390
962
  6
CONTINUOUS
 62
         190
 48
25.39999961853
100
AcDbLine
 10
513.8
 20
414.0
 30
0.0
 11
513.8
 21
408.0
 31
0.0
  0
LINE
  5
88E
100
AcDbEntity
  8
0
390
962
  6
CONTINUOUS
 62
         190
 48
25.39999961853
100
AcDbLine
 10
439.6
 20
414.0
 30
0.0
 11
439.6
 21
408.0
 31
0.0
  0
LINE
  5
88F
100
AcDbEntity
  8
0
390
962
  6
CONTINUOUS
 62
         190
 48
25.39999961853
100
AcDbLine
 10
68.6
 20
414.0
 30
0.0
 11
68.6
 21
408.0
 31
0.0
  0
LINE
  5
890
100
AcDbEntity
  8
0
390
962
  6
CONTINUOUS
 62
         190
 48
25.39999961853
100
AcDbLine
 10
142.8
 20
414.0
 30
0.0
 11
142.8
 21
408.0
 31
0.0
  0
LINE
  5
891
100
AcDbEntity
  8
0
390
962
  6
CONTINUOUS
 62
         190
 48
25.39999961853
100
AcDbLine
 10
217.0
 20
414.0
 30
0.0
 11
217.0
 21
408.0
 31
0.0
  0
LINE
  5
892
100
AcDbEntity
  8
0
390
962
  6
CONTINUOUS
 62
         190
 48
25.39999961853
100
AcDbLine
 10
291.2
 20
414.0
 30
0.0
 11
291.2
 21
408.0
 31
0.0
  0
LINE
  5
893
100
AcDbEntity
  8
0
390
962
  6
CONTINUOUS
 62
         190
 48
25.39999961853
100
AcDbLine
 10
365.4
 20
414.0
 30
0.0
 11
365.4
 21
408.0
 31
0.0
  0
LINE
  5
894
100
AcDbEntity
  8
0
390
962
  6
CONTINUOUS
 62
         190
 48
25.39999961853
100
AcDbLine
 10
0.0
 20
46.5
 30
0.0
 11
-6.0
 21
46.5
 31
0.0
  0
LINE
  5
895
100
AcDbEntity
  8
0
390
962
  6
CONTINUOUS
 62
         190
 48
25.39999961853
100
AcDbLine
 10
0.0
 20
361.5
 30
0.0
 11
-6.0
 21
361.5
 31
0.0
  0
LINE
  5
896
100
AcDbEntity
  8
0
390
962
  6
CONTINUOUS
 62
         190
 48
25.39999961853
100
AcDbLine
 10
0.0
 20
309.0
 30
0.0
 11
-6.0
 21
309.0
 31
0.0
  0
LINE
  5
897
100
AcDbEntity
  8
0
390
962
  6
CONTINUOUS
 62
         190
 48
25.39999961853
100
AcDbLine
 10
0.0
 20
256.5
 30
0.0
 11
-6.0
 21
256.5
 31
0.0
  0
LINE
  5
898
100
AcDbEntity
  8
0
390
962
  6
CONTINUOUS
 62
         190
 48
25.39999961853
100
AcDbLine
 10
0.0
 20
204.0
 30
0.0
 11
-6.0
 21
204.0
 31
0.0
  0
LINE
  5
899
100
AcDbEntity
  8
0
390
962
  6
CONTINUOUS
 62
         190
 48
25.39999961853
100
AcDbLine
 10
0.0
 20
151.5
 30
0.0
 11
-6.0
 21
151.5
 31
0.0
  0
LINE
  5
89A
100
AcDbEntity
  8
0
390
962
  6
CONTINUOUS
 62
         190
 48
25.39999961853
100
AcDbLine
 10
0.0
 20
99.0
 30
0.0
 11
-6.0
 21
99.0
 31
0.0
  0
LINE
  5
89B
100
AcDbEntity
  8
0
390
962
  6
CONTINUOUS
 62
           1
 48
25.39999961853
100
AcDbLine
 10
582.0
 20
291.0
 30
0.0
 11
584.911700227473
 21
291.0
 31
0.0
  0
LINE
  5
89C
100
AcDbEntity
  8
0
390
962
  6
CONTINUOUS
 62
           1
 48
25.39999961853
100
AcDbLine
 10
378.0
 20
0.0
 30
0.0
 11
378.0
 21
-2.614077883658
 31
0.0
  0
LINE
  5
89D
100
AcDbEntity
  8
0
390
962
  6
CONTINUOUS
 62
           1
 48
25.39999961853
100
AcDbLine
 10
168.0
 20
0.0
 30
0.0
 11
168.0
 21
-2.614077883658
 31
0.0
  0
LINE
  5
89E
100
AcDbEntity
  8
0
390
962
  6
CONTINUOUS
 62
           1
 48
25.39999961853
100
AcDbLine
 10
378.0
 20
410.614077883658
 30
0.0
 11
378.0
 21
408.0
 31
0.0
  0
LINE
  5
89F
100
AcDbEntity
  8
0
390
962
  6
CONTINUOUS
 62
           1
 48
25.39999961853
100
AcDbLine
 10
168.0
 20
410.614077883658
 30
0.0
 11
168.0
 21
408.0
 31
0.0
  0
LINE
  5
8A0
100
AcDbEntity
  8
0
390
962
  6
CONTINUOUS
 62
           1
 48
25.39999961853
100
AcDbLine
 10
-2.911700227473
 20
291.0
 30
0.0
 11
0.0
 21
291.0
 31
0.0
  0
LINE
  5
8A1
100
AcDbEntity
  8
0
390
962
  6
CENTER
 62
          92
 48
25.39999961853
100
AcDbLine
 10
462.495584106445
 20
29.904000854492
 30
0.0
 11
462.495584106445
 21
26.70719909668
 31
0.0
  0
LINE
  5
8A2
100
AcDbEntity
  8
0
390
962
  6
CONTINUOUS
 62
         190
 48
25.39999961853
100
AcDbLine
 10
458.495584106445
 20
29.504000854492
 30
0.0
 11
458.495584106445
 21
27.104000854492
 31
0.0
  0
LINE
  5
8A3
100
AcDbEntity
  8
0
390
962
  6
CONTINUOUS
 62
         190
 48
25.39999961853
100
AcDbLine
 10
455.295584106446
 20
27.664001464844
 30
0.0
 11
458.495584106446
 21
27.104000854492
 31
0.0
  0
LINE
  5
8A4
100
AcDbEntity
  8
0
390
962
  6
CONTINUOUS
 62
         190
 48
25.39999961853
100
AcDbLine
 10
455.295584106445
 20
28.944000244141
 30
0.0
 11
455.295584106445
 21
27.664001464844
 31
0.0
  0
LINE
  5
8A5
100
AcDbEntity
  8
0
390
962
  6
CENTER
 62
          92
 48
25.39999961853
100
AcDbLine
 10
464.70940246582
 20
28.304000854492
 30
0.0
 11
454.732766723633
 21
28.304000854492
 31
0.0
  0
LINE
  5
8A6
100
AcDbEntity
  8
0
390
962
  6
CONTINUOUS
 62
         190
 48
25.39999961853
100
AcDbLine
 10
455.295584106445
 20
28.944000244141
 30
0.0
 11
458.495584106445
 21
29.504000854492
 31
0.0
  0
LINE
  5
8A7
100
AcDbEntity
  8
0
390
962
  6
CONTINUOUS
 62
           1
 48
25.39999961853
100
AcDbLine
 10
417.873565673828
 20
29.062431335449
 30
0.0
 11
415.775672912598
 21
29.062431335449
 31
0.0
  0
LINE
  5
8A8
100
AcDbEntity
  8
0
390
962
  6
CONTINUOUS
 62
           1
 48
25.39999961853
100
AcDbLine
 10
402.588871002197
 20
25.46603012085
 30
0.0
 11
421.170272827148
 21
25.46603012085
 31
0.0
  0
LINE
  5
8A9
100
AcDbEntity
  8
0
390
962
  6
CONTINUOUS
 62
           1
 48
25.39999961853
100
AcDbLine
 10
405.585868835449
 20
25.765731811523
 30
0.0
 11
405.585868835449
 21
34.157329559326
 31
0.0
  0
LINE
  5
8AA
100
AcDbEntity
  8
0
390
962
  6
CONTINUOUS
 62
           1
 48
25.39999961853
100
AcDbLine
 10
405.585868835449
 20
34.157329559326
 30
0.0
 11
410.38106918335
 21
34.157329559326
 31
0.0
  0
LINE
  5
8AB
100
AcDbEntity
  8
0
390
962
  6
CONTINUOUS
 62
           1
 48
25.39999961853
100
AcDbLine
 10
408.882568359375
 20
32.359130859375
 30
0.0
 11
408.283168792725
 21
32.359130859375
 31
0.0
  0
LINE
  5
8AC
100
AcDbEntity
  8
0
390
962
  6
CONTINUOUS
 62
           1
 48
25.39999961853
100
AcDbLine
 10
408.283168792725
 20
32.359130859375
 30
0.0
 11
408.283168792725
 21
31.460029602051
 31
0.0
  0
LINE
  5
8AD
100
AcDbEntity
  8
0
390
962
  6
CONTINUOUS
 62
           1
 48
25.39999961853
100
AcDbLine
 10
408.283168792725
 20
31.460029602051
 30
0.0
 11
408.882568359375
 21
31.460029602051
 31
0.0
  0
LINE
  5
8AE
100
AcDbEntity
  8
0
390
962
  6
CONTINUOUS
 62
           1
 48
25.39999961853
100
AcDbLine
 10
409.182270050049
 20
27.863628387451
 30
0.0
 11
408.283168792725
 21
27.863628387451
 31
0.0
  0
LINE
  5
8AF
100
AcDbEntity
  8
0
390
962
  6
CONTINUOUS
 62
           1
 48
25.39999961853
100
AcDbLine
 10
408.283168792725
 20
27.863628387451
 30
0.0
 11
408.283168792725
 21
29.062431335449
 31
0.0
  0
LINE
  5
8B0
100
AcDbEntity
  8
0
390
962
  6
CONTINUOUS
 62
           1
 48
25.39999961853
100
AcDbLine
 10
408.283168792725
 20
29.062431335449
 30
0.0
 11
409.182270050049
 21
29.062431335449
 31
0.0
  0
LINE
  5
8B1
100
AcDbEntity
  8
0
390
962
  6
CONTINUOUS
 62
           1
 48
25.39999961853
100
AcDbLine
 10
405.585868835449
 20
25.765731811523
 30
0.0
 11
405.585868835449
 21
34.157329559326
 31
0.0
  0
LINE
  5
8B2
100
AcDbEntity
  8
0
390
962
  6
CONTINUOUS
 62
           1
 48
25.39999961853
100
AcDbLine
 10
413.078369140625
 20
25.765731811523
 30
0.0
 11
413.078369140625
 21
34.157329559326
 31
0.0
  0
LINE
  5
8B3
100
AcDbEntity
  8
0
390
962
  6
CONTINUOUS
 62
           1
 48
25.39999961853
100
AcDbLine
 10
418.472969055176
 20
25.765731811523
 30
0.0
 11
418.472969055176
 21
27.863628387451
 31
0.0
  0
LINE
  5
8B4
100
AcDbEntity
  8
0
390
962
  6
CONTINUOUS
 62
           1
 48
25.39999961853
100
AcDbLine
 10
413.078369140625
 20
34.157329559326
 30
0.0
 11
418.472969055176
 21
34.157329559326
 31
0.0
  0
LINE
  5
8B5
100
AcDbEntity
  8
0
390
962
  6
CONTINUOUS
 62
           1
 48
25.39999961853
100
AcDbLine
 10
415.775672912598
 20
32.059429168701
 30
0.0
 11
418.472969055176
 21
32.059429168701
 31
0.0
  0
LINE
  5
8B6
100
AcDbEntity
  8
0
390
962
  6
CONTINUOUS
 62
           1
 48
25.39999961853
100
AcDbLine
 10
415.775672912598
 20
27.863628387451
 30
0.0
 11
418.472969055176
 21
27.863628387451
 31
0.0
  0
LINE
  5
8B7
100
AcDbEntity
  8
0
390
962
  6
CONTINUOUS
 62
           1
 48
25.39999961853
100
AcDbLine
 10
415.775672912598
 20
30.8606300354
 30
0.0
 11
417.873565673828
 21
30.8606300354
 31
0.0
  0
LINE
  5
8B8
100
AcDbEntity
  8
0
390
962
  6
CONTINUOUS
 62
           1
 48
25.39999961853
100
AcDbLine
 10
417.873565673828
 20
30.8606300354
 30
0.0
 11
417.873565673828
 21
29.062431335449
 31
0.0
  0
LINE
  5
8B9
100
AcDbEntity
  8
0
390
962
  6
CONTINUOUS
 62
           1
 48
25.39999961853
100
AcDbLine
 10
402.588871002197
 20
25.166328430176
 30
0.0
 11
421.074226379395
 21
25.166328430176
 31
0.0
  0
LINE
  5
8BA
100
AcDbEntity
  8
0
390
962
  6
CONTINUOUS
 62
           1
 48
25.39999961853
100
AcDbLine
 10
418.472969055176
 20
32.059429168701
 30
0.0
 11
418.472969055176
 21
34.157329559326
 31
0.0
  0
LINE
  5
8BB
100
AcDbEntity
  8
0
390
962
  6
CONTINUOUS
 62
           1
 48
25.39999961853
100
AcDbLine
 10
415.775672912598
 20
30.8606300354
 30
0.0
 11
415.775672912598
 21
32.059429168701
 31
0.0
  0
LINE
  5
8BC
100
AcDbEntity
  8
0
390
962
  6
CONTINUOUS
 62
           1
 48
25.39999961853
100
AcDbLine
 10
415.775672912598
 20
27.863628387451
 30
0.0
 11
415.775672912598
 21
29.062431335449
 31
0.0
  0
LINE
  5
8BD
100
AcDbEntity
  8
0
390
962
  6
CONTINUOUS
 62
           1
 48
25.39999961853
100
AcDbLine
 10
419.072372436523
 20
25.765731811523
 30
0.0
 11
421.769668579102
 21
34.157329559326
 31
0.0
  0
LINE
  5
8BE
100
AcDbEntity
  8
0
390
962
  6
CONTINUOUS
 62
           1
 48
25.39999961853
100
AcDbLine
 10
421.769668579102
 20
34.157329559326
 30
0.0
 11
424.766670227051
 21
34.157329559326
 31
0.0
  0
LINE
  5
8BF
100
AcDbEntity
  8
0
390
962
  6
CONTINUOUS
 62
           1
 48
25.39999961853
100
AcDbLine
 10
424.766670227051
 20
34.157329559326
 30
0.0
 11
427.463966369629
 21
25.765731811523
 31
0.0
  0
LINE
  5
8C0
100
AcDbEntity
  8
0
390
962
  6
CONTINUOUS
 62
           1
 48
25.39999961853
100
AcDbLine
 10
421.170272827148
 20
25.765731811523
 30
0.0
 11
421.170272827148
 21
26.365131378174
 31
0.0
  0
LINE
  5
8C1
100
AcDbEntity
  8
0
390
962
  6
CONTINUOUS
 62
           1
 48
25.39999961853
100
AcDbLine
 10
421.170272827148
 20
26.365131378174
 30
0.0
 11
421.769668579102
 21
26.365131378174
 31
0.0
  0
LINE
  5
8C2
100
AcDbEntity
  8
0
390
962
  6
CONTINUOUS
 62
           1
 48
25.39999961853
100
AcDbLine
 10
421.769668579102
 20
26.365131378174
 30
0.0
 11
421.769668579102
 21
26.964530944824
 31
0.0
  0
LINE
  5
8C3
100
AcDbEntity
  8
0
390
962
  6
CONTINUOUS
 62
           1
 48
25.39999961853
100
AcDbLine
 10
421.769668579102
 20
26.964530944824
 30
0.0
 11
422.369071960449
 21
26.964530944824
 31
0.0
  0
LINE
  5
8C4
100
AcDbEntity
  8
0
390
962
  6
CONTINUOUS
 62
           1
 48
25.39999961853
100
AcDbLine
 10
422.369071960449
 20
26.964530944824
 30
0.0
 11
422.369071960449
 21
27.563930511475
 31
0.0
  0
LINE
  5
8C5
100
AcDbEntity
  8
0
390
962
  6
CONTINUOUS
 62
           1
 48
25.39999961853
100
AcDbLine
 10
422.369071960449
 20
27.563930511475
 30
0.0
 11
422.668769836426
 21
27.563930511475
 31
0.0
  0
LINE
  5
8C6
100
AcDbEntity
  8
0
390
962
  6
CONTINUOUS
 62
           1
 48
25.39999961853
100
AcDbLine
 10
422.668769836426
 20
27.563930511475
 30
0.0
 11
422.968467712402
 21
27.563930511475
 31
0.0
  0
LINE
  5
8C7
100
AcDbEntity
  8
0
390
962
  6
CONTINUOUS
 62
           1
 48
25.39999961853
100
AcDbLine
 10
422.968467712402
 20
27.563930511475
 30
0.0
 11
422.968467712402
 21
32.119369506836
 31
0.0
  0
LINE
  5
8C8
100
AcDbEntity
  8
0
390
962
  6
CONTINUOUS
 62
           1
 48
25.39999961853
100
AcDbLine
 10
423.56787109375
 20
27.563930511475
 30
0.0
 11
424.167266845703
 21
27.563930511475
 31
0.0
  0
LINE
  5
8C9
100
AcDbEntity
  8
0
390
962
  6
CONTINUOUS
 62
           1
 48
25.39999961853
100
AcDbLine
 10
424.167266845703
 20
27.563930511475
 30
0.0
 11
424.167266845703
 21
26.964530944824
 31
0.0
  0
LINE
  5
8CA
100
AcDbEntity
  8
0
390
962
  6
CONTINUOUS
 62
           1
 48
25.39999961853
100
AcDbLine
 10
424.167266845703
 20
26.964530944824
 30
0.0
 11
424.766670227051
 21
26.964530944824
 31
0.0
  0
LINE
  5
8CB
100
AcDbEntity
  8
0
390
962
  6
CONTINUOUS
 62
           1
 48
25.39999961853
100
AcDbLine
 10
424.766670227051
 20
26.964530944824
 30
0.0
 11
424.766670227051
 21
26.365131378174
 31
0.0
  0
LINE
  5
8CC
100
AcDbEntity
  8
0
390
962
  6
CONTINUOUS
 62
           1
 48
25.39999961853
100
AcDbLine
 10
424.766670227051
 20
26.365131378174
 30
0.0
 11
425.366065979004
 21
26.365131378174
 31
0.0
  0
LINE
  5
8CD
100
AcDbEntity
  8
0
390
962
  6
CONTINUOUS
 62
           1
 48
25.39999961853
100
AcDbLine
 10
425.366065979004
 20
26.365131378174
 30
0.0
 11
425.366065979004
 21
25.765731811523
 31
0.0
  0
LINE
  5
8CE
100
AcDbEntity
  8
0
390
962
  6
CONTINUOUS
 62
           1
 48
25.39999961853
100
AcDbLine
 10
423.56787109375
 20
32.119369506836
 30
0.0
 11
423.56787109375
 21
27.563930511475
 31
0.0
  0
LINE
  5
8CF
100
AcDbEntity
  8
0
390
962
  6
CONTINUOUS
 62
           1
 48
25.39999961853
100
AcDbLine
 10
405.585868835449
 20
25.765731811523
 30
0.0
 11
410.38106918335
 21
25.765731811523
 31
0.0
  0
LINE
  5
8D0
100
AcDbEntity
  8
0
390
962
  6
CONTINUOUS
 62
           1
 48
25.39999961853
100
AcDbLine
 10
413.078369140625
 20
25.765731811523
 30
0.0
 11
418.472969055176
 21
25.765731811523
 31
0.0
  0
LINE
  5
8D1
100
AcDbEntity
  8
0
390
962
  6
CONTINUOUS
 62
           1
 48
25.39999961853
100
AcDbLine
 10
427.463966369629
 20
25.765731811523
 30
0.0
 11
425.366065979004
 21
25.765731811523
 31
0.0
  0
LINE
  5
8D2
100
AcDbEntity
  8
0
390
962
  6
CONTINUOUS
 62
           1
 48
25.39999961853
100
AcDbLine
 10
421.170272827148
 20
25.765731811523
 30
0.0
 11
419.072372436523
 21
25.765731811523
 31
0.0
  0
LINE
  5
8D3
100
AcDbEntity
  8
0
390
962
  6
CONTINUOUS
 62
           1
 48
25.39999961853
100
AcDbLine
 10
421.170272827149
 20
25.46603012085
 30
0.0
 11
423.268165588379
 21
23.967529296875
 31
0.0
  0
LINE
  5
8D4
100
AcDbEntity
  8
0
390
962
  6
CONTINUOUS
 62
           1
 48
25.39999961853
100
AcDbLine
 10
423.268165588379
 20
23.967529296875
 30
0.0
 11
425.366065979004
 21
25.46603012085
 31
0.0
  0
LINE
  5
8D5
100
AcDbEntity
  8
0
390
962
  6
CONTINUOUS
 62
           1
 48
25.39999961853
100
AcDbLine
 10
425.366065979004
 20
25.46603012085
 30
0.0
 11
430.460968017578
 21
25.46603012085
 31
0.0
  0
LINE
  5
8D6
100
AcDbEntity
  8
0
390
962
  6
CONTINUOUS
 62
           1
 48
25.39999961853
100
AcDbLine
 10
425.462112426758
 20
25.166328430176
 30
0.0
 11
430.460968017578
 21
25.166328430176
 31
0.0
  0
LINE
  5
8D7
100
AcDbEntity
  8
0
390
962
  6
CONTINUOUS
 62
           1
 48
25.39999961853
100
AcDbLine
 10
423.268165588379
 20
23.599227905273
 30
0.0
 11
425.462112426758
 21
25.166328430176
 31
0.0
  0
LINE
  5
8D8
100
AcDbEntity
  8
0
390
962
  6
CONTINUOUS
 62
           1
 48
25.39999961853
100
AcDbLine
 10
421.074226379394
 20
25.166328430176
 30
0.0
 11
423.268165588379
 21
23.599227905273
 31
0.0
  0
CIRCLE
  5
8D9
100
AcDbEntity
  8
0
390
962
  6
CONTINUOUS
 62
           1
 48
25.39999961853
100
AcDbCircle
 10
404.189208984375
 20
48.304000854492
 30
0.0
 40
1.5
  0
CIRCLE
  5
8DA
100
AcDbEntity
  8
0
390
962
  6
CONTINUOUS
 62
           1
 48
25.39999961853
100
AcDbCircle
 10
404.189208984375
 20
48.304000854492
 30
0.0
 40
0.800000011921
  0
ARC
  5
8DB
100
AcDbEntity
  8
0
390
962
  6
CONTINUOUS
 62
           4
 48
25.39999961853
100
AcDbCircle
 10
351.380981445313
 20
52.209278106689
 30
0.0
 40
1.948050022125
100
AcDbArc
 50
269.999997495522
 51
90.000002504478
  0
ARC
  5
8DC
100
AcDbEntity
  8
0
390
962
  6
CONTINUOUS
 62
           4
 48
25.39999961853
100
AcDbCircle
 10
351.380981445313
 20
48.013481140137
 30
0.0
 40
2.247750043869
100
AcDbArc
 50
269.999997495522
 51
90.000002504478
  0
ARC
  5
8DD
100
AcDbEntity
  8
0
390
962
  6
CONTINUOUS
 62
           4
 48
25.39999961853
100
AcDbCircle
 10
350.182189941406
 20
48.463031768799
 30
0.0
 40
0.599399983883
100
AcDbArc
 50
269.999997495522
 51
90.000002504478
  0
ARC
  5
8DE
100
AcDbEntity
  8
0
390
962
  6
CONTINUOUS
 62
           4
 48
25.39999961853
100
AcDbCircle
 10
349.882507324219
 20
51.909580230713
 30
0.0
 40
0.449550002813
100
AcDbArc
 50
269.999997495522
 51
90.000002504478
  0
ARC
  5
8DF
100
AcDbEntity
  8
0
390
962
  6
CONTINUOUS
 62
           4
 48
25.39999961853
100
AcDbCircle
 10
363.968383789063
 20
52.29919052124
 30
0.0
 40
0.179820001125
100
AcDbArc
 50
269.999997495522
 51
52.430673333323
  0
ARC
  5
8E0
100
AcDbEntity
  8
0
390
962
  6
CONTINUOUS
 62
           4
 48
25.39999961853
100
AcDbCircle
 10
364.268096923828
 20
52.688800811768
 30
0.0
 40
0.311724990606
100
AcDbArc
 50
307.569019308165
 51
232.431829229154
  0
ARC
  5
8E1
100
AcDbEntity
  8
0
390
962
  6
CONTINUOUS
 62
           4
 48
25.39999961853
100
AcDbCircle
 10
364.567779541016
 20
52.29919052124
 30
0.0
 40
0.179820001125
100
AcDbArc
 50
127.567866600057
 51
270.000000683245
  0
CIRCLE
  5
8E2
100
AcDbEntity
  8
0
390
962
  6
CONTINUOUS
 62
         190
 48
25.39999961853
100
AcDbCircle
 10
462.495584106445
 20
28.304000854492
 30
0.0
 40
0.640000009537
  0
CIRCLE
  5
8E3
100
AcDbEntity
  8
0
390
962
  6
CONTINUOUS
 62
         190
 48
25.39999961853
100
AcDbCircle
 10
462.495584106445
 20
28.304000854492
 30
0.0
 40
1.2
  0
ARC
  5
8E4
100
AcDbEntity
  8
0
390
962
  6
CONTINUOUS
 62
           1
 48
25.39999961853
100
AcDbCircle
 10
410.38106918335
 20
32.209278106689
 30
0.0
 40
1.948050022125
100
AcDbArc
 50
269.999997495522
 51
90.000002504478
  0
ARC
  5
8E5
100
AcDbEntity
  8
0
390
962
  6
CONTINUOUS
 62
           1
 48
25.39999961853
100
AcDbCircle
 10
410.38106918335
 20
28.013481140137
 30
0.0
 40
2.247750043869
100
AcDbArc
 50
269.999997495522
 51
90.000002504478
  0
ARC
  5
8E6
100
AcDbEntity
  8
0
390
962
  6
CONTINUOUS
 62
           1
 48
25.39999961853
100
AcDbCircle
 10
409.182270050049
 20
28.463031768799
 30
0.0
 40
0.599399983883
100
AcDbArc
 50
269.999997495522
 51
90.000002504478
  0
ARC
  5
8E7
100
AcDbEntity
  8
0
390
962
  6
CONTINUOUS
 62
           1
 48
25.39999961853
100
AcDbCircle
 10
408.882568359375
 20
31.909580230713
 30
0.0
 40
0.449550002813
100
AcDbArc
 50
269.999997495522
 51
90.000002504478
  0
ARC
  5
8E8
100
AcDbEntity
  8
0
390
962
  6
CONTINUOUS
 62
           1
 48
25.39999961853
100
AcDbCircle
 10
422.968467712402
 20
32.29919052124
 30
0.0
 40
0.179820001125
100
AcDbArc
 50
269.999997495522
 51
52.430673333323
  0
ARC
  5
8E9
100
AcDbEntity
  8
0
390
962
  6
CONTINUOUS
 62
           1
 48
25.39999961853
100
AcDbCircle
 10
423.268165588379
 20
32.688800811768
 30
0.0
 40
0.311724990606
100
AcDbArc
 50
307.569019308165
 51
232.431829229154
  0
ARC
  5
8EA
100
AcDbEntity
  8
0
390
962
  6
CONTINUOUS
 62
           1
 48
25.39999961853
100
AcDbCircle
 10
423.56787109375
 20
32.29919052124
 30
0.0
 40
0.179820001125
100
AcDbArc
 50
127.567866600057
 51
270.000000683245
  0
TEXT
  5
8EB
100
AcDbEntity
  8
0
390
962
  6
CONTINUOUS
 62
           3
 48
25.39999961853
100
AcDbText
 10
344.931295335293
 20
39.277462005615
 30
0.0
 40
2.0
  1
LIEGE-BELGIUM
 41
0.797528088093
 51
13.0
  7
MICROCADAM
100
AcDbText
  0
TEXT
  5
8EC
100
AcDbEntity
  8
0
390
962
  6
CONTINUOUS
 62
           3
 48
25.39999961853
100
AcDbText
 10
392.261114418507
 20
21.132182598114
 30
0.0
 40
3.329999923706
  1
--.----
 41
0.813191521291
 51
13.0
  7
MICROCADAM
100
AcDbText
  0
TEXT
  5
8ED
100
AcDbEntity
  8
0
390
962
  6
CONTINUOUS
 62
           3
 48
25.39999961853
100
AcDbText
 10
360.2472615242
 20
21.298728466034
 30
0.0
 40
3.329999923706
  1
P-
 41
0.909999991408
 51
13.0
  7
MICROCADAM
100
AcDbText
  0
TEXT
  5
8EE
100
AcDbEntity
  8
0
390
962
  6
CONTINUOUS
 62
           3
 48
25.39999961853
100
AcDbText
 10
396.536718904972
 20
51.443668067455
 30
0.0
 40
1.998000025749
  1
 ML
 41
0.862105282564
 51
13.0
  7
MICROCADAM
100
AcDbText
  0
TEXT
  5
8EF
100
AcDbEntity
  8
0
390
962
  6
CONTINUOUS
 62
           3
 48
25.39999961853
100
AcDbText
 10
420.358596086502
 20
51.304843604565
 30
0.0
 40
1.998000025749
  1
--/--/--
 41
0.808888896049
 51
13.0
  7
MICROCADAM
100
AcDbText
  0
TEXT
  5
8F0
100
AcDbEntity
  8
0
390
962
  6
CONTINUOUS
 62
           3
 48
25.39999961853
100
AcDbText
 10
386.85153824091
 20
47.224315345287
 30
0.0
 40
1.998000025749
  1
-/1
 41
0.862105282564
 51
13.0
  7
MICROCADAM
100
AcDbText
  0
TEXT
  5
8F1
100
AcDbEntity
  8
0
390
962
  6
CONTINUOUS
 62
           3
 48
25.39999961853
100
AcDbText
 10
422.171940922737
 20
47.240241706371
 30
0.0
 40
1.998000025749
  1
A2
 41
0.909999970764
 51
13.0
  7
MICROCADAM
100
AcDbText
  0
TEXT
  5
8F2
100
AcDbEntity
  8
0
390
962
  6
CONTINUOUS
 62
           3
 48
25.39999961853
100
AcDbText
 10
395.238049030304
 20
43.266017615795
 30
0.0
 40
1.998000025749
  1
-
 41
1.091999917186
 51
13.0
  7
MICROCADAM
100
AcDbText
  0
TEXT
  5
8F3
100
AcDbEntity
  8
0
390
962
  6
CONTINUOUS
 62
           3
 48
25.39999961853
100
AcDbText
 10
399.956097126007
 20
39.310405433178
 30
0.0
 40
1.998000025749
  1
-
 41
1.091999917186
 51
13.0
  7
MICROCADAM
100
AcDbText
  0
TEXT
  5
8F4
100
AcDbEntity
  8
0
390
962
  6
CONTINUOUS
 62
           3
 48
25.39999961853
100
AcDbText
 10
376.894111734645
 20
27.454995671252
 30
0.0
 40
1.998000025749
  1
MCADAM/BER-/E---/----------------.PM--
 41
0.787255751475
 51
13.0
  7
MICROCADAM
100
AcDbText
  0
TEXT
  5
8F5
100
AcDbEntity
  8
0
390
962
  6
CONTINUOUS
 62
           3
 48
25.39999961853
100
AcDbText
 10
438.723510742188
 20
47.651668548584
 30
0.0
 40
2.0
  1
.
 41
0.75
  7
MICROCADAM
100
AcDbText
  0
TEXT
  5
8F6
100
AcDbEntity
  8
0
390
962
  6
CONTINUOUS
 62
           3
 48
25.39999961853
100
AcDbText
 10
453.132202148438
 20
47.789512634277
 30
0.0
 40
2.0
  1
.
 41
0.75
  7
MICROCADAM
100
AcDbText
  0
TEXT
  5
8F7
100
AcDbEntity
  8
0
390
962
  6
CONTINUOUS
 62
           3
 48
25.39999961853
100
AcDbText
 10
517.75341796875
 20
47.759475708008
 30
0.0
 40
2.0
  1
.
 41
0.75
  7
MICROCADAM
100
AcDbText
  0
TEXT
  5
8F8
100
AcDbEntity
  8
0
390
962
  6
CONTINUOUS
 62
           3
 48
25.39999961853
100
AcDbText
 10
439.348305106163
 20
54.877268791199
 30
0.0
 40
2.840312957764
  1
LISTE DES MODIFICATIONS
 41
0.789811347743
 51
13.0
  7
MICROCADAM
100
AcDbText
  0
TEXT
  5
8F9
100
AcDbEntity
  8
0
390
962
  6
CONTINUOUS
 62
           3
 48
25.39999961853
100
AcDbText
 10
414.707531452179
 20
35.385451972485
 30
0.0
 40
1.998000025749
  1
-
 41
1.091999917186
 51
13.0
  7
MICROCADAM
100
AcDbText
  0
TEXT
  5
8FA
100
AcDbEntity
  8
0
390
962
  6
CONTINUOUS
 62
           3
 48
25.39999961853
100
AcDbText
 10
476.466421425343
 20
21.613126277924
 30
0.0
 40
3.329999923706
  1
--/--
 41
0.827272752006
 51
13.0
  7
MICROCADAM
100
AcDbText
  0
TEXT
  5
8FB
100
AcDbEntity
  8
0
390
962
  6
CONTINUOUS
 62
           3
 48
25.39999961853
100
AcDbText
 10
460.458190917969
 20
47.789512634277
 30
0.0
 40
2.0
  1
.
 41
0.75
  7
MICROCADAM
100
AcDbText
  0
TEXT
  5
8FC
100
AcDbEntity
  8
0
390
962
  6
CONTINUOUS
 62
           3
 48
25.39999961853
100
AcDbText
 10
441.001291513443
 20
21.315227031708
 30
0.0
 40
3.329999923706
  1
-
 41
1.092000004009
 51
13.0
  7
MICROCADAM
100
AcDbText
  0
TEXT
  5
8FD
100
AcDbEntity
  8
0
390
962
  6
CONTINUOUS
 62
           3
 48
25.39999961853
100
AcDbText
 10
390.81184053421
 20
55.068298041821
 30
0.0
 40
1.998000025749
  1
-
 41
1.091999917186
 51
13.0
  7
MICROCADAM
100
AcDbText
  0
TEXT
  5
8FE
100
AcDbEntity
  8
0
390
962
  6
CONTINUOUS
 62
           1
 48
25.39999961853
100
AcDbText
 10
356.152114152908
 20
35.272712409496
 30
0.0
 40
1.998000025749
  1
APPROUVE
 41
0.808888896049
 51
13.0
  7
MICROCADAM
100
AcDbText
  0
TEXT
  5
8FF
100
AcDbEntity
  8
0
390
962
  6
CONTINUOUS
 62
           1
 48
25.39999961853
100
AcDbText
 10
373.282912254334
 20
55.314552009106
 30
0.0
 40
1.998000025749
  1
1 TITRE :
 41
0.805573708421
 51
13.0
  7
MICROCADAM
100
AcDbText
  0
TEXT
  5
900
100
AcDbEntity
  8
0
390
962
  6
CONTINUOUS
 62
           1
 48
25.39999961853
100
AcDbText
 10
373.282926499844
 20
51.358359992504
 30
0.0
 40
1.998000025749
  1
2 DESSINATEUR :
 41
0.795145580614
 51
13.0
  7
MICROCADAM
100
AcDbText
  0
TEXT
  5
901
100
AcDbEntity
  8
0
390
962
  6
CONTINUOUS
 62
           1
 48
25.39999961853
100
AcDbText
 10
373.179953575134
 20
47.299121558666
 30
0.0
 40
1.998000025749
  1
3 ECH :
 41
0.813191527978
 51
13.0
  7
MICROCADAM
100
AcDbText
  0
TEXT
  5
902
100
AcDbEntity
  8
0
390
962
  6
CONTINUOUS
 62
           1
 48
25.39999961853
100
AcDbText
 10
373.28292298317
 20
43.239879310131
 30
0.0
 40
1.998000025749
  1
4 MATIERE :
 41
0.800799967113
 51
13.0
  7
MICROCADAM
100
AcDbText
  0
TEXT
  5
903
100
AcDbEntity
  8
0
390
962
  6
CONTINUOUS
 62
           1
 48
25.39999961853
100
AcDbText
 10
373.179939746857
 20
39.28368729353
 30
0.0
 40
1.998000025749
  1
5 TRAITEMENT :
 41
0.796250026625
 51
13.0
  7
MICROCADAM
100
AcDbText
  0
TEXT
  5
904
100
AcDbEntity
  8
0
390
962
  6
CONTINUOUS
 62
           1
 48
25.39999961853
100
AcDbText
 10
373.138274729252
 20
31.26351326704
 30
0.0
 40
1.998000025749
  1
7 FICHIER C.A.O.:
 41
0.793333336913
 51
13.0
  7
MICROCADAM
100
AcDbText
  0
TEXT
  5
905
100
AcDbEntity
  8
0
390
962
  6
CONTINUOUS
 62
           1
 48
25.39999961853
100
AcDbText
 10
409.281648099422
 20
47.331618964672
 30
0.0
 40
1.998000025749
  1
SIZE :
 41
0.819000027386
 51
13.0
  7
MICROCADAM
100
AcDbText
  0
TEXT
  5
906
100
AcDbEntity
  8
0
390
962
  6
CONTINUOUS
 62
           1
 48
25.39999961853
100
AcDbText
 10
409.468476712704
 20
51.254241645336
 30
0.0
 40
1.998000025749
  1
DATE :
 41
0.819000027386
 51
13.0
  7
MICROCADAM
100
AcDbText
  0
TEXT
  5
907
100
AcDbEntity
  8
0
390
962
  6
CONTINUOUS
 62
           1
 48
25.39999961853
100
AcDbText
 10
344.338400840759
 20
35.272712409496
 30
0.0
 40
1.998000025749
  1
VERIFIE
 41
0.813191527978
 51
13.0
  7
MICROCADAM
100
AcDbText
  0
TEXT
  5
908
100
AcDbEntity
  8
0
390
962
  6
CONTINUOUS
 62
           1
 48
25.39999961853
100
AcDbText
 10
440.49064385891
 20
51.112655341625
 30
0.0
 40
1.998000025749
  1
DATE:
 41
0.827272722391
 51
13.0
  7
MICROCADAM
100
AcDbText
  0
TEXT
  5
909
100
AcDbEntity
  8
0
390
962
  6
CONTINUOUS
 62
           1
 48
25.39999961853
100
AcDbText
 10
451.865187227726
 20
51.112655341625
 30
0.0
 40
1.998000025749
  1
PAR:
 41
0.839999954655
 51
13.0
  7
MICROCADAM
100
AcDbText
  0
TEXT
  5
90A
100
AcDbEntity
  8
0
390
962
  6
CONTINUOUS
 62
           1
 48
25.39999961853
100
AcDbText
 10
460.498816370964
 20
51.112655341625
 30
0.0
 40
1.998000025749
  1
DESCRIPTION:
 41
0.799024416962
 51
13.0
  7
MICROCADAM
100
AcDbText
  0
TEXT
  5
90B
100
AcDbEntity
  8
0
390
962
  6
CONTINUOUS
 62
           1
 48
25.39999961853
100
AcDbText
 10
373.266762435436
 20
35.377383887768
 30
0.0
 40
1.998000025749
  1
6 TOLERANCE GENERALE :
 41
0.7902631906
 51
13.0
  7
MICROCADAM
100
AcDbText
  0
TEXT
  5
90C
100
AcDbEntity
  8
0
390
962
  6
CONTINUOUS
 62
           1
 48
25.39999961853
100
AcDbText
 10
344.535940468311
 20
21.446204662323
 30
0.0
 40
3.329999923706
  1
DOC.:
 41
0.827272752006
 51
13.0
  7
MICROCADAM
100
AcDbText
  0
TEXT
  5
90D
100
AcDbEntity
  8
0
390
962
  6
CONTINUOUS
 62
           1
 48
25.39999961853
100
AcDbText
 10
373.272453069687
 20
21.259252071381
 30
0.0
 40
3.329999923706
  1
OBJET:
 41
0.819000056705
 51
13.0
  7
MICROCADAM
100
AcDbText
  0
TEXT
  5
90E
100
AcDbEntity
  8
0
390
962
  6
CONTINUOUS
 62
           1
 48
25.39999961853
100
AcDbText
 10
424.254598915577
 20
21.328237056732
 30
0.0
 40
3.329999923706
  1
VER.:
 41
0.827272752006
 51
13.0
  7
MICROCADAM
100
AcDbText
  0
TEXT
  5
90F
100
AcDbEntity
  8
0
390
962
  6
CONTINUOUS
 62
           1
 48
25.39999961853
100
AcDbText
 10
457.434133827686
 20
21.554484844208
 30
0.0
 40
3.329999923706
  1
PAGE:
 41
0.827272752006
 51
13.0
  7
MICROCADAM
100
AcDbText
  0
TEXT
  5
910
100
AcDbEntity
  8
0
390
962
  6
CONTINUOUS
 62
           1
 48
25.39999961853
100
AcDbText
 10
515.304518282413
 20
51.113433539867
 30
0.0
 40
1.998000025749
  1
VER.
 41
0.839999954655
 51
13.0
  7
MICROCADAM
100
AcDbText
  0
TEXT
  5
911
100
AcDbEntity
  8
0
390
962
  6
CONTINUOUS
 62
           3
 48
25.39999961853
100
AcDbText
 10
364.252509832382
 20
70.180171012878
 30
0.0
 40
4.800000190735
  1
CE PLAN EST LA PROPRIETE DE     ET NE PEUT
 41
0.785342423704
 51
13.0
  7
MICROCADAM
100
AcDbText
  0
TEXT
  5
912
100
AcDbEntity
  8
0
390
962
  6
CONTINUOUS
 62
           3
 48
25.39999961853
100
AcDbText
 10
364.252511143684
 20
62.500170707703
 30
0.0
 40
4.800000190735
  1
ETRE REPRODUIT SANS AUTORISATION ECRITE.
 41
0.785611439323
 51
13.0
  7
MICROCADAM
100
AcDbText
  0
TEXT
  5
913
100
AcDbEntity
  8
0
390
962
  6
CONTINUOUS
 62
           1
 48
25.39999961853
100
AcDbText
 10
468.163519024849
 20
70.012275695801
 30
0.0
 40
5.0
  1
BEA
 41
0.8621052742
 51
13.0
  7
MICROCADAM
100
AcDbText
  0
TEXT
  5
914
100
AcDbEntity
  8
0
390
962
  6
CONTINUOUS
 62
           3
 48
25.39999961853
100
AcDbText
 10
507.574518282413
 20
51.113433539867
 30
0.0
 40
1.998000025749
  1
REL.
 41
0.839999954655
 51
13.0
  7
MICROCADAM
100
AcDbText
  0
TEXT
  5
915
100
AcDbEntity
  8
0
390
962
  6
CONTINUOUS
 62
           3
 48
25.39999961853
100
AcDbText
 10
509.026225585937
 20
47.789512634277
 30
0.0
 40
2.0
  1
.
 41
0.75
  7
MICROCADAM
100
AcDbText
  0
TEXT
  5
916
100
AcDbEntity
  8
0
390
962
  6
CONTINUOUS
 62
         190
 48
25.39999961853
100
AcDbText
 10
475.196965094438
 20
-4.901179147671
 30
0.0
 40
3.5
  1
B
  7
MICROCADAM
100
AcDbText
  0
TEXT
  5
917
100
AcDbEntity
  8
0
390
962
  6
CONTINUOUS
 62
          92
 48
25.39999961853
100
AcDbText
 10
403.90852406621
 20
19.227461993694
 30
0.0
 40
1.799999952316
  1
LIEGE-BELGIUM
 41
0.797528082729
 51
13.0
  7
MICROCADAM
100
AcDbText
  0
TEXT
  5
918
100
AcDbEntity
  8
0
390
962
  6
CONTINUOUS
 62
          92
 48
25.39999961853
100
AcDbText
 10
481.171940922737
 20
27.240241706371
 30
0.0
 40
1.998000025749
  1
A2
 41
0.909999970764
 51
13.0
  7
MICROCADAM
100
AcDbText
  0
TEXT
  5
919
100
AcDbEntity
  8
0
390
962
  6
CONTINUOUS
 62
          92
 48
25.39999961853
100
AcDbText
 10
518.33811506629
 20
34.854690551758
 30
0.0
 40
2.75
  1
MODIFICATIONS LIST
 41
0.789811286059
 51
13.0
  7
MICROCADAM
100
AcDbText
  0
TEXT
  5
91A
100
AcDbEntity
  8
0
390
962
  6
CONTINUOUS
 62
           1
 48
25.39999961853
100
AcDbText
 10
416.879653178776
 20
15.308636049818
 30
0.0
 40
1.799999952316
  1
APPROVED
 41
0.80888891045
 51
13.0
  7
MICROCADAM
100
AcDbText
  0
TEXT
  5
91B
100
AcDbEntity
  8
0
390
962
  6
CONTINUOUS
 62
           1
 48
25.39999961853
100
AcDbText
 10
432.282912254334
 20
35.314552009106
 30
0.0
 40
1.998000025749
  1
1 TITLE :
 41
0.805573708421
 51
13.0
  7
MICROCADAM
100
AcDbText
  0
TEXT
  5
91C
100
AcDbEntity
  8
0
390
962
  6
CONTINUOUS
 62
           1
 48
25.39999961853
100
AcDbText
 10
432.282926499844
 20
31.358359992504
 30
0.0
 40
1.998000025749
  1
2 DRAWER :
 41
0.795145580614
 51
13.0
  7
MICROCADAM
100
AcDbText
  0
TEXT
  5
91D
100
AcDbEntity
  8
0
390
962
  6
CONTINUOUS
 62
           1
 48
25.39999961853
100
AcDbText
 10
432.179953575134
 20
27.299121558666
 30
0.0
 40
1.998000025749
  1
3 SC :
 41
0.813191527978
 51
13.0
  7
MICROCADAM
100
AcDbText
  0
TEXT
  5
91E
100
AcDbEntity
  8
0
390
962
  6
CONTINUOUS
 62
           1
 48
25.39999961853
100
AcDbText
 10
432.28292298317
 20
23.239879310131
 30
0.0
 40
1.998000025749
  1
4 MATERIAL :
 41
0.800799967113
 51
13.0
  7
MICROCADAM
100
AcDbText
  0
TEXT
  5
91F
100
AcDbEntity
  8
0
390
962
  6
CONTINUOUS
 62
           1
 48
25.39999961853
100
AcDbText
 10
432.179939746857
 20
19.28368729353
 30
0.0
 40
1.998000025749
  1
5 TREATMENT:
 41
0.796250026625
 51
13.0
  7
MICROCADAM
100
AcDbText
  0
TEXT
  5
920
100
AcDbEntity
  8
0
390
962
  6
CONTINUOUS
 62
           1
 48
25.39999961853
100
AcDbText
 10
432.198034845995
 20
11.326045233039
 30
0.0
 40
1.998000025749
  1
7 C.A.O. FILE:
 41
0.793333336913
 51
13.0
  7
MICROCADAM
100
AcDbText
  0
TEXT
  5
921
100
AcDbEntity
  8
0
390
962
  6
CONTINUOUS
 62
           1
 48
25.39999961853
100
AcDbText
 10
468.281648099422
 20
27.331618964672
 30
0.0
 40
1.998000025749
  1
SIZE :
 41
0.819000027386
 51
13.0
  7
MICROCADAM
100
AcDbText
  0
TEXT
  5
922
100
AcDbEntity
  8
0
390
962
  6
CONTINUOUS
 62
           1
 48
25.39999961853
100
AcDbText
 10
468.468476712704
 20
31.254241645336
 30
0.0
 40
1.998000025749
  1
DATE :
 41
0.819000027386
 51
13.0
  7
MICROCADAM
100
AcDbText
  0
TEXT
  5
923
100
AcDbEntity
  8
0
390
962
  6
CONTINUOUS
 62
           1
 48
25.39999961853
100
AcDbText
 10
402.803291121086
 20
15.413283962382
 30
0.0
 40
1.799999952316
  1
VERIFIED
 41
0.78605206903
 51
13.0
  7
MICROCADAM
100
AcDbText
  0
TEXT
  5
924
100
AcDbEntity
  8
0
390
962
  6
CONTINUOUS
 62
           1
 48
25.39999961853
100
AcDbText
 10
499.49064385891
 20
31.112655311823
 30
0.0
 40
1.998000025749
  1
DATE:
 41
0.827272722391
 51
13.0
  7
MICROCADAM
100
AcDbText
  0
TEXT
  5
925
100
AcDbEntity
  8
0
390
962
  6
CONTINUOUS
 62
           1
 48
25.39999961853
100
AcDbText
 10
510.865156710148
 20
31.112655341625
 30
0.0
 40
1.998000025749
  1
BY:
 41
0.839999954655
 51
13.0
  7
MICROCADAM
100
AcDbText
  0
TEXT
  5
926
100
AcDbEntity
  8
0
390
962
  6
CONTINUOUS
 62
           1
 48
25.39999961853
100
AcDbText
 10
519.510542452335
 20
31.112655311823
 30
0.0
 40
1.998000025749
  1
DESCRIPTION:
 41
0.839999954655
 51
13.0
  7
MICROCADAM
100
AcDbText
  0
TEXT
  5
927
100
AcDbEntity
  8
0
390
962
  6
CONTINUOUS
 62
           1
 48
25.39999961853
100
AcDbText
 10
432.266762435436
 20
15.377383887768
 30
0.0
 40
1.998000025749
  1
6 GENERAL TOLERANCE :
 41
0.7902631906
 51
13.0
  7
MICROCADAM
100
AcDbText
  0
TEXT
  5
928
100
AcDbEntity
  8
0
390
962
  6
CONTINUOUS
 62
           1
 48
25.39999961853
100
AcDbText
 10
403.535925209522
 20
1.446204662323
 30
0.0
 40
3.329999923706
  1
DOC.:
 41
0.827272752006
 51
13.0
  7
MICROCADAM
100
AcDbText
  0
TEXT
  5
929
100
AcDbEntity
  8
0
390
962
  6
CONTINUOUS
 62
           1
 48
25.39999961853
100
AcDbText
 10
432.272453069687
 20
1.259252071381
 30
0.0
 40
3.329999923706
  1
OBJET:
 41
0.819000056705
 51
13.0
  7
MICROCADAM
100
AcDbText
  0
TEXT
  5
92A
100
AcDbEntity
  8
0
390
962
  6
CONTINUOUS
 62
           1
 48
25.39999961853
100
AcDbText
 10
483.254598915577
 20
1.328237056732
 30
0.0
 40
3.329999923706
  1
VER.:
 41
0.827272752006
 51
13.0
  7
MICROCADAM
100
AcDbText
  0
TEXT
  5
92B
100
AcDbEntity
  8
0
390
962
  6
CONTINUOUS
 62
           1
 48
25.39999961853
100
AcDbText
 10
516.434133827686
 20
1.554484844208
 30
0.0
 40
3.329999923706
  1
PAGE:
 41
0.827272752006
 51
13.0
  7
MICROCADAM
100
AcDbText
  0
TEXT
  5
92C
100
AcDbEntity
  8
0
390
962
  6
CONTINUOUS
 62
         190
 48
25.39999961853
100
AcDbText
 10
549.396965094438
 20
-4.901179147671
 30
0.0
 40
3.5
  1
A
  7
MICROCADAM
100
AcDbText
  0
TEXT
  5
92D
100
AcDbEntity
  8
0
390
962
  6
CONTINUOUS
 62
         190
 48
25.39999961853
100
AcDbText
 10
400.996965094438
 20
-4.901179147671
 30
0.0
 40
3.5
  1
C
  7
MICROCADAM
100
AcDbText
  0
TEXT
  5
92E
100
AcDbEntity
  8
0
390
962
  6
CONTINUOUS
 62
          92
 48
25.39999961853
100
AcDbText
 10
566.574518282413
 20
31.113433539867
 30
0.0
 40
1.998000025749
  1
REL.
 41
0.839999954655
 51
13.0
  7
MICROCADAM
100
AcDbText
  0
TEXT
  5
92F
100
AcDbEntity
  8
0
390
962
  6
CONTINUOUS
 62
         190
 48
25.39999961853
100
AcDbText
 10
583.331118300638
 20
385.888953158948
 30
0.0
 40
3.5
  1
8
  7
MICROCADAM
100
AcDbText
  0
TEXT
  5
930
100
AcDbEntity
  8
0
390
962
  6
CONTINUOUS
 62
         190
 48
25.39999961853
100
AcDbText
 10
583.331118300638
 20
175.888953158948
 30
0.0
 40
3.5
  1
4
  7
MICROCADAM
100
AcDbText
  0
TEXT
  5
931
100
AcDbEntity
  8
0
390
962
  6
CONTINUOUS
 62
         190
 48
25.39999961853
100
AcDbText
 10
583.331118300638
 20
18.388953158948
 30
0.0
 40
3.5
  1
1
  7
MICROCADAM
100
AcDbText
  0
TEXT
  5
932
100
AcDbEntity
  8
0
390
962
  6
CONTINUOUS
 62
         190
 48
25.39999961853
100
AcDbText
 10
583.331118300638
 20
333.388953158948
 30
0.0
 40
3.5
  1
7
  7
MICROCADAM
100
AcDbText
  0
TEXT
  5
933
100
AcDbEntity
  8
0
390
962
  6
CONTINUOUS
 62
         190
 48
25.39999961853
100
AcDbText
 10
583.331118300638
 20
228.388953158948
 30
0.0
 40
3.5
  1
5
  7
MICROCADAM
100
AcDbText
  0
TEXT
  5
934
100
AcDbEntity
  8
0
390
962
  6
CONTINUOUS
 62
         190
 48
25.39999961853
100
AcDbText
 10
583.331118300638
 20
280.888953158948
 30
0.0
 40
3.5
  1
6
  7
MICROCADAM
100
AcDbText
  0
TEXT
  5
935
100
AcDbEntity
  8
0
390
962
  6
CONTINUOUS
 62
         190
 48
25.39999961853
100
AcDbText
 10
583.331118300638
 20
123.388953158948
 30
0.0
 40
3.5
  1
3
  7
MICROCADAM
100
AcDbText
  0
TEXT
  5
936
100
AcDbEntity
  8
0
390
962
  6
CONTINUOUS
 62
         190
 48
25.39999961853
100
AcDbText
 10
583.331118300638
 20
70.888953158948
 30
0.0
 40
3.5
  1
2
  7
MICROCADAM
100
AcDbText
  0
TEXT
  5
937
100
AcDbEntity
  8
0
390
962
  6
CONTINUOUS
 62
         190
 48
25.39999961853
100
AcDbText
 10
326.796965094438
 20
-4.901179147671
 30
0.0
 40
3.5
  1
D
  7
MICROCADAM
100
AcDbText
  0
TEXT
  5
938
100
AcDbEntity
  8
0
390
962
  6
CONTINUOUS
 62
         190
 48
25.39999961853
100
AcDbText
 10
252.596965094438
 20
-4.901179147671
 30
0.0
 40
3.5
  1
E
  7
MICROCADAM
100
AcDbText
  0
TEXT
  5
939
100
AcDbEntity
  8
0
390
962
  6
CONTINUOUS
 62
         190
 48
25.39999961853
100
AcDbText
 10
178.396965094438
 20
-4.901179147671
 30
0.0
 40
3.5
  1
F
  7
MICROCADAM
100
AcDbText
  0
TEXT
  5
93A
100
AcDbEntity
  8
0
390
962
  6
CONTINUOUS
 62
         190
 48
25.39999961853
100
AcDbText
 10
104.196965094438
 20
-4.901179147671
 30
0.0
 40
3.5
  1
G
  7
MICROCADAM
100
AcDbText
  0
TEXT
  5
93B
100
AcDbEntity
  8
0
390
962
  6
CONTINUOUS
 62
         190
 48
25.39999961853
100
AcDbText
 10
29.996965094438
 20
-4.901179147671
 30
0.0
 40
3.5
  1
H
  7
MICROCADAM
100
AcDbText
  0
TEXT
  5
93C
100
AcDbEntity
  8
0
390
962
  6
CONTINUOUS
 62
         190
 48
25.39999961853
100
AcDbText
 10
-4.668881699362
 20
18.388953158948
 30
0.0
 40
3.5
  1
1
  7
MICROCADAM
100
AcDbText
  0
TEXT
  5
93D
100
AcDbEntity
  8
0
390
962
  6
CONTINUOUS
 62
         190
 48
25.39999961853
100
AcDbText
 10
-4.668881699362
 20
333.388953158948
 30
0.0
 40
3.5
  1
7
  7
MICROCADAM
100
AcDbText
  0
TEXT
  5
93E
100
AcDbEntity
  8
0
390
962
  6
CONTINUOUS
 62
         190
 48
25.39999961853
100
AcDbText
 10
-4.668881699362
 20
70.888953158948
 30
0.0
 40
3.5
  1
2
  7
MICROCADAM
100
AcDbText
  0
TEXT
  5
93F
100
AcDbEntity
  8
0
390
962
  6
CONTINUOUS
 62
         190
 48
25.39999961853
100
AcDbText
 10
-4.668881699362
 20
123.388953158948
 30
0.0
 40
3.5
  1
3
  7
MICROCADAM
100
AcDbText
  0
TEXT
  5
940
100
AcDbEntity
  8
0
390
962
  6
CONTINUOUS
 62
         190
 48
25.39999961853
100
AcDbText
 10
-4.668881699362
 20
175.888953158948
 30
0.0
 40
3.5
  1
4
  7
MICROCADAM
100
AcDbText
  0
TEXT
  5
941
100
AcDbEntity
  8
0
390
962
  6
CONTINUOUS
 62
         190
 48
25.39999961853
100
AcDbText
 10
-4.668881699362
 20
228.388953158948
 30
0.0
 40
3.5
  1
5
  7
MICROCADAM
100
AcDbText
  0
TEXT
  5
942
100
AcDbEntity
  8
0
390
962
  6
CONTINUOUS
 62
         190
 48
25.39999961853
100
AcDbText
 10
-4.668881699362
 20
280.888953158948
 30
0.0
 40
3.5
  1
6
  7
MICROCADAM
100
AcDbText
  0
TEXT
  5
943
100
AcDbEntity
  8
0
390
962
  6
CONTINUOUS
 62
         190
 48
25.39999961853
100
AcDbText
 10
-4.668881699362
 20
385.888953158948
 30
0.0
 40
3.5
  1
8
  7
MICROCADAM
100
AcDbText
  0
TEXT
  5
944
100
AcDbEntity
  8
0
390
962
  6
CONTINUOUS
 62
         190
 48
25.39999961853
100
AcDbText
 10
400.996965094438
 20
409.098820852329
 30
0.0
 40
3.5
  1
C
  7
MICROCADAM
100
AcDbText
  0
TEXT
  5
945
100
AcDbEntity
  8
0
390
962
  6
CONTINUOUS
 62
         190
 48
25.39999961853
100
AcDbText
 10
549.396965094438
 20
409.098820852329
 30
0.0
 40
3.5
  1
A
  7
MICROCADAM
100
AcDbText
  0
TEXT
  5
946
100
AcDbEntity
  8
0
390
962
  6
CONTINUOUS
 62
         190
 48
25.39999961853
100
AcDbText
 10
326.796965094438
 20
409.098820852329
 30
0.0
 40
3.5
  1
D
  7
MICROCADAM
100
AcDbText
  0
TEXT
  5
947
100
AcDbEntity
  8
0
390
962
  6
CONTINUOUS
 62
         190
 48
25.39999961853
100
AcDbText
 10
475.196965094438
 20
409.098820852329
 30
0.0
 40
3.5
  1
B
  7
MICROCADAM
100
AcDbText
  0
TEXT
  5
948
100
AcDbEntity
  8
0
390
962
  6
CONTINUOUS
 62
         190
 48
25.39999961853
100
AcDbText
 10
29.996965094438
 20
409.098820852329
 30
0.0
 40
3.5
  1
H
  7
MICROCADAM
100
AcDbText
  0
TEXT
  5
949
100
AcDbEntity
  8
0
390
962
  6
CONTINUOUS
 62
         190
 48
25.39999961853
100
AcDbText
 10
178.396965094438
 20
409.098820852329
 30
0.0
 40
3.5
  1
F
  7
MICROCADAM
100
AcDbText
  0
TEXT
  5
94A
100
AcDbEntity
  8
0
390
962
  6
CONTINUOUS
 62
         190
 48
25.39999961853
100
AcDbText
 10
252.596965094438
 20
409.098820852329
 30
0.0
 40
3.5
  1
E
  7
MICROCADAM
100
AcDbText
  0
TEXT
  5
94B
100
AcDbEntity
  8
0
390
962
  6
CONTINUOUS
 62
         190
 48
25.39999961853
100
AcDbText
 10
104.196965094438
 20
409.098820852329
 30
0.0
 40
3.5
  1
G
  7
MICROCADAM
100
AcDbText
  0
TEXT
  5
94C
100
AcDbEntity
  8
0
390
962
  6
CONTINUOUS
 62
          92
 48
25.39999961853
100
AcDbText
 10
401.97241848465
 20
41.099471277783
 30
0.0
 40
3.5
  1
THIS DRAWING IS THE PROPERTY OF       AND MAY NOT BE REPRODUCED WITHOUT WRITTEN AGREEMENT
 41
0.571428571429
 51
15.0
  7
MICROCADAM
100
AcDbText
  0
TEXT
  5
94D
100
AcDbEntity
  8
0
390
962
  6
CONTINUOUS
 62
         190
 48
25.39999961853
100
AcDbText
 10
467.476635202242
 20
41.04203503013
 30
0.0
 40
3.5
  1
BEA
 41
0.714285714286
 51
15.0
  7
MICROCADAM
100
AcDbText
  0
TEXT
  5
94E
100
AcDbEntity
  8
0
390
962
  6
CONTINUOUS
 62
         190
 48
25.39999961853
100
AcDbText
 10
467.676635202242
 20
41.04203503013
 30
0.0
 40
3.5
  1
BEA
 41
0.714285714286
 51
15.0
  7
MICROCADAM
100
AcDbText
  0
TEXT
  5
94F
100
AcDbEntity
  8
0
390
962
  6
CONTINUOUS
 62
          92
 48
25.39999961853
100
AcDbText
 10
447.335171954546
 20
35.452347975898
 30
0.0
 40
1.998000025749
  1
EYETECH Dimensions
 41
0.805573708421
 51
13.0
  7
MICROCADAM
100
AcDbText
  0
TEXT
  5
950
100
AcDbEntity
  8
0
390
962
  6
CONTINUOUS
 62
          92
 48
25.39999961853
100
AcDbText
 10
451.553807926089
 20
31.433534496592
 30
0.0
 40
1.998000025749
  1
 ML
 41
0.862105282564
 51
13.0
  7
MICROCADAM
100
AcDbText
  0
TEXT
  5
951
100
AcDbEntity
  8
0
390
962
  6
CONTINUOUS
 62
          92
 48
25.39999961853
100
AcDbText
 10
479.358596086502
 20
31.304843604565
 30
0.0
 40
1.998000025749
  1
24/09/2001
 41
0.808888896049
 51
13.0
  7
MICROCADAM
100
AcDbText
  0
TEXT
  5
952
100
AcDbEntity
  8
0
390
962
  6
CONTINUOUS
 62
          92
 48
25.39999961853
100
AcDbText
 10
441.933529117469
 20
27.508569642473
 30
0.0
 40
1.998000025749
  1
  1/1
 41
0.862105282564
 51
13.0
  7
MICROCADAM
100
AcDbText
  0
TEXT
  5
953
100
AcDbEntity
  8
0
390
962
  6
CONTINUOUS
 62
          92
 48
25.39999961853
100
AcDbText
 10
451.937837366444
 20
23.353751398083
 30
0.0
 40
1.998000025749
  1
-
 41
0.805573708421
 51
13.0
  7
MICROCADAM
100
AcDbText
  0
TEXT
  5
954
100
AcDbEntity
  8
0
390
962
  6
CONTINUOUS
 62
          92
 48
25.39999961853
100
AcDbText
 10
451.632336024945
 20
19.443334226892
 30
0.0
 40
1.998000025749
  1
-
 41
0.805573708421
 51
13.0
  7
MICROCADAM
100
AcDbText
  0
TEXT
  5
955
100
AcDbEntity
  8
0
390
962
  6
CONTINUOUS
 62
          92
 48
25.39999961853
100
AcDbText
 10
465.99089907541
 20
15.532917055702
 30
0.0
 40
1.998000025749
  1
-
 41
0.805573708421
 51
13.0
  7
MICROCADAM
100
AcDbText
  0
TEXT
  5
956
100
AcDbEntity
  8
0
390
962
  6
CONTINUOUS
 62
          92
 48
25.39999961853
100
AcDbText
 10
436.750658449201
 20
7.714584933121
 30
0.0
 40
1.998000025749
  1
MCADAM/BEA3/EYTECH/EYETECH_DIM
 41
0.787255751475
 51
13.0
  7
MICROCADAM
100
AcDbText
  0
TEXT
  5
957
100
AcDbEntity
  8
0
390
962
  6
CONTINUOUS
 62
          92
 48
25.39999961853
100
AcDbText
 10
419.24727678299
 20
1.298728466034
 30
0.0
 40
3.329999923706
  1
PA
 41
0.909999991408
 51
13.0
  7
MICROCADAM
100
AcDbText
  0
TEXT
  5
958
100
AcDbEntity
  8
0
390
962
  6
CONTINUOUS
 62
          92
 48
25.39999961853
100
AcDbText
 10
451.261114418507
 20
1.132182598114
 30
0.0
 40
3.329999923706
  1
41.5506
 41
0.813191521291
 51
13.0
  7
MICROCADAM
100
AcDbText
  0
TEXT
  5
959
100
AcDbEntity
  8
0
390
962
  6
CONTINUOUS
 62
          92
 48
25.39999961853
100
AcDbText
 10
500.001291513443
 20
1.315227031708
 30
0.0
 40
3.329999923706
  1
NA
 41
1.092000004009
 51
13.0
  7
MICROCADAM
100
AcDbText
  0
TEXT
  5
95A
100
AcDbEntity
  8
0
390
962
  6
CONTINUOUS
 62
          92
 48
25.39999961853
100
AcDbText
 10
535.466451942921
 20
1.613126277924
 30
0.0
 40
3.329999923706
  1
01/01
 41
0.827272752006
 51
13.0
  7
MICROCADAM
100
AcDbText
  0
TEXT
  5
95B
100
AcDbEntity
  8
0
390
962
  6
CONTINUOUS
 62
           1
 48
25.39999961853
100
AcDbText
 10
574.304518282413
 20
31.113433539867
 30
0.0
 40
1.998000025749
  1
VER.
 41
0.839999954655
 51
13.0
  7
MICROCADAM
100
AcDbText
  0
ENDBLK
  5
95C
100
AcDbEntity
  8
0
390
962
100
AcDbBlockEnd
  0
ENDSEC
  0
SECTION
  2
ENTITIES
  0
VIEWPORT
  5
7A6
100
AcDbEntity
 67
           1
  8
0
390
962
  6
CONTINUOUS
 62
           0
100
AcDbViewport
 10
0.0
 20
0.0
 30
0.0
 40
1000.0
 41
1000.0
 68
          -1
 69
           1
 12
0.0
 22
0.0
 13
0.0
 23
0.0
 14
1.0
 24
1.0
 15
0.0
 25
0.0
 16
0.0
 26
0.0
 36
1.0
 17
0.0
 27
0.0
 37
0.0
 42
50.0
 43
0.0
 44
0.0
 45
1000.0
 50
0.0
 51
0.0
 72
         100
 90
      160
340
0
  1

281
           0
 71
           0
 74
           1
110
0.0
120
0.0
130
0.0
111
1.0
121
0.0
131
0.0
112
0.0
122
1.0
132
0.0
345
0
346
0
 79
           0
146
0.0
  0
LINE
  5
39
100
AcDbEntity
  8
PV
390
962
  6
CONTINUOUS
 62
           1
 48
25.39999961853
100
AcDbLine
 10
-30.798105970938
 20
45.50000762939
 30
0.0
 11
-30.005386763408
 21
45.50000762939
 31
0.0
  0
LINE
  5
3A
100
AcDbEntity
  8
PV
390
962
  6
CONTINUOUS
 62
           1
 48
25.39999961853
100
AcDbLine
 10
-32.0
 20
44.49325665307
 30
0.0
 11
-32.0
 21
44.90060114172
 31
0.0
  0
LINE
  5
3B
100
AcDbEntity
  8
PV
390
962
  6
CONTINUOUS
 62
           1
 48
25.39999961853
100
AcDbLine
 10
-29.999999999999
 20
-2.499992370605
 30
0.0
 11
-31.999999999999
 21
-1.499992370606
 31
0.0
  0
LINE
  5
3C
100
AcDbEntity
  8
PV
390
962
  6
CONTINUOUS
 62
           1
 48
25.39999961853
100
AcDbLine
 10
-31.999999999999
 20
44.49325665307
 30
0.0
 11
-31.999999999999
 21
-1.499992370605
 31
0.0
  0
LINE
  5
3D
100
AcDbEntity
  8
PV
390
962
  6
CONTINUOUS
 62
           1
 48
25.39999961853
100
AcDbLine
 10
-29.999999999999
 20
24.5
 30
0.0
 11
-31.999999999999
 21
24.50892196486
 31
0.0
  0
LINE
  5
3E
100
AcDbEntity
  8
PV
390
962
  6
CONTINUOUS
 62
           1
 48
25.39999961853
100
AcDbLine
 10
-30.798105970938
 20
45.50000762939
 30
0.0
 11
-32.0
 21
44.89906061486
 31
0.0
  0
LINE
  5
3F
100
AcDbEntity
  8
PV
390
962
  6
CONTINUOUS
 62
           1
 48
25.39999961853
100
AcDbLine
 10
-10.0
 20
45.50000762939
 30
0.0
 11
-10.0
 21
17.5000076294
 31
0.0
  0
LINE
  5
40
100
AcDbEntity
  8
PV
390
962
  6
CONTINUOUS
 62
           1
 48
25.39999961853
100
AcDbLine
 10
-30.0
 20
45.50000762939
 30
0.0
 11
-29.999999999999
 21
-2.499992370605
 31
0.0
  0
LINE
  5
41
100
AcDbEntity
  8
PV
390
962
  6
CONTINUOUS
 62
           1
 48
25.39999961853
100
AcDbLine
 10
-31.999999999999
 20
24.00000762939
 30
0.0
 11
-10.0
 21
24.00000762939
 31
0.0
  0
LINE
  5
42
100
AcDbEntity
  8
PV
390
962
  6
CONTINUOUS
 62
           1
 48
25.39999961853
100
AcDbLine
 10
-10.0
 20
24.5
 30
0.0
 11
-29.999999999999
 21
24.5
 31
0.0
  0
LINE
  5
43
100
AcDbEntity
  8
PV
390
962
  6
CONTINUOUS
 62
           1
 48
25.39999961853
100
AcDbLine
 10
-10.0
 20
45.50000762939
 30
0.0
 11
-30.005386763408
 21
45.50000762939
 31
0.0
  0
LINE
  5
44
100
AcDbEntity
  8
PV
390
962
  6
CONTINUOUS
 62
           1
 48
25.39999961853
100
AcDbLine
 10
-258.0
 20
25.28784554615
 30
0.0
 11
-153.03322603496
 21
25.287845546155
 31
0.0
  0
LINE
  5
45
100
AcDbEntity
  8
PV
390
962
  6
CONTINUOUS
 62
           1
 48
25.39999961853
100
AcDbLine
 10
-31.999999999999
 20
0.0
 30
0.0
 11
-161.122999700811
 21
-0.000000000001
 31
0.0
  0
LINE
  5
46
100
AcDbEntity
  8
PV
390
962
  6
CONTINUOUS
 62
           1
 48
25.39999961853
100
AcDbLine
 10
-31.999999999999
 20
43.5
 30
0.0
 11
-141.547999700811
 21
43.5
 31
0.0
  0
LINE
  5
47
100
AcDbEntity
  8
PV
390
962
  6
CONTINUOUS
 62
           1
 48
25.39999961853
100
AcDbLine
 10
-31.999999999999
 20
42.71598789224
 30
0.0
 11
-141.900805149305
 21
42.715987892235
 31
0.0
  0
LINE
  5
48
100
AcDbEntity
  8
PV
390
962
  6
CONTINUOUS
 62
           1
 48
25.39999961853
100
AcDbLine
 10
-31.999999999999
 20
25.49214156386
 30
0.0
 11
-149.651535997074
 21
25.49214156386
 31
0.0
  0
LINE
  5
49
100
AcDbEntity
  8
PV
390
962
  6
CONTINUOUS
 62
           1
 48
25.39999961853
100
AcDbLine
 10
-31.999999999999
 20
24.98508453369
 30
0.0
 11
-149.879711660655
 21
24.98508453368
 31
0.0
  0
LINE
  5
4A
100
AcDbEntity
  8
PV
390
962
  6
CONTINUOUS
 62
           1
 48
25.39999961853
100
AcDbLine
 10
-31.999999999999
 20
23.52258508742
 30
0.0
 11
-150.537836411477
 21
23.52258508741
 31
0.0
  0
LINE
  5
4B
100
AcDbEntity
  8
PV
390
962
  6
CONTINUOUS
 62
           1
 48
25.39999961853
100
AcDbLine
 10
-31.999999999999
 20
0.099998474121
 30
0.0
 11
-161.078000387462
 21
0.099998474109
 31
0.0
  0
LINE
  5
4C
100
AcDbEntity
  8
PV
390
962
  6
CONTINUOUS
 62
           1
 48
25.39999961853
100
AcDbLine
 10
-259.2390712383
 20
45.50000762939
 30
0.0
 11
-259.9443959925
 21
45.50000762939
 31
0.0
  0
LINE
  5
4D
100
AcDbEntity
  8
PV
390
962
  6
CONTINUOUS
 62
           1
 48
25.39999961853
100
AcDbLine
 10
-259.2390712383
 20
45.50000762939
 30
0.0
 11
-258.0
 21
44.88047201022
 31
0.0
  0
LINE
  5
4E
100
AcDbEntity
  8
PV
390
962
  6
CONTINUOUS
 62
           1
 48
25.39999961853
100
AcDbLine
 10
-258.0
 20
44.52780963313
 30
0.0
 11
-259.9443959925
 21
45.50000762939
 31
0.0
  0
LINE
  5
4F
100
AcDbEntity
  8
PV
390
962
  6
CONTINUOUS
 62
           1
 48
25.39999961853
100
AcDbLine
 10
-258.0
 20
44.52780963313
 30
0.0
 11
-259.992130003
 21
45.42930987415
 31
0.0
  0
LINE
  5
50
100
AcDbEntity
  8
PV
390
962
  6
CONTINUOUS
 62
           1
 48
25.39999961853
100
AcDbLine
 10
-258.0
 20
44.52780963313
 30
0.0
 11
-258.0
 21
44.88206703689
 31
0.0
  0
LINE
  5
51
100
AcDbEntity
  8
PV
390
962
  6
CONTINUOUS
 62
           1
 48
25.39999961853
100
AcDbLine
 10
-260.0
 20
-2.499992370606
 30
0.0
 11
-258.0
 21
-1.499992370606
 31
0.0
  0
LINE
  5
52
100
AcDbEntity
  8
PV
390
962
  6
CONTINUOUS
 62
           1
 48
25.39999961853
100
AcDbLine
 10
-258.0
 20
44.52780963313
 30
0.0
 11
-258.0
 21
-1.499992370606
 31
0.0
  0
LINE
  5
53
100
AcDbEntity
  8
PV
390
962
  6
CONTINUOUS
 62
           1
 48
25.39999961853
100
AcDbLine
 10
-260.0
 20
24.5
 30
0.0
 11
-258.0
 21
24.50892196486
 31
0.0
  0
LINE
  5
54
100
AcDbEntity
  8
PV
390
962
  6
CONTINUOUS
 62
           1
 48
25.39999961853
100
AcDbLine
 10
-260.0
 20
45.50000762939
 30
0.0
 11
-260.0
 21
-2.499992370606
 31
0.0
  0
LINE
  5
55
100
AcDbEntity
  8
PV
390
962
  6
CONTINUOUS
 62
           1
 48
25.39999961853
100
AcDbLine
 10
-280.0
 20
45.50000762939
 30
0.0
 11
-280.0
 21
17.50000762939
 31
0.0
  0
LINE
  5
56
100
AcDbEntity
  8
PV
390
962
  6
CONTINUOUS
 62
           1
 48
25.39999961853
100
AcDbLine
 10
-258.0
 20
24.00000762939
 30
0.0
 11
-280.0
 21
24.00000762939
 31
0.0
  0
LINE
  5
57
100
AcDbEntity
  8
PV
390
962
  6
CONTINUOUS
 62
           1
 48
25.39999961853
100
AcDbLine
 10
-280.0
 20
24.5
 30
0.0
 11
-260.0
 21
24.5
 31
0.0
  0
LINE
  5
58
100
AcDbEntity
  8
PV
390
962
  6
CONTINUOUS
 62
           1
 48
25.39999961853
100
AcDbLine
 10
-280.0
 20
45.50000762939
 30
0.0
 11
-259.9443959925
 21
45.50000762939
 31
0.0
  0
LINE
  5
59
100
AcDbEntity
  8
PV
390
962
  6
CONTINUOUS
 62
           1
 48
25.39999961853
100
AcDbLine
 10
-203.845776984689
 20
-106.229638877578
 30
0.0
 11
-95.307599970158
 21
-106.229638877578
 31
0.0
  0
LINE
  5
5A
100
AcDbEntity
  8
PV
390
962
  6
CONTINUOUS
 62
           1
 48
25.39999961853
100
AcDbLine
 10
-203.845776984689
 20
-162.031752483919
 30
0.0
 11
-95.307599970158
 21
-162.031752483919
 31
0.0
  0
LINE
  5
5B
100
AcDbEntity
  8
PV
390
962
  6
CONTINUOUS
 62
           1
 48
25.39999961853
100
AcDbLine
 10
-203.845776984689
 20
-106.229638877578
 30
0.0
 11
-203.845776984689
 21
-162.031752483919
 31
0.0
  0
LINE
  5
5C
100
AcDbEntity
  8
PV
390
962
  6
CONTINUOUS
 62
           1
 48
25.39999961853
100
AcDbLine
 10
-95.307599970158
 20
-106.229638877578
 30
0.0
 11
-95.307599970158
 21
-162.031752483919
 31
0.0
  0
LINE
  5
5D
100
AcDbEntity
  8
PV
390
962
  6
CONTINUOUS
 62
          92
 48
25.39999961853
100
AcDbLine
 10
-203.845776984689
 20
-150.871329762651
 30
0.0
 11
-95.307599970158
 21
-150.871329762651
 31
0.0
  0
LINE
  5
5E
100
AcDbEntity
  8
PV
390
962
  6
CONTINUOUS
 62
          92
 48
25.39999961853
100
AcDbLine
 10
-203.845776984689
 20
-139.710907041383
 30
0.0
 11
-95.307599970158
 21
-139.710907041383
 31
0.0
  0
LINE
  5
5F
100
AcDbEntity
  8
PV
390
962
  6
CONTINUOUS
 62
          92
 48
25.39999961853
100
AcDbLine
 10
-203.845776984689
 20
-128.550484320115
 30
0.0
 11
-95.307599970158
 21
-128.550484320115
 31
0.0
  0
LINE
  5
60
100
AcDbEntity
  8
PV
390
962
  6
CONTINUOUS
 62
           1
 48
25.39999961853
100
AcDbLine
 10
-203.845776984689
 20
-117.390061598846
 30
0.0
 11
-95.307599970158
 21
-117.390061598846
 31
0.0
  0
LINE
  5
61
100
AcDbEntity
  8
PV
390
962
  6
CONTINUOUS
 62
           1
 48
25.39999961853
100
AcDbLine
 10
-183.845776984689
 20
-106.229638877578
 30
0.0
 11
-183.845776984689
 21
-162.031752483919
 31
0.0
  0
LINE
  5
62
100
AcDbEntity
  8
PV
390
962
  6
CENTER
 62
          92
 48
25.39999961853
100
AcDbLine
 10
-141.298352942417
 20
51.365341307362
 30
0.0
 11
-168.892804725772
 21
-9.95566265565
 31
0.0
  0
LINE
  5
63
100
AcDbEntity
  8
PV
390
962
  6
CENTER
 62
          92
 48
25.39999961853
100
AcDbLine
 10
-138.562588426892
 20
50.134247275376
 30
0.0
 11
-166.157040210247
 21
-11.186756687636
 31
0.0
  0
LINE
  5
64
100
AcDbEntity
  8
PV
390
962
  6
CONTINUOUS
 62
           1
 48
25.39999961853
100
AcDbLine
 10
-145.190561979224
 20
42.715987892235
 30
0.0
 11
-258.0
 21
42.71598789223
 31
0.0
  0
LINE
  5
65
100
AcDbEntity
  8
PV
390
962
  6
CONTINUOUS
 62
           1
 48
25.39999961853
100
AcDbLine
 10
-144.83775653073
 20
43.5
 30
0.0
 11
-258.0
 21
43.5
 31
0.0
  0
LINE
  5
66
100
AcDbEntity
  8
PV
390
962
  6
CONTINUOUS
 62
           1
 48
25.39999961853
100
AcDbLine
 10
-153.827593241396
 20
23.522585087409
 30
0.0
 11
-258.0
 21
23.5225850874
 31
0.0
  0
LINE
  5
67
100
AcDbEntity
  8
PV
390
962
  6
CONTINUOUS
 62
           1
 48
25.39999961853
100
AcDbLine
 10
-164.367757217381
 20
0.099998474108
 30
0.0
 11
-258.0
 21
0.099998474099
 31
0.0
  0
LINE
  5
68
100
AcDbEntity
  8
PV
390
962
  6
CONTINUOUS
 62
           1
 48
25.39999961853
100
AcDbLine
 10
-164.41275653073
 20
-0.000000000001
 30
0.0
 11
-258.0
 21
-0.000000000001
 31
0.0
  0
LINE
  5
69
100
AcDbEntity
  8
PV
390
962
  6
CONTINUOUS
 62
           1
 48
25.39999961853
100
AcDbLine
 10
-152.941292826993
 20
25.49214156386
 30
0.0
 11
-258.0
 21
25.49214156386
 31
0.0
  0
LINE
  5
6A
100
AcDbEntity
  8
PV
390
962
  6
CONTINUOUS
 62
           1
 48
25.39999961853
100
AcDbLine
 10
-149.743469205041
 20
25.287845546155
 30
0.0
 11
-31.999999999999
 21
25.28784554616
 31
0.0
  0
LINE
  5
6B
100
AcDbEntity
  8
PV
390
962
  6
CONTINUOUS
 62
           1
 48
25.39999961853
100
AcDbLine
 10
-153.169468490574
 20
24.985084533679
 30
0.0
 11
-258.0
 21
24.98508453367
 31
0.0
  0
LINE
  5
6C
100
AcDbEntity
  8
PV
390
962
  6
CONTINUOUS
 62
          92
 48
25.39999961853
100
AcDbLine
 10
-280.0
 20
60.262194958813
 30
0.0
 11
-10.0
 21
60.262194958813
 31
0.0
  0
LINE
  5
6D
100
AcDbEntity
  8
PV
390
962
  6
CONTINUOUS
 62
          92
 48
25.39999961853
100
AcDbLine
 10
-280.0
 20
45.50000762939
 30
0.0
 11
-280.0
 21
62.548194958813
 31
0.0
  0
LINE
  5
6E
100
AcDbEntity
  8
PV
390
962
  6
CONTINUOUS
 62
          92
 48
25.39999961853
100
AcDbLine
 10
-10.0
 20
45.50000762939
 30
0.0
 11
-10.0
 21
62.548194958813
 31
0.0
  0
LINE
  5
6F
100
AcDbEntity
  8
PV
390
962
  6
CONTINUOUS
 62
           1
 48
25.39999961853
100
AcDbLine
 10
-183.679915252097
 20
-167.437235435639
 30
0.0
 11
-103.056970966356
 21
-167.437235435639
 31
0.0
  0
LINE
  5
70
100
AcDbEntity
  8
PV
390
962
  6
CONTINUOUS
 62
           1
 48
25.39999961853
100
AcDbLine
 10
-183.679915252097
 20
-185.828676307187
 30
0.0
 11
-103.056970966356
 21
-185.828676307187
 31
0.0
  0
LINE
  5
71
100
AcDbEntity
  8
PV
390
962
  6
CONTINUOUS
 62
           1
 48
25.39999961853
100
AcDbLine
 10
-183.679915252097
 20
-167.437235435639
 30
0.0
 11
-183.679915252097
 21
-185.828676307187
 31
0.0
  0
LINE
  5
72
100
AcDbEntity
  8
PV
390
962
  6
CONTINUOUS
 62
           1
 48
25.39999961853
100
AcDbLine
 10
-103.056970966356
 20
-167.437235435639
 30
0.0
 11
-103.056970966356
 21
-185.828676307187
 31
0.0
  0
LINE
  5
73
100
AcDbEntity
  8
PV
390
962
  6
CONTINUOUS
 62
           1
 48
25.39999961853
100
AcDbLine
 10
-183.679915252097
 20
-179.698196016671
 30
0.0
 11
-103.056970966356
 21
-179.698196016671
 31
0.0
  0
LINE
  5
74
100
AcDbEntity
  8
PV
390
962
  6
CONTINUOUS
 62
           1
 48
25.39999961853
100
AcDbLine
 10
-183.679915252097
 20
-173.567715726155
 30
0.0
 11
-103.056970966356
 21
-173.567715726155
 31
0.0
  0
LINE
  5
75
100
AcDbEntity
  8
PV
390
962
  6
CONTINUOUS
 62
           1
 48
25.39999961853
100
AcDbLine
 10
-137.368443109226
 20
-167.437235435639
 30
0.0
 11
-137.368443109226
 21
-185.828676307187
 31
0.0
  0
ARC
  5
76
100
AcDbEntity
  8
PV
390
962
  6
CONTINUOUS
 62
           1
 48
25.39999961853
100
AcDbCircle
 10
-29.999999999999
 20
17.50000762939
 30
0.0
 40
19.999999999996
100
AcDbArc
 50
270.000000000002
 51
360.000000000029
  0
ARC
  5
77
100
AcDbEntity
  8
PV
390
962
  6
CONTINUOUS
 62
           1
 48
25.39999961853
100
AcDbCircle
 10
-260.0
 20
17.50000762939
 30
0.0
 40
20.0
100
AcDbArc
 50
179.999999999972
 51
270.0
  0
LWPOLYLINE
  5
78
100
AcDbEntity
  8
PV
390
962
  6
CONTINUOUS
 62
           1
 48
25.39999961853
100
AcDbPolyline
 90
        3
 70
           0
 10
-30.005386763408
 20
45.50000762939
 10
-30.005401336064
 20
45.49736010228
 10
-30.005415877738
 20
45.494712575
  0
LWPOLYLINE
  5
7D
100
AcDbEntity
  8
PV
390
962
  6
CONTINUOUS
 62
           1
 48
25.39999961853
100
AcDbPolyline
 90
        9
 70
           0
 10
-32.0
 20
44.90060114172
 10
-31.850363891124
 20
44.97506797787
 10
-31.700943518319
 20
45.049968907719
 10
-31.551554553856
 20
45.124780791289
 10
-31.402124663773
 20
45.199509950956
 10
-31.252916637223
 20
45.274143973615
 10
-31.103766504802
 20
45.348894620378
 10
-30.954473454075
 20
45.423832177724
 10
-30.804953882739
 20
45.49831425209
  0
LWPOLYLINE
  5
88
100
AcDbEntity
  8
PV
390
962
  6
CONTINUOUS
 62
           1
 48
25.39999961853
100
AcDbPolyline
 90
        3
 70
           0
 10
-30.798105970938
 20
45.50000762939
 10
-30.801622037083
 20
45.499555103659
 10
-30.804953882739
 20
45.49831425209
  0
LWPOLYLINE
  5
8D
100
AcDbEntity
  8
PV
390
962
  6
CONTINUOUS
 62
           1
 48
25.39999961853
100
AcDbPolyline
 90
        3
 70
           0
 10
-30.006178595757
 20
45.34583272063
 10
-30.005811330604
 20
45.420272719806
 10
-30.005415877738
 20
45.494712575
  0
LWPOLYLINE
  5
92
100
AcDbEntity
  8
PV
390
962
  6
CONTINUOUS
 62
           1
 48
25.39999961853
100
AcDbPolyline
 90
        3
 70
           0
 10
-30.006605195967
 20
40.81328221765
 10
-30.009342896804
 20
43.079563740068
 10
-30.006178595757
 20
45.34583272063
  0
LWPOLYLINE
  5
97
100
AcDbEntity
  8
PV
390
962
  6
CONTINUOUS
 62
           1
 48
25.39999961853
100
AcDbPolyline
 90
        3
 70
           0
 10
-30.00366725418
 20
35.48770795116
 10
-30.005191777578
 20
38.150495055463
 10
-30.006605195967
 20
40.81328221765
  0
LWPOLYLINE
  5
9C
100
AcDbEntity
  8
PV
390
962
  6
CONTINUOUS
 62
           1
 48
25.39999961853
100
AcDbPolyline
 90
        3
 70
           0
 10
-29.999999999999
 20
24.5
 10
-30.001060758525
 20
29.993854193032
 10
-30.00366725418
 20
35.48770795116
  0
LWPOLYLINE
  5
A1
100
AcDbEntity
  8
PV
390
962
  6
CONTINUOUS
 62
           1
 48
25.39999961853
100
AcDbPolyline
 90
        9
 70
           0
 10
-258.0
 20
44.88206703689
 10
-258.154295629456
 20
44.958792677439
 10
-258.308332608878
 20
45.036039328171
 10
-258.462359784005
 20
45.11318034433
 10
-258.616438806966
 20
45.190216433681
 10
-258.77025232401
 20
45.26714287669
 10
-258.923989036922
 20
45.344224109593
 10
-259.07781466758
 20
45.421511611101
 10
-259.2319171279
 20
45.49824197548
  0
LWPOLYLINE
  5
AC
100
AcDbEntity
  8
PV
390
962
  6
CONTINUOUS
 62
           1
 48
25.39999961853
100
AcDbPolyline
 90
        3
 70
           0
 10
-259.2390712383
 20
45.50000762939
 10
-259.235398292886
 20
45.499535873665
 10
-259.2319171279
 20
45.49824197548
  0
LWPOLYLINE
  5
B1
100
AcDbEntity
  8
PV
390
962
  6
CONTINUOUS
 62
           1
 48
25.39999961853
100
AcDbPolyline
 90
        3
 70
           0
 10
-260.0
 20
24.5
 10
-259.995992444865
 20
34.964654938081
 10
-259.992130003
 20
45.42930987415
  0
LWPOLYLINE
  5
B6
100
AcDbEntity
  8
PV
390
962
  6
CONTINUOUS
 62
           1
 48
25.39999961853
100
AcDbPolyline
 90
        3
 70
           0
 10
-259.9921324824
 20
45.50000762939
 10
-259.992131112516
 20
45.464658751775
 10
-259.992130003
 20
45.42930987415
  0
TEXT
  5
BB
100
AcDbEntity
  8
PV
390
962
  6
CONTINUOUS
 62
           1
 48
25.39999961853
100
AcDbText
 10
-196.216232025666
 20
-114.0224836532
 30
0.0
 40
3.0
  1
L                 TYPE
 41
0.833333333333
  7
MICROCADAM
100
AcDbText
  0
TEXT
  5
BC
100
AcDbEntity
  8
PV
390
962
  6
CONTINUOUS
 62
          92
 48
25.39999961853
100
AcDbText
 10
-201.582812121684
 20
-125.52027112119
 30
0.0
 40
3.0
  1
34 cm    one Master
 41
0.833333333333
  7
MICROCADAM
100
AcDbText
  0
TEXT
  5
BD
100
AcDbEntity
  8
PV
390
962
  6
CONTINUOUS
 62
          92
 48
25.39999961853
100
AcDbText
 10
-201.582812121684
 20
-136.680693842458
 30
0.0
 40
3.0
  1
70 cm    one Master + one Slave
 41
0.833333333333
  7
MICROCADAM
100
AcDbText
  0
TEXT
  5
BE
100
AcDbEntity
  8
PV
390
962
  6
CONTINUOUS
 62
          92
 48
25.39999961853
100
AcDbText
 10
-201.582812121684
 20
-147.841116563727
 30
0.0
 40
3.0
  1
90 cm    one Master + one Slave
 41
0.833333333333
  7
MICROCADAM
100
AcDbText
  0
TEXT
  5
BF
100
AcDbEntity
  8
PV
390
962
  6
CONTINUOUS
 62
          92
 48
25.39999961853
100
AcDbText
 10
-201.582812121684
 20
-159.001539284995
 30
0.0
 40
3.0
  1
90 cm    one Master + two Slave
 41
0.833333333333
  7
MICROCADAM
100
AcDbText
  0
TEXT
  5
C0
100
AcDbEntity
  8
PV
390
962
  6
CONTINUOUS
 62
          92
 48
25.39999961853
100
AcDbText
 10
-145.75
 20
62.762194958813
 30
0.0
 40
3.0
  1
L
 41
0.833333333333
  7
MICROCADAM
100
AcDbText
  0
TEXT
  5
C1
100
AcDbEntity
  8
PV
390
962
  6
CONTINUOUS
 62
           1
 48
25.39999961853
100
AcDbText
 10
-182.179915252097
 20
-178.132955871413
 30
0.0
 40
3.0
  1
Master electronic
 41
0.833333333333
  7
MICROCADAM
100
AcDbText
  0
TEXT
  5
C2
100
AcDbEntity
  8
PV
390
962
  6
CONTINUOUS
 62
           1
 48
25.39999961853
100
AcDbText
 10
-182.179915252097
 20
-184.263436161929
 30
0.0
 40
3.0
  1
Slave electronic
 41
0.833333333333
  7
MICROCADAM
100
AcDbText
  0
TEXT
  5
C3
100
AcDbEntity
  8
PV
390
962
  6
CONTINUOUS
 62
           1
 48
25.39999961853
100
AcDbText
 10
-128.861008491942
 20
-171.931190926356
 30
0.0
 40
3.0
  1
Lenght
 41
0.833333333333
  7
MICROCADAM
100
AcDbText
  0
TEXT
  5
C4
100
AcDbEntity
  8
PV
390
962
  6
CONTINUOUS
 62
          92
 48
25.39999961853
100
AcDbText
 10
-135.868443109226
 20
-178.132955871413
 30
0.0
 40
3.0
  1
± 29 cm
 41
0.833333333333
  7
MICROCADAM
100
AcDbText
  0
TEXT
  5
C5
100
AcDbEntity
  8
PV
390
962
  6
CONTINUOUS
 62
          92
 48
25.39999961853
100
AcDbText
 10
-135.868443109226
 20
-184.263436161929
 30
0.0
 40
3.0
  1
± 23,5 cm
 41
0.833333333333
  7
MICROCADAM
100
AcDbText
  0
LINE
  5
C6
100
AcDbEntity
  8
EV
390
962
  6
CONTINUOUS
 62
           1
 48
25.39999961853
100
AcDbLine
 10
-31.999999999999
 20
-73.53067250364
 30
0.0
 11
-30.006605195967
 21
-74.46664100257
 31
0.0
  0
LINE
  5
C7
100
AcDbEntity
  8
EV
390
962
  6
CONTINUOUS
 62
           1
 48
25.39999961853
100
AcDbLine
 10
-31.999999999999
 20
-76.43706912264
 30
0.0
 11
-30.00366725418
 21
-77.46743806768
 31
0.0
  0
LINE
  5
C8
100
AcDbEntity
  8
EV
390
962
  6
CONTINUOUS
 62
           1
 48
25.39999961853
100
AcDbLine
 10
-31.999999999999
 20
-69.47260174664
 30
0.0
 11
-30.006178595757
 21
-70.25488286409
 31
0.0
  0
LINE
  5
C9
100
AcDbEntity
  8
EV
390
962
  6
CONTINUOUS
 62
           1
 48
25.39999961853
100
AcDbLine
 10
-29.986498047342
 20
-69.47260174664
 30
0.0
 11
-30.005386763408
 21
-70.07147633411
 31
0.0
  0
LINE
  5
CA
100
AcDbEntity
  8
EV
390
962
  6
CONTINUOUS
 62
           1
 48
25.39999961853
100
AcDbLine
 10
-31.999999999999
 20
-69.47260174664
 30
0.0
 11
-29.986498047342
 21
-69.47260174664
 31
0.0
  0
LINE
  5
CB
100
AcDbEntity
  8
EV
390
962
  6
CONTINUOUS
 62
           1
 48
25.39999961853
100
AcDbLine
 10
-31.999999999999
 20
-73.53067250364
 30
0.0
 11
-31.999999999999
 21
-78.50423679451
 31
0.0
  0
LINE
  5
CC
100
AcDbEntity
  8
EV
390
962
  6
CONTINUOUS
 62
           1
 48
25.39999961853
100
AcDbLine
 10
-31.170709693886
 20
-30.0
 30
0.0
 11
-32.0
 21
-30.414645153057
 31
0.0
  0
LINE
  5
CD
100
AcDbEntity
  8
EV
390
962
  6
CONTINUOUS
 62
           1
 48
25.39999961853
100
AcDbLine
 10
-32.0
 20
-31.413288568236
 30
0.0
 11
-30.995423140418
 21
-31.04182419866
 31
0.0
  0
LINE
  5
CE
100
AcDbEntity
  8
EV
390
962
  6
CONTINUOUS
 62
           1
 48
25.39999961853
100
AcDbLine
 10
-31.999999999999
 20
-73.53067250364
 30
0.0
 11
-32.0
 21
-30.414645153057
 31
0.0
  0
LINE
  5
CF
100
AcDbEntity
  8
EV
390
962
  6
CONTINUOUS
 62
           1
 48
25.39999961853
100
AcDbLine
 10
-10.0
 20
-30.0
 30
0.0
 11
-10.0
 21
-50.07222879269
 31
0.0
  0
LINE
  5
D0
100
AcDbEntity
  8
EV
390
962
  6
CONTINUOUS
 62
           1
 48
25.39999961853
100
AcDbLine
 10
-10.0
 20
-34.0
 30
0.0
 11
-32.0
 21
-34.0
 31
0.0
  0
LINE
  5
D1
100
AcDbEntity
  8
EV
390
962
  6
CONTINUOUS
 62
           1
 48
25.39999961853
100
AcDbLine
 10
-10.0
 20
-30.0
 30
0.0
 11
-31.170709693886
 21
-30.0
 31
0.0
  0
LINE
  5
D2
100
AcDbEntity
  8
EV
390
962
  6
CONTINUOUS
 62
           1
 48
25.39999961853
100
AcDbLine
 10
-30.0
 20
-70.07222879269
 30
0.0
 11
-30.005386763408
 21
-70.07147633411
 31
0.0
  0
LINE
  5
D3
100
AcDbEntity
  8
EV
390
962
  6
CONTINUOUS
 62
           1
 48
25.39999961853
100
AcDbLine
 10
-258.0
 20
-76.99499518265
 30
0.0
 11
-165.000420448086
 21
-76.99499518265
 31
0.0
  0
LINE
  5
D4
100
AcDbEntity
  8
EV
390
962
  6
CONTINUOUS
 62
           1
 48
25.39999961853
100
AcDbLine
 10
-31.170709693886
 20
-30.0
 30
0.0
 11
-140.562915785974
 21
-29.999999999999
 31
0.0
  0
LINE
  5
D5
100
AcDbEntity
  8
EV
390
962
  6
CONTINUOUS
 62
           1
 48
25.39999961853
100
AcDbLine
 10
-32.0
 20
-35.0
 30
0.0
 11
-142.812915785974
 21
-34.999999999999
 31
0.0
  0
LINE
  5
D6
100
AcDbEntity
  8
EV
390
962
  6
CONTINUOUS
 62
           1
 48
25.39999961853
100
AcDbLine
 10
-31.999999999999
 20
-67.16862487793
 30
0.0
 11
-157.288796981043
 21
-67.16862487793
 31
0.0
  0
LINE
  5
D7
100
AcDbEntity
  8
EV
390
962
  6
CONTINUOUS
 62
           1
 48
25.39999961853
100
AcDbLine
 10
-31.999999999999
 20
-69.19085079544
 30
0.0
 11
-158.198798643922
 21
-69.19085079544
 31
0.0
  0
LINE
  5
D8
100
AcDbEntity
  8
EV
390
962
  6
CONTINUOUS
 62
           1
 48
25.39999961853
100
AcDbLine
 10
-31.999999999999
 20
-76.99494903797
 30
0.0
 11
-161.710642853061
 21
-76.99494903797
 31
0.0
  0
LINE
  5
D9
100
AcDbEntity
  8
EV
390
962
  6
CONTINUOUS
 62
           1
 48
25.39999961853
100
AcDbLine
 10
-260.0
 20
-70.07222879269
 30
0.0
 11
-260.0
 21
-79.51189036137
 31
0.0
  0
LINE
  5
DA
100
AcDbEntity
  8
EV
390
962
  6
CONTINUOUS
 62
           1
 48
25.39999961853
100
AcDbLine
 10
-258.0
 20
-31.081767142881
 30
0.0
 11
-258.9993458735
 21
-30.66518836167
 31
0.0
  0
LINE
  5
DB
100
AcDbEntity
  8
EV
390
962
  6
CONTINUOUS
 62
           1
 48
25.39999961853
100
AcDbLine
 10
-258.856524743
 20
-30.0
 30
0.0
 11
-258.0
 21
-30.428262371496
 31
0.0
  0
LINE
  5
DC
100
AcDbEntity
  8
EV
390
962
  6
CONTINUOUS
 62
           1
 48
25.39999961853
100
AcDbLine
 10
-258.0
 20
-69.39859473476
 30
0.0
 11
-259.9443959925
 21
-69.39859473476
 31
0.0
  0
LINE
  5
DD
100
AcDbEntity
  8
EV
390
962
  6
CONTINUOUS
 62
           1
 48
25.39999961853
100
AcDbLine
 10
-259.9921324824
 20
-70.07112980603
 30
0.0
 11
-259.9443959925
 21
-69.39859473476
 31
0.0
  0
LINE
  5
DE
100
AcDbEntity
  8
EV
390
962
  6
CONTINUOUS
 62
           1
 48
25.39999961853
100
AcDbLine
 10
-258.0
 20
-69.39859473476
 30
0.0
 11
-259.992130003
 21
-70.15570775439
 31
0.0
  0
LINE
  5
DF
100
AcDbEntity
  8
EV
390
962
  6
CONTINUOUS
 62
           1
 48
25.39999961853
100
AcDbLine
 10
-258.0
 20
-30.428262371496
 30
0.0
 11
-258.0
 21
-34.0
 31
0.0
  0
LINE
  5
E0
100
AcDbEntity
  8
EV
390
962
  6
CONTINUOUS
 62
           1
 48
25.39999961853
100
AcDbLine
 10
-258.0
 20
-34.0
 30
0.0
 11
-258.0
 21
-78.50424172816
 31
0.0
  0
LINE
  5
E1
100
AcDbEntity
  8
EV
390
962
  6
CONTINUOUS
 62
           1
 48
25.39999961853
100
AcDbLine
 10
-280.0
 20
-30.0
 30
0.0
 11
-280.0
 21
-50.07222879269
 31
0.0
  0
LINE
  5
E2
100
AcDbEntity
  8
EV
390
962
  6
CONTINUOUS
 62
           1
 48
25.39999961853
100
AcDbLine
 10
-280.0
 20
-34.0
 30
0.0
 11
-258.0
 21
-34.0
 31
0.0
  0
LINE
  5
E3
100
AcDbEntity
  8
EV
390
962
  6
CONTINUOUS
 62
           1
 48
25.39999961853
100
AcDbLine
 10
-280.0
 20
-30.0
 30
0.0
 11
-258.856524743
 21
-30.0
 31
0.0
  0
LINE
  5
E4
100
AcDbEntity
  8
EV
390
962
  6
CONTINUOUS
 62
           1
 48
25.39999961853
100
AcDbLine
 10
-260.0
 20
-70.07222879269
 30
0.0
 11
-259.9921324824
 21
-70.07112980603
 31
0.0
  0
LINE
  5
E5
100
AcDbEntity
  8
EV
390
962
  6
CENTER
 62
          92
 48
25.39999961853
100
AcDbLine
 10
-137.216681702282
 20
-22.563924258461
 30
0.0
 11
-164.811133485637
 21
-83.884928221473
 31
0.0
  0
LINE
  5
E6
100
AcDbEntity
  8
EV
390
962
  6
CENTER
 62
          92
 48
25.39999961853
100
AcDbLine
 10
-139.952446217807
 20
-21.332830226475
 30
0.0
 11
-167.546898001163
 21
-82.653834189487
 31
0.0
  0
LINE
  5
E7
100
AcDbEntity
  8
EV
390
962
  6
CONTINUOUS
 62
           1
 48
25.39999961853
100
AcDbLine
 10
-146.102672615893
 20
-34.999999999998
 30
0.0
 11
-258.0
 21
-34.999999999997
 31
0.0
  0
LINE
  5
E8
100
AcDbEntity
  8
EV
390
962
  6
CONTINUOUS
 62
           1
 48
25.39999961853
100
AcDbLine
 10
-143.852672615893
 20
-29.999999999999
 30
0.0
 11
-258.856524743
 21
-29.999999999997
 31
0.0
  0
LINE
  5
E9
100
AcDbEntity
  8
EV
390
962
  6
CONTINUOUS
 62
           1
 48
25.39999961853
100
AcDbLine
 10
-161.488555473842
 20
-69.19085079544
 30
0.0
 11
-258.0
 21
-69.19085079544
 31
0.0
  0
LINE
  5
EA
100
AcDbEntity
  8
EV
390
962
  6
CONTINUOUS
 62
           1
 48
25.39999961853
100
AcDbLine
 10
-160.578553810962
 20
-67.16862487793
 30
0.0
 11
-258.0
 21
-67.16862487793
 31
0.0
  0
LINE
  5
EB
100
AcDbEntity
  8
EV
390
962
  6
CONTINUOUS
 62
          92
 48
25.39999961853
100
AcDbLine
 10
-45.0
 20
-21.795728780915
 30
0.0
 11
-10.0
 21
-21.795728780915
 31
0.0
  0
LINE
  5
EC
100
AcDbEntity
  8
EV
390
962
  6
CONTINUOUS
 62
          92
 48
25.39999961853
100
AcDbLine
 10
-10.0
 20
-30.0
 30
0.0
 11
-10.0
 21
-19.509728780915
 31
0.0
  0
LINE
  5
ED
100
AcDbEntity
  8
EV
390
962
  6
CONTINUOUS
 62
          92
 48
25.39999961853
100
AcDbLine
 10
-245.0
 20
-21.795728780915
 30
0.0
 11
-45.0
 21
-21.795728780915
 31
0.0
  0
LINE
  5
EE
100
AcDbEntity
  8
EV
390
962
  6
CONTINUOUS
 62
          92
 48
25.39999961853
100
AcDbLine
 10
-245.0
 20
-21.13292648137
 30
0.0
 11
-245.0
 21
-24.081728780915
 31
0.0
  0
LINE
  5
EF
100
AcDbEntity
  8
EV
390
962
  6
CONTINUOUS
 62
          92
 48
25.39999961853
100
AcDbLine
 10
-45.0
 20
-21.13292648137
 30
0.0
 11
-45.0
 21
-24.081728780915
 31
0.0
  0
LINE
  5
F0
100
AcDbEntity
  8
EV
390
962
  6
CONTINUOUS
 62
          92
 48
25.39999961853
100
AcDbLine
 10
-245.0
 20
-21.795728780915
 30
0.0
 11
-280.0
 21
-21.795728780915
 31
0.0
  0
LINE
  5
F1
100
AcDbEntity
  8
EV
390
962
  6
CONTINUOUS
 62
          92
 48
25.39999961853
100
AcDbLine
 10
-280.0
 20
-30.0
 30
0.0
 11
-280.0
 21
-19.509728780915
 31
0.0
  0
LINE
  5
F2
100
AcDbEntity
  8
EV
390
962
  6
DASHED
 62
         142
 48
25.39999961853
100
AcDbLine
 10
-37.672161001232
 20
-30.0
 30
0.0
 11
-51.394828647997
 21
-30.0
 31
0.0
  0
LINE
  5
F3
100
AcDbEntity
  8
EV
390
962
  6
DASHED
 62
         142
 48
25.39999961853
100
AcDbLine
 10
-53.488342285156
 20
-32.0
 30
0.0
 11
-45.288696289063
 21
-32.0
 31
0.0
  0
LINE
  5
F4
100
AcDbEntity
  8
EV
390
962
  6
DASHED
 62
         142
 48
25.39999961853
100
AcDbLine
 10
-45.0
 20
-31.5
 30
0.0
 11
-45.288696289062
 21
-32.0
 31
0.0
  0
LINE
  5
F5
100
AcDbEntity
  8
EV
390
962
  6
DASHED
 62
         142
 48
25.39999961853
100
AcDbLine
 10
-45.0
 20
-31.5
 30
0.0
 11
-44.711303710937
 21
-32.0
 31
0.0
  0
LINE
  5
F6
100
AcDbEntity
  8
EV
390
962
  6
DASHED
 62
         142
 48
25.39999961853
100
AcDbLine
 10
-44.711303710938
 20
-32.0
 30
0.0
 11
-35.283917747272
 21
-32.0
 31
0.0
  0
LINE
  5
F7
100
AcDbEntity
  8
EV
390
962
  6
CONTINUOUS
 62
          23
 48
25.39999961853
100
AcDbLine
 10
-42.899993896484
 20
-14.233489990234
 30
0.0
 11
-42.899993896484
 21
-32.0
 31
0.0
  0
LINE
  5
F8
100
AcDbEntity
  8
EV
390
962
  6
CONTINUOUS
 62
          23
 48
25.39999961853
100
AcDbLine
 10
-43.5
 20
-12.18229675293
 30
0.0
 11
-43.5
 21
-32.0
 31
0.0
  0
LINE
  5
F9
100
AcDbEntity
  8
EV
390
962
  6
CONTINUOUS
 62
          23
 48
25.39999961853
100
AcDbLine
 10
-47.099975585938
 20
-14.233489990234
 30
0.0
 11
-47.099975585938
 21
-32.0
 31
0.0
  0
LINE
  5
FA
100
AcDbEntity
  8
EV
390
962
  6
CONTINUOUS
 62
          23
 48
25.39999961853
100
AcDbLine
 10
-46.5
 20
-12.18229675293
 30
0.0
 11
-46.5
 21
-32.0
 31
0.0
  0
LINE
  5
FB
100
AcDbEntity
  8
EV
390
962
  6
DASHED
 62
          23
 48
25.39999961853
100
AcDbLine
 10
-49.099975585938
 20
-32.0
 30
0.0
 11
-40.899993896484
 21
-32.0
 31
0.0
  0
LINE
  5
FC
100
AcDbEntity
  8
EV
390
962
  6
DASHED
 62
          23
 48
25.39999961853
100
AcDbLine
 10
-40.899993896484
 20
-32.0
 30
0.0
 11
-40.899993896484
 21
-32.950012207031
 31
0.0
  0
LINE
  5
FD
100
AcDbEntity
  8
EV
390
962
  6
DASHED
 62
          23
 48
25.39999961853
100
AcDbLine
 10
-42.399993896484
 20
-34.450012207031
 30
0.0
 11
-44.5
 21
-34.450012207031
 31
0.0
  0
LINE
  5
FE
100
AcDbEntity
  8
EV
390
962
  6
DASHED
 62
          23
 48
25.39999961853
100
AcDbLine
 10
-44.5
 20
-33.7509765625
 30
0.0
 11
-45.5
 21
-33.7509765625
 31
0.0
  0
LINE
  5
FF
100
AcDbEntity
  8
EV
390
962
  6
DASHED
 62
          23
 48
25.39999961853
100
AcDbLine
 10
-44.5
 20
-34.450012207031
 30
0.0
 11
-44.5
 21
-33.7509765625
 31
0.0
  0
LINE
  5
100
100
AcDbEntity
  8
EV
390
962
  6
DASHED
 62
          23
 48
25.39999961853
100
AcDbLine
 10
-45.5
 20
-34.450012207031
 30
0.0
 11
-45.5
 21
-33.7509765625
 31
0.0
  0
LINE
  5
101
100
AcDbEntity
  8
EV
390
962
  6
DASHED
 62
          23
 48
25.39999961853
100
AcDbLine
 10
-45.5
 20
-34.450012207031
 30
0.0
 11
-47.599975585938
 21
-34.450012207031
 31
0.0
  0
LINE
  5
102
100
AcDbEntity
  8
EV
390
962
  6
DASHED
 62
          23
 48
25.39999961853
100
AcDbLine
 10
-49.099975585938
 20
-32.0
 30
0.0
 11
-49.099975585938
 21
-32.950012207031
 31
0.0
  0
LINE
  5
103
100
AcDbEntity
  8
EV
390
962
  6
CENTER
 62
          92
 48
25.39999961853
100
AcDbLine
 10
-45.0
 20
-36.908889770508
 30
0.0
 11
-45.0
 21
-8.955932617187
 31
0.0
  0
LINE
  5
104
100
AcDbEntity
  8
EV
390
962
  6
CONTINUOUS
 62
          23
 48
25.39999961853
100
AcDbLine
 10
-42.899993896484
 20
-14.233489990234
 30
0.0
 11
-47.099975585938
 21
-14.233489990234
 31
0.0
  0
LINE
  5
105
100
AcDbEntity
  8
EV
390
962
  6
DASHED
 62
         142
 48
25.39999961853
100
AcDbLine
 10
-237.672161001232
 20
-29.999999999997
 30
0.0
 11
-251.394828647997
 21
-29.999999999997
 31
0.0
  0
LINE
  5
106
100
AcDbEntity
  8
EV
390
962
  6
DASHED
 62
         142
 48
25.39999961853
100
AcDbLine
 10
-253.488342285156
 20
-31.999999999997
 30
0.0
 11
-245.288696289063
 21
-31.999999999997
 31
0.0
  0
LINE
  5
107
100
AcDbEntity
  8
EV
390
962
  6
DASHED
 62
         142
 48
25.39999961853
100
AcDbLine
 10
-245.0
 20
-31.499999999997
 30
0.0
 11
-245.288696289063
 21
-31.999999999997
 31
0.0
  0
LINE
  5
108
100
AcDbEntity
  8
EV
390
962
  6
DASHED
 62
         142
 48
25.39999961853
100
AcDbLine
 10
-245.0
 20
-31.499999999998
 30
0.0
 11
-244.711303710938
 21
-31.999999999997
 31
0.0
  0
LINE
  5
109
100
AcDbEntity
  8
EV
390
962
  6
DASHED
 62
         142
 48
25.39999961853
100
AcDbLine
 10
-244.711303710938
 20
-31.999999999997
 30
0.0
 11
-235.283917747272
 21
-31.999999999997
 31
0.0
  0
LINE
  5
10A
100
AcDbEntity
  8
EV
390
962
  6
CONTINUOUS
 62
          23
 48
25.39999961853
100
AcDbLine
 10
-242.899993896484
 20
-14.233489990232
 30
0.0
 11
-242.899993896484
 21
-31.999999999997
 31
0.0
  0
LINE
  5
10B
100
AcDbEntity
  8
EV
390
962
  6
CONTINUOUS
 62
          23
 48
25.39999961853
100
AcDbLine
 10
-243.5
 20
-12.182296752927
 30
0.0
 11
-243.5
 21
-31.999999999997
 31
0.0
  0
LINE
  5
10C
100
AcDbEntity
  8
EV
390
962
  6
CONTINUOUS
 62
          23
 48
25.39999961853
100
AcDbLine
 10
-247.099975585938
 20
-14.233489990232
 30
0.0
 11
-247.099975585938
 21
-31.999999999997
 31
0.0
  0
LINE
  5
10D
100
AcDbEntity
  8
EV
390
962
  6
CONTINUOUS
 62
          23
 48
25.39999961853
100
AcDbLine
 10
-246.5
 20
-12.182296752927
 30
0.0
 11
-246.5
 21
-31.999999999997
 31
0.0
  0
LINE
  5
10E
100
AcDbEntity
  8
EV
390
962
  6
DASHED
 62
          23
 48
25.39999961853
100
AcDbLine
 10
-249.099975585938
 20
-31.999999999997
 30
0.0
 11
-240.899993896484
 21
-31.999999999997
 31
0.0
  0
LINE
  5
10F
100
AcDbEntity
  8
EV
390
962
  6
DASHED
 62
          23
 48
25.39999961853
100
AcDbLine
 10
-240.899993896484
 20
-31.999999999997
 30
0.0
 11
-240.899993896484
 21
-32.950012207029
 31
0.0
  0
LINE
  5
110
100
AcDbEntity
  8
EV
390
962
  6
DASHED
 62
          23
 48
25.39999961853
100
AcDbLine
 10
-242.399993896484
 20
-34.450012207029
 30
0.0
 11
-244.5
 21
-34.450012207029
 31
0.0
  0
LINE
  5
111
100
AcDbEntity
  8
EV
390
962
  6
DASHED
 62
          23
 48
25.39999961853
100
AcDbLine
 10
-244.5
 20
-33.750976562497
 30
0.0
 11
-245.5
 21
-33.750976562497
 31
0.0
  0
LINE
  5
112
100
AcDbEntity
  8
EV
390
962
  6
DASHED
 62
          23
 48
25.39999961853
100
AcDbLine
 10
-244.5
 20
-34.450012207029
 30
0.0
 11
-244.5
 21
-33.750976562497
 31
0.0
  0
LINE
  5
113
100
AcDbEntity
  8
EV
390
962
  6
DASHED
 62
          23
 48
25.39999961853
100
AcDbLine
 10
-245.5
 20
-34.450012207029
 30
0.0
 11
-245.5
 21
-33.750976562497
 31
0.0
  0
LINE
  5
114
100
AcDbEntity
  8
EV
390
962
  6
DASHED
 62
          23
 48
25.39999961853
100
AcDbLine
 10
-245.5
 20
-34.450012207029
 30
0.0
 11
-247.599975585938
 21
-34.450012207029
 31
0.0
  0
LINE
  5
115
100
AcDbEntity
  8
EV
390
962
  6
DASHED
 62
          23
 48
25.39999961853
100
AcDbLine
 10
-249.099975585938
 20
-31.999999999997
 30
0.0
 11
-249.099975585938
 21
-32.950012207029
 31
0.0
  0
LINE
  5
116
100
AcDbEntity
  8
EV
390
962
  6
CENTER
 62
          92
 48
25.39999961853
100
AcDbLine
 10
-245.0
 20
-36.908889770505
 30
0.0
 11
-245.0
 21
-8.955932617185
 31
0.0
  0
LINE
  5
117
100
AcDbEntity
  8
EV
390
962
  6
CONTINUOUS
 62
          23
 48
25.39999961853
100
AcDbLine
 10
-242.899993896484
 20
-14.233489990232
 30
0.0
 11
-247.099975585938
 21
-14.233489990232
 31
0.0
  0
ARC
  5
118
100
AcDbEntity
  8
EV
390
962
  6
CONTINUOUS
 62
           1
 48
25.39999961853
100
AcDbCircle
 10
-29.999999999999
 20
-59.5
 30
0.0
 40
20.0
100
AcDbArc
 50
270.000000000002
 51
360.0
  0
ARC
  5
119
100
AcDbEntity
  8
EV
390
962
  6
CONTINUOUS
 62
           1
 48
25.39999961853
100
AcDbCircle
 10
-30.0
 20
-50.07222879269
 30
0.0
 40
20.0
100
AcDbArc
 50
270.000000000001
 51
360.0
  0
ARC
  5
11A
100
AcDbEntity
  8
EV
390
962
  6
CONTINUOUS
 62
           1
 48
25.39999961853
100
AcDbCircle
 10
-260.0
 20
-50.07222879269
 30
0.0
 40
20.0
100
AcDbArc
 50
180.0
 51
269.999999999999
  0
ARC
  5
11B
100
AcDbEntity
  8
EV
390
962
  6
DASHED
 62
          23
 48
25.39999961853
100
AcDbCircle
 10
-42.399993896484
 20
-32.950012207031
 30
0.0
 40
1.5
100
AcDbArc
 50
270.001419996102
 51
0.000951217528
  0
ARC
  5
11C
100
AcDbEntity
  8
EV
390
962
  6
CONTINUOUS
 62
          23
 48
25.39999961853
100
AcDbCircle
 10
-50.388854980469
 20
-15.31071472168
 30
0.0
 40
7.565946578979
100
AcDbArc
 50
8.186386522654
 51
44.582196986848
  0
ARC
  5
11D
100
AcDbEntity
  8
EV
390
962
  6
CONTINUOUS
 62
          23
 48
25.39999961853
100
AcDbCircle
 10
-39.611114501953
 20
-15.31071472168
 30
0.0
 40
7.565946578979
100
AcDbArc
 50
135.418750815585
 51
171.814568109968
  0
ARC
  5
11E
100
AcDbEntity
  8
EV
390
962
  6
DASHED
 62
          23
 48
25.39999961853
100
AcDbCircle
 10
-47.599975585938
 20
-32.950012207031
 30
0.0
 40
1.5
100
AcDbArc
 50
180.0
 51
269.999524391236
  0
ARC
  5
11F
100
AcDbEntity
  8
EV
390
962
  6
DASHED
 62
          23
 48
25.39999961853
100
AcDbCircle
 10
-242.399993896484
 20
-32.950012207029
 30
0.0
 40
1.5
100
AcDbArc
 50
270.001419996102
 51
0.000951217528
  0
ARC
  5
120
100
AcDbEntity
  8
EV
390
962
  6
CONTINUOUS
 62
          23
 48
25.39999961853
100
AcDbCircle
 10
-250.388854980469
 20
-15.310714721677
 30
0.0
 40
7.565946578979
100
AcDbArc
 50
8.186386522654
 51
44.582196986848
  0
ARC
  5
121
100
AcDbEntity
  8
EV
390
962
  6
CONTINUOUS
 62
          23
 48
25.39999961853
100
AcDbCircle
 10
-239.611114501953
 20
-15.310714721677
 30
0.0
 40
7.565946578979
100
AcDbArc
 50
135.418750815585
 51
171.814568109968
  0
ARC
  5
122
100
AcDbEntity
  8
EV
390
962
  6
DASHED
 62
          23
 48
25.39999961853
100
AcDbCircle
 10
-247.599975585938
 20
-32.950012207029
 30
0.0
 40
1.5
100
AcDbArc
 50
180.0
 51
269.999524391236
  0
LWPOLYLINE
  5
123
100
AcDbEntity
  8
EV
390
962
  6
CONTINUOUS
 62
           1
 48
25.39999961853
100
AcDbPolyline
 90
        3
 70
           0
 10
-30.005386763408
 20
-70.07147633411
 10
-30.005399233797
 20
-70.074195794066
 10
-30.005411684937
 20
-70.07691525411
  0
LWPOLYLINE
  5
128
100
AcDbEntity
  8
EV
390
962
  6
CONTINUOUS
 62
           1
 48
25.39999961853
100
AcDbPolyline
 90
        7
 70
           0
 10
-31.999999999999
 20
-78.50423679451
 10
-31.749919654734
 20
-78.629860750043
 10
-31.500005571312
 20
-78.755815887499
 10
-31.249995100784
 20
-78.8817593574
 10
-31.000008400353
 20
-79.007749864354
 10
-30.500188766449
 20
-79.260183444613
 10
-30.000023465266
 20
-79.51192926441
  0
LWPOLYLINE
  5
131
100
AcDbEntity
  8
EV
390
962
  6
CONTINUOUS
 62
           1
 48
25.39999961853
100
AcDbPolyline
 90
        5
 70
           0
 10
-29.999999999999
 20
-79.5
 10
-30.000372499909
 20
-79.503867295735
 10
-30.000005936281
 20
-79.508970304834
 10
-29.999491896484
 20
-79.511310702138
 10
-30.000023465266
 20
-79.51192926441
  0
LWPOLYLINE
  5
138
100
AcDbEntity
  8
EV
390
962
  6
CONTINUOUS
 62
           1
 48
25.39999961853
100
AcDbPolyline
 90
        3
 70
           0
 10
-30.006178595757
 20
-70.25488286409
 10
-30.005807652782
 20
-70.165899005375
 10
-30.005411684937
 20
-70.07691525411
  0
LWPOLYLINE
  5
13D
100
AcDbEntity
  8
EV
390
962
  6
CONTINUOUS
 62
           1
 48
25.39999961853
100
AcDbPolyline
 90
        3
 70
           0
 10
-30.006605195967
 20
-74.46664100257
 10
-30.008850380786
 20
-72.360757808955
 10
-30.006178595757
 20
-70.25488286409
  0
LWPOLYLINE
  5
142
100
AcDbEntity
  8
EV
390
962
  6
CONTINUOUS
 62
           1
 48
25.39999961853
100
AcDbPolyline
 90
        3
 70
           0
 10
-30.00366725418
 20
-77.46743806768
 10
-30.005393915741
 20
-75.967039793014
 10
-30.006605195967
 20
-74.46664100257
  0
LWPOLYLINE
  5
147
100
AcDbEntity
  8
EV
390
962
  6
CONTINUOUS
 62
           1
 48
25.39999961853
100
AcDbPolyline
 90
       29
 70
           0
 10
-30.00366725418
 20
-77.46743806768
 10
-30.00336490184
 20
-77.686945360159
 10
-30.003047773716
 20
-77.906452648477
 10
-30.002748326016
 20
-78.104665707741
 10
-30.002435651642
 20
-78.302878674548
 10
-30.002148817132
 20
-78.477340646147
 10
-30.001850638315
 20
-78.651802825943
 10
-30.001587510198
 20
-78.800057650485
 10
-30.001312484088
 20
-78.948311782707
 10
-30.001190442889
 20
-79.011843051831
 10
-30.001067151122
 20
-79.075375150618
 10
-30.000957274323
 20
-79.131434887944
 10
-30.000840939315
 20
-79.187492224889
 10
-30.000734251258
 20
-79.235766961569
 10
-30.000636317459
 20
-79.284048840526
 10
-30.000563911325
 20
-79.324250062214
 10
-30.000455754351
 20
-79.364430832535
 10
-30.00033676417
 20
-79.396200200312
 10
-30.000301718783
 20
-79.428024035922
 10
-30.000344987373
 20
-79.451183712631
 10
-30.00017667955
 20
-79.474214285693
 10
-30.000051151828
 20
-79.482339898512
 10
-30.000125805057
 20
-79.490591376412
 10
-30.000324149277
 20
-79.496625836464
 10
-30.000083105446
 20
-79.502387416854
 10
-29.999660500474
 20
-79.505702391956
 10
-30.000048889316
 20
-79.509525636395
 10
-30.000433255696
 20
-79.510972602673
 10
-30.000023465266
 20
-79.51192926441
  0
LWPOLYLINE
  5
166
100
AcDbEntity
  8
EV
390
962
  6
CONTINUOUS
 62
           1
 48
25.39999961853
100
AcDbPolyline
 90
       13
 70
           0
 10
-31.170709693886
 20
-30.0
 10
-31.158273978981
 20
-30.005284363153
 10
-31.148736187146
 20
-30.017286804073
 10
-31.135538754887
 20
-30.042841681047
 10
-31.126861654246
 20
-30.068571044311
 10
-31.11529592699
 20
-30.110246709563
 10
-31.105045563631
 20
-30.15298846274
 10
-31.093272969963
 20
-30.211321819572
 10
-31.083247383747
 20
-30.269674801386
 10
-31.059443939147
 20
-30.432617345266
 10
-31.03954262995
 20
-30.596397207432
 10
-31.016115644974
 20
-30.819025213248
 10
-30.995423140418
 20
-31.04182419866
  0
LWPOLYLINE
  5
175
100
AcDbEntity
  8
EV
390
962
  6
CONTINUOUS
 62
           1
 48
25.39999961853
100
AcDbPolyline
 90
        5
 70
           0
 10
-30.798105970938
 20
-34.0
 10
-30.846155654566
 20
-33.191088914791
 10
-30.896479004506
 20
-32.38230107841
 10
-30.941948216108
 20
-31.711749856705
 10
-30.995423140418
 20
-31.04182419866
  0
LWPOLYLINE
  5
17C
100
AcDbEntity
  8
EV
390
962
  6
CONTINUOUS
 62
           1
 48
25.39999961853
100
AcDbPolyline
 90
        9
 70
           0
 10
-30.798105970938
 20
-34.0
 10
-30.464844913001
 20
-39.931165233864
 10
-30.173932609556
 20
-45.864574633801
 10
-29.999125197239
 20
-50.220444002868
 10
-29.871658398173
 20
-54.577916639612
 10
-29.81162556601
 20
-58.289398740218
 10
-29.806287674729
 20
-62.001353187989
 10
-29.86414283988
 20
-65.737797505962
 10
-29.986498047342
 20
-69.47260174664
  0
LWPOLYLINE
  5
187
100
AcDbEntity
  8
EV
390
962
  6
CONTINUOUS
 62
           1
 48
25.39999961853
100
AcDbPolyline
 90
       23
 70
           0
 10
-10.0
 20
-50.07222879269
 10
-10.0
 20
-50.423063010913
 10
-10.0
 20
-50.780097681712
 10
-10.0
 20
-51.512830304572
 10
-10.0
 20
-57.459986666821
 10
-10.0
 20
-57.890893203118
 10
-10.0
 20
-58.272825762314
 10
-10.0
 20
-58.608927145821
 10
-10.0
 20
-58.902589232323
 10
-10.0
 20
-59.157303296823
 10
-10.0
 20
-59.376550036344
 10
-10.0
 20
-59.732006269076
 10
-10.0
 20
-59.977814079695
 10
-10.0
 20
-60.138186084154
 10
-10.0
 20
-60.233423133532
 10
-10.0
 20
-60.280090122333
 10
-10.0
 20
-60.291415066146
 10
-10.0
 20
-60.277769337351
 10
-10.0
 20
-60.198548830082
 10
-10.0
 20
-60.090785018914
 10
-10.0
 20
-59.981574584054
 10
-10.0
 20
-59.770350389945
 10
-10.0
 20
-59.5
  0
LWPOLYLINE
  5
1A0
100
AcDbEntity
  8
EV
390
962
  6
CONTINUOUS
 62
           1
 48
25.39999961853
100
AcDbPolyline
 90
       23
 70
           0
 10
-30.0
 20
-70.07222879269
 10
-30.0
 20
-70.423063010913
 10
-30.0
 20
-70.780097681712
 10
-30.0
 20
-71.512830304572
 10
-30.0
 20
-77.459986666821
 10
-30.0
 20
-77.890893203118
 10
-30.0
 20
-78.272825762314
 10
-30.0
 20
-78.608927145821
 10
-30.0
 20
-78.902589232323
 10
-30.0
 20
-79.157303296823
 10
-30.0
 20
-79.376550036344
 10
-30.0
 20
-79.732006269076
 10
-30.0
 20
-79.977814079695
 10
-30.0
 20
-80.138186084154
 10
-30.0
 20
-80.233423133532
 10
-30.0
 20
-80.280090122333
 10
-30.0
 20
-80.291415066146
 10
-30.0
 20
-80.277769337351
 10
-30.0
 20
-80.198548830082
 10
-30.0
 20
-80.090785018914
 10
-29.999999999999
 20
-79.981574584054
 10
-29.999999999999
 20
-79.770350389945
 10
-29.999999999999
 20
-79.5
  0
LWPOLYLINE
  5
1B9
100
AcDbEntity
  8
EV
390
962
  6
CONTINUOUS
 62
           1
 48
25.39999961853
100
AcDbPolyline
 90
        9
 70
           0
 10
-259.9999744827
 20
-79.51188887108
 10
-259.749718890868
 20
-79.38637447515
 10
-259.499984803928
 20
-79.259817607956
 10
-259.250067337545
 20
-79.1335291314
 10
-258.999991643853
 20
-79.007556976667
 10
-258.749962507897
 20
-78.881663467971
 10
-258.499996185951
 20
-78.755643556164
 10
-258.250174165426
 20
-78.629590768336
 10
-258.0
 20
-78.50424172816
  0
LWPOLYLINE
  5
1C4
100
AcDbEntity
  8
EV
390
962
  6
CONTINUOUS
 62
           1
 48
25.39999961853
100
AcDbPolyline
 90
       33
 70
           0
 10
-280.0
 20
-59.5
 10
-279.978721218119
 20
-60.445208750709
 10
-279.914726588176
 20
-61.388366739249
 10
-279.807778683722
 20
-62.327833337522
 10
-279.657640078307
 20
-63.26196791743
 10
-279.463549845539
 20
-64.189732657164
 10
-279.224490106053
 20
-65.106535721021
 10
-278.941262879307
 20
-66.004349777827
 10
-278.612071174958
 20
-66.886432395554
 10
-278.215532349033
 20
-67.797727858538
 10
-277.772988290105
 20
-68.687561246301
 10
-277.272848898461
 20
-69.582895158049
 10
-276.730591477778
 20
-70.453945546658
 10
-276.145206034825
 20
-71.302468351177
 10
-275.519641975206
 20
-72.120680776064
 10
-274.853230863345
 20
-72.905564709215
 10
-274.145304263667
 20
-73.65410203853
 10
-273.417443714598
 20
-74.344261966081
 10
-272.654962916399
 20
-74.995548120201
 10
-271.845302471119
 20
-75.620105260431
 10
-271.0055091226
 20
-76.204336121558
 10
-270.136825273001
 20
-76.748022251626
 10
-269.243052167134
 20
-77.247572359467
 10
-268.325011472208
 20
-77.700870137715
 10
-267.383524855432
 20
-78.105799279002
 10
-266.4968012075
 20
-78.434248023148
 10
-265.596076755445
 20
-78.718582706812
 10
-264.682520882676
 20
-78.959344450568
 10
-263.757302972604
 20
-79.157074374988
 10
-262.824145261521
 20
-79.311688622411
 10
-261.885986582797
 20
-79.422637250943
 10
-260.944160355826
 20
-79.489508438094
 10
-260.0
 20
-79.51189036137
  0
LWPOLYLINE
  5
1E7
100
AcDbEntity
  8
EV
390
962
  6
CONTINUOUS
 62
           1
 48
25.39999961853
100
AcDbPolyline
 90
        9
 70
           0
 10
-259.2390712383
 20
-34.0
 10
-259.573862767045
 20
-39.857178797524
 10
-259.861823259233
 20
-45.716866539399
 10
-260.031830873285
 20
-50.053242636868
 10
-260.149460176216
 20
-54.391307589948
 10
-260.196484227345
 20
-58.115340675515
 10
-260.183072974677
 20
-61.839636111736
 10
-260.099300942048
 20
-65.62028659194
 10
-259.9443959925
 20
-69.39859473476
  0
LWPOLYLINE
  5
1F2
100
AcDbEntity
  8
EV
390
962
  6
CONTINUOUS
 62
           1
 48
25.39999961853
100
AcDbPolyline
 90
        7
 70
           0
 10
-259.2390712383
 20
-34.0
 10
-259.181543742927
 20
-33.053057054063
 10
-259.1196981595
 20
-32.106397309111
 10
-259.091159815368
 20
-31.707885245173
 10
-259.060039900538
 20
-31.309555971053
 10
-259.031968123643
 20
-30.987148193702
 10
-258.9993458735
 20
-30.66518836167
  0
LWPOLYLINE
  5
1FB
100
AcDbEntity
  8
EV
390
962
  6
CONTINUOUS
 62
           1
 48
25.39999961853
100
AcDbPolyline
 90
       11
 70
           0
 10
-258.856524743
 20
-30.0
 10
-258.866276993134
 20
-30.003236164393
 10
-258.87440405405
 20
-30.010795589063
 10
-258.884874833142
 20
-30.026337158947
 10
-258.892234878144
 20
-30.042952630016
 10
-258.912566837741
 20
-30.105387141262
 10
-258.927832799525
 20
-30.169972710182
 10
-258.947417495472
 20
-30.274034321594
 10
-258.963481975269
 20
-30.378303525674
 10
-258.982545574881
 20
-30.521548118203
 10
-258.9993458735
 20
-30.66518836167
  0
LWPOLYLINE
  5
208
100
AcDbEntity
  8
EV
390
962
  6
CONTINUOUS
 62
           1
 48
25.39999961853
100
AcDbPolyline
 90
       39
 70
           0
 10
-259.992130003
 20
-70.15570775439
 10
-259.992185786258
 20
-71.210043125
 10
-259.992407088667
 20
-72.264378475867
 10
-259.992746199995
 20
-73.19484812429
 10
-259.993227897848
 20
-74.125317710049
 10
-259.993763933044
 20
-74.926772496701
 10
-259.994421065115
 20
-75.728227188884
 10
-259.994749228107
 20
-76.078964886236
 10
-259.995103731334
 20
-76.429702561281
 10
-259.995447491197
 20
-76.746255621465
 10
-259.995815225038
 20
-77.062808644323
 10
-259.996163887384
 20
-77.344533396961
 10
-259.996534125548
 20
-77.626258154502
 10
-259.996876745979
 20
-77.872511045214
 10
-259.997239012187
 20
-78.118763808312
 10
-259.997565216185
 20
-78.3289009316
 10
-259.997908464274
 20
-78.539038322248
 10
-259.998206087109
 20
-78.712416798714
 10
-259.998521061133
 20
-78.885794412803
 10
-259.998659125757
 20
-78.958497094205
 10
-259.998799344889
 20
-79.031200773216
 10
-259.998923267731
 20
-79.094474201072
 10
-259.999055382083
 20
-79.157744796469
 10
-259.999175650352
 20
-79.21150105506
 10
-259.999286495131
 20
-79.265265572124
 10
-259.999367871533
 20
-79.30944548325
 10
-259.999490006447
 20
-79.353602189742
 10
-259.999622677103
 20
-79.388067633637
 10
-259.999663238447
 20
-79.422593738885
 10
-259.999618431813
 20
-79.44740715162
 10
-259.999803513546
 20
-79.472079309114
 10
-259.999939061175
 20
-79.480700193979
 10
-259.999860455512
 20
-79.489457067625
 10
-259.999651057375
 20
-79.495823682264
 10
-259.999908154158
 20
-79.501897989992
 10
-260.000353991139
 20
-79.505369941518
 10
-259.999946274787
 20
-79.509381962412
 10
-259.999544581179
 20
-79.510894348838
 10
-259.9999744827
 20
-79.51188887108
  0
LWPOLYLINE
  5
231
100
AcDbEntity
  8
EV
390
962
  6
CONTINUOUS
 62
           1
 48
25.39999961853
100
AcDbPolyline
 90
        3
 70
           0
 10
-259.9921324824
 20
-70.07112980603
 10
-259.992131115171
 20
-70.113418780206
 10
-259.992130003
 20
-70.15570775439
  0
LWPOLYLINE
  5
236
100
AcDbEntity
  8
EV
390
962
  6
CONTINUOUS
 62
           1
 48
25.39999961853
100
AcDbPolyline
 90
       23
 70
           0
 10
-280.0
 20
-50.07222879269
 10
-280.0
 20
-50.423063010913
 10
-280.0
 20
-50.780097681712
 10
-280.0
 20
-51.512830304572
 10
-280.0
 20
-57.459986666821
 10
-280.0
 20
-57.890893203118
 10
-280.0
 20
-58.272825762314
 10
-280.0
 20
-58.608927145821
 10
-280.0
 20
-58.902589232323
 10
-280.0
 20
-59.157303296823
 10
-280.0
 20
-59.376550036344
 10
-280.0
 20
-59.732006269076
 10
-280.0
 20
-59.977814079695
 10
-280.0
 20
-60.138186084154
 10
-280.0
 20
-60.233423133532
 10
-280.0
 20
-60.280090122333
 10
-280.0
 20
-60.291415066146
 10
-280.0
 20
-60.277769337351
 10
-280.0
 20
-60.198548830082
 10
-280.0
 20
-60.090785018914
 10
-280.0
 20
-59.981574584054
 10
-280.0
 20
-59.770350389945
 10
-280.0
 20
-59.5
  0
TEXT
  5
24F
100
AcDbEntity
  8
EV
390
962
  6
CONTINUOUS
 62
          92
 48
25.39999961853
100
AcDbText
 10
-275.755389355312
 20
-19.242134712892
 30
0.0
 40
3.0
  1
 35 mm min
 41
0.833333333333
  7
MICROCADAM
100
AcDbText
  0
TEXT
  5
250
100
AcDbEntity
  8
EV
390
962
  6
CONTINUOUS
 62
          92
 48
25.39999961853
100
AcDbText
 10
-157.0
 20
-19.295728780915
 30
0.0
 40
3.0
  1
see NOTE 1
 41
0.833333333333
  7
MICROCADAM
100
AcDbText
  0
TEXT
  5
251
100
AcDbEntity
  8
EV
390
962
  6
CONTINUOUS
 62
          92
 48
25.39999961853
100
AcDbText
 10
-41.441982942843
 20
-19.242134712892
 30
0.0
 40
3.0
  1
~ 35 mm min
 41
0.833333333333
  7
MICROCADAM
100
AcDbText
  0
LINE
  5
252
100
AcDbEntity
  8
SV
390
962
  6
CONTINUOUS
 62
           1
 48
25.39999961853
100
AcDbLine
 10
-373.0
 20
-2.499992370605
 30
0.0
 11
-350.0
 21
-2.499992370606
 31
0.0
  0
LINE
  5
253
100
AcDbEntity
  8
SV
390
962
  6
CONTINUOUS
 62
           1
 48
25.39999961853
100
AcDbLine
 10
-350.0
 20
-2.499992370606
 30
0.0
 11
-350.0
 21
24.5
 31
0.0
  0
LINE
  5
254
100
AcDbEntity
  8
SV
390
962
  6
CONTINUOUS
 62
           1
 48
25.39999961853
100
AcDbLine
 10
-350.0
 20
41.50000762939
 30
0.0
 11
-350.0
 21
24.77707562523
 31
0.0
  0
LINE
  5
255
100
AcDbEntity
  8
SV
390
962
  6
CONTINUOUS
 62
           1
 48
25.39999961853
100
AcDbLine
 10
-373.0
 20
17.5000076294
 30
0.0
 11
-350.0
 21
17.50000762939
 31
0.0
  0
LINE
  5
256
100
AcDbEntity
  8
SV
390
962
  6
CONTINUOUS
 62
           1
 48
25.39999961853
100
AcDbLine
 10
-373.0
 20
17.5000076294
 30
0.0
 11
-373.0
 21
-2.499992370606
 31
0.0
  0
LINE
  5
257
100
AcDbEntity
  8
SV
390
962
  6
CONTINUOUS
 62
           1
 48
25.39999961853
100
AcDbLine
 10
-399.5
 20
24.00000762939
 30
0.0
 11
-379.5
 21
24.00000762939
 31
0.0
  0
LINE
  5
258
100
AcDbEntity
  8
SV
390
962
  6
CONTINUOUS
 62
           1
 48
25.39999961853
100
AcDbLine
 10
-399.5
 20
24.5
 30
0.0
 11
-399.5
 21
24.00000762939
 31
0.0
  0
LINE
  5
259
100
AcDbEntity
  8
SV
390
962
  6
CONTINUOUS
 62
           1
 48
25.39999961853
100
AcDbLine
 10
-379.5
 20
24.5
 30
0.0
 11
-379.5
 21
24.00000762939
 31
0.0
  0
LINE
  5
25A
100
AcDbEntity
  8
SV
390
962
  6
CONTINUOUS
 62
           1
 48
25.39999961853
100
AcDbLine
 10
-379.5
 20
24.5
 30
0.0
 11
-399.5
 21
24.5
 31
0.0
  0
LINE
  5
25B
100
AcDbEntity
  8
SV
390
962
  6
CONTINUOUS
 62
           1
 48
25.39999961853
100
AcDbLine
 10
-390.07222879269
 20
45.50000762939
 30
0.0
 11
-354.0
 21
45.50000762939
 31
0.0
  0
LINE
  5
25C
100
AcDbEntity
  8
SV
390
962
  6
CONTINUOUS
 62
           1
 48
25.39999961853
100
AcDbLine
 10
-356.51554107666
 20
39.375
 30
0.0
 11
-356.349586486816
 21
38.87194061279
 31
0.0
  0
LINE
  5
25D
100
AcDbEntity
  8
SV
390
962
  6
CONTINUOUS
 62
           1
 48
25.39999961853
100
AcDbLine
 10
-355.989952087402
 20
39.48994445801
 30
0.0
 11
-356.51554107666
 21
39.375
 31
0.0
  0
LINE
  5
25E
100
AcDbEntity
  8
SV
390
962
  6
CONTINUOUS
 62
           1
 48
25.39999961853
100
AcDbLine
 10
-355.875
 20
40.01554107666
 30
0.0
 11
-355.989952087402
 21
39.48994445801
 31
0.0
  0
LINE
  5
25F
100
AcDbEntity
  8
SV
390
962
  6
CONTINUOUS
 62
           1
 48
25.39999961853
100
AcDbLine
 10
-355.362350463867
 20
39.85229492188
 30
0.0
 11
-355.875
 21
40.01554107666
 31
0.0
  0
LINE
  5
260
100
AcDbEntity
  8
SV
390
962
  6
CONTINUOUS
 62
           1
 48
25.39999961853
100
AcDbLine
 10
-355.0
 20
40.25
 30
0.0
 11
-355.362350463867
 21
39.85229492188
 31
0.0
  0
LINE
  5
261
100
AcDbEntity
  8
SV
390
962
  6
CONTINUOUS
 62
           1
 48
25.39999961853
100
AcDbLine
 10
-354.637657165527
 20
39.85229492188
 30
0.0
 11
-355.0
 21
40.25
 31
0.0
  0
LINE
  5
262
100
AcDbEntity
  8
SV
390
962
  6
CONTINUOUS
 62
           1
 48
25.39999961853
100
AcDbLine
 10
-354.125
 20
40.01554870605
 30
0.0
 11
-354.637657165527
 21
39.85229492188
 31
0.0
  0
LINE
  5
263
100
AcDbEntity
  8
SV
390
962
  6
CONTINUOUS
 62
           1
 48
25.39999961853
100
AcDbLine
 10
-354.010047912598
 20
39.4899520874
 30
0.0
 11
-354.125
 21
40.01554870605
 31
0.0
  0
LINE
  5
264
100
AcDbEntity
  8
SV
390
962
  6
CONTINUOUS
 62
           1
 48
25.39999961853
100
AcDbLine
 10
-353.484451293945
 20
39.37500762939
 30
0.0
 11
-354.010047912598
 21
39.4899520874
 31
0.0
  0
LINE
  5
265
100
AcDbEntity
  8
SV
390
962
  6
CONTINUOUS
 62
           1
 48
25.39999961853
100
AcDbLine
 10
-353.64769744873
 20
38.86235046387
 30
0.0
 11
-353.484451293945
 21
39.37500762939
 31
0.0
  0
LINE
  5
266
100
AcDbEntity
  8
SV
390
962
  6
CONTINUOUS
 62
           1
 48
25.39999961853
100
AcDbLine
 10
-353.249992370605
 20
38.50000762939
 30
0.0
 11
-353.64769744873
 21
38.86235046387
 31
0.0
  0
LINE
  5
267
100
AcDbEntity
  8
SV
390
962
  6
CONTINUOUS
 62
           1
 48
25.39999961853
100
AcDbLine
 10
-353.64769744873
 20
38.13765716553
 30
0.0
 11
-353.249992370605
 21
38.50000762939
 31
0.0
  0
LINE
  5
268
100
AcDbEntity
  8
SV
390
962
  6
CONTINUOUS
 62
           1
 48
25.39999961853
100
AcDbLine
 10
-353.484451293945
 20
37.62500762939
 30
0.0
 11
-353.64769744873
 21
38.13765716553
 31
0.0
  0
LINE
  5
269
100
AcDbEntity
  8
SV
390
962
  6
CONTINUOUS
 62
           1
 48
25.39999961853
100
AcDbLine
 10
-354.010040283203
 20
37.51005554199
 30
0.0
 11
-353.484451293945
 21
37.62500762939
 31
0.0
  0
LINE
  5
26A
100
AcDbEntity
  8
SV
390
962
  6
CONTINUOUS
 62
           1
 48
25.39999961853
100
AcDbLine
 10
-354.124992370605
 20
36.98445892334
 30
0.0
 11
-354.010040283203
 21
37.51005554199
 31
0.0
  0
LINE
  5
26B
100
AcDbEntity
  8
SV
390
962
  6
CONTINUOUS
 62
           1
 48
25.39999961853
100
AcDbLine
 10
-354.628044128418
 20
37.15041351318
 30
0.0
 11
-354.124992370605
 21
36.98445892334
 31
0.0
  0
ARC
  5
26C
100
AcDbEntity
  8
SV
390
962
  6
CONTINUOUS
 62
           1
 48
25.39999961853
100
AcDbCircle
 10
-355.0
 20
38.50000762939
 30
0.0
 40
2.049537399891
100
AcDbArc
 50
187.555360399118
 51
262.445366331135
  0
CIRCLE
  5
26D
100
AcDbEntity
  8
SV
390
962
  6
CONTINUOUS
 62
           1
 48
25.39999961853
100
AcDbCircle
 10
-355.0
 20
38.50000762939
 30
0.0
 40
3.75
  0
CIRCLE
  5
26E
100
AcDbEntity
  8
SV
390
962
  6
CONTINUOUS
 62
           1
 48
25.39999961853
100
AcDbCircle
 10
-355.0
 20
38.50000762939
 30
0.0
 40
2.05372650359
  0
ARC
  5
26F
100
AcDbEntity
  8
SV
390
962
  6
CONTINUOUS
 62
           1
 48
25.39999961853
100
AcDbCircle
 10
-354.0
 20
41.50000762939
 30
0.0
 40
4.0
100
AcDbArc
 50
0.0
 51
90.0
  0
ARC
  5
270
100
AcDbEntity
  8
SV
390
962
  6
CONTINUOUS
 62
           1
 48
25.39999961853
100
AcDbCircle
 10
-373.0
 20
24.00000762939
 30
0.0
 40
6.5
100
AcDbArc
 50
180.0
 51
270.0
  0
ARC
  5
271
100
AcDbEntity
  8
SV
390
962
  6
CONTINUOUS
 62
           1
 48
25.39999961853
100
AcDbCircle
 10
-373.0
 20
24.00000762939
 30
0.0
 40
26.5
100
AcDbArc
 50
180.0
 51
270.0
  0
ARC
  5
272
100
AcDbEntity
  8
SV
390
962
  6
CONTINUOUS
 62
           1
 48
25.39999961853
100
AcDbCircle
 10
-357.217197806833
 20
39.11121149373
 30
0.0
 40
0.899999976157
100
AcDbArc
 50
274.040501887316
 51
344.582145166934
  0
ARC
  5
273
100
AcDbEntity
  8
SV
390
962
  6
CONTINUOUS
 62
           1
 48
25.39999961853
100
AcDbCircle
 10
-354.388771129181
 20
36.28280277736
 30
0.0
 40
0.899999976152
100
AcDbArc
 50
105.417994722472
 51
175.93352074321
  0
LWPOLYLINE
  5
274
100
AcDbEntity
  8
SV
390
962
  6
CONTINUOUS
 62
           1
 48
25.39999961853
100
AcDbPolyline
 90
       25
 70
           0
 10
-370.07222879269
 20
45.50000762939
 10
-370.639893702018
 20
45.013578493164
 10
-371.46431286459
 20
44.2543265108
 10
-372.255335899451
 20
43.460436121165
 10
-372.763629915072
 20
42.912427594237
 10
-373.496737022071
 20
42.063035341723
 10
-374.193741143344
 20
41.181679261023
 10
-374.632227198378
 20
40.584712479183
 10
-375.256807838062
 20
39.668109964326
 10
-375.841273892485
 20
38.726883713572
 10
-376.208445129278
 20
38.086141401249
 10
-376.72521240705
 20
37.10577327722
 10
-377.2008557381
 20
36.103058641156
 10
-377.494857846799
 20
35.422656271751
 10
-377.89918557043
 20
34.388645328179
 10
-378.259234731347
 20
33.339322085063
 10
-378.47451939522
 20
32.631697849803
 10
-378.760100863078
 20
31.558795526982
 10
-379.000599661979
 20
30.472910608059
 10
-379.137276049799
 20
29.73308863051
 10
-379.302521163465
 20
28.618284764364
 10
-379.420035900046
 20
27.498645921336
 10
-379.471858284157
 20
26.750228429328
 10
-379.509804853736
 20
25.625656548751
 10
-379.5
 20
24.5
  0
LWPOLYLINE
  5
28F
100
AcDbEntity
  8
SV
390
962
  6
CONTINUOUS
 62
           1
 48
25.39999961853
100
AcDbPolyline
 90
       25
 70
           0
 10
-390.07222879269
 20
45.50000762939
 10
-390.639893702018
 20
45.013578493164
 10
-391.46431286459
 20
44.2543265108
 10
-392.255335899451
 20
43.460436121165
 10
-392.763629915072
 20
42.912427594237
 10
-393.496737022071
 20
42.063035341723
 10
-394.193741143344
 20
41.181679261023
 10
-394.632227198378
 20
40.584712479183
 10
-395.256807838062
 20
39.668109964326
 10
-395.841273892485
 20
38.726883713572
 10
-396.208445129278
 20
38.086141401249
 10
-396.72521240705
 20
37.10577327722
 10
-397.2008557381
 20
36.103058641156
 10
-397.494857846799
 20
35.422656271751
 10
-397.89918557043
 20
34.388645328179
 10
-398.259234731347
 20
33.339322085063
 10
-398.47451939522
 20
32.631697849803
 10
-398.760100863078
 20
31.558795526982
 10
-399.000599661979
 20
30.472910608059
 10
-399.137276049799
 20
29.73308863051
 10
-399.302521163465
 20
28.618284764364
 10
-399.420035900046
 20
27.498645921336
 10
-399.471858284157
 20
26.750228429328
 10
-399.509804853736
 20
25.625656548751
 10
-399.5
 20
24.5
  0
LWPOLYLINE
  5
2AA
100
AcDbEntity
  8
SV
390
962
  6
CONTINUOUS
 62
           1
 48
25.39999961853
100
AcDbPolyline
 90
        3
 70
           0
 10
-350.0
 20
24.77707562523
 10
-350.000359558163
 20
24.638537812673
 10
-350.0
 20
24.5
  0
LINE
  5
2AF
100
AcDbEntity
  8
S2
390
962
  6
CONTINUOUS
 62
           1
 48
25.39999961853
100
AcDbLine
 10
76.515541076657
 20
39.375
 30
0.0
 11
76.349586486814
 21
38.87194061279
 31
0.0
  0
LINE
  5
2B0
100
AcDbEntity
  8
S2
390
962
  6
CONTINUOUS
 62
           1
 48
25.39999961853
100
AcDbLine
 10
75.9899520874
 20
39.48994445801
 30
0.0
 11
76.515541076657
 21
39.375
 31
0.0
  0
LINE
  5
2B1
100
AcDbEntity
  8
S2
390
962
  6
CONTINUOUS
 62
           1
 48
25.39999961853
100
AcDbLine
 10
75.874999999997
 20
40.01554107666
 30
0.0
 11
75.9899520874
 21
39.48994445801
 31
0.0
  0
LINE
  5
2B2
100
AcDbEntity
  8
S2
390
962
  6
CONTINUOUS
 62
           1
 48
25.39999961853
100
AcDbLine
 10
75.362350463864
 20
39.85229492187
 30
0.0
 11
75.874999999997
 21
40.01554107666
 31
0.0
  0
LINE
  5
2B3
100
AcDbEntity
  8
S2
390
962
  6
CONTINUOUS
 62
           1
 48
25.39999961853
100
AcDbLine
 10
74.999999999997
 20
40.25
 30
0.0
 11
75.362350463864
 21
39.85229492187
 31
0.0
  0
LINE
  5
2B4
100
AcDbEntity
  8
S2
390
962
  6
CONTINUOUS
 62
           1
 48
25.39999961853
100
AcDbLine
 10
74.637657165525
 20
39.85229492187
 30
0.0
 11
74.999999999997
 21
40.25
 31
0.0
  0
LINE
  5
2B5
100
AcDbEntity
  8
S2
390
962
  6
CONTINUOUS
 62
           1
 48
25.39999961853
100
AcDbLine
 10
74.124999999997
 20
40.01554870605
 30
0.0
 11
74.637657165525
 21
39.85229492187
 31
0.0
  0
LINE
  5
2B6
100
AcDbEntity
  8
S2
390
962
  6
CONTINUOUS
 62
           1
 48
25.39999961853
100
AcDbLine
 10
74.010047912595
 20
39.4899520874
 30
0.0
 11
74.124999999997
 21
40.01554870605
 31
0.0
  0
LINE
  5
2B7
100
AcDbEntity
  8
S2
390
962
  6
CONTINUOUS
 62
           1
 48
25.39999961853
100
AcDbLine
 10
73.484451293943
 20
39.37500762939
 30
0.0
 11
74.010047912595
 21
39.4899520874
 31
0.0
  0
LINE
  5
2B8
100
AcDbEntity
  8
S2
390
962
  6
CONTINUOUS
 62
           1
 48
25.39999961853
100
AcDbLine
 10
73.647697448728
 20
38.86235046387
 30
0.0
 11
73.484451293943
 21
39.37500762939
 31
0.0
  0
LINE
  5
2B9
100
AcDbEntity
  8
S2
390
962
  6
CONTINUOUS
 62
           1
 48
25.39999961853
100
AcDbLine
 10
73.249992370603
 20
38.50000762939
 30
0.0
 11
73.647697448728
 21
38.86235046387
 31
0.0
  0
LINE
  5
2BA
100
AcDbEntity
  8
S2
390
962
  6
CONTINUOUS
 62
           1
 48
25.39999961853
100
AcDbLine
 10
73.647697448728
 20
38.13765716553
 30
0.0
 11
73.249992370603
 21
38.50000762939
 31
0.0
  0
LINE
  5
2BB
100
AcDbEntity
  8
S2
390
962
  6
CONTINUOUS
 62
           1
 48
25.39999961853
100
AcDbLine
 10
73.484451293943
 20
37.62500762939
 30
0.0
 11
73.647697448728
 21
38.13765716553
 31
0.0
  0
LINE
  5
2BC
100
AcDbEntity
  8
S2
390
962
  6
CONTINUOUS
 62
           1
 48
25.39999961853
100
AcDbLine
 10
74.0100402832
 20
37.51005554199
 30
0.0
 11
73.484451293943
 21
37.62500762939
 31
0.0
  0
LINE
  5
2BD
100
AcDbEntity
  8
S2
390
962
  6
CONTINUOUS
 62
           1
 48
25.39999961853
100
AcDbLine
 10
74.124992370603
 20
36.98445892334
 30
0.0
 11
74.0100402832
 21
37.51005554199
 31
0.0
  0
LINE
  5
2BE
100
AcDbEntity
  8
S2
390
962
  6
CONTINUOUS
 62
           1
 48
25.39999961853
100
AcDbLine
 10
74.628044128415
 20
37.15041351318
 30
0.0
 11
74.124992370603
 21
36.98445892334
 31
0.0
  0
LINE
  5
2BF
100
AcDbEntity
  8
S2
390
962
  6
CONTINUOUS
 62
           1
 48
25.39999961853
100
AcDbLine
 10
93.0
 20
-2.499992370606
 30
0.0
 11
70.0
 21
-2.499992370606
 31
0.0
  0
LINE
  5
2C0
100
AcDbEntity
  8
S2
390
962
  6
CONTINUOUS
 62
           1
 48
25.39999961853
100
AcDbLine
 10
70.0
 20
41.50000762939
 30
0.0
 11
70.0
 21
24.77707562519
 31
0.0
  0
LINE
  5
2C1
100
AcDbEntity
  8
S2
390
962
  6
CONTINUOUS
 62
           1
 48
25.39999961853
100
AcDbLine
 10
70.0
 20
24.5
 30
0.0
 11
70.0
 21
-2.499992370606
 31
0.0
  0
LINE
  5
2C2
100
AcDbEntity
  8
S2
390
962
  6
CONTINUOUS
 62
           1
 48
25.39999961853
100
AcDbLine
 10
93.0
 20
17.50000762939
 30
0.0
 11
70.0
 21
17.50000762939
 31
0.0
  0
LINE
  5
2C3
100
AcDbEntity
  8
S2
390
962
  6
CONTINUOUS
 62
           1
 48
25.39999961853
100
AcDbLine
 10
93.0
 20
17.5000076294
 30
0.0
 11
93.0
 21
-2.499992370606
 31
0.0
  0
LINE
  5
2C4
100
AcDbEntity
  8
S2
390
962
  6
CONTINUOUS
 62
           1
 48
25.39999961853
100
AcDbLine
 10
119.5
 20
24.00000762939
 30
0.0
 11
99.5
 21
24.00000762939
 31
0.0
  0
LINE
  5
2C5
100
AcDbEntity
  8
S2
390
962
  6
CONTINUOUS
 62
           1
 48
25.39999961853
100
AcDbLine
 10
99.5
 20
24.5
 30
0.0
 11
99.5
 21
24.00000762939
 31
0.0
  0
LINE
  5
2C6
100
AcDbEntity
  8
S2
390
962
  6
CONTINUOUS
 62
           1
 48
25.39999961853
100
AcDbLine
 10
119.5
 20
24.5
 30
0.0
 11
119.5
 21
24.00000762939
 31
0.0
  0
LINE
  5
2C7
100
AcDbEntity
  8
S2
390
962
  6
CONTINUOUS
 62
           1
 48
25.39999961853
100
AcDbLine
 10
99.5
 20
24.5
 30
0.0
 11
119.5
 21
24.5
 31
0.0
  0
LINE
  5
2C8
100
AcDbEntity
  8
S2
390
962
  6
DASHED
 62
         142
 48
25.39999961853
100
AcDbLine
 10
94.329975229237
 20
43.50000762939
 30
0.0
 11
80.607307582472
 21
43.50000762939
 31
0.0
  0
LINE
  5
2C9
100
AcDbEntity
  8
S2
390
962
  6
DASHED
 62
         142
 48
25.39999961853
100
AcDbLine
 10
72.0
 20
26.402396053005
 30
0.0
 11
72.0
 21
19.286842346187
 31
0.0
  0
LINE
  5
2CA
100
AcDbEntity
  8
S2
390
962
  6
CONTINUOUS
 62
           1
 48
25.39999961853
100
AcDbLine
 10
70.0
 20
38.50000762939
 30
0.0
 11
70.0
 21
1.00000762939
 31
0.0
  0
LINE
  5
2CB
100
AcDbEntity
  8
S2
390
962
  6
DASHED
 62
         142
 48
25.39999961853
100
AcDbLine
 10
71.5
 20
18.998176574702
 30
0.0
 11
72.0
 21
19.286842346187
 31
0.0
  0
LINE
  5
2CC
100
AcDbEntity
  8
S2
390
962
  6
DASHED
 62
         142
 48
25.39999961853
100
AcDbLine
 10
71.5
 20
18.998176574703
 30
0.0
 11
72.0
 21
18.709495544429
 31
0.0
  0
LINE
  5
2CD
100
AcDbEntity
  8
S2
390
962
  6
DASHED
 62
         142
 48
25.39999961853
100
AcDbLine
 10
72.0
 20
18.709495544429
 30
0.0
 11
72.0
 21
11.200004577632
 31
0.0
  0
LINE
  5
2CE
100
AcDbEntity
  8
S2
390
962
  6
CONTINUOUS
 62
          23
 48
25.39999961853
100
AcDbLine
 10
52.182250976563
 20
20.498176574702
 30
0.0
 11
72.0
 21
20.498176574702
 31
0.0
  0
LINE
  5
2CF
100
AcDbEntity
  8
S2
390
962
  6
CONTINUOUS
 62
          23
 48
25.39999961853
100
AcDbLine
 10
54.233459472657
 20
21.098167419429
 30
0.0
 11
54.233459472657
 21
16.898170471187
 31
0.0
  0
LINE
  5
2D0
100
AcDbEntity
  8
S2
390
962
  6
CONTINUOUS
 62
          23
 48
25.39999961853
100
AcDbLine
 10
54.233459472657
 20
21.098167419429
 30
0.0
 11
72.0
 21
21.098167419429
 31
0.0
  0
LINE
  5
2D1
100
AcDbEntity
  8
S2
390
962
  6
CONTINUOUS
 62
          23
 48
25.39999961853
100
AcDbLine
 10
52.182250976563
 20
17.498176574702
 30
0.0
 11
72.0
 21
17.498176574702
 31
0.0
  0
LINE
  5
2D2
100
AcDbEntity
  8
S2
390
962
  6
CONTINUOUS
 62
          23
 48
25.39999961853
100
AcDbLine
 10
54.233459472657
 20
16.898170471187
 30
0.0
 11
72.0
 21
16.898170471187
 31
0.0
  0
LINE
  5
2D3
100
AcDbEntity
  8
S2
390
962
  6
DASHED
 62
          23
 48
25.39999961853
100
AcDbLine
 10
72.0
 20
23.098167419429
 30
0.0
 11
72.949951171875
 21
23.098167419429
 31
0.0
  0
LINE
  5
2D4
100
AcDbEntity
  8
S2
390
962
  6
DASHED
 62
          23
 48
25.39999961853
100
AcDbLine
 10
74.449951171875
 20
21.598167419429
 30
0.0
 11
74.449951171875
 21
19.498176574703
 31
0.0
  0
LINE
  5
2D5
100
AcDbEntity
  8
S2
390
962
  6
DASHED
 62
          23
 48
25.39999961853
100
AcDbLine
 10
74.449951171875
 20
19.498176574702
 30
0.0
 11
73.750915527344
 21
19.498176574702
 31
0.0
  0
LINE
  5
2D6
100
AcDbEntity
  8
S2
390
962
  6
DASHED
 62
          23
 48
25.39999961853
100
AcDbLine
 10
73.750915527344
 20
19.498176574703
 30
0.0
 11
73.750915527344
 21
18.498176574703
 31
0.0
  0
LINE
  5
2D7
100
AcDbEntity
  8
S2
390
962
  6
DASHED
 62
          23
 48
25.39999961853
100
AcDbLine
 10
74.449951171875
 20
18.498176574702
 30
0.0
 11
73.750915527344
 21
18.498176574702
 31
0.0
  0
LINE
  5
2D8
100
AcDbEntity
  8
S2
390
962
  6
DASHED
 62
          23
 48
25.39999961853
100
AcDbLine
 10
74.449951171875
 20
18.498176574703
 30
0.0
 11
74.449951171875
 21
16.398170471187
 31
0.0
  0
LINE
  5
2D9
100
AcDbEntity
  8
S2
390
962
  6
DASHED
 62
          23
 48
25.39999961853
100
AcDbLine
 10
72.0
 20
14.898170471187
 30
0.0
 11
72.0
 21
23.098167419429
 31
0.0
  0
LINE
  5
2DA
100
AcDbEntity
  8
S2
390
962
  6
DASHED
 62
          23
 48
25.39999961853
100
AcDbLine
 10
72.0
 20
14.898170471187
 30
0.0
 11
72.949951171875
 21
14.898170471187
 31
0.0
  0
LINE
  5
2DB
100
AcDbEntity
  8
S2
390
962
  6
CENTER
 62
          92
 48
25.39999961853
100
AcDbLine
 10
47.826904296875
 20
18.998176574702
 30
0.0
 11
78.863037109375
 21
18.998176574702
 31
0.0
  0
LINE
  5
2DC
100
AcDbEntity
  8
S2
390
962
  6
DASHED
 62
         142
 48
25.39999961853
100
AcDbLine
 10
78.513793945313
 20
41.50000762939
 30
0.0
 11
86.713439941407
 21
41.50000762939
 31
0.0
  0
LINE
  5
2DD
100
AcDbEntity
  8
S2
390
962
  6
CONTINUOUS
 62
           1
 48
25.39999961853
100
AcDbLine
 10
74.0
 20
45.50000762939
 30
0.0
 11
110.07222879269
 21
45.50000762939
 31
0.0
  0
LINE
  5
2DE
100
AcDbEntity
  8
S2
390
962
  6
DASHED
 62
         142
 48
25.39999961853
100
AcDbLine
 10
87.002136230469
 20
42.00000762939
 30
0.0
 11
86.713439941407
 21
41.50000762939
 31
0.0
  0
LINE
  5
2DF
100
AcDbEntity
  8
S2
390
962
  6
DASHED
 62
         142
 48
25.39999961853
100
AcDbLine
 10
87.002136230469
 20
42.00000762939
 30
0.0
 11
87.290832519532
 21
41.50000762939
 31
0.0
  0
LINE
  5
2E0
100
AcDbEntity
  8
S2
390
962
  6
DASHED
 62
         142
 48
25.39999961853
100
AcDbLine
 10
87.290832519532
 20
41.50000762939
 30
0.0
 11
96.718218483197
 21
41.50000762939
 31
0.0
  0
LINE
  5
2E1
100
AcDbEntity
  8
S2
390
962
  6
CONTINUOUS
 62
          23
 48
25.39999961853
100
AcDbLine
 10
89.102142333985
 20
59.266517639156
 30
0.0
 11
89.102142333985
 21
41.50000762939
 31
0.0
  0
LINE
  5
2E2
100
AcDbEntity
  8
S2
390
962
  6
CONTINUOUS
 62
          23
 48
25.39999961853
100
AcDbLine
 10
88.502136230469
 20
61.31771087646
 30
0.0
 11
88.502136230469
 21
41.50000762939
 31
0.0
  0
LINE
  5
2E3
100
AcDbEntity
  8
S2
390
962
  6
CONTINUOUS
 62
          23
 48
25.39999961853
100
AcDbLine
 10
84.902160644532
 20
59.266517639156
 30
0.0
 11
84.902160644532
 21
41.50000762939
 31
0.0
  0
LINE
  5
2E4
100
AcDbEntity
  8
S2
390
962
  6
CONTINUOUS
 62
          23
 48
25.39999961853
100
AcDbLine
 10
85.502136230469
 20
61.31771087646
 30
0.0
 11
85.502136230469
 21
41.50000762939
 31
0.0
  0
LINE
  5
2E5
100
AcDbEntity
  8
S2
390
962
  6
DASHED
 62
          23
 48
25.39999961853
100
AcDbLine
 10
82.902160644532
 20
41.50000762939
 30
0.0
 11
91.102142333985
 21
41.50000762939
 31
0.0
  0
LINE
  5
2E6
100
AcDbEntity
  8
S2
390
962
  6
DASHED
 62
          23
 48
25.39999961853
100
AcDbLine
 10
91.102142333985
 20
41.50000762939
 30
0.0
 11
91.102142333985
 21
40.549995422359
 31
0.0
  0
LINE
  5
2E7
100
AcDbEntity
  8
S2
390
962
  6
DASHED
 62
          23
 48
25.39999961853
100
AcDbLine
 10
89.602142333985
 20
39.049995422359
 30
0.0
 11
87.502136230469
 21
39.049995422359
 31
0.0
  0
LINE
  5
2E8
100
AcDbEntity
  8
S2
390
962
  6
DASHED
 62
          23
 48
25.39999961853
100
AcDbLine
 10
87.502136230469
 20
39.74903106689
 30
0.0
 11
86.502136230469
 21
39.74903106689
 31
0.0
  0
LINE
  5
2E9
100
AcDbEntity
  8
S2
390
962
  6
DASHED
 62
          23
 48
25.39999961853
100
AcDbLine
 10
87.502136230469
 20
39.049995422359
 30
0.0
 11
87.502136230469
 21
39.74903106689
 31
0.0
  0
LINE
  5
2EA
100
AcDbEntity
  8
S2
390
962
  6
DASHED
 62
          23
 48
25.39999961853
100
AcDbLine
 10
86.502136230469
 20
39.049995422359
 30
0.0
 11
86.502136230469
 21
39.74903106689
 31
0.0
  0
LINE
  5
2EB
100
AcDbEntity
  8
S2
390
962
  6
DASHED
 62
          23
 48
25.39999961853
100
AcDbLine
 10
86.502136230469
 20
39.049995422359
 30
0.0
 11
84.402160644532
 21
39.049995422359
 31
0.0
  0
LINE
  5
2EC
100
AcDbEntity
  8
S2
390
962
  6
DASHED
 62
          23
 48
25.39999961853
100
AcDbLine
 10
82.902160644532
 20
41.50000762939
 30
0.0
 11
82.902160644532
 21
40.549995422359
 31
0.0
  0
LINE
  5
2ED
100
AcDbEntity
  8
S2
390
962
  6
CENTER
 62
          92
 48
25.39999961853
100
AcDbLine
 10
87.002136230469
 20
36.591117858882
 30
0.0
 11
87.002136230469
 21
64.544075012202
 31
0.0
  0
LINE
  5
2EE
100
AcDbEntity
  8
S2
390
962
  6
CONTINUOUS
 62
          23
 48
25.39999961853
100
AcDbLine
 10
89.102142333985
 20
59.266517639156
 30
0.0
 11
84.902160644532
 21
59.266517639156
 31
0.0
  0
LINE
  5
2EF
100
AcDbEntity
  8
S2
390
962
  6
CONTINUOUS
 62
           1
 48
25.39999961853
100
AcDbLine
 10
93.112243652344
 20
-41.298538699421
 30
0.0
 11
93.112243652344
 21
-38.762970462116
 31
0.0
  0
LINE
  5
2F0
100
AcDbEntity
  8
S2
390
962
  6
CONTINUOUS
 62
           1
 48
25.39999961853
100
AcDbLine
 10
92.112243652344
 20
-41.298538699421
 30
0.0
 11
92.112243652344
 21
-38.762970462116
 31
0.0
  0
LINE
  5
2F1
100
AcDbEntity
  8
S2
390
962
  6
CONTINUOUS
 62
           1
 48
25.39999961853
100
AcDbLine
 10
93.112243652344
 20
-38.762970462116
 30
0.0
 11
92.112243652344
 21
-38.762970462116
 31
0.0
  0
LINE
  5
2F2
100
AcDbEntity
  8
S2
390
962
  6
CONTINUOUS
 62
           1
 48
25.39999961853
100
AcDbLine
 10
90.334808349609
 20
-46.298538699421
 30
0.0
 11
95.434799194336
 21
-46.298538699421
 31
0.0
  0
LINE
  5
2F3
100
AcDbEntity
  8
S2
390
962
  6
CONTINUOUS
 62
           1
 48
25.39999961853
100
AcDbLine
 10
95.434799194336
 20
-46.298538699421
 30
0.0
 11
95.434799194336
 21
-42.948540225299
 31
0.0
  0
LINE
  5
2F4
100
AcDbEntity
  8
S2
390
962
  6
CONTINUOUS
 62
           1
 48
25.39999961853
100
AcDbLine
 10
95.834808349609
 20
-42.948540225299
 30
0.0
 11
95.834808349609
 21
-41.298538699421
 31
0.0
  0
LINE
  5
2F5
100
AcDbEntity
  8
S2
390
962
  6
CONTINUOUS
 62
           1
 48
25.39999961853
100
AcDbLine
 10
89.934799194336
 20
-41.298538699421
 30
0.0
 11
95.834808349609
 21
-41.298538699421
 31
0.0
  0
LINE
  5
2F6
100
AcDbEntity
  8
S2
390
962
  6
CONTINUOUS
 62
           1
 48
25.39999961853
100
AcDbLine
 10
89.934799194336
 20
-42.948540225299
 30
0.0
 11
89.934799194336
 21
-41.298538699421
 31
0.0
  0
LINE
  5
2F7
100
AcDbEntity
  8
S2
390
962
  6
CONTINUOUS
 62
           1
 48
25.39999961853
100
AcDbLine
 10
89.934799194336
 20
-42.948540225299
 30
0.0
 11
95.834808349609
 21
-42.948540225299
 31
0.0
  0
LINE
  5
2F8
100
AcDbEntity
  8
S2
390
962
  6
CONTINUOUS
 62
           1
 48
25.39999961853
100
AcDbLine
 10
90.334808349609
 20
-46.298538699421
 30
0.0
 11
90.334808349609
 21
-42.948540225299
 31
0.0
  0
LINE
  5
2F9
100
AcDbEntity
  8
S2
390
962
  6
CENTER
 62
           1
 48
25.39999961853
100
AcDbLine
 10
92.222274780273
 20
-45.748535647663
 30
0.0
 11
93.793746948242
 21
-45.748535647663
 31
0.0
  0
LINE
  5
2FA
100
AcDbEntity
  8
S2
390
962
  6
CENTER
 62
           1
 48
25.39999961853
100
AcDbLine
 10
92.525146484375
 20
-45.498535647663
 30
0.0
 11
93.224090576172
 21
-45.498535647663
 31
0.0
  0
LINE
  5
2FB
100
AcDbEntity
  8
S2
390
962
  6
CENTER
 62
           1
 48
25.39999961853
100
AcDbLine
 10
92.525146484375
 20
-45.998535647663
 30
0.0
 11
93.224090576172
 21
-45.998535647663
 31
0.0
  0
LINE
  5
2FC
100
AcDbEntity
  8
S2
390
962
  6
CONTINUOUS
 62
           1
 48
25.39999961853
100
AcDbLine
 10
98.484802246094
 20
-43.048538699421
 30
0.0
 11
98.484802246094
 21
-41.1776127961
 31
0.0
  0
LINE
  5
2FD
100
AcDbEntity
  8
S2
390
962
  6
CONTINUOUS
 62
           1
 48
25.39999961853
100
AcDbLine
 10
83.884811401367
 20
-46.148537173542
 30
0.0
 11
101.884811401367
 21
-46.148537173542
 31
0.0
  0
LINE
  5
2FE
100
AcDbEntity
  8
S2
390
962
  6
CONTINUOUS
 62
           1
 48
25.39999961853
100
AcDbLine
 10
83.884811401367
 20
-63.648537173542
 30
0.0
 11
101.884811401367
 21
-63.648537173542
 31
0.0
  0
LINE
  5
2FF
100
AcDbEntity
  8
S2
390
962
  6
CONTINUOUS
 62
           1
 48
25.39999961853
100
AcDbLine
 10
96.484802246094
 20
-43.148537173542
 30
0.0
 11
96.484802246094
 21
-46.148537173542
 31
0.0
  0
LINE
  5
300
100
AcDbEntity
  8
S2
390
962
  6
CONTINUOUS
 62
           1
 48
25.39999961853
100
AcDbLine
 10
89.284805297852
 20
-43.148537173542
 30
0.0
 11
89.284805297852
 21
-46.148537173542
 31
0.0
  0
LINE
  5
301
100
AcDbEntity
  8
S2
390
962
  6
CONTINUOUS
 62
           1
 48
25.39999961853
100
AcDbLine
 10
96.484802246094
 20
-43.148537173542
 30
0.0
 11
89.284805297852
 21
-43.148537173542
 31
0.0
  0
LINE
  5
302
100
AcDbEntity
  8
S2
390
962
  6
CONTINUOUS
 62
           1
 48
25.39999961853
100
AcDbLine
 10
101.884811401367
 20
-46.148537173542
 30
0.0
 11
101.884811401367
 21
-63.648537173542
 31
0.0
  0
LINE
  5
303
100
AcDbEntity
  8
S2
390
962
  6
CONTINUOUS
 62
           1
 48
25.39999961853
100
AcDbLine
 10
83.884811401367
 20
-46.148537173542
 30
0.0
 11
83.884811401367
 21
-63.648537173542
 31
0.0
  0
LINE
  5
304
100
AcDbEntity
  8
S2
390
962
  6
DASHED
 62
           2
 48
25.39999961853
100
AcDbLine
 10
93.809799194336
 20
-46.898537173542
 30
0.0
 11
99.7646484375
 21
-47.948540225299
 31
0.0
  0
LINE
  5
305
100
AcDbEntity
  8
S2
390
962
  6
DASHED
 62
           2
 48
25.39999961853
100
AcDbLine
 10
91.959808349609
 20
-46.898537173542
 30
0.0
 11
86.004959106445
 21
-47.948540225299
 31
0.0
  0
LINE
  5
306
100
AcDbEntity
  8
S2
390
962
  6
DASHED
 62
           2
 48
25.39999961853
100
AcDbLine
 10
91.959808349609
 20
-46.898537173542
 30
0.0
 11
93.809799194336
 21
-46.898537173542
 31
0.0
  0
LINE
  5
307
100
AcDbEntity
  8
S2
390
962
  6
DASHED
 62
           2
 48
25.39999961853
100
AcDbLine
 10
90.284805297852
 20
-46.298538699421
 30
0.0
 11
90.284805297852
 21
-43.148537173542
 31
0.0
  0
LINE
  5
308
100
AcDbEntity
  8
S2
390
962
  6
DASHED
 62
           2
 48
25.39999961853
100
AcDbLine
 10
95.484802246094
 20
-46.298538699421
 30
0.0
 11
95.484802246094
 21
-43.148537173542
 31
0.0
  0
LINE
  5
309
100
AcDbEntity
  8
S2
390
962
  6
DASHED
 62
           2
 48
25.39999961853
100
AcDbLine
 10
89.284805297852
 20
-46.148537173542
 30
0.0
 11
96.484802246094
 21
-46.148537173542
 31
0.0
  0
LINE
  5
30A
100
AcDbEntity
  8
S2
390
962
  6
DASHED
 62
           2
 48
25.39999961853
100
AcDbLine
 10
95.284805297852
 20
-46.298538699421
 30
0.0
 11
95.484802246094
 21
-46.298538699421
 31
0.0
  0
LINE
  5
30B
100
AcDbEntity
  8
S2
390
962
  6
DASHED
 62
           2
 48
25.39999961853
100
AcDbLine
 10
90.284805297852
 20
-46.298538699421
 30
0.0
 11
90.484802246094
 21
-46.298538699421
 31
0.0
  0
LINE
  5
30C
100
AcDbEntity
  8
S2
390
962
  6
DASHED
 62
           2
 48
25.39999961853
100
AcDbLine
 10
90.484802246094
 20
-46.298538699421
 30
0.0
 11
90.484802246094
 21
-43.148537173542
 31
0.0
  0
LINE
  5
30D
100
AcDbEntity
  8
S2
390
962
  6
DASHED
 62
           2
 48
25.39999961853
100
AcDbLine
 10
95.284805297852
 20
-46.298538699421
 30
0.0
 11
95.284805297852
 21
-43.148537173542
 31
0.0
  0
LINE
  5
30E
100
AcDbEntity
  8
S2
390
962
  6
DASHED
 62
           2
 48
25.39999961853
100
AcDbLine
 10
99.884811401367
 20
-47.948540225299
 30
0.0
 11
99.884811401367
 21
-62.53853656319
 31
0.0
  0
LINE
  5
30F
100
AcDbEntity
  8
S2
390
962
  6
DASHED
 62
           2
 48
25.39999961853
100
AcDbLine
 10
85.884811401367
 20
-47.948540225299
 30
0.0
 11
85.884811401367
 21
-62.53853656319
 31
0.0
  0
LINE
  5
310
100
AcDbEntity
  8
S2
390
962
  6
DASHED
 62
           2
 48
25.39999961853
100
AcDbLine
 10
85.884811401367
 20
-47.948540225299
 30
0.0
 11
99.884811401367
 21
-47.948540225299
 31
0.0
  0
LINE
  5
311
100
AcDbEntity
  8
S2
390
962
  6
DASHED
 62
           2
 48
25.39999961853
100
AcDbLine
 10
91.959808349609
 20
-46.898537173542
 30
0.0
 11
91.959808349609
 21
-46.298538699421
 31
0.0
  0
LINE
  5
312
100
AcDbEntity
  8
S2
390
962
  6
DASHED
 62
           2
 48
25.39999961853
100
AcDbLine
 10
93.809799194336
 20
-46.898537173542
 30
0.0
 11
93.809799194336
 21
-46.298538699421
 31
0.0
  0
LINE
  5
313
100
AcDbEntity
  8
S2
390
962
  6
DASHED
 62
           2
 48
25.39999961853
100
AcDbLine
 10
90.484802246094
 20
-46.298538699421
 30
0.0
 11
95.284805297852
 21
-46.298538699421
 31
0.0
  0
LINE
  5
314
100
AcDbEntity
  8
S2
390
962
  6
DASHED
 62
           2
 48
25.39999961853
100
AcDbLine
 10
85.384811401367
 20
-62.53853656319
 30
0.0
 11
100.384811401367
 21
-62.53853656319
 31
0.0
  0
LINE
  5
315
100
AcDbEntity
  8
S2
390
962
  6
DASHED
 62
           2
 48
25.39999961853
100
AcDbLine
 10
85.384811401367
 20
-62.53853656319
 30
0.0
 11
85.384811401367
 21
-63.648537173542
 31
0.0
  0
LINE
  5
316
100
AcDbEntity
  8
S2
390
962
  6
DASHED
 62
           2
 48
25.39999961853
100
AcDbLine
 10
100.384811401367
 20
-62.53853656319
 30
0.0
 11
100.384811401367
 21
-63.648537173542
 31
0.0
  0
LINE
  5
317
100
AcDbEntity
  8
S2
390
962
  6
DASHED
 62
           2
 48
25.39999961853
100
AcDbLine
 10
88.284805297852
 20
-47.546539798053
 30
0.0
 11
88.284805297852
 21
-46.148537173542
 31
0.0
  0
LINE
  5
318
100
AcDbEntity
  8
S2
390
962
  6
DASHED
 62
           2
 48
25.39999961853
100
AcDbLine
 10
86.284805297852
 20
-46.148537173542
 30
0.0
 11
86.284805297852
 21
-47.899193301471
 31
0.0
  0
LINE
  5
319
100
AcDbEntity
  8
S2
390
962
  6
DASHED
 62
           2
 48
25.39999961853
100
AcDbLine
 10
97.484802246094
 20
-46.148537173542
 30
0.0
 11
97.484802246094
 21
-47.546539798053
 31
0.0
  0
LINE
  5
31A
100
AcDbEntity
  8
S2
390
962
  6
DASHED
 62
           2
 48
25.39999961853
100
AcDbLine
 10
99.484802246094
 20
-46.148537173542
 30
0.0
 11
99.484802246094
 21
-47.899193301471
 31
0.0
  0
LINE
  5
31B
100
AcDbEntity
  8
S2
390
962
  6
CONTINUOUS
 62
           1
 48
25.39999961853
100
AcDbLine
 10
86.134811401367
 20
-44.983620181354
 30
0.0
 11
86.134811401367
 21
-68.148537173542
 31
0.0
  0
LINE
  5
31C
100
AcDbEntity
  8
S2
390
962
  6
CONTINUOUS
 62
           1
 48
25.39999961853
100
AcDbLine
 10
99.634811401367
 20
-44.983620181354
 30
0.0
 11
99.634811401367
 21
-68.148537173542
 31
0.0
  0
LINE
  5
31D
100
AcDbEntity
  8
S2
390
962
  6
CONTINUOUS
 62
           1
 48
25.39999961853
100
AcDbLine
 10
86.134811401367
 20
-68.148537173542
 30
0.0
 11
99.634811401367
 21
-68.148537173542
 31
0.0
  0
LINE
  5
31E
100
AcDbEntity
  8
S2
390
962
  6
CENTER
 62
           1
 48
25.39999961853
100
AcDbLine
 10
94.177673339844
 20
-46.148537173542
 30
0.0
 11
94.177673339844
 21
-69.149200930866
 31
0.0
  0
LINE
  5
31F
100
AcDbEntity
  8
S2
390
962
  6
CONTINUOUS
 62
           1
 48
25.39999961853
100
AcDbLine
 10
78.434799194336
 20
-41.548538699421
 30
0.0
 11
108.959808349609
 21
-41.548538699421
 31
0.0
  0
LINE
  5
320
100
AcDbEntity
  8
S2
390
962
  6
CONTINUOUS
 62
           1
 48
25.39999961853
100
AcDbLine
 10
108.959808349609
 20
-41.548538699421
 30
0.0
 11
108.959808349609
 21
-44.548538699421
 31
0.0
  0
LINE
  5
321
100
AcDbEntity
  8
S2
390
962
  6
CONTINUOUS
 62
           1
 48
25.39999961853
100
AcDbLine
 10
78.434799194336
 20
-41.548538699421
 30
0.0
 11
78.434799194336
 21
-44.548538699421
 31
0.0
  0
LINE
  5
322
100
AcDbEntity
  8
S2
390
962
  6
CONTINUOUS
 62
           1
 48
25.39999961853
100
AcDbLine
 10
73.984809875488
 20
-44.548538699421
 30
0.0
 11
111.459808349609
 21
-44.548538699421
 31
0.0
  0
LINE
  5
323
100
AcDbEntity
  8
S2
390
962
  6
CONTINUOUS
 62
           1
 48
25.39999961853
100
AcDbLine
 10
73.984809875488
 20
-46.148537173542
 30
0.0
 11
111.459808349609
 21
-46.148537173542
 31
0.0
  0
LINE
  5
324
100
AcDbEntity
  8
S2
390
962
  6
CONTINUOUS
 62
           1
 48
25.39999961853
100
AcDbLine
 10
73.984809875488
 20
-44.548538699421
 30
0.0
 11
73.984809875488
 21
-46.148537173542
 31
0.0
  0
LINE
  5
325
100
AcDbEntity
  8
S2
390
962
  6
CONTINUOUS
 62
           1
 48
25.39999961853
100
AcDbLine
 10
111.459808349609
 20
-44.548538699421
 30
0.0
 11
111.459808349609
 21
-46.148537173542
 31
0.0
  0
LINE
  5
326
100
AcDbEntity
  8
S2
390
962
  6
CONTINUOUS
 62
           1
 48
25.39999961853
100
AcDbLine
 10
89.684799194336
 20
-46.148537173542
 30
0.0
 11
89.684799194336
 21
-47.448540225299
 31
0.0
  0
LINE
  5
327
100
AcDbEntity
  8
S2
390
962
  6
CONTINUOUS
 62
           1
 48
25.39999961853
100
AcDbLine
 10
86.134811401367
 20
-50.598541751178
 30
0.0
 11
86.134811401367
 21
-47.448540225299
 31
0.0
  0
LINE
  5
328
100
AcDbEntity
  8
S2
390
962
  6
CONTINUOUS
 62
           1
 48
25.39999961853
100
AcDbLine
 10
89.234802246094
 20
-50.598541751178
 30
0.0
 11
89.234802246094
 21
-47.448540225299
 31
0.0
  0
LINE
  5
329
100
AcDbEntity
  8
S2
390
962
  6
PHANTOM
 62
           1
 48
25.39999961853
100
AcDbLine
 10
83.309844970703
 20
-56.148537173542
 30
0.0
 11
89.084854125977
 21
-56.148537173542
 31
0.0
  0
LINE
  5
32A
100
AcDbEntity
  8
S2
390
962
  6
PHANTOM
 62
           1
 48
25.39999961853
100
AcDbLine
 10
89.084854125977
 20
-46.148537173542
 30
0.0
 11
89.084854125977
 21
-56.148537173542
 31
0.0
  0
LINE
  5
32B
100
AcDbEntity
  8
S2
390
962
  6
PHANTOM
 62
           1
 48
25.39999961853
100
AcDbLine
 10
81.459854125977
 20
-46.148537173542
 30
0.0
 11
81.459854125977
 21
-56.148537173542
 31
0.0
  0
LINE
  5
32C
100
AcDbEntity
  8
S2
390
962
  6
CONTINUOUS
 62
           1
 48
25.39999961853
100
AcDbLine
 10
81.622344970703
 20
-56.148537173542
 30
0.0
 11
86.697341918945
 21
-56.148537173542
 31
0.0
  0
LINE
  5
32D
100
AcDbEntity
  8
S2
390
962
  6
CONTINUOUS
 62
           1
 48
25.39999961853
100
AcDbLine
 10
86.697341918945
 20
-46.148537173542
 30
0.0
 11
86.697341918945
 21
-56.148537173542
 31
0.0
  0
LINE
  5
32E
100
AcDbEntity
  8
S2
390
962
  6
CENTER
 62
           1
 48
25.39999961853
100
AcDbLine
 10
96.384841918945
 20
-46.148537173542
 30
0.0
 11
96.384841918945
 21
-62.148537173542
 31
0.0
  0
LINE
  5
32F
100
AcDbEntity
  8
S2
390
962
  6
CONTINUOUS
 62
           1
 48
25.39999961853
100
AcDbLine
 10
81.622344970703
 20
-46.148537173542
 30
0.0
 11
81.622344970703
 21
-56.148537173542
 31
0.0
  0
LINE
  5
330
100
AcDbEntity
  8
S2
390
962
  6
CONTINUOUS
 62
           1
 48
25.39999961853
100
AcDbLine
 10
91.934844970703
 20
-46.148537173542
 30
0.0
 11
91.934844970703
 21
-62.148537173542
 31
0.0
  0
LINE
  5
331
100
AcDbEntity
  8
S2
390
962
  6
CONTINUOUS
 62
           1
 48
25.39999961853
100
AcDbLine
 10
100.834854125977
 20
-46.148537173542
 30
0.0
 11
100.834854125977
 21
-62.148537173542
 31
0.0
  0
LINE
  5
332
100
AcDbEntity
  8
S2
390
962
  6
CONTINUOUS
 62
           1
 48
25.39999961853
100
AcDbLine
 10
91.934844970703
 20
-62.148537173542
 30
0.0
 11
100.834854125977
 21
-62.148537173542
 31
0.0
  0
LINE
  5
333
100
AcDbEntity
  8
S2
390
962
  6
CONTINUOUS
 62
           1
 48
25.39999961853
100
AcDbLine
 10
77.834854125977
 20
-51.148537173542
 30
0.0
 11
89.259841918945
 21
-51.148537173542
 31
0.0
  0
LINE
  5
334
100
AcDbEntity
  8
S2
390
962
  6
CONTINUOUS
 62
           1
 48
25.39999961853
100
AcDbLine
 10
77.834854125977
 20
-51.148537173542
 30
0.0
 11
77.834854125977
 21
-46.148537173542
 31
0.0
  0
LINE
  5
335
100
AcDbEntity
  8
S2
390
962
  6
CONTINUOUS
 62
           1
 48
25.39999961853
100
AcDbLine
 10
89.259841918945
 20
-51.148537173542
 30
0.0
 11
89.259841918945
 21
-46.148537173542
 31
0.0
  0
LINE
  5
336
100
AcDbEntity
  8
S2
390
962
  6
CONTINUOUS
 62
           1
 48
25.39999961853
100
AcDbLine
 10
83.96484375
 20
-46.148537173542
 30
0.0
 11
83.96484375
 21
-47.448540225299
 31
0.0
  0
LINE
  5
337
100
AcDbEntity
  8
S2
390
962
  6
CONTINUOUS
 62
           1
 48
25.39999961853
100
AcDbLine
 10
87.96484375
 20
-46.148537173542
 30
0.0
 11
83.96484375
 21
-46.148537173542
 31
0.0
  0
LINE
  5
338
100
AcDbEntity
  8
S2
390
962
  6
CONTINUOUS
 62
           1
 48
25.39999961853
100
AcDbLine
 10
89.684799194336
 20
-47.448540225299
 30
0.0
 11
83.96484375
 21
-47.448540225299
 31
0.0
  0
LINE
  5
339
100
AcDbEntity
  8
S2
390
962
  6
CONTINUOUS
 62
           1
 48
25.39999961853
100
AcDbLine
 10
84.414840698242
 20
-50.598541751178
 30
0.0
 11
84.414840698242
 21
-47.448540225299
 31
0.0
  0
LINE
  5
33A
100
AcDbEntity
  8
S2
390
962
  6
CONTINUOUS
 62
           1
 48
25.39999961853
100
AcDbLine
 10
80.834808349609
 20
-51.148537173542
 30
0.0
 11
80.834808349609
 21
-46.148537173542
 31
0.0
  0
LINE
  5
33B
100
AcDbEntity
  8
S2
390
962
  6
PHANTOM
 62
           1
 48
25.39999961853
100
AcDbLine
 10
105.722305297852
 20
-54.548538699421
 30
0.0
 11
105.722305297852
 21
-46.148537173542
 31
0.0
  0
LINE
  5
33C
100
AcDbEntity
  8
S2
390
962
  6
PHANTOM
 62
           1
 48
25.39999961853
100
AcDbLine
 10
79.722305297852
 20
-54.548538699421
 30
0.0
 11
79.722305297852
 21
-46.148537173542
 31
0.0
  0
LINE
  5
33D
100
AcDbEntity
  8
S2
390
962
  6
PHANTOM
 62
           1
 48
25.39999961853
100
AcDbLine
 10
79.722305297852
 20
-54.548538699421
 30
0.0
 11
105.722305297852
 21
-54.548538699421
 31
0.0
  0
LINE
  5
33E
100
AcDbEntity
  8
S2
390
962
  6
CONTINUOUS
 62
         170
 48
25.39999961853
100
AcDbLine
 10
80.123275756836
 20
-71.4754643586
 30
0.0
 11
77.499954223633
 21
-72.956314578327
 31
0.0
  0
LINE
  5
33F
100
AcDbEntity
  8
S2
390
962
  6
CONTINUOUS
 62
         170
 48
25.39999961853
100
AcDbLine
 10
79.400634765625
 20
-70.160904422077
 30
0.0
 11
76.728103637695
 21
-71.669525637897
 31
0.0
  0
LINE
  5
340
100
AcDbEntity
  8
S2
390
962
  6
CONTINUOUS
 62
         170
 48
25.39999961853
100
AcDbLine
 10
79.649963378906
 20
-69.728287234577
 30
0.0
 11
79.649963378906
 21
-66.648537173542
 31
0.0
  0
LINE
  5
341
100
AcDbEntity
  8
S2
390
962
  6
CONTINUOUS
 62
         170
 48
25.39999961853
100
AcDbLine
 10
75.999954223633
 20
-73.848537936481
 30
0.0
 11
75.999954223633
 21
-74.24853946236
 31
0.0
  0
LINE
  5
342
100
AcDbEntity
  8
S2
390
962
  6
CONTINUOUS
 62
         170
 48
25.39999961853
100
AcDbLine
 10
74.799957275391
 20
-72.648537173542
 30
0.0
 11
74.057403564453
 21
-72.648537173542
 31
0.0
  0
LINE
  5
343
100
AcDbEntity
  8
S2
390
962
  6
CONTINUOUS
 62
         170
 48
25.39999961853
100
AcDbLine
 10
92.999954223633
 20
-76.948536410602
 30
0.0
 11
74.004287719727
 21
-76.948536410602
 31
0.0
  0
LINE
  5
344
100
AcDbEntity
  8
S2
390
962
  6
CONTINUOUS
 62
         170
 48
25.39999961853
100
AcDbLine
 10
92.999954223633
 20
-75.448536410602
 30
0.0
 11
77.999954223633
 21
-75.448536410602
 31
0.0
  0
LINE
  5
345
100
AcDbEntity
  8
S2
390
962
  6
CONTINUOUS
 62
         170
 48
25.39999961853
100
AcDbLine
 10
81.149963378906
 20
-69.728287234577
 30
0.0
 11
81.149963378906
 21
-66.693039431842
 31
0.0
  0
LINE
  5
346
100
AcDbEntity
  8
S2
390
962
  6
CONTINUOUS
 62
         170
 48
25.39999961853
100
AcDbLine
 10
73.504287719727
 20
-75.948536410602
 30
0.0
 11
73.504287719727
 21
-76.448536410602
 31
0.0
  0
LINE
  5
347
100
AcDbEntity
  8
S2
390
962
  6
CONTINUOUS
 62
         170
 48
25.39999961853
100
AcDbLine
 10
77.499954223633
 20
-72.956314578327
 30
0.0
 11
77.499954223633
 21
-74.948536410602
 31
0.0
  0
LINE
  5
348
100
AcDbEntity
  8
S2
390
962
  6
CONTINUOUS
 62
         170
 48
25.39999961853
100
AcDbLine
 10
74.799957275391
 20
-75.448536410602
 30
0.0
 11
74.004287719727
 21
-75.448536410602
 31
0.0
  0
LINE
  5
349
100
AcDbEntity
  8
S2
390
962
  6
CONTINUOUS
 62
         170
 48
25.39999961853
100
AcDbLine
 10
116.407806396484
 20
-52.063454165729
 30
0.0
 11
116.012084960937
 21
-51.667732730182
 31
0.0
  0
LINE
  5
34A
100
AcDbEntity
  8
S2
390
962
  6
CONTINUOUS
 62
         170
 48
25.39999961853
100
AcDbLine
 10
112.499954223633
 20
-51.750885501178
 30
0.0
 11
112.499954223633
 21
-52.534134402546
 31
0.0
  0
LINE
  5
34B
100
AcDbEntity
  8
S2
390
962
  6
CONTINUOUS
 62
         170
 48
25.39999961853
100
AcDbLine
 10
114.822891235352
 20
-55.234116091999
 30
0.0
 11
113.030578613281
 21
-55.234116091999
 31
0.0
  0
LINE
  5
34C
100
AcDbEntity
  8
S2
390
962
  6
CONTINUOUS
 62
         170
 48
25.39999961853
100
AcDbLine
 10
113.699951171875
 20
-53.734131350788
 30
0.0
 11
114.299957275391
 21
-53.734131350788
 31
0.0
  0
LINE
  5
34D
100
AcDbEntity
  8
S2
390
962
  6
CONTINUOUS
 62
         170
 48
25.39999961853
100
AcDbLine
 10
115.499954223633
 20
-51.879868045124
 30
0.0
 11
115.499954223633
 21
-52.534134402546
 31
0.0
  0
LINE
  5
34E
100
AcDbEntity
  8
S2
390
962
  6
DASHED
 62
          93
 48
25.39999961853
100
AcDbLine
 10
85.234802246094
 20
-43.548538699421
 30
0.0
 11
103.784805297852
 21
-43.548538699421
 31
0.0
  0
LINE
  5
34F
100
AcDbEntity
  8
S2
390
962
  6
CONTINUOUS
 62
          93
 48
25.39999961853
100
AcDbLine
 10
104.284805297852
 20
-41.048538699421
 30
0.0
 11
104.284805297852
 21
-47.248535647663
 31
0.0
  0
LINE
  5
350
100
AcDbEntity
  8
S2
390
962
  6
CONTINUOUS
 62
          93
 48
25.39999961853
100
AcDbLine
 10
103.784805297852
 20
-41.548538699421
 30
0.0
 11
103.784805297852
 21
-47.248535647663
 31
0.0
  0
LINE
  5
351
100
AcDbEntity
  8
S2
390
962
  6
CONTINUOUS
 62
          93
 48
25.39999961853
100
AcDbLine
 10
85.234802246094
 20
-41.548538699421
 30
0.0
 11
85.234802246094
 21
-47.248535647663
 31
0.0
  0
LINE
  5
352
100
AcDbEntity
  8
S2
390
962
  6
CONTINUOUS
 62
          93
 48
25.39999961853
100
AcDbLine
 10
84.734802246094
 20
-41.048538699421
 30
0.0
 11
84.734802246094
 21
-47.248535647663
 31
0.0
  0
LINE
  5
353
100
AcDbEntity
  8
S2
390
962
  6
CONTINUOUS
 62
          93
 48
25.39999961853
100
AcDbLine
 10
104.284805297852
 20
-47.248535647663
 30
0.0
 11
103.784805297852
 21
-47.248535647663
 31
0.0
  0
LINE
  5
354
100
AcDbEntity
  8
S2
390
962
  6
CONTINUOUS
 62
          93
 48
25.39999961853
100
AcDbLine
 10
85.234802246094
 20
-44.548538699421
 30
0.0
 11
103.784805297852
 21
-44.548538699421
 31
0.0
  0
LINE
  5
355
100
AcDbEntity
  8
S2
390
962
  6
CONTINUOUS
 62
          93
 48
25.39999961853
100
AcDbLine
 10
84.734802246094
 20
-47.248535647663
 30
0.0
 11
85.234802246094
 21
-47.248535647663
 31
0.0
  0
LINE
  5
356
100
AcDbEntity
  8
S2
390
962
  6
DASHED
 62
          93
 48
25.39999961853
100
AcDbLine
 10
103.784805297852
 20
-41.548538699421
 30
0.0
 11
85.234802246094
 21
-41.548538699421
 31
0.0
  0
LINE
  5
357
100
AcDbEntity
  8
S2
390
962
  6
CONTINUOUS
 62
          93
 48
25.39999961853
100
AcDbLine
 10
104.284805297852
 20
-41.048538699421
 30
0.0
 11
84.734802246094
 21
-41.048538699421
 31
0.0
  0
LINE
  5
358
100
AcDbEntity
  8
S2
390
962
  6
CONTINUOUS
 62
         170
 48
25.39999961853
100
AcDbLine
 10
72.0
 20
-58.25036670235
 30
0.0
 11
72.0
 21
-65.748535647663
 31
0.0
  0
LINE
  5
359
100
AcDbEntity
  8
S2
390
962
  6
CONTINUOUS
 62
         170
 48
25.39999961853
100
AcDbLine
 10
71.699996948242
 20
-57.950371279987
 30
0.0
 11
72.0
 21
-58.25036670235
 31
0.0
  0
LINE
  5
35A
100
AcDbEntity
  8
S2
390
962
  6
CONTINUOUS
 62
         170
 48
25.39999961853
100
AcDbLine
 10
71.699996948242
 20
-57.950371279987
 30
0.0
 11
72.0
 21
-57.650368228229
 31
0.0
  0
LINE
  5
35B
100
AcDbEntity
  8
S2
390
962
  6
CONTINUOUS
 62
         170
 48
25.39999961853
100
AcDbLine
 10
87.602157592773
 20
-35.448540225299
 30
0.0
 11
95.800003051758
 21
-35.448540225299
 31
0.0
  0
LINE
  5
35C
100
AcDbEntity
  8
S2
390
962
  6
CONTINUOUS
 62
         170
 48
25.39999961853
100
AcDbLine
 10
87.302169799805
 20
-35.148537173542
 30
0.0
 11
87.602157592773
 21
-35.448540225299
 31
0.0
  0
LINE
  5
35D
100
AcDbEntity
  8
S2
390
962
  6
CONTINUOUS
 62
         170
 48
25.39999961853
100
AcDbLine
 10
87.302169799805
 20
-35.148537173542
 30
0.0
 11
87.002166748047
 21
-35.448540225299
 31
0.0
  0
LINE
  5
35E
100
AcDbEntity
  8
S2
390
962
  6
CONTINUOUS
 62
         170
 48
25.39999961853
100
AcDbLine
 10
73.0
 20
-74.798538699421
 30
0.0
 11
73.0
 21
-76.448536410602
 31
0.0
  0
LINE
  5
35F
100
AcDbEntity
  8
S2
390
962
  6
CONTINUOUS
 62
         170
 48
25.39999961853
100
AcDbLine
 10
73.0
 20
-65.748535647663
 30
0.0
 11
73.0
 21
-67.548538699421
 31
0.0
  0
LINE
  5
360
100
AcDbEntity
  8
S2
390
962
  6
CONTINUOUS
 62
         170
 48
25.39999961853
100
AcDbLine
 10
72.0
 20
-65.748535647663
 30
0.0
 11
73.0
 21
-65.748535647663
 31
0.0
  0
LINE
  5
361
100
AcDbEntity
  8
S2
390
962
  6
CONTINUOUS
 62
         170
 48
25.39999961853
100
AcDbLine
 10
74.010055541992
 20
-37.458588137897
 30
0.0
 11
74.125
 21
-36.932991519245
 31
0.0
  0
LINE
  5
362
100
AcDbEntity
  8
S2
390
962
  6
CONTINUOUS
 62
         170
 48
25.39999961853
100
AcDbLine
 10
74.125
 20
-36.932991519245
 30
0.0
 11
74.637649536133
 21
-37.09623767403
 31
0.0
  0
LINE
  5
363
100
AcDbEntity
  8
S2
390
962
  6
CONTINUOUS
 62
         170
 48
25.39999961853
100
AcDbLine
 10
74.637649536133
 20
-37.09623767403
 30
0.0
 11
75.0
 21
-36.698540225299
 31
0.0
  0
LINE
  5
364
100
AcDbEntity
  8
S2
390
962
  6
CONTINUOUS
 62
         170
 48
25.39999961853
100
AcDbLine
 10
75.0
 20
-36.698540225299
 30
0.0
 11
75.362350463867
 21
-37.096245303424
 31
0.0
  0
LINE
  5
365
100
AcDbEntity
  8
S2
390
962
  6
CONTINUOUS
 62
         170
 48
25.39999961853
100
AcDbLine
 10
75.362350463867
 20
-37.096245303424
 30
0.0
 11
75.875
 21
-36.932999148639
 31
0.0
  0
LINE
  5
366
100
AcDbEntity
  8
S2
390
962
  6
CONTINUOUS
 62
         170
 48
25.39999961853
100
AcDbLine
 10
75.875
 20
-36.932999148639
 30
0.0
 11
75.989944458008
 21
-37.458595767292
 31
0.0
  0
LINE
  5
367
100
AcDbEntity
  8
S2
390
962
  6
CONTINUOUS
 62
         170
 48
25.39999961853
100
AcDbLine
 10
75.989944458008
 20
-37.458595767292
 30
0.0
 11
76.515548706055
 21
-37.573540225299
 31
0.0
  0
LINE
  5
368
100
AcDbEntity
  8
S2
390
962
  6
CONTINUOUS
 62
         170
 48
25.39999961853
100
AcDbLine
 10
76.515548706055
 20
-37.5735402253
 30
0.0
 11
76.349594116211
 21
-38.076599612507
 31
0.0
  0
LINE
  5
369
100
AcDbEntity
  8
S2
390
962
  6
CONTINUOUS
 62
         170
 48
25.39999961853
100
AcDbLine
 10
74.124992370605
 20
-39.96408130196
 30
0.0
 11
74.628051757812
 21
-39.798126712116
 31
0.0
  0
LINE
  5
36A
100
AcDbEntity
  8
S2
390
962
  6
CONTINUOUS
 62
         170
 48
25.39999961853
100
AcDbLine
 10
74.010047912598
 20
-39.438484683307
 30
0.0
 11
74.124992370605
 21
-39.96408130196
 31
0.0
  0
LINE
  5
36B
100
AcDbEntity
  8
S2
390
962
  6
CONTINUOUS
 62
         170
 48
25.39999961853
100
AcDbLine
 10
73.484451293945
 20
-39.323532595905
 30
0.0
 11
74.010047912598
 21
-39.438484683307
 31
0.0
  0
LINE
  5
36C
100
AcDbEntity
  8
S2
390
962
  6
CONTINUOUS
 62
         170
 48
25.39999961853
100
AcDbLine
 10
73.64769744873
 20
-38.810883059772
 30
0.0
 11
73.484451293945
 21
-39.323532595905
 31
0.0
  0
LINE
  5
36D
100
AcDbEntity
  8
S2
390
962
  6
CONTINUOUS
 62
         170
 48
25.39999961853
100
AcDbLine
 10
73.25
 20
-38.448532595905
 30
0.0
 11
73.64769744873
 21
-38.810883059772
 31
0.0
  0
LINE
  5
36E
100
AcDbEntity
  8
S2
390
962
  6
CONTINUOUS
 62
         170
 48
25.39999961853
100
AcDbLine
 10
73.647705078125
 20
-38.086189761432
 30
0.0
 11
73.25
 21
-38.448532595905
 31
0.0
  0
LINE
  5
36F
100
AcDbEntity
  8
S2
390
962
  6
CONTINUOUS
 62
         170
 48
25.39999961853
100
AcDbLine
 10
73.48445892334
 20
-37.573532595905
 30
0.0
 11
73.647705078125
 21
-38.086189761432
 31
0.0
  0
LINE
  5
370
100
AcDbEntity
  8
S2
390
962
  6
CONTINUOUS
 62
         170
 48
25.39999961853
100
AcDbLine
 10
74.010055541992
 20
-37.458588137897
 30
0.0
 11
73.48445892334
 21
-37.573532595905
 31
0.0
  0
LINE
  5
371
100
AcDbEntity
  8
S2
390
962
  6
CONTINUOUS
 62
         170
 48
25.39999961853
100
AcDbLine
 10
70.0
 20
-38.448540225299
 30
0.0
 11
70.0
 21
-75.948536410602
 31
0.0
  0
LINE
  5
372
100
AcDbEntity
  8
S2
390
962
  6
CONTINUOUS
 62
         170
 48
25.39999961853
100
AcDbLine
 10
72.0
 20
-41.962387576374
 30
0.0
 11
72.0
 21
-57.650368228229
 31
0.0
  0
LINE
  5
373
100
AcDbEntity
  8
S2
390
962
  6
CONTINUOUS
 62
         170
 48
25.39999961853
100
AcDbLine
 10
72.0
 20
-70.248535647663
 30
0.0
 11
72.0
 21
-72.298538699421
 31
0.0
  0
LINE
  5
374
100
AcDbEntity
  8
S2
390
962
  6
CONTINUOUS
 62
         170
 48
25.39999961853
100
AcDbLine
 10
71.0
 20
-76.948536410602
 30
0.0
 11
72.5
 21
-76.948536410602
 31
0.0
  0
LINE
  5
375
100
AcDbEntity
  8
S2
390
962
  6
CONTINUOUS
 62
         170
 48
25.39999961853
100
AcDbLine
 10
75.0
 20
-33.448540225299
 30
0.0
 11
107.616424560547
 21
-33.448540225299
 31
0.0
  0
LINE
  5
376
100
AcDbEntity
  8
S2
390
962
  6
CONTINUOUS
 62
         170
 48
25.39999961853
100
AcDbLine
 10
78.51383972168
 20
-35.448540225299
 30
0.0
 11
87.002166748047
 21
-35.448540225299
 31
0.0
  0
LINE
  5
377
100
AcDbEntity
  8
S2
390
962
  6
CONTINUOUS
 62
         170
 48
25.39999961853
100
AcDbLine
 10
111.795944213867
 20
-48.548538699421
 30
0.0
 11
113.961074829102
 21
-48.548538699421
 31
0.0
  0
LINE
  5
378
100
AcDbEntity
  8
S2
390
962
  6
CONTINUOUS
 62
         170
 48
25.39999961853
100
AcDbLine
 10
113.349960327148
 20
-50.548538699421
 30
0.0
 11
111.795944213867
 21
-50.548538699421
 31
0.0
  0
LINE
  5
379
100
AcDbEntity
  8
S2
390
962
  6
CONTINUOUS
 62
         170
 48
25.39999961853
100
AcDbLine
 10
73.699996948242
 20
-73.298538699421
 30
0.0
 11
73.0
 21
-73.298538699421
 31
0.0
  0
LINE
  5
37A
100
AcDbEntity
  8
S2
390
962
  6
CONTINUOUS
 62
         170
 48
25.39999961853
100
AcDbLine
 10
73.699996948242
 20
-74.798538699421
 30
0.0
 11
73.0
 21
-74.798538699421
 31
0.0
  0
LINE
  5
37B
100
AcDbEntity
  8
S2
390
962
  6
CONTINUOUS
 62
         170
 48
25.39999961853
100
AcDbLine
 10
114.849960327148
 20
-51.448540225299
 30
0.0
 11
114.849960327148
 21
-50.598541751178
 31
0.0
  0
LINE
  5
37C
100
AcDbEntity
  8
S2
390
962
  6
CONTINUOUS
 62
         170
 48
25.39999961853
100
AcDbLine
 10
113.349960327148
 20
-51.448540225299
 30
0.0
 11
113.349960327148
 21
-50.548538699421
 31
0.0
  0
LINE
  5
37D
100
AcDbEntity
  8
S2
390
962
  6
CONTINUOUS
 62
         170
 48
25.39999961853
100
AcDbLine
 10
73.0
 20
-67.548538699421
 30
0.0
 11
74.099998474121
 21
-67.548538699421
 31
0.0
  0
LINE
  5
37E
100
AcDbEntity
  8
S2
390
962
  6
CONTINUOUS
 62
         170
 48
25.39999961853
100
AcDbLine
 10
73.0
 20
-69.248535647663
 30
0.0
 11
74.0
 21
-69.248535647663
 31
0.0
  0
LINE
  5
37F
100
AcDbEntity
  8
S2
390
962
  6
CONTINUOUS
 62
         170
 48
25.39999961853
100
AcDbLine
 10
96.800003051758
 20
-35.448540225299
 30
0.0
 11
108.0
 21
-35.448540225299
 31
0.0
  0
LINE
  5
380
100
AcDbEntity
  8
S2
390
962
  6
CONTINUOUS
 62
         170
 48
25.39999961853
100
AcDbLine
 10
115.703506469727
 20
-50.244987979206
 30
0.0
 11
117.053451538086
 21
-51.594925418171
 31
0.0
  0
LINE
  5
381
100
AcDbEntity
  8
S2
390
962
  6
DASHED
 62
           4
 48
25.39999961853
100
AcDbLine
 10
104.384811401367
 20
-51.148537173542
 30
0.0
 11
102.884811401367
 21
-51.148537173542
 31
0.0
  0
LINE
  5
382
100
AcDbEntity
  8
S2
390
962
  6
CONTINUOUS
 62
           4
 48
25.39999961853
100
AcDbLine
 10
101.384811401367
 20
-56.148537173542
 30
0.0
 11
101.384811401367
 21
-65.148537173542
 31
0.0
  0
LINE
  5
383
100
AcDbEntity
  8
S2
390
962
  6
DASHED
 62
           4
 48
25.39999961853
100
AcDbLine
 10
101.384811401367
 20
-54.148537173542
 30
0.0
 11
101.384811401367
 21
-56.148537173542
 31
0.0
  0
LINE
  5
384
100
AcDbEntity
  8
S2
390
962
  6
DASHED
 62
           4
 48
25.39999961853
100
AcDbLine
 10
81.384811401367
 20
-51.148537173542
 30
0.0
 11
82.884811401367
 21
-51.148537173542
 31
0.0
  0
LINE
  5
385
100
AcDbEntity
  8
S2
390
962
  6
DASHED
 62
           4
 48
25.39999961853
100
AcDbLine
 10
84.384811401367
 20
-54.148537173542
 30
0.0
 11
84.384811401367
 21
-56.148537173542
 31
0.0
  0
LINE
  5
386
100
AcDbEntity
  8
S2
390
962
  6
CONTINUOUS
 62
           4
 48
25.39999961853
100
AcDbLine
 10
84.384811401367
 20
-56.148537173542
 30
0.0
 11
84.384811401367
 21
-65.148537173542
 31
0.0
  0
LINE
  5
387
100
AcDbEntity
  8
S2
390
962
  6
CONTINUOUS
 62
           4
 48
25.39999961853
100
AcDbLine
 10
96.384811401367
 20
-56.148537173542
 30
0.0
 11
96.384811401367
 21
-59.148537173542
 31
0.0
  0
LINE
  5
388
100
AcDbEntity
  8
S2
390
962
  6
CONTINUOUS
 62
           4
 48
25.39999961853
100
AcDbLine
 10
101.384811401367
 20
-59.148537173542
 30
0.0
 11
96.384811401367
 21
-59.148537173542
 31
0.0
  0
LINE
  5
389
100
AcDbEntity
  8
S2
390
962
  6
CONTINUOUS
 62
           4
 48
25.39999961853
100
AcDbLine
 10
84.384811401367
 20
-59.148537173542
 30
0.0
 11
89.384811401367
 21
-59.148537173542
 31
0.0
  0
LINE
  5
38A
100
AcDbEntity
  8
S2
390
962
  6
DASHED
 62
           4
 48
25.39999961853
100
AcDbLine
 10
100.384811401367
 20
-64.03853656319
 30
0.0
 11
100.384811401367
 21
-65.148537173542
 31
0.0
  0
LINE
  5
38B
100
AcDbEntity
  8
S2
390
962
  6
DASHED
 62
           4
 48
25.39999961853
100
AcDbLine
 10
85.384811401367
 20
-64.03853656319
 30
0.0
 11
85.384811401367
 21
-65.148537173542
 31
0.0
  0
LINE
  5
38C
100
AcDbEntity
  8
S2
390
962
  6
DASHED
 62
           4
 48
25.39999961853
100
AcDbLine
 10
85.884811401367
 20
-54.148537173542
 30
0.0
 11
85.884811401367
 21
-64.03853656319
 31
0.0
  0
LINE
  5
38D
100
AcDbEntity
  8
S2
390
962
  6
DASHED
 62
           4
 48
25.39999961853
100
AcDbLine
 10
85.384811401367
 20
-64.03853656319
 30
0.0
 11
100.384811401367
 21
-64.03853656319
 31
0.0
  0
LINE
  5
38E
100
AcDbEntity
  8
S2
390
962
  6
DASHED
 62
           4
 48
25.39999961853
100
AcDbLine
 10
99.884811401367
 20
-54.148537173542
 30
0.0
 11
99.884811401367
 21
-64.03853656319
 31
0.0
  0
LINE
  5
38F
100
AcDbEntity
  8
S2
390
962
  6
DASHED
 62
           4
 48
25.39999961853
100
AcDbLine
 10
84.384811401367
 20
-56.148537173542
 30
0.0
 11
89.384811401367
 21
-56.148537173542
 31
0.0
  0
LINE
  5
390
100
AcDbEntity
  8
S2
390
962
  6
DASHED
 62
           4
 48
25.39999961853
100
AcDbLine
 10
82.884811401367
 20
-56.148537173542
 30
0.0
 11
82.884811401367
 21
-54.148537173542
 31
0.0
  0
LINE
  5
391
100
AcDbEntity
  8
S2
390
962
  6
DASHED
 62
           4
 48
25.39999961853
100
AcDbLine
 10
102.884811401367
 20
-56.148537173542
 30
0.0
 11
102.884811401367
 21
-54.148537173542
 31
0.0
  0
LINE
  5
392
100
AcDbEntity
  8
S2
390
962
  6
DASHED
 62
           4
 48
25.39999961853
100
AcDbLine
 10
96.384811401367
 20
-56.148537173542
 30
0.0
 11
101.384811401367
 21
-56.148537173542
 31
0.0
  0
LINE
  5
393
100
AcDbEntity
  8
S2
390
962
  6
CENTER
 62
           4
 48
25.39999961853
100
AcDbLine
 10
92.884811401367
 20
-44.983620181354
 30
0.0
 11
92.884811401367
 21
-71.476471438678
 31
0.0
  0
LINE
  5
394
100
AcDbEntity
  8
S2
390
962
  6
CONTINUOUS
 62
           4
 48
25.39999961853
100
AcDbLine
 10
84.384811401367
 20
-65.148537173542
 30
0.0
 11
101.384811401367
 21
-65.148537173542
 31
0.0
  0
LINE
  5
395
100
AcDbEntity
  8
S2
390
962
  6
CONTINUOUS
 62
           4
 48
25.39999961853
100
AcDbLine
 10
104.384811401367
 20
-56.148537173542
 30
0.0
 11
104.384811401367
 21
-46.648537173542
 31
0.0
  0
LINE
  5
396
100
AcDbEntity
  8
S2
390
962
  6
CONTINUOUS
 62
           4
 48
25.39999961853
100
AcDbLine
 10
82.884811401367
 20
-54.148537173542
 30
0.0
 11
102.884811401367
 21
-54.148537173542
 31
0.0
  0
LINE
  5
397
100
AcDbEntity
  8
S2
390
962
  6
CONTINUOUS
 62
           4
 48
25.39999961853
100
AcDbLine
 10
101.884811401367
 20
-48.648537173542
 30
0.0
 11
102.884811401367
 21
-48.648537173542
 31
0.0
  0
LINE
  5
398
100
AcDbEntity
  8
S2
390
962
  6
CONTINUOUS
 62
           4
 48
25.39999961853
100
AcDbLine
 10
83.884811401367
 20
-48.648537173542
 30
0.0
 11
82.884811401367
 21
-48.648537173542
 31
0.0
  0
LINE
  5
399
100
AcDbEntity
  8
S2
390
962
  6
CONTINUOUS
 62
           4
 48
25.39999961853
100
AcDbLine
 10
81.384811401367
 20
-46.648537173542
 30
0.0
 11
81.884811401367
 21
-46.648537173542
 31
0.0
  0
LINE
  5
39A
100
AcDbEntity
  8
S2
390
962
  6
CONTINUOUS
 62
           4
 48
25.39999961853
100
AcDbLine
 10
83.884811401367
 20
-48.148537173542
 30
0.0
 11
81.884811401367
 21
-46.648537173542
 31
0.0
  0
LINE
  5
39B
100
AcDbEntity
  8
S2
390
962
  6
CONTINUOUS
 62
           4
 48
25.39999961853
100
AcDbLine
 10
101.884811401367
 20
-48.148537173542
 30
0.0
 11
103.884811401367
 21
-46.648537173542
 31
0.0
  0
LINE
  5
39C
100
AcDbEntity
  8
S2
390
962
  6
CONTINUOUS
 62
           4
 48
25.39999961853
100
AcDbLine
 10
104.384811401367
 20
-46.648537173542
 30
0.0
 11
103.884811401367
 21
-46.648537173542
 31
0.0
  0
LINE
  5
39D
100
AcDbEntity
  8
S2
390
962
  6
CONTINUOUS
 62
           4
 48
25.39999961853
100
AcDbLine
 10
83.884811401367
 20
-48.648537173542
 30
0.0
 11
83.884811401367
 21
-48.148537173542
 31
0.0
  0
LINE
  5
39E
100
AcDbEntity
  8
S2
390
962
  6
CONTINUOUS
 62
           4
 48
25.39999961853
100
AcDbLine
 10
82.884811401367
 20
-54.148537173542
 30
0.0
 11
82.884811401367
 21
-47.398537173542
 31
0.0
  0
LINE
  5
39F
100
AcDbEntity
  8
S2
390
962
  6
CONTINUOUS
 62
           4
 48
25.39999961853
100
AcDbLine
 10
101.884811401367
 20
-48.648537173542
 30
0.0
 11
101.884811401367
 21
-48.148537173542
 31
0.0
  0
LINE
  5
3A0
100
AcDbEntity
  8
S2
390
962
  6
CONTINUOUS
 62
           4
 48
25.39999961853
100
AcDbLine
 10
102.884811401367
 20
-54.148537173542
 30
0.0
 11
102.884811401367
 21
-47.398537173542
 31
0.0
  0
LINE
  5
3A1
100
AcDbEntity
  8
S2
390
962
  6
CONTINUOUS
 62
           4
 48
25.39999961853
100
AcDbLine
 10
87.884811401367
 20
-55.648537173542
 30
0.0
 11
85.884811401367
 21
-55.648537173542
 31
0.0
  0
LINE
  5
3A2
100
AcDbEntity
  8
S2
390
962
  6
CONTINUOUS
 62
           4
 48
25.39999961853
100
AcDbLine
 10
85.884811401367
 20
-55.648537173542
 30
0.0
 11
85.884811401367
 21
-57.648537173542
 31
0.0
  0
LINE
  5
3A3
100
AcDbEntity
  8
S2
390
962
  6
CONTINUOUS
 62
           4
 48
25.39999961853
100
AcDbLine
 10
87.884811401367
 20
-55.648537173542
 30
0.0
 11
87.884811401367
 21
-57.648537173542
 31
0.0
  0
LINE
  5
3A4
100
AcDbEntity
  8
S2
390
962
  6
CONTINUOUS
 62
           4
 48
25.39999961853
100
AcDbLine
 10
104.384811401367
 20
-56.148537173542
 30
0.0
 11
101.384811401367
 21
-56.148537173542
 31
0.0
  0
LINE
  5
3A5
100
AcDbEntity
  8
S2
390
962
  6
CONTINUOUS
 62
           4
 48
25.39999961853
100
AcDbLine
 10
84.384811401367
 20
-56.148537173542
 30
0.0
 11
81.384811401367
 21
-56.148537173542
 31
0.0
  0
LINE
  5
3A6
100
AcDbEntity
  8
S2
390
962
  6
CONTINUOUS
 62
           4
 48
25.39999961853
100
AcDbLine
 10
99.884811401367
 20
-55.648537173542
 30
0.0
 11
99.884811401367
 21
-57.648537173542
 31
0.0
  0
LINE
  5
3A7
100
AcDbEntity
  8
S2
390
962
  6
CONTINUOUS
 62
           4
 48
25.39999961853
100
AcDbLine
 10
97.884811401367
 20
-55.648537173542
 30
0.0
 11
99.884811401367
 21
-55.648537173542
 31
0.0
  0
LINE
  5
3A8
100
AcDbEntity
  8
S2
390
962
  6
CONTINUOUS
 62
           4
 48
25.39999961853
100
AcDbLine
 10
97.884811401367
 20
-55.648537173542
 30
0.0
 11
97.884811401367
 21
-57.648537173542
 31
0.0
  0
LINE
  5
3A9
100
AcDbEntity
  8
S2
390
962
  6
CONTINUOUS
 62
           4
 48
25.39999961853
100
AcDbLine
 10
96.384811401367
 20
-56.148537173542
 30
0.0
 11
89.384811401367
 21
-56.148537173542
 31
0.0
  0
LINE
  5
3AA
100
AcDbEntity
  8
S2
390
962
  6
CONTINUOUS
 62
           4
 48
25.39999961853
100
AcDbLine
 10
89.384811401367
 20
-56.148537173542
 30
0.0
 11
89.384811401367
 21
-59.148537173542
 31
0.0
  0
LINE
  5
3AB
100
AcDbEntity
  8
S2
390
962
  6
CONTINUOUS
 62
           4
 48
25.39999961853
100
AcDbLine
 10
85.884811401367
 20
-57.648537173542
 30
0.0
 11
87.884811401367
 21
-57.648537173542
 31
0.0
  0
LINE
  5
3AC
100
AcDbEntity
  8
S2
390
962
  6
CONTINUOUS
 62
           4
 48
25.39999961853
100
AcDbLine
 10
97.884811401367
 20
-57.648537173542
 30
0.0
 11
99.884811401367
 21
-57.648537173542
 31
0.0
  0
LINE
  5
3AD
100
AcDbEntity
  8
S2
390
962
  6
CONTINUOUS
 62
         170
 48
25.39999961853
100
AcDbLine
 10
85.384811401367
 20
-64.233536258014
 30
0.0
 11
85.384811401367
 21
-64.863541140827
 31
0.0
  0
LINE
  5
3AE
100
AcDbEntity
  8
S2
390
962
  6
CONTINUOUS
 62
         170
 48
25.39999961853
100
AcDbLine
 10
100.384811401367
 20
-64.233536258014
 30
0.0
 11
100.384811401367
 21
-64.863541140827
 31
0.0
  0
LINE
  5
3AF
100
AcDbEntity
  8
S2
390
962
  6
CENTER
 62
           2
 48
25.39999961853
100
AcDbLine
 10
92.884811401367
 20
-65.355537905964
 30
0.0
 11
92.884811401367
 21
-42.381607547077
 31
0.0
  0
LINE
  5
3B0
100
AcDbEntity
  8
S2
390
962
  6
CONTINUOUS
 62
         170
 48
25.39999961853
100
AcDbLine
 10
85.384811401367
 20
-64.233536258014
 30
0.0
 11
100.384811401367
 21
-64.233536258014
 31
0.0
  0
LINE
  5
3B1
100
AcDbEntity
  8
S2
390
962
  6
CONTINUOUS
 62
         170
 48
25.39999961853
100
AcDbLine
 10
85.384811401367
 20
-64.863541140827
 30
0.0
 11
100.384811401367
 21
-64.863541140827
 31
0.0
  0
LINE
  5
3B2
100
AcDbEntity
  8
S2
390
962
  6
CONTINUOUS
 62
         133
 48
25.39999961853
100
AcDbLine
 10
74.268569946289
 20
-58.083916201862
 30
0.0
 11
74.458953857422
 21
-64.130020633014
 31
0.0
  0
LINE
  5
3B3
100
AcDbEntity
  8
S2
390
962
  6
CONTINUOUS
 62
         133
 48
25.39999961853
100
AcDbLine
 10
76.148620605469
 20
-67.078300967487
 30
0.0
 11
73.05411529541
 21
-67.17574359444
 31
0.0
  0
LINE
  5
3B4
100
AcDbEntity
  8
S2
390
962
  6
CONTINUOUS
 62
         133
 48
25.39999961853
100
AcDbLine
 10
76.664108276367
 20
-67.562317385944
 30
0.0
 11
76.71076965332
 21
-69.044342532428
 31
0.0
  0
LINE
  5
3B5
100
AcDbEntity
  8
S2
390
962
  6
CONTINUOUS
 62
         133
 48
25.39999961853
100
AcDbLine
 10
78.615905761719
 20
-66.000114932331
 30
0.0
 11
78.709777832031
 21
-68.981400027545
 31
0.0
  0
LINE
  5
3B6
100
AcDbEntity
  8
S2
390
962
  6
CONTINUOUS
 62
         133
 48
25.39999961853
100
AcDbLine
 10
77.584930419922
 20
-65.032082095417
 30
0.0
 11
75.489929199219
 21
-65.098053469928
 31
0.0
  0
LINE
  5
3B7
100
AcDbEntity
  8
S2
390
962
  6
CONTINUOUS
 62
         133
 48
25.39999961853
100
AcDbLine
 10
75.650177001953
 20
-47.31571246651
 30
0.0
 11
73.778198242188
 21
-47.64579059151
 31
0.0
  0
LINE
  5
3B8
100
AcDbEntity
  8
S2
390
962
  6
CONTINUOUS
 62
         133
 48
25.39999961853
100
AcDbLine
 10
111.199996948242
 20
-44.398537173542
 30
0.0
 11
109.765609741211
 21
-44.398537173542
 31
0.0
  0
LINE
  5
3B9
100
AcDbEntity
  8
S2
390
962
  6
CONTINUOUS
 62
         133
 48
25.39999961853
100
AcDbLine
 10
111.5
 20
-45.998535647663
 30
0.0
 11
111.5
 21
-44.698540225299
 31
0.0
  0
LINE
  5
3BA
100
AcDbEntity
  8
S2
390
962
  6
CONTINUOUS
 62
         133
 48
25.39999961853
100
AcDbLine
 10
110.871002197266
 20
-42.980270877155
 30
0.0
 11
109.635833740234
 21
-43.429832949909
 31
0.0
  0
LINE
  5
3BB
100
AcDbEntity
  8
S2
390
962
  6
CONTINUOUS
 62
         133
 48
25.39999961853
100
AcDbLine
 10
111.169845581055
 20
-42.339416995319
 30
0.0
 11
110.827819824219
 21
-41.399719729694
 31
0.0
  0
LINE
  5
3BC
100
AcDbEntity
  8
S2
390
962
  6
CONTINUOUS
 62
         133
 48
25.39999961853
100
AcDbLine
 10
110.186965942383
 20
-41.100883975299
 30
0.0
 11
108.947692871094
 21
-41.551941409381
 31
0.0
  0
LINE
  5
3BD
100
AcDbEntity
  8
S2
390
962
  6
CONTINUOUS
 62
         133
 48
25.39999961853
100
AcDbLine
 10
77.475860595703
 20
-60.088943972858
 30
0.0
 11
79.562927246094
 21
-58.932068362506
 31
0.0
  0
LINE
  5
3BE
100
AcDbEntity
  8
S2
390
962
  6
CONTINUOUS
 62
         133
 48
25.39999961853
100
AcDbLine
 10
77.687835693359
 20
-54.965393557819
 30
0.0
 11
75.901763916016
 21
-55.615471377643
 31
0.0
  0
LINE
  5
3BF
100
AcDbEntity
  8
S2
390
962
  6
CONTINUOUS
 62
         133
 48
25.39999961853
100
AcDbLine
 10
75.251922607422
 20
-53.830055728229
 30
0.0
 11
77.038009643555
 21
-53.179977908405
 31
0.0
  0
LINE
  5
3C0
100
AcDbEntity
  8
S2
390
962
  6
CONTINUOUS
 62
         133
 48
25.39999961853
100
AcDbLine
 10
76.373458862305
 20
-56.754227175983
 30
0.0
 11
78.096084594727
 21
-55.950958743366
 31
0.0
  0
LINE
  5
3C1
100
AcDbEntity
  8
S2
390
962
  6
CONTINUOUS
 62
         133
 48
25.39999961853
100
AcDbLine
 10
78.899047851563
 20
-57.672943606647
 30
0.0
 11
77.17643737793
 21
-58.476212039264
 31
0.0
  0
LINE
  5
3C2
100
AcDbEntity
  8
S2
390
962
  6
CONTINUOUS
 62
         133
 48
25.39999961853
100
AcDbLine
 10
74.389526367188
 20
-50.819260134967
 30
0.0
 11
76.225463867187
 21
-50.327316775592
 31
0.0
  0
LINE
  5
3C3
100
AcDbEntity
  8
S2
390
962
  6
CONTINUOUS
 62
         133
 48
25.39999961853
100
AcDbLine
 10
76.717224121094
 20
-52.162582888874
 30
0.0
 11
74.881286621094
 21
-52.654518618854
 31
0.0
  0
LINE
  5
3C4
100
AcDbEntity
  8
S2
390
962
  6
CONTINUOUS
 62
         133
 48
25.39999961853
100
AcDbLine
 10
75.994567871094
 20
-49.285835757526
 30
0.0
 11
74.122749328613
 21
-49.615890994342
 31
0.0
  0
LINE
  5
3C5
100
AcDbEntity
  8
S2
390
962
  6
CONTINUOUS
 62
         133
 48
25.39999961853
100
AcDbLine
 10
82.235534667969
 20
-37.741432681354
 30
0.0
 11
75.578430175781
 21
-44.398537173542
 31
0.0
  0
LINE
  5
3C6
100
AcDbEntity
  8
S2
390
962
  6
CONTINUOUS
 62
         133
 48
25.39999961853
100
AcDbLine
 10
80.821319580078
 20
-36.327217593464
 30
0.0
 11
74.699996948242
 21
-42.448540225299
 31
0.0
  0
LINE
  5
3C7
100
AcDbEntity
  8
S2
390
962
  6
CONTINUOUS
 62
         133
 48
25.39999961853
100
AcDbLine
 10
108.782302856445
 20
-39.434982791217
 30
0.0
 11
107.859909057617
 21
-39.865097537311
 31
0.0
  0
LINE
  5
3C8
100
AcDbEntity
  8
S2
390
962
  6
CONTINUOUS
 62
         133
 48
25.39999961853
100
AcDbLine
 10
111.199996948242
 20
-46.298538699421
 30
0.0
 11
109.899993896484
 21
-46.298538699421
 31
0.0
  0
LINE
  5
3C9
100
AcDbEntity
  8
S2
390
962
  6
CONTINUOUS
 62
         133
 48
25.39999961853
100
AcDbLine
 10
73.900001525879
 20
-44.398537173542
 30
0.0
 11
75.578430175781
 21
-44.398537173542
 31
0.0
  0
LINE
  5
3CA
100
AcDbEntity
  8
S2
390
962
  6
CONTINUOUS
 62
         133
 48
25.39999961853
100
AcDbLine
 10
73.900001525879
 20
-46.298538699421
 30
0.0
 11
75.518676757813
 21
-46.298538699421
 31
0.0
  0
LINE
  5
3CB
100
AcDbEntity
  8
S2
390
962
  6
CONTINUOUS
 62
         133
 48
25.39999961853
100
AcDbLine
 10
110.0
 20
-48.348541751178
 30
0.0
 11
114.069931030273
 21
-48.348541751178
 31
0.0
  0
LINE
  5
3CC
100
AcDbEntity
  8
S2
390
962
  6
CONTINUOUS
 62
         170
 48
25.39999961853
100
AcDbLine
 10
82.942642211914
 20
-35.448540225299
 30
0.0
 11
106.716400146484
 21
-35.448540225299
 31
0.0
  0
LINE
  5
3CD
100
AcDbEntity
  8
S2
390
962
  6
CONTINUOUS
 62
         133
 48
25.39999961853
100
AcDbLine
 10
82.942642211914
 20
-37.448540225299
 30
0.0
 11
106.716400146484
 21
-37.448540225299
 31
0.0
  0
LINE
  5
3CE
100
AcDbEntity
  8
S2
390
962
  6
CONTINUOUS
 62
         133
 48
25.39999961853
100
AcDbLine
 10
73.765686035156
 20
-42.448540225299
 30
0.0
 11
74.699996948242
 21
-42.448540225299
 31
0.0
  0
LINE
  5
3CF
100
AcDbEntity
  8
S2
390
962
  6
CONTINUOUS
 62
         133
 48
25.39999961853
100
AcDbLine
 10
73.900001525879
 20
-46.298538699421
 30
0.0
 11
73.900001525879
 21
-44.398537173542
 31
0.0
  0
LINE
  5
3D0
100
AcDbEntity
  8
S2
390
962
  6
CONTINUOUS
 62
         133
 48
25.39999961853
100
AcDbLine
 10
72.731895446777
 20
-56.943031802448
 30
0.0
 11
73.05411529541
 21
-67.17574359444
 31
0.0
  0
LINE
  5
3D1
100
AcDbEntity
  8
S2
390
962
  6
CONTINUOUS
 62
         170
 48
25.39999961853
100
AcDbLine
 10
113.895874023438
 20
-46.348541751178
 30
0.0
 11
114.069931030273
 21
-46.348541751178
 31
0.0
  0
LINE
  5
3D2
100
AcDbEntity
  8
S2
390
962
  6
CONTINUOUS
 62
         133
 48
25.39999961853
100
AcDbLine
 10
75.5
 20
-46.298538699421
 30
0.0
 11
75.5
 21
-44.398537173542
 31
0.0
  0
LINE
  5
3D3
100
AcDbEntity
  8
S2
390
962
  6
CONTINUOUS
 62
         133
 48
25.39999961853
100
AcDbLine
 10
109.899993896484
 20
-44.398537173542
 30
0.0
 11
109.899993896484
 21
-46.298538699421
 31
0.0
  0
LINE
  5
3D4
100
AcDbEntity
  8
S2
390
962
  6
CONTINUOUS
 62
         133
 48
25.39999961853
100
AcDbLine
 10
109.247268676758
 20
-41.442902102741
 30
0.0
 11
109.93132019043
 21
-43.322289004596
 31
0.0
  0
LINE
  5
3D5
100
AcDbEntity
  8
S2
390
962
  6
CONTINUOUS
 62
         170
 48
25.39999961853
100
AcDbLine
 10
75.742736816406
 20
-70.07532550362
 30
0.0
 11
77.741744995117
 21
-70.012375369342
 31
0.0
  0
LINE
  5
3D6
100
AcDbEntity
  8
S2
390
962
  6
CONTINUOUS
 62
         170
 48
25.39999961853
100
AcDbLine
 10
75.71125793457
 20
-69.075821414264
 30
0.0
 11
75.742736816406
 21
-70.07532550362
 31
0.0
  0
LINE
  5
3D7
100
AcDbEntity
  8
S2
390
962
  6
CONTINUOUS
 62
         170
 48
25.39999961853
100
AcDbLine
 10
75.71125793457
 20
-69.075821414264
 30
0.0
 11
76.71076965332
 21
-69.044342532428
 31
0.0
  0
LINE
  5
3D8
100
AcDbEntity
  8
S2
390
962
  6
DASHED
 62
         142
 48
25.39999961853
100
AcDbLine
 10
84.352416992188
 20
-77.74851199654
 30
0.0
 11
73.647583007813
 21
-77.74851199654
 31
0.0
  0
LINE
  5
3D9
100
AcDbEntity
  8
S2
390
962
  6
CONTINUOUS
 62
           1
 48
25.39999961853
100
AcDbLine
 10
72.0
 20
-34.148536410602
 30
0.0
 11
70.126953125
 21
-34.148536410602
 31
0.0
  0
LINE
  5
3DA
100
AcDbEntity
  8
S2
390
962
  6
CONTINUOUS
 62
           1
 48
25.39999961853
100
AcDbLine
 10
93.0
 20
-79.148521151813
 30
0.0
 11
85.320922851563
 21
-79.148521151813
 31
0.0
  0
LINE
  5
3DB
100
AcDbEntity
  8
S2
390
962
  6
CONTINUOUS
 62
           1
 48
25.39999961853
100
AcDbLine
 10
70.0
 20
-79.148521151813
 30
0.0
 11
70.0
 21
-35.148536410602
 31
0.0
  0
LINE
  5
3DC
100
AcDbEntity
  8
S2
390
962
  6
CONTINUOUS
 62
           1
 48
25.39999961853
100
AcDbLine
 10
74.0
 20
-31.148536410602
 30
0.0
 11
109.792846679688
 21
-31.148536410602
 31
0.0
  0
LINE
  5
3DD
100
AcDbEntity
  8
S2
390
962
  6
CONTINUOUS
 62
           1
 48
25.39999961853
100
AcDbLine
 10
117.5
 20
-52.648536410602
 30
0.0
 11
117.5
 21
-51.648536410602
 31
0.0
  0
LINE
  5
3DE
100
AcDbEntity
  8
S2
390
962
  6
CONTINUOUS
 62
           1
 48
25.39999961853
100
AcDbLine
 10
92.99560546875
 20
-77.148536410602
 30
0.0
 11
84.75
 21
-77.148536410602
 31
0.0
  0
LINE
  5
3DF
100
AcDbEntity
  8
S2
390
962
  6
CONTINUOUS
 62
           1
 48
25.39999961853
100
AcDbLine
 10
70.0
 20
-38.148536410602
 30
0.0
 11
70.0
 21
-76.148536410602
 31
0.0
  0
LINE
  5
3E0
100
AcDbEntity
  8
S2
390
962
  6
DASHED
 62
         142
 48
25.39999961853
100
AcDbLine
 10
72.0
 20
-41.334815707477
 30
0.0
 11
72.0
 21
-55.248939242633
 31
0.0
  0
LINE
  5
3E1
100
AcDbEntity
  8
S2
390
962
  6
CONTINUOUS
 62
           1
 48
25.39999961853
100
AcDbLine
 10
75.0
 20
-33.148536410602
 30
0.0
 11
107.899658203125
 21
-33.148536410602
 31
0.0
  0
LINE
  5
3E2
100
AcDbEntity
  8
S2
390
962
  6
CONTINUOUS
 62
           1
 48
25.39999961853
100
AcDbLine
 10
118.5
 20
-51.648536410602
 30
0.0
 11
118.5
 21
-52.648536410602
 31
0.0
  0
LINE
  5
3E3
100
AcDbEntity
  8
S2
390
962
  6
CONTINUOUS
 62
           1
 48
25.39999961853
100
AcDbLine
 10
74.0
 20
-32.148536410602
 30
0.0
 11
109.431640625
 21
-32.148536410602
 31
0.0
  0
LINE
  5
3E4
100
AcDbEntity
  8
S2
390
962
  6
CONTINUOUS
 62
           1
 48
25.39999961853
100
AcDbLine
 10
84.352294921875
 20
-77.749885287555
 30
0.0
 11
84.279052734375
 21
-79.148521151813
 31
0.0
  0
LINE
  5
3E5
100
AcDbEntity
  8
S2
390
962
  6
CONTINUOUS
 62
           1
 48
25.39999961853
100
AcDbLine
 10
85.24755859375
 20
-77.74851199654
 30
0.0
 11
85.320922851562
 21
-79.148521151813
 31
0.0
  0
LINE
  5
3E6
100
AcDbEntity
  8
S2
390
962
  6
CONTINUOUS
 62
           1
 48
25.39999961853
100
AcDbLine
 10
72.752319335937
 20
-77.74851199654
 30
0.0
 11
72.678955078125
 21
-79.148521151813
 31
0.0
  0
LINE
  5
3E7
100
AcDbEntity
  8
S2
390
962
  6
CONTINUOUS
 62
           1
 48
25.39999961853
100
AcDbLine
 10
73.647583007812
 20
-77.74851199654
 30
0.0
 11
73.720947265625
 21
-79.148521151813
 31
0.0
  0
LINE
  5
3E8
100
AcDbEntity
  8
S2
390
962
  6
CONTINUOUS
 62
           1
 48
25.39999961853
100
AcDbLine
 10
84.75
 20
-77.148536410602
 30
0.0
 11
70.0
 21
-77.148536410602
 31
0.0
  0
LINE
  5
3E9
100
AcDbEntity
  8
S2
390
962
  6
CONTINUOUS
 62
           1
 48
25.39999961853
100
AcDbLine
 10
72.0
 20
-34.448540225299
 30
0.0
 11
72.0
 21
-34.148536410602
 31
0.0
  0
LINE
  5
3EA
100
AcDbEntity
  8
S2
390
962
  6
CONTINUOUS
 62
           1
 48
25.39999961853
100
AcDbLine
 10
93.0
 20
-78.148536410602
 30
0.0
 11
85.2685546875
 21
-78.148536410602
 31
0.0
  0
LINE
  5
3EB
100
AcDbEntity
  8
S2
390
962
  6
CONTINUOUS
 62
           1
 48
25.39999961853
100
AcDbLine
 10
85.24755859375
 20
-77.74851199654
 30
0.0
 11
84.352416992188
 21
-77.74851199654
 31
0.0
  0
LINE
  5
3EC
100
AcDbEntity
  8
S2
390
962
  6
CONTINUOUS
 62
           1
 48
25.39999961853
100
AcDbLine
 10
73.647583007813
 20
-77.74851199654
 30
0.0
 11
72.752319335938
 21
-77.74851199654
 31
0.0
  0
LINE
  5
3ED
100
AcDbEntity
  8
S2
390
962
  6
DASHED
 62
         142
 48
25.39999961853
100
AcDbLine
 10
70.599975585938
 20
-41.648536410602
 30
0.0
 11
72.0
 21
-41.648536410602
 31
0.0
  0
LINE
  5
3EE
100
AcDbEntity
  8
S2
390
962
  6
DASHED
 62
         142
 48
25.39999961853
100
AcDbLine
 10
70.599975585938
 20
-50.648536410602
 30
0.0
 11
72.0
 21
-50.648536410602
 31
0.0
  0
LINE
  5
3EF
100
AcDbEntity
  8
S2
390
962
  6
DASHED
 62
         142
 48
25.39999961853
100
AcDbLine
 10
70.599975585938
 20
-41.648536410602
 30
0.0
 11
70.599975585938
 21
-50.648536410602
 31
0.0
  0
LINE
  5
3F0
100
AcDbEntity
  8
S2
390
962
  6
CONTINUOUS
 62
           1
 48
25.39999961853
100
AcDbLine
 10
84.331420898438
 20
-78.148536410602
 30
0.0
 11
73.668579101563
 21
-78.148536410602
 31
0.0
  0
LINE
  5
3F1
100
AcDbEntity
  8
S2
390
962
  6
CONTINUOUS
 62
           1
 48
25.39999961853
100
AcDbLine
 10
84.279052734375
 20
-79.148521151813
 30
0.0
 11
73.720947265625
 21
-79.148521151813
 31
0.0
  0
LINE
  5
3F2
100
AcDbEntity
  8
S2
390
962
  6
CONTINUOUS
 62
           1
 48
25.39999961853
100
AcDbLine
 10
72.678955078125
 20
-79.148521151813
 30
0.0
 11
70.0
 21
-79.148521151813
 31
0.0
  0
LINE
  5
3F3
100
AcDbEntity
  8
S2
390
962
  6
CONTINUOUS
 62
           1
 48
25.39999961853
100
AcDbLine
 10
72.7314453125
 20
-78.148536410602
 30
0.0
 11
70.0
 21
-78.148536410602
 31
0.0
  0
LINE
  5
3F4
100
AcDbEntity
  8
S2
390
962
  6
CONTINUOUS
 62
           1
 48
25.39999961853
100
AcDbLine
 10
119.5
 20
-51.648536410602
 30
0.0
 11
119.5
 21
-52.648536410602
 31
0.0
  0
LINE
  5
3F5
100
AcDbEntity
  8
S2
390
962
  6
CONTINUOUS
 62
          23
 48
25.39999961853
100
AcDbLine
 10
52.182250976563
 20
-56.15036746529
 30
0.0
 11
72.0
 21
-56.15036746529
 31
0.0
  0
LINE
  5
3F6
100
AcDbEntity
  8
S2
390
962
  6
CONTINUOUS
 62
          23
 48
25.39999961853
100
AcDbLine
 10
54.233459472656
 20
-55.550376620563
 30
0.0
 11
54.233459472656
 21
-59.750373568805
 31
0.0
  0
LINE
  5
3F7
100
AcDbEntity
  8
S2
390
962
  6
CONTINUOUS
 62
          23
 48
25.39999961853
100
AcDbLine
 10
54.233459472656
 20
-55.550376620563
 30
0.0
 11
72.0
 21
-55.550376620563
 31
0.0
  0
LINE
  5
3F8
100
AcDbEntity
  8
S2
390
962
  6
CONTINUOUS
 62
          23
 48
25.39999961853
100
AcDbLine
 10
52.182250976563
 20
-59.15036746529
 30
0.0
 11
72.0
 21
-59.15036746529
 31
0.0
  0
LINE
  5
3F9
100
AcDbEntity
  8
S2
390
962
  6
CONTINUOUS
 62
          23
 48
25.39999961853
100
AcDbLine
 10
54.233459472656
 20
-59.750373568805
 30
0.0
 11
72.0
 21
-59.750373568805
 31
0.0
  0
LINE
  5
3FA
100
AcDbEntity
  8
S2
390
962
  6
DASHED
 62
          23
 48
25.39999961853
100
AcDbLine
 10
72.0
 20
-53.550376620563
 30
0.0
 11
72.949951171875
 21
-53.550376620563
 31
0.0
  0
LINE
  5
3FB
100
AcDbEntity
  8
S2
390
962
  6
DASHED
 62
          23
 48
25.39999961853
100
AcDbLine
 10
74.449951171875
 20
-55.050376620563
 30
0.0
 11
74.449951171875
 21
-57.15036746529
 31
0.0
  0
LINE
  5
3FC
100
AcDbEntity
  8
S2
390
962
  6
DASHED
 62
          23
 48
25.39999961853
100
AcDbLine
 10
74.449951171875
 20
-57.15036746529
 30
0.0
 11
73.750915527344
 21
-57.15036746529
 31
0.0
  0
LINE
  5
3FD
100
AcDbEntity
  8
S2
390
962
  6
DASHED
 62
          23
 48
25.39999961853
100
AcDbLine
 10
73.750915527344
 20
-57.15036746529
 30
0.0
 11
73.750915527344
 21
-58.15036746529
 31
0.0
  0
LINE
  5
3FE
100
AcDbEntity
  8
S2
390
962
  6
DASHED
 62
          23
 48
25.39999961853
100
AcDbLine
 10
74.449951171875
 20
-58.15036746529
 30
0.0
 11
73.750915527344
 21
-58.15036746529
 31
0.0
  0
LINE
  5
3FF
100
AcDbEntity
  8
S2
390
962
  6
DASHED
 62
          23
 48
25.39999961853
100
AcDbLine
 10
74.449951171875
 20
-58.15036746529
 30
0.0
 11
74.449951171875
 21
-60.250373568805
 31
0.0
  0
LINE
  5
400
100
AcDbEntity
  8
S2
390
962
  6
DASHED
 62
          23
 48
25.39999961853
100
AcDbLine
 10
72.0
 20
-61.750373568805
 30
0.0
 11
72.0
 21
-53.550376620563
 31
0.0
  0
LINE
  5
401
100
AcDbEntity
  8
S2
390
962
  6
DASHED
 62
          23
 48
25.39999961853
100
AcDbLine
 10
72.0
 20
-61.750373568805
 30
0.0
 11
72.949951171875
 21
-61.750373568805
 31
0.0
  0
LINE
  5
402
100
AcDbEntity
  8
S2
390
962
  6
CONTINUOUS
 62
          23
 48
25.39999961853
100
AcDbLine
 10
89.102142333984
 20
-17.382026400837
 30
0.0
 11
89.102142333984
 21
-35.148536410602
 31
0.0
  0
LINE
  5
403
100
AcDbEntity
  8
S2
390
962
  6
CONTINUOUS
 62
          23
 48
25.39999961853
100
AcDbLine
 10
88.502136230469
 20
-15.330833163532
 30
0.0
 11
88.502136230469
 21
-35.148536410602
 31
0.0
  0
LINE
  5
404
100
AcDbEntity
  8
S2
390
962
  6
CONTINUOUS
 62
          23
 48
25.39999961853
100
AcDbLine
 10
84.902160644531
 20
-17.382026400837
 30
0.0
 11
84.902160644531
 21
-35.148536410602
 31
0.0
  0
LINE
  5
405
100
AcDbEntity
  8
S2
390
962
  6
CONTINUOUS
 62
          23
 48
25.39999961853
100
AcDbLine
 10
85.502136230469
 20
-15.330833163532
 30
0.0
 11
85.502136230469
 21
-35.148536410602
 31
0.0
  0
LINE
  5
406
100
AcDbEntity
  8
S2
390
962
  6
DASHED
 62
          23
 48
25.39999961853
100
AcDbLine
 10
82.902160644531
 20
-35.148536410602
 30
0.0
 11
91.102142333984
 21
-35.148536410602
 31
0.0
  0
LINE
  5
407
100
AcDbEntity
  8
S2
390
962
  6
DASHED
 62
          23
 48
25.39999961853
100
AcDbLine
 10
91.102142333984
 20
-35.148536410602
 30
0.0
 11
91.102142333984
 21
-36.098548617633
 31
0.0
  0
LINE
  5
408
100
AcDbEntity
  8
S2
390
962
  6
DASHED
 62
          23
 48
25.39999961853
100
AcDbLine
 10
89.602142333984
 20
-37.598548617633
 30
0.0
 11
87.502136230469
 21
-37.598548617633
 31
0.0
  0
LINE
  5
409
100
AcDbEntity
  8
S2
390
962
  6
DASHED
 62
          23
 48
25.39999961853
100
AcDbLine
 10
87.502136230469
 20
-36.899512973102
 30
0.0
 11
86.502136230469
 21
-36.899512973102
 31
0.0
  0
LINE
  5
40A
100
AcDbEntity
  8
S2
390
962
  6
DASHED
 62
          23
 48
25.39999961853
100
AcDbLine
 10
87.502136230469
 20
-37.598548617633
 30
0.0
 11
87.502136230469
 21
-36.899512973102
 31
0.0
  0
LINE
  5
40B
100
AcDbEntity
  8
S2
390
962
  6
DASHED
 62
          23
 48
25.39999961853
100
AcDbLine
 10
86.502136230469
 20
-37.598548617633
 30
0.0
 11
86.502136230469
 21
-36.899512973102
 31
0.0
  0
LINE
  5
40C
100
AcDbEntity
  8
S2
390
962
  6
DASHED
 62
          23
 48
25.39999961853
100
AcDbLine
 10
86.502136230469
 20
-37.598548617633
 30
0.0
 11
84.402160644531
 21
-37.598548617633
 31
0.0
  0
LINE
  5
40D
100
AcDbEntity
  8
S2
390
962
  6
DASHED
 62
          23
 48
25.39999961853
100
AcDbLine
 10
82.902160644531
 20
-35.148536410602
 30
0.0
 11
82.902160644531
 21
-36.098548617633
 31
0.0
  0
LINE
  5
40E
100
AcDbEntity
  8
S2
390
962
  6
CONTINUOUS
 62
          23
 48
25.39999961853
100
AcDbLine
 10
89.102142333984
 20
-17.382026400837
 30
0.0
 11
84.902160644531
 21
-17.382026400837
 31
0.0
  0
LINE
  5
40F
100
AcDbEntity
  8
S2
390
962
  6
CENTER
 62
          92
 48
25.39999961853
100
AcDbLine
 10
47.826904296875
 20
-57.65036746529
 30
0.0
 11
78.863037109375
 21
-57.65036746529
 31
0.0
  0
LINE
  5
410
100
AcDbEntity
  8
S2
390
962
  6
CENTER
 62
          92
 48
25.39999961853
100
AcDbLine
 10
87.002136230469
 20
-40.05742618111
 30
0.0
 11
87.002136230469
 21
-12.10446902779
 31
0.0
  0
ARC
  5
411
100
AcDbEntity
  8
S2
390
962
  6
CONTINUOUS
 62
           1
 48
25.39999961853
100
AcDbCircle
 10
77.217197806831
 20
39.11121149373
 30
0.0
 40
0.89999997616
100
AcDbArc
 50
195.417854833066
 51
265.95949811262
  0
ARC
  5
412
100
AcDbEntity
  8
S2
390
962
  6
CONTINUOUS
 62
           1
 48
25.39999961853
100
AcDbCircle
 10
74.388771129179
 20
36.28280277736
 30
0.0
 40
0.899999976158
100
AcDbArc
 50
4.066479256795
 51
74.582005277589
  0
ARC
  5
413
100
AcDbEntity
  8
S2
390
962
  6
CONTINUOUS
 62
           1
 48
25.39999961853
100
AcDbCircle
 10
75.0
 20
38.5000076294
 30
0.0
 40
2.049537399897
100
AcDbArc
 50
277.554633668744
 51
352.444639600608
  0
CIRCLE
  5
414
100
AcDbEntity
  8
S2
390
962
  6
CONTINUOUS
 62
           1
 48
25.39999961853
100
AcDbCircle
 10
75.0
 20
38.50000762939
 30
0.0
 40
3.75
  0
CIRCLE
  5
415
100
AcDbEntity
  8
S2
390
962
  6
CONTINUOUS
 62
           1
 48
25.39999961853
100
AcDbCircle
 10
75.0
 20
38.50000762939
 30
0.0
 40
2.05372650359
  0
ARC
  5
416
100
AcDbEntity
  8
S2
390
962
  6
CONTINUOUS
 62
           1
 48
25.39999961853
100
AcDbCircle
 10
74.0
 20
41.50000762939
 30
0.0
 40
4.0
100
AcDbArc
 50
90.0
 51
180.0
  0
ARC
  5
417
100
AcDbEntity
  8
S2
390
962
  6
CONTINUOUS
 62
           1
 48
25.39999961853
100
AcDbCircle
 10
93.0
 20
24.00000762939
 30
0.0
 40
26.499999999996
100
AcDbArc
 50
270.0
 51
360.0
  0
ARC
  5
418
100
AcDbEntity
  8
S2
390
962
  6
CONTINUOUS
 62
           1
 48
25.39999961853
100
AcDbCircle
 10
93.0
 20
24.00000762939
 30
0.0
 40
6.5
100
AcDbArc
 50
270.0
 51
360.0
  0
ARC
  5
419
100
AcDbEntity
  8
S2
390
962
  6
CONTINUOUS
 62
          23
 48
25.39999961853
100
AcDbCircle
 10
55.310668945313
 20
13.609306335445
 30
0.0
 40
7.565946578979
100
AcDbArc
 50
98.185904083701
 51
134.581728208273
  0
ARC
  5
41A
100
AcDbEntity
  8
S2
390
962
  6
CONTINUOUS
 62
          23
 48
25.39999961853
100
AcDbCircle
 10
55.310668945313
 20
24.387031555171
 30
0.0
 40
7.565946578979
100
AcDbArc
 50
225.418278621916
 51
261.81408225592
  0
ARC
  5
41B
100
AcDbEntity
  8
S2
390
962
  6
DASHED
 62
          23
 48
25.39999961853
100
AcDbCircle
 10
72.949951171875
 20
21.598167419429
 30
0.0
 40
1.5
100
AcDbArc
 50
0.000951217527
 51
90.000475608764
  0
ARC
  5
41C
100
AcDbEntity
  8
S2
390
962
  6
DASHED
 62
          23
 48
25.39999961853
100
AcDbCircle
 10
72.949951171875
 20
16.398170471187
 30
0.0
 40
1.5
100
AcDbArc
 50
270.001419996102
 51
0.000951217527
  0
ARC
  5
41D
100
AcDbEntity
  8
S2
390
962
  6
DASHED
 62
          23
 48
25.39999961853
100
AcDbCircle
 10
89.602142333985
 20
40.549995422359
 30
0.0
 40
1.5
100
AcDbArc
 50
270.001419996102
 51
0.000951217528
  0
ARC
  5
41E
100
AcDbEntity
  8
S2
390
962
  6
CONTINUOUS
 62
          23
 48
25.39999961853
100
AcDbCircle
 10
81.61328125
 20
58.18929290771
 30
0.0
 40
7.565946578979
100
AcDbArc
 50
8.186386522654
 51
44.582196986848
  0
ARC
  5
41F
100
AcDbEntity
  8
S2
390
962
  6
CONTINUOUS
 62
          23
 48
25.39999961853
100
AcDbCircle
 10
92.391021728516
 20
58.18929290771
 30
0.0
 40
7.565946578979
100
AcDbArc
 50
135.418750815585
 51
171.814568109968
  0
ARC
  5
420
100
AcDbEntity
  8
S2
390
962
  6
DASHED
 62
          23
 48
25.39999961853
100
AcDbCircle
 10
84.402160644532
 20
40.549995422359
 30
0.0
 40
1.5
100
AcDbArc
 50
180.0
 51
269.999524391236
  0
ARC
  5
421
100
AcDbEntity
  8
S2
390
962
  6
PHANTOM
 62
          92
 48
25.39999961853
100
AcDbCircle
 10
87.002136230469
 20
-57.65036746529
 30
0.0
 40
40.776784604841
100
AcDbArc
 50
90.0
 51
180.0
  0
ARC
  5
422
100
AcDbEntity
  8
S2
390
962
  6
CONTINUOUS
 62
           1
 48
25.39999961853
100
AcDbCircle
 10
95.692291259766
 20
-41.585037722858
 30
0.0
 40
2.822073221207
100
AcDbArc
 50
8.30136843162
 51
174.172737821623
  0
CIRCLE
  5
423
100
AcDbEntity
  8
S2
390
962
  6
CONTINUOUS
 62
           1
 48
25.39999961853
100
AcDbCircle
 10
79.362503051758
 20
-48.648537173542
 30
0.0
 40
2.5
  0
ARC
  5
424
100
AcDbEntity
  8
S2
390
962
  6
CONTINUOUS
 62
           1
 48
25.39999961853
100
AcDbCircle
 10
87.684799194336
 20
-50.598541751178
 30
0.0
 40
1.549999952316
100
AcDbArc
 50
180.001419996102
 51
0.000475608764
  0
ARC
  5
425
100
AcDbEntity
  8
S2
390
962
  6
CONTINUOUS
 62
           1
 48
25.39999961853
100
AcDbCircle
 10
85.96484375
 20
-50.598541751178
 30
0.0
 40
1.549999952316
100
AcDbArc
 50
180.001419996102
 51
303.699478997348
  0
ARC
  5
426
100
AcDbEntity
  8
S2
390
962
  6
CONTINUOUS
 62
         170
 48
25.39999961853
100
AcDbCircle
 10
79.149963378906
 20
-69.728287234577
 30
0.0
 40
0.5
100
AcDbArc
 50
300.091376926775
 51
0.000475608764
  0
ARC
  5
427
100
AcDbEntity
  8
S2
390
962
  6
CONTINUOUS
 62
         170
 48
25.39999961853
100
AcDbCircle
 10
79.149963378906
 20
-69.728287234577
 30
0.0
 40
2.0
100
AcDbArc
 50
299.122132102416
 51
0.000475608764
  0
ARC
  5
428
100
AcDbEntity
  8
S2
390
962
  6
CONTINUOUS
 62
         170
 48
25.39999961853
100
AcDbCircle
 10
80.399963378906
 20
-66.648537173542
 30
0.0
 40
0.75
100
AcDbArc
 50
0.000475608764
 51
179.999524391236
  0
ARC
  5
429
100
AcDbEntity
  8
S2
390
962
  6
CONTINUOUS
 62
         170
 48
25.39999961853
100
AcDbCircle
 10
74.799957275391
 20
-73.848537936481
 30
0.0
 40
1.200000047684
100
AcDbArc
 50
0.000475608764
 51
90.0
  0
ARC
  5
42A
100
AcDbEntity
  8
S2
390
962
  6
CONTINUOUS
 62
         170
 48
25.39999961853
100
AcDbCircle
 10
75.499954223633
 20
-73.248016848835
 30
0.0
 40
2.0
100
AcDbArc
 50
52.115068277866
 51
148.054681831762
  0
ARC
  5
42B
100
AcDbEntity
  8
S2
390
962
  6
CONTINUOUS
 62
         170
 48
25.39999961853
100
AcDbCircle
 10
74.057403564453
 20
-72.348541751178
 30
0.0
 40
0.300000011921
100
AcDbArc
 50
148.056597927196
 51
270.000951217527
  0
ARC
  5
42C
100
AcDbEntity
  8
S2
390
962
  6
CONTINUOUS
 62
         170
 48
25.39999961853
100
AcDbCircle
 10
74.004287719727
 20
-75.948536410602
 30
0.0
 40
0.5
100
AcDbArc
 50
90.0
 51
179.999524391236
  0
ARC
  5
42D
100
AcDbEntity
  8
S2
390
962
  6
CONTINUOUS
 62
         170
 48
25.39999961853
100
AcDbCircle
 10
77.999954223633
 20
-74.948536410602
 30
0.0
 40
0.5
100
AcDbArc
 50
180.001419996102
 51
270.000951217528
  0
ARC
  5
42E
100
AcDbEntity
  8
S2
390
962
  6
CONTINUOUS
 62
         170
 48
25.39999961853
100
AcDbCircle
 10
92.999954223633
 20
-52.948540225299
 30
0.0
 40
24.0
100
AcDbArc
 50
270.000951217528
 51
358.622307358795
  0
ARC
  5
42F
100
AcDbEntity
  8
S2
390
962
  6
CONTINUOUS
 62
         170
 48
25.39999961853
100
AcDbCircle
 10
92.999954223633
 20
-52.948540225299
 30
0.0
 40
22.5
100
AcDbArc
 50
270.000951217528
 51
352.726358293646
  0
ARC
  5
430
100
AcDbEntity
  8
S2
390
962
  6
CONTINUOUS
 62
         170
 48
25.39999961853
100
AcDbCircle
 10
114.822891235352
 20
-55.744110598835
 30
0.0
 40
0.5
100
AcDbArc
 50
352.726358293646
 51
90.0
  0
ARC
  5
431
100
AcDbEntity
  8
S2
390
962
  6
CONTINUOUS
 62
         170
 48
25.39999961853
100
AcDbCircle
 10
74.004287719727
 20
-76.448536410602
 30
0.0
 40
0.5
100
AcDbArc
 50
180.001419996102
 51
270.000951217528
  0
ARC
  5
432
100
AcDbEntity
  8
S2
390
962
  6
CONTINUOUS
 62
         170
 48
25.39999961853
100
AcDbCircle
 10
74.799957275391
 20
-74.24853946236
 30
0.0
 40
1.200000047684
100
AcDbArc
 50
270.000951217528
 51
0.000475608764
  0
ARC
  5
433
100
AcDbEntity
  8
S2
390
962
  6
CONTINUOUS
 62
         170
 48
25.39999961853
100
AcDbCircle
 10
115.799957275391
 20
-51.879868045124
 30
0.0
 40
0.300000011921
100
AcDbArc
 50
45.000237804382
 51
179.999524391236
  0
ARC
  5
434
100
AcDbEntity
  8
S2
390
962
  6
CONTINUOUS
 62
         170
 48
25.39999961853
100
AcDbCircle
 10
113.699951171875
 20
-52.534134402546
 30
0.0
 40
1.200000047684
100
AcDbArc
 50
180.001419996102
 51
270.000951217528
  0
ARC
  5
435
100
AcDbEntity
  8
S2
390
962
  6
CONTINUOUS
 62
         170
 48
25.39999961853
100
AcDbCircle
 10
112.199951171875
 20
-51.750885501178
 30
0.0
 40
0.300000011921
100
AcDbArc
 50
0.000475608764
 51
119.251094497996
  0
ARC
  5
436
100
AcDbEntity
  8
S2
390
962
  6
CONTINUOUS
 62
         170
 48
25.39999961853
100
AcDbCircle
 10
114.993591308594
 20
-53.47766925362
 30
0.0
 40
2.0
100
AcDbArc
 50
358.622307358795
 51
45.000237804382
  0
ARC
  5
437
100
AcDbEntity
  8
S2
390
962
  6
CONTINUOUS
 62
         170
 48
25.39999961853
100
AcDbCircle
 10
113.030639648438
 20
-53.234116091999
 30
0.0
 40
2.0
100
AcDbArc
 50
119.251094497996
 51
269.997040706856
  0
ARC
  5
438
100
AcDbEntity
  8
S2
390
962
  6
CONTINUOUS
 62
         170
 48
25.39999961853
100
AcDbCircle
 10
114.299957275391
 20
-52.534134402546
 30
0.0
 40
1.200000047684
100
AcDbArc
 50
270.000951217528
 51
0.000475608764
  0
CIRCLE
  5
439
100
AcDbEntity
  8
S2
390
962
  6
CENTER
 62
         170
 48
25.39999961853
100
AcDbCircle
 10
86.884811401367
 20
-56.648537173542
 30
0.0
 40
1.700000047684
  0
CIRCLE
  5
43A
100
AcDbEntity
  8
S2
390
962
  6
CONTINUOUS
 62
         170
 48
25.39999961853
100
AcDbCircle
 10
86.884811401367
 20
-56.648537173542
 30
0.0
 40
1.899999976158
  0
CIRCLE
  5
43B
100
AcDbEntity
  8
S2
390
962
  6
CONTINUOUS
 62
         170
 48
25.39999961853
100
AcDbCircle
 10
86.884811401367
 20
-56.648537173542
 30
0.0
 40
1.5
  0
CIRCLE
  5
43C
100
AcDbEntity
  8
S2
390
962
  6
CENTER
 62
         170
 48
25.39999961853
100
AcDbCircle
 10
98.884811401367
 20
-56.648537173542
 30
0.0
 40
1.700000047684
  0
CIRCLE
  5
43D
100
AcDbEntity
  8
S2
390
962
  6
CONTINUOUS
 62
         170
 48
25.39999961853
100
AcDbCircle
 10
98.884811401367
 20
-56.648537173542
 30
0.0
 40
1.5
  0
CIRCLE
  5
43E
100
AcDbEntity
  8
S2
390
962
  6
CONTINUOUS
 62
         170
 48
25.39999961853
100
AcDbCircle
 10
98.884811401367
 20
-56.648537173542
 30
0.0
 40
1.899999976158
  0
ARC
  5
43F
100
AcDbEntity
  8
S2
390
962
  6
CONTINUOUS
 62
         170
 48
25.39999961853
100
AcDbCircle
 10
72.5
 20
-76.448536410602
 30
0.0
 40
0.5
100
AcDbArc
 50
270.000951217528
 51
0.000475608764
  0
ARC
  5
440
100
AcDbEntity
  8
S2
390
962
  6
CONTINUOUS
 62
         170
 48
25.39999961853
100
AcDbCircle
 10
71.0
 20
-75.948536410602
 30
0.0
 40
1.0
100
AcDbArc
 50
180.001419996102
 51
270.000951217528
  0
ARC
  5
441
100
AcDbEntity
  8
S2
390
962
  6
CONTINUOUS
 62
         170
 48
25.39999961853
100
AcDbCircle
 10
73.0
 20
-41.962387576374
 30
0.0
 40
1.0
100
AcDbArc
 50
43.030066323197
 51
179.999524391236
  0
ARC
  5
442
100
AcDbEntity
  8
S2
390
962
  6
CONTINUOUS
 62
         170
 48
25.39999961853
100
AcDbCircle
 10
77.217330932617
 20
-37.83744861153
 30
0.0
 40
0.899999976158
100
AcDbArc
 50
195.409288574897
 51
46.971092304484
  0
ARC
  5
443
100
AcDbEntity
  8
S2
390
962
  6
CONTINUOUS
 62
         170
 48
25.39999961853
100
AcDbCircle
 10
74.388893127441
 20
-40.665871157917
 30
0.0
 40
0.899999976158
100
AcDbArc
 50
223.031024370914
 51
74.591726732497
  0
ARC
  5
444
100
AcDbEntity
  8
S2
390
962
  6
CONTINUOUS
 62
         170
 48
25.39999961853
100
AcDbCircle
 10
73.0
 20
-70.248535647663
 30
0.0
 40
1.0
100
AcDbArc
 50
90.0
 51
179.999524391236
  0
ARC
  5
445
100
AcDbEntity
  8
S2
390
962
  6
CONTINUOUS
 62
         170
 48
25.39999961853
100
AcDbCircle
 10
78.51383972168
 20
-36.448540225299
 30
0.0
 40
1.0
100
AcDbArc
 50
90.0
 51
226.970127426578
  0
ARC
  5
446
100
AcDbEntity
  8
S2
390
962
  6
CONTINUOUS
 62
         170
 48
25.39999961853
100
AcDbCircle
 10
75.0
 20
-38.448540225299
 30
0.0
 40
5.0
100
AcDbArc
 50
90.0
 51
179.999524391236
  0
ARC
  5
447
100
AcDbEntity
  8
S2
390
962
  6
CONTINUOUS
 62
         170
 48
25.39999961853
100
AcDbCircle
 10
93.300003051758
 20
-50.448540225299
 30
0.0
 40
21.299999237061
100
AcDbArc
 50
6.626250877296
 51
43.603064553048
  0
ARC
  5
448
100
AcDbEntity
  8
S2
390
962
  6
CONTINUOUS
 62
         170
 48
25.39999961853
100
AcDbCircle
 10
111.795944213867
 20
-49.548538699421
 30
0.0
 40
1.0
100
AcDbArc
 50
90.001902435055
 51
270.000951217527
  0
ARC
  5
449
100
AcDbEntity
  8
S2
390
962
  6
CONTINUOUS
 62
         170
 48
25.39999961853
100
AcDbCircle
 10
74.699996948242
 20
-74.048538699421
 30
0.0
 40
1.25
100
AcDbArc
 50
216.871108984911
 51
143.12981491186
  0
ARC
  5
44A
100
AcDbEntity
  8
S2
390
962
  6
CONTINUOUS
 62
         170
 48
25.39999961853
100
AcDbCircle
 10
73.0
 20
-72.298538699421
 30
0.0
 40
1.0
100
AcDbArc
 50
180.001419996102
 51
270.000951217528
  0
ARC
  5
44B
100
AcDbEntity
  8
S2
390
962
  6
CONTINUOUS
 62
         170
 48
25.39999961853
100
AcDbCircle
 10
114.099960327148
 20
-52.448540225299
 30
0.0
 40
1.25
100
AcDbArc
 50
126.871591423864
 51
53.130297350813
  0
ARC
  5
44C
100
AcDbEntity
  8
S2
390
962
  6
CONTINUOUS
 62
         170
 48
25.39999961853
100
AcDbCircle
 10
74.0
 20
-68.398537173542
 30
0.0
 40
0.850000023842
100
AcDbArc
 50
270.000951217528
 51
90.0
  0
ARC
  5
44D
100
AcDbEntity
  8
S2
390
962
  6
CONTINUOUS
 62
         170
 48
25.39999961853
100
AcDbCircle
 10
93.300003051758
 20
-51.948540225299
 30
0.0
 40
24.10000038147
100
AcDbArc
 50
1.187309769513
 51
47.273413552621
  0
ARC
  5
44E
100
AcDbEntity
  8
S2
390
962
  6
CONTINUOUS
 62
         170
 48
25.39999961853
100
AcDbCircle
 10
107.616424560547
 20
-36.448540225299
 30
0.0
 40
3.0
100
AcDbArc
 50
47.273413552621
 51
90.0
  0
ARC
  5
44F
100
AcDbEntity
  8
S2
390
962
  6
CONTINUOUS
 62
         170
 48
25.39999961853
100
AcDbCircle
 10
108.0
 20
-36.448540225299
 30
0.0
 40
1.0
100
AcDbArc
 50
43.603064553048
 51
90.0
  0
ARC
  5
450
100
AcDbEntity
  8
S2
390
962
  6
CONTINUOUS
 62
         170
 48
25.39999961853
100
AcDbCircle
 10
113.961074829102
 20
-48.048538699421
 30
0.0
 40
0.5
100
AcDbArc
 50
270.000951217528
 51
6.626250877296
  0
ARC
  5
451
100
AcDbEntity
  8
S2
390
962
  6
CONTINUOUS
 62
         170
 48
25.39999961853
100
AcDbCircle
 10
96.300003051758
 20
-35.715202822956
 30
0.0
 40
0.566666662693
100
AcDbArc
 50
28.072805814515
 51
151.927160034539
  0
ARC
  5
452
100
AcDbEntity
  8
S2
390
962
  6
CONTINUOUS
 62
         170
 48
25.39999961853
100
AcDbCircle
 10
117.194869995117
 20
-51.453506961139
 30
0.0
 40
0.20000000298
100
AcDbArc
 50
225.001192437004
 51
1.187309769513
  0
ARC
  5
453
100
AcDbEntity
  8
S2
390
962
  6
CONTINUOUS
 62
         170
 48
25.39999961853
100
AcDbCircle
 10
115.349960327148
 20
-50.598541751178
 30
0.0
 40
0.5
100
AcDbArc
 50
45.000237804382
 51
179.999524391236
  0
ARC
  5
454
100
AcDbEntity
  8
S2
390
962
  6
CONTINUOUS
 62
         170
 48
25.39999961853
100
AcDbCircle
 10
87.766036987305
 20
-95.850815310749
 30
0.0
 40
34.042407989502
100
AcDbArc
 50
68.242691946113
 51
70.043846981191
  0
ARC
  5
455
100
AcDbEntity
  8
S2
390
962
  6
CONTINUOUS
 62
         170
 48
25.39999961853
100
AcDbCircle
 10
89.267974853516
 20
-91.636436953815
 30
0.0
 40
29.56848526001
100
AcDbArc
 50
69.992243194464
 51
72.041520219069
  0
ARC
  5
456
100
AcDbEntity
  8
S2
390
962
  6
CONTINUOUS
 62
         170
 48
25.39999961853
100
AcDbCircle
 10
90.424926757813
 20
-88.141674533161
 30
0.0
 40
25.887275695801
100
AcDbArc
 50
72.092536609527
 51
74.404050209578
  0
ARC
  5
457
100
AcDbEntity
  8
S2
390
962
  6
CONTINUOUS
 62
         170
 48
25.39999961853
100
AcDbCircle
 10
92.565551757813
 20
-80.422298922809
 30
0.0
 40
17.876609802246
100
AcDbArc
 50
74.360529951734
 51
88.976702872818
  0
ARC
  5
458
100
AcDbEntity
  8
S2
390
962
  6
CONTINUOUS
 62
         170
 48
25.39999961853
100
AcDbCircle
 10
98.003570556641
 20
-95.850815310749
 30
0.0
 40
34.042407989502
100
AcDbArc
 50
109.956132528241
 51
111.757301223698
  0
ARC
  5
459
100
AcDbEntity
  8
S2
390
962
  6
CONTINUOUS
 62
         170
 48
25.39999961853
100
AcDbCircle
 10
96.50163269043
 20
-91.636436953815
 30
0.0
 40
29.56848526001
100
AcDbArc
 50
107.958462705458
 51
110.007736314968
  0
ARC
  5
45A
100
AcDbEntity
  8
S2
390
962
  6
CONTINUOUS
 62
         170
 48
25.39999961853
100
AcDbCircle
 10
95.344680786133
 20
-88.141674533161
 30
0.0
 40
25.887275695801
100
AcDbArc
 50
105.59592588476
 51
107.907436069716
  0
ARC
  5
45B
100
AcDbEntity
  8
S2
390
962
  6
CONTINUOUS
 62
         170
 48
25.39999961853
100
AcDbCircle
 10
93.204071044922
 20
-80.422298922809
 30
0.0
 40
17.876609802246
100
AcDbArc
 50
91.023279518101
 51
105.63944272751
  0
ARC
  5
45C
100
AcDbEntity
  8
S2
390
962
  6
CONTINUOUS
 62
         170
 48
25.39999961853
100
AcDbCircle
 10
87.766036987305
 20
-33.246262088092
 30
0.0
 40
34.042407989502
100
AcDbArc
 50
289.957097406147
 51
291.758259271415
  0
ARC
  5
45D
100
AcDbEntity
  8
S2
390
962
  6
CONTINUOUS
 62
         170
 48
25.39999961853
100
AcDbCircle
 10
89.267974853516
 20
-37.460640445026
 30
0.0
 40
29.56848526001
100
AcDbArc
 50
287.959430998459
 51
290.008706315516
  0
ARC
  5
45E
100
AcDbEntity
  8
S2
390
962
  6
CONTINUOUS
 62
         170
 48
25.39999961853
100
AcDbCircle
 10
90.424926757813
 20
-40.955399050983
 30
0.0
 40
25.887275695801
100
AcDbArc
 50
285.596895885308
 51
287.908409485359
  0
ARC
  5
45F
100
AcDbEntity
  8
S2
390
962
  6
CONTINUOUS
 62
         170
 48
25.39999961853
100
AcDbCircle
 10
92.565551757813
 20
-48.674782290729
 30
0.0
 40
17.876609802246
100
AcDbArc
 50
271.024250158979
 51
285.640417850699
  0
ARC
  5
460
100
AcDbEntity
  8
S2
390
962
  6
CONTINUOUS
 62
         170
 48
25.39999961853
100
AcDbCircle
 10
98.003570556641
 20
-33.246262088092
 30
0.0
 40
34.042407989502
100
AcDbArc
 50
248.241727068207
 51
250.042888933474
  0
ARC
  5
461
100
AcDbEntity
  8
S2
390
962
  6
CONTINUOUS
 62
         170
 48
25.39999961853
100
AcDbCircle
 10
96.50163269043
 20
-37.460640445026
 30
0.0
 40
29.56848526001
100
AcDbArc
 50
249.991280024106
 51
252.040569001541
  0
ARC
  5
462
100
AcDbEntity
  8
S2
390
962
  6
CONTINUOUS
 62
         170
 48
25.39999961853
100
AcDbCircle
 10
95.344680786133
 20
-40.955399050983
 30
0.0
 40
25.887275695801
100
AcDbArc
 50
252.091576854263
 51
254.403090454314
  0
ARC
  5
463
100
AcDbEntity
  8
S2
390
962
  6
CONTINUOUS
 62
         170
 48
25.39999961853
100
AcDbCircle
 10
93.204071044922
 20
-48.674782290729
 30
0.0
 40
17.876609802246
100
AcDbArc
 50
254.359568488922
 51
268.975736180643
  0
ARC
  5
464
100
AcDbEntity
  8
S2
390
962
  6
CONTINUOUS
 62
         133
 48
25.39999961853
100
AcDbCircle
 10
76.164352416992
 20
-67.578056826862
 30
0.0
 40
0.5
100
AcDbArc
 50
1.804028040241
 51
91.803548802939
  0
ARC
  5
465
100
AcDbEntity
  8
S2
390
962
  6
CONTINUOUS
 62
         133
 48
25.39999961853
100
AcDbCircle
 10
75.458450317383
 20
-64.098549380573
 30
0.0
 40
1.0
100
AcDbArc
 50
181.804972427579
 51
271.804503649004
  0
ARC
  5
466
100
AcDbEntity
  8
S2
390
962
  6
CONTINUOUS
 62
         133
 48
25.39999961853
100
AcDbCircle
 10
77.616394042969
 20
-66.031586184772
 30
0.0
 40
1.0
100
AcDbArc
 50
1.804028040241
 51
91.803548802939
  0
ARC
  5
467
100
AcDbEntity
  8
S2
390
962
  6
CONTINUOUS
 62
         133
 48
25.39999961853
100
AcDbCircle
 10
106.716400146484
 20
-38.448540225299
 30
0.0
 40
3.0
100
AcDbArc
 50
41.810570197837
 51
90.0
  0
ARC
  5
468
100
AcDbEntity
  8
S2
390
962
  6
CONTINUOUS
 62
         133
 48
25.39999961853
100
AcDbCircle
 10
82.942642211914
 20
-38.448540225299
 30
0.0
 40
3.0
100
AcDbArc
 50
90.0
 51
134.999762195618
  0
ARC
  5
469
100
AcDbEntity
  8
S2
390
962
  6
CONTINUOUS
 62
         133
 48
25.39999961853
100
AcDbCircle
 10
82.942642211914
 20
-38.448540225299
 30
0.0
 40
1.0
100
AcDbArc
 50
90.0
 51
134.999762195618
  0
ARC
  5
46A
100
AcDbEntity
  8
S2
390
962
  6
CONTINUOUS
 62
         133
 48
25.39999961853
100
AcDbCircle
 10
106.716400146484
 20
-38.448540225299
 30
0.0
 40
1.0
100
AcDbArc
 50
41.810570197837
 51
90.0
  0
ARC
  5
46B
100
AcDbEntity
  8
S2
390
962
  6
CONTINUOUS
 62
         133
 48
25.39999961853
100
AcDbCircle
 10
109.300003051758
 20
-42.448540225299
 30
0.0
 40
35.900001525879
100
AcDbArc
 50
188.323455442163
 51
191.515817558336
  0
ARC
  5
46C
100
AcDbEntity
  8
S2
390
962
  6
CONTINUOUS
 62
         133
 48
25.39999961853
100
AcDbCircle
 10
111.199996948242
 20
-45.998535647663
 30
0.0
 40
0.300000011921
100
AcDbArc
 50
270.000951217528
 51
0.000475608764
  0
ARC
  5
46D
100
AcDbEntity
  8
S2
390
962
  6
CONTINUOUS
 62
         133
 48
25.39999961853
100
AcDbCircle
 10
110.699996948242
 20
-42.510422244342
 30
0.0
 40
0.5
100
AcDbArc
 50
290.00085159797
 51
20.000369159017
  0
ARC
  5
46E
100
AcDbEntity
  8
S2
390
962
  6
CONTINUOUS
 62
         133
 48
25.39999961853
100
AcDbCircle
 10
110.357971191406
 20
-41.570732608112
 30
0.0
 40
0.5
100
AcDbArc
 50
20.000369159017
 51
109.999893550254
  0
ARC
  5
46F
100
AcDbEntity
  8
S2
390
962
  6
CONTINUOUS
 62
         133
 48
25.39999961853
100
AcDbCircle
 10
76.99104309082
 20
-59.214325442585
 30
0.0
 40
1.0
100
AcDbArc
 50
207.427033740291
 51
299.000800621999
  0
ARC
  5
470
100
AcDbEntity
  8
S2
390
962
  6
CONTINUOUS
 62
         133
 48
25.39999961853
100
AcDbCircle
 10
73.765686035156
 20
-43.448540225299
 30
0.0
 40
1.0
100
AcDbArc
 50
90.0
 51
171.47454672209
  0
ARC
  5
471
100
AcDbEntity
  8
S2
390
962
  6
CONTINUOUS
 62
         133
 48
25.39999961853
100
AcDbCircle
 10
113.125946044922
 20
-49.348541751178
 30
0.0
 40
40.799999237061
100
AcDbArc
 50
171.47454672209
 51
189.556632436431
  0
ARC
  5
472
100
AcDbEntity
  8
S2
390
962
  6
CONTINUOUS
 62
         133
 48
25.39999961853
100
AcDbCircle
 10
93.300003051758
 20
-50.448540225299
 30
0.0
 40
21.0
100
AcDbArc
 50
11.259045247911
 51
41.810570197837
  0
ARC
  5
473
100
AcDbEntity
  8
S2
390
962
  6
CONTINUOUS
 62
         133
 48
25.39999961853
100
AcDbCircle
 10
109.300003051758
 20
-42.448540225299
 30
0.0
 40
35.900001525879
100
AcDbArc
 50
203.483026154061
 51
206.515746258762
  0
ARC
  5
474
100
AcDbEntity
  8
S2
390
962
  6
CONTINUOUS
 62
         133
 48
25.39999961853
100
AcDbCircle
 10
109.300003051758
 20
-42.448540225299
 30
0.0
 40
35.900001525879
100
AcDbArc
 50
198.483054474045
 51
201.515767748557
  0
ARC
  5
475
100
AcDbEntity
  8
S2
390
962
  6
CONTINUOUS
 62
         133
 48
25.39999961853
100
AcDbCircle
 10
109.300003051758
 20
-42.448540225299
 30
0.0
 40
35.900001525879
100
AcDbArc
 50
193.483096454407
 51
196.515796068541
  0
ARC
  5
476
100
AcDbEntity
  8
S2
390
962
  6
CONTINUOUS
 62
         133
 48
25.39999961853
100
AcDbCircle
 10
109.300003051758
 20
-42.448540225299
 30
0.0
 40
34.0
100
AcDbArc
 50
206.600481585606
 51
208.999353305141
  0
ARC
  5
477
100
AcDbEntity
  8
S2
390
962
  6
CONTINUOUS
 62
         133
 48
25.39999961853
100
AcDbCircle
 10
109.300003051758
 20
-42.448540225299
 30
0.0
 40
34.0
100
AcDbArc
 50
191.600566545557
 51
193.39831331624
  0
ARC
  5
478
100
AcDbEntity
  8
S2
390
962
  6
CONTINUOUS
 62
         133
 48
25.39999961853
100
AcDbCircle
 10
109.300003051758
 20
-42.448540225299
 30
0.0
 40
34.0
100
AcDbArc
 50
196.600538225573
 51
198.398291826445
  0
ARC
  5
479
100
AcDbEntity
  8
S2
390
962
  6
CONTINUOUS
 62
         133
 48
25.39999961853
100
AcDbCircle
 10
109.300003051758
 20
-42.448540225299
 30
0.0
 40
34.0
100
AcDbArc
 50
201.600509905589
 51
203.398263506461
  0
ARC
  5
47A
100
AcDbEntity
  8
S2
390
962
  6
CONTINUOUS
 62
         133
 48
25.39999961853
100
AcDbCircle
 10
76.600006103516
 20
-48.348541751178
 30
0.0
 40
33.400001525879
100
AcDbArc
 50
6.792333757154
 51
8.468974443663
  0
ARC
  5
47B
100
AcDbEntity
  8
S2
390
962
  6
CONTINUOUS
 62
         133
 48
25.39999961853
100
AcDbCircle
 10
76.600006103516
 20
-48.348541751178
 30
0.0
 40
33.400001525879
100
AcDbArc
 50
0.000475608764
 51
3.519327597452
  0
ARC
  5
47C
100
AcDbEntity
  8
S2
390
962
  6
CONTINUOUS
 62
         133
 48
25.39999961853
100
AcDbCircle
 10
93.300003051758
 20
-50.448540225299
 30
0.0
 40
18.0
100
AcDbArc
 50
29.620977472926
 51
36.013283215249
  0
ARC
  5
47D
100
AcDbEntity
  8
S2
390
962
  6
CONTINUOUS
 62
         133
 48
25.39999961853
100
AcDbCircle
 10
93.300003051758
 20
-50.448540225299
 30
0.0
 40
19.0
100
AcDbArc
 50
35.426983191989
 51
41.810570197837
  0
ARC
  5
47E
100
AcDbEntity
  8
S2
390
962
  6
CONTINUOUS
 62
         133
 48
25.39999961853
100
AcDbCircle
 10
109.300003051758
 20
-42.448540225299
 30
0.0
 40
34.0
100
AcDbArc
 50
186.501318065955
 51
188.229765737318
  0
ARC
  5
47F
100
AcDbEntity
  8
S2
390
962
  6
CONTINUOUS
 62
         133
 48
25.39999961853
100
AcDbCircle
 10
109.300003051758
 20
-42.448540225299
 30
0.0
 40
37.400001525879
100
AcDbArc
 50
204.337940441904
 51
207.425117644858
  0
ARC
  5
480
100
AcDbEntity
  8
S2
390
962
  6
CONTINUOUS
 62
         133
 48
25.39999961853
100
AcDbCircle
 10
74.768325805664
 20
-58.068176760944
 30
0.0
 40
0.5
100
AcDbArc
 50
24.338912149999
 51
173.803115304498
  0
ARC
  5
481
100
AcDbEntity
  8
S2
390
962
  6
CONTINUOUS
 62
         133
 48
25.39999961853
100
AcDbCircle
 10
70.919990539551
 20
-56.454689517292
 30
0.0
 40
2.0
100
AcDbArc
 50
353.804073352215
 51
9.557590484147
  0
ARC
  5
482
100
AcDbEntity
  8
S2
390
962
  6
CONTINUOUS
 62
         133
 48
25.39999961853
100
AcDbCircle
 10
114.069931030273
 20
-47.348541751178
 30
0.0
 40
1.0
100
AcDbArc
 50
270.000951217528
 51
90.0
  0
ARC
  5
483
100
AcDbEntity
  8
S2
390
962
  6
CONTINUOUS
 62
         133
 48
25.39999961853
100
AcDbCircle
 10
109.300003051758
 20
-42.448540225299
 30
0.0
 40
34.400001525879
100
AcDbArc
 50
188.250331436909
 51
191.58194744988
  0
ARC
  5
484
100
AcDbEntity
  8
S2
390
962
  6
CONTINUOUS
 62
         133
 48
25.39999961853
100
AcDbCircle
 10
109.300003051758
 20
-42.448540225299
 30
0.0
 40
34.400001525879
100
AcDbArc
 50
193.416932411917
 51
196.581925960085
  0
ARC
  5
485
100
AcDbEntity
  8
S2
390
962
  6
CONTINUOUS
 62
         133
 48
25.39999961853
100
AcDbCircle
 10
109.300003051758
 20
-42.448540225299
 30
0.0
 40
34.400001525879
100
AcDbArc
 50
198.416917752311
 51
201.581897640101
  0
ARC
  5
486
100
AcDbEntity
  8
S2
390
962
  6
CONTINUOUS
 62
         133
 48
25.39999961853
100
AcDbCircle
 10
109.300003051758
 20
-42.448540225299
 30
0.0
 40
34.400001525879
100
AcDbArc
 50
203.416896262517
 51
206.581876150306
  0
ARC
  5
487
100
AcDbEntity
  8
S2
390
962
  6
CONTINUOUS
 62
         133
 48
25.39999961853
100
AcDbCircle
 10
77.71028137207
 20
-69.012871279987
 30
0.0
 40
1.0
100
AcDbArc
 50
181.804972427579
 51
1.80403487043
  0
ARC
  5
488
100
AcDbEntity
  8
S2
390
962
  6
CONTINUOUS
 62
           1
 48
25.39999961853
100
AcDbCircle
 10
107.899658203125
 20
-36.148536410602
 30
0.0
 40
3.0
100
AcDbArc
 50
46.131090824077
 51
89.999524391236
  0
ARC
  5
489
100
AcDbEntity
  8
S2
390
962
  6
CONTINUOUS
 62
           1
 48
25.39999961853
100
AcDbCircle
 10
74.0
 20
-35.148536410602
 30
0.0
 40
4.0
100
AcDbArc
 50
89.999524391236
 51
179.999048782472
  0
ARC
  5
48A
100
AcDbEntity
  8
S2
390
962
  6
CONTINUOUS
 62
           1
 48
25.39999961853
100
AcDbCircle
 10
74.0
 20
-35.148536410602
 30
0.0
 40
3.0
100
AcDbArc
 50
89.999524391236
 51
160.527927987194
  0
ARC
  5
48B
100
AcDbEntity
  8
S2
390
962
  6
DASHED
 62
         142
 48
25.39999961853
100
AcDbCircle
 10
72.5
 20
-41.334815707477
 30
0.0
 40
0.5
100
AcDbArc
 50
51.881662727837
 51
179.999048782472
  0
ARC
  5
48C
100
AcDbEntity
  8
S2
390
962
  6
CONTINUOUS
 62
           1
 48
25.39999961853
100
AcDbCircle
 10
75.0
 20
-38.148536410602
 30
0.0
 40
5.0
100
AcDbArc
 50
89.999524391236
 51
126.869233870613
  0
ARC
  5
48D
100
AcDbEntity
  8
S2
390
962
  6
CONTINUOUS
 62
           1
 48
25.39999961853
100
AcDbCircle
 10
93.0
 20
-51.648536410602
 30
0.0
 40
25.5
100
AcDbArc
 50
0.0
 51
49.88057098028
  0
ARC
  5
48E
100
AcDbEntity
  8
S2
390
962
  6
CONTINUOUS
 62
           1
 48
25.39999961853
100
AcDbCircle
 10
93.0
 20
-52.648536410602
 30
0.0
 40
25.5
100
AcDbArc
 50
270.000475608764
 51
360.0
  0
ARC
  5
48F
100
AcDbEntity
  8
S2
390
962
  6
CONTINUOUS
 62
           1
 48
25.39999961853
100
AcDbCircle
 10
93.0
 20
-51.648536410602
 30
0.0
 40
26.5
100
AcDbArc
 50
0.0
 51
50.676646603518
  0
ARC
  5
490
100
AcDbEntity
  8
S2
390
962
  6
CONTINUOUS
 62
           1
 48
25.39999961853
100
AcDbCircle
 10
93.0
 20
-52.648536410602
 30
0.0
 40
26.5
100
AcDbArc
 50
270.000475608764
 51
360.0
  0
ARC
  5
491
100
AcDbEntity
  8
S2
390
962
  6
CONTINUOUS
 62
           1
 48
25.39999961853
100
AcDbCircle
 10
93.0
 20
-52.648536410602
 30
0.0
 40
24.5
100
AcDbArc
 50
270.000475608764
 51
360.0
  0
ARC
  5
492
100
AcDbEntity
  8
S2
390
962
  6
CONTINUOUS
 62
           1
 48
25.39999961853
100
AcDbCircle
 10
93.0
 20
-51.648536410602
 30
0.0
 40
24.5
100
AcDbArc
 50
0.0
 51
46.131090824077
  0
ARC
  5
493
100
AcDbEntity
  8
S2
390
962
  6
CONTINUOUS
 62
          23
 48
25.39999961853
100
AcDbCircle
 10
55.310668945313
 20
-63.039237704547
 30
0.0
 40
7.565946578979
100
AcDbArc
 50
98.185904083701
 51
134.581728208273
  0
ARC
  5
494
100
AcDbEntity
  8
S2
390
962
  6
CONTINUOUS
 62
          23
 48
25.39999961853
100
AcDbCircle
 10
55.310668945313
 20
-52.261512484821
 30
0.0
 40
7.565946578979
100
AcDbArc
 50
225.418278621916
 51
261.81408225592
  0
ARC
  5
495
100
AcDbEntity
  8
S2
390
962
  6
DASHED
 62
          23
 48
25.39999961853
100
AcDbCircle
 10
72.949951171875
 20
-55.050376620563
 30
0.0
 40
1.5
100
AcDbArc
 50
0.000951217527
 51
90.000475608764
  0
ARC
  5
496
100
AcDbEntity
  8
S2
390
962
  6
DASHED
 62
          23
 48
25.39999961853
100
AcDbCircle
 10
72.949951171875
 20
-60.250373568805
 30
0.0
 40
1.5
100
AcDbArc
 50
270.001419996102
 51
0.000951217527
  0
ARC
  5
497
100
AcDbEntity
  8
S2
390
962
  6
DASHED
 62
          23
 48
25.39999961853
100
AcDbCircle
 10
89.602142333984
 20
-36.098548617633
 30
0.0
 40
1.5
100
AcDbArc
 50
270.001419996102
 51
0.000951217528
  0
ARC
  5
498
100
AcDbEntity
  8
S2
390
962
  6
CONTINUOUS
 62
          23
 48
25.39999961853
100
AcDbCircle
 10
81.61328125
 20
-18.459251132282
 30
0.0
 40
7.565946578979
100
AcDbArc
 50
8.186386522654
 51
44.582196986848
  0
ARC
  5
499
100
AcDbEntity
  8
S2
390
962
  6
CONTINUOUS
 62
          23
 48
25.39999961853
100
AcDbCircle
 10
92.391021728516
 20
-18.459251132282
 30
0.0
 40
7.565946578979
100
AcDbArc
 50
135.418750815585
 51
171.814568109968
  0
ARC
  5
49A
100
AcDbEntity
  8
S2
390
962
  6
DASHED
 62
          23
 48
25.39999961853
100
AcDbCircle
 10
84.402160644531
 20
-36.098548617633
 30
0.0
 40
1.5
100
AcDbArc
 50
180.0
 51
269.999524391236
  0
LWPOLYLINE
  5
49B
100
AcDbEntity
  8
S2
390
962
  6
CONTINUOUS
 62
           1
 48
25.39999961853
100
AcDbPolyline
 90
       25
 70
           0
 10
110.07222879269
 20
45.50000762939
 10
110.639893702018
 20
45.013578493164
 10
111.46431286459
 20
44.2543265108
 10
112.255335899451
 20
43.460436121165
 10
112.763629915072
 20
42.912427594237
 10
113.496737022071
 20
42.063035341723
 10
114.193741143344
 20
41.181679261023
 10
114.632227198378
 20
40.584712479183
 10
115.256807838062
 20
39.668109964326
 10
115.841273892486
 20
38.726883713572
 10
116.208445129278
 20
38.086141401249
 10
116.72521240705
 20
37.10577327722
 10
117.2008557381
 20
36.103058641156
 10
117.494857846799
 20
35.422656271751
 10
117.89918557043
 20
34.388645328179
 10
118.259234731347
 20
33.339322085063
 10
118.47451939522
 20
32.631697849803
 10
118.760100863078
 20
31.558795526982
 10
119.000599661979
 20
30.472910608059
 10
119.137276049799
 20
29.73308863051
 10
119.302521163465
 20
28.618284764364
 10
119.420035900046
 20
27.498645921336
 10
119.471858284157
 20
26.750228429328
 10
119.509804853736
 20
25.625656548751
 10
119.5
 20
24.5
  0
LWPOLYLINE
  5
4B6
100
AcDbEntity
  8
S2
390
962
  6
CONTINUOUS
 62
           1
 48
25.39999961853
100
AcDbPolyline
 90
       25
 70
           0
 10
90.07222879269
 20
45.50000762939
 10
90.639893702018
 20
45.013578493164
 10
91.46431286459
 20
44.2543265108
 10
92.255335899451
 20
43.460436121165
 10
92.763629915072
 20
42.912427594237
 10
93.496737022071
 20
42.063035341723
 10
94.193741143344
 20
41.181679261023
 10
94.632227198378
 20
40.584712479183
 10
95.256807838062
 20
39.668109964326
 10
95.841273892486
 20
38.726883713572
 10
96.208445129278
 20
38.086141401249
 10
96.72521240705
 20
37.10577327722
 10
97.2008557381
 20
36.103058641156
 10
97.494857846799
 20
35.422656271751
 10
97.89918557043
 20
34.388645328179
 10
98.259234731347
 20
33.339322085063
 10
98.47451939522
 20
32.631697849803
 10
98.760100863078
 20
31.558795526982
 10
99.000599661979
 20
30.472910608059
 10
99.137276049799
 20
29.73308863051
 10
99.302521163465
 20
28.618284764364
 10
99.420035900046
 20
27.498645921336
 10
99.471858284157
 20
26.750228429328
 10
99.509804853736
 20
25.625656548751
 10
99.5
 20
24.5
  0
LWPOLYLINE
  5
4D1
100
AcDbEntity
  8
S2
390
962
  6
CONTINUOUS
 62
           1
 48
25.39999961853
100
AcDbPolyline
 90
        3
 70
           0
 10
70.0
 20
24.5
 10
70.000359558164
 20
24.638537812653
 10
70.0
 20
24.77707562519
  0
TEXT
  5
4D6
100
AcDbEntity
  8
S2
390
962
  6
CONTINUOUS
 62
          92
 48
25.39999961853
100
AcDbText
 10
55.471634030402
 20
-27.942093931663
 30
0.0
 40
3.0
  1
or
 50
44.1
 41
0.833333333333
  7
MICROCADAM
100
AcDbText
  0
TEXT
  5
4D7
100
AcDbEntity
  8
S2
390
962
  6
CONTINUOUS
 62
          92
 48
25.39999961853
100
AcDbText
 10
87.519367741063
 20
-89.202956877998
 30
0.0
 40
3.0
  1
A or B =
 41
0.833333333333
  7
MICROCADAM
100
AcDbText
  0
TEXT
  5
4D8
100
AcDbEntity
  8
S2
390
962
  6
CONTINUOUS
 62
          92
 48
25.39999961853
100
AcDbText
 10
87.519367741063
 20
-94.702956877998
 30
0.0
 40
3.0
  1
passage for the
 41
0.833333333333
  7
MICROCADAM
100
AcDbText
  0
TEXT
  5
4D9
100
AcDbEntity
  8
S2
390
962
  6
CONTINUOUS
 62
          92
 48
25.39999961853
100
AcDbText
 10
87.519367741063
 20
-100.202956877998
 30
0.0
 40
3.0
  1
connection sheath
 41
0.833333333333
  7
MICROCADAM
100
AcDbText
  0
TEXT
  5
4DA
100
AcDbEntity
  8
S2
390
962
  6
CONTINUOUS
 62
          92
 48
25.39999961853
100
AcDbText
 10
78.292919784606
 20
-97.359270474217
 30
0.0
 40
4.5
  1
A
 41
0.833333333333
  7
MICROCADAM
100
AcDbText
  0
TEXT
  5
4DB
100
AcDbEntity
  8
S2
390
962
  6
CONTINUOUS
 62
          92
 48
25.39999961853
100
AcDbText
 10
56.615904381036
 20
-48.405344021157
 30
0.0
 40
4.5
  1
B
 41
0.833333333333
  7
MICROCADAM
100
AcDbText
  0
DIMENSION
  5
4DD
100
AcDbEntity
  8
S2
390
962
  6
CONTINUOUS
 62
          92
 48
25.39999961853
100
AcDbDimension
  2
*D0
 10
70.0
 20
80.831488636962
 30
0.0
 11
91.567462322732
 21
80.831488636962
 31
0.0
 71
           5
 72
           1
 41
1.0
 42
0.0
  1
49.5
  3
STANDARD
100
AcDbAlignedDimension
 13
119.5
 23
24.5
 33
0.0
 14
70.0
 24
41.50000762939
 34
0.0
100
AcDbRotatedDimension
  0
DIMENSION
  5
4DF
100
AcDbEntity
  8
S2
390
962
  6
CONTINUOUS
 62
          92
 48
25.39999961853
100
AcDbDimension
  2
*D1
 10
32.310606729161
 20
-2.499992370606
 30
0.0
 11
32.310606729161
 21
22.000941357014
 31
0.0
 71
           5
 72
           1
 41
1.0
 42
0.0
  1
48
  3
STANDARD
100
AcDbAlignedDimension
 13
74.0
 23
45.50000762939
 33
0.0
 14
70.0
 24
-2.499992370606
 34
0.0
 50
89.999522909796
100
AcDbRotatedDimension
  0
DIMENSION
  5
4E1
100
AcDbEntity
  8
S2
390
962
  6
CONTINUOUS
 62
          92
 48
25.39999961853
100
AcDbDimension
  2
*D2
 10
87.002136230469
 20
70.173780796392
 30
0.0
 11
78.351904600424
 21
70.173780796392
 31
0.0
 71
           5
 72
           1
 41
1.0
 42
0.0
  1
17
  3
STANDARD
100
AcDbAlignedDimension
 13
70.0
 23
41.50000762939
 33
0.0
 14
87.002136230469
 24
66.544075012202
 34
0.0
100
AcDbRotatedDimension
  0
DIMENSION
  5
4E3
100
AcDbEntity
  8
S2
390
962
  6
CONTINUOUS
 62
          92
 48
25.39999961853
100
AcDbDimension
  2
*D3
 10
42.343116221649
 20
18.998176574702
 30
0.0
 11
42.343116221649
 21
32.249092102046
 31
0.0
 71
           5
 72
           1
 41
1.0
 42
0.0
  1
26.5
  3
STANDARD
100
AcDbAlignedDimension
 13
75.0
 23
45.50000762939
 33
0.0
 14
47.826904296875
 24
18.998176574702
 34
0.0
 50
89.999522909796
100
AcDbRotatedDimension
  0
LINE
  5
4E4
100
AcDbEntity
  8
S2
390
962
  6
CONTINUOUS
 62
          92
 48
25.39999961853
100
AcDbLine
 10
79.0
 20
-90.908537147449
 30
0.0
 11
79.0
 21
-82.138970494377
 31
0.0
  0
LINE
  5
4E5
100
AcDbEntity
  8
S2
390
962
  6
CONTINUOUS
 62
          92
 48
25.39999961853
100
AcDbLine
 10
79.0
 20
-90.908537147449
 30
0.0
 11
78.416488384928
 21
-88.098277019342
 31
0.0
  0
LINE
  5
4E6
100
AcDbEntity
  8
S2
390
962
  6
CONTINUOUS
 62
          92
 48
25.39999961853
100
AcDbLine
 10
79.0
 20
-90.908537147449
 30
0.0
 11
79.583511615072
 21
-88.098277019342
 31
0.0
  0
LINE
  5
4E7
100
AcDbEntity
  8
S2
390
962
  6
CONTINUOUS
 62
          92
 48
25.39999961853
100
AcDbLine
 10
60.576018547419
 20
-46.148536410602
 30
0.0
 11
66.532705330638
 21
-46.148536410602
 31
0.0
  0
LINE
  5
4E8
100
AcDbEntity
  8
S2
390
962
  6
CONTINUOUS
 62
          92
 48
25.39999961853
100
AcDbLine
 10
60.576018547419
 20
-46.148536410602
 30
0.0
 11
63.386278675526
 21
-45.56502479553
 31
0.0
  0
LINE
  5
4E9
100
AcDbEntity
  8
S2
390
962
  6
CONTINUOUS
 62
          92
 48
25.39999961853
100
AcDbLine
 10
60.576018547419
 20
-46.148536410602
 30
0.0
 11
63.386278675526
 21
-46.732048025675
 31
0.0
  0
LINE
  5
4EA
100
AcDbEntity
  8
S2
390
962
  6
CONTINUOUS
 62
          92
 48
25.39999961853
100
AcDbLine
 10
73.69186555666
 20
-64.079695537247
 30
0.0
 11
57.175752996819
 21
-103.162655674925
 31
0.0
  0
LINE
  5
4EB
100
AcDbEntity
  8
S2
390
962
  6
CONTINUOUS
 62
          92
 48
25.39999961853
100
AcDbLine
 10
57.175752996819
 20
-103.162655674925
 30
0.0
 11
-11.915978246037
 21
-103.162655674925
 31
0.0
  0
LINE
  5
4EC
100
AcDbEntity
  8
S2
390
962
  6
CONTINUOUS
 62
          92
 48
25.39999961853
100
AcDbLine
 10
73.69186555666
 20
-64.079695537247
 30
0.0
 11
73.135431253594
 21
-66.895442091702
 31
0.0
  0
LINE
  5
4ED
100
AcDbEntity
  8
S2
390
962
  6
CONTINUOUS
 62
          92
 48
25.39999961853
100
AcDbLine
 10
73.69186555666
 20
-64.079695537247
 30
0.0
 11
72.060453776169
 21
-66.441166137324
 31
0.0
  0
TEXT
  5
4EE
100
AcDbEntity
  8
S2
390
962
  6
CONTINUOUS
 62
          92
 48
25.39999961853
100
AcDbText
 10
-9.415978246037
 20
-79.912655674925
 30
0.0
 40
3.0
  1
NOTE 1:
 41
0.833333333333
  7
MICROCADAM
100
AcDbText
  0
TEXT
  5
4EF
100
AcDbEntity
  8
S2
390
962
  6
CONTINUOUS
 62
          92
 48
25.39999961853
100
AcDbText
 10
-9.415978246037
 20
-85.412655674925
 30
0.0
 40
3.0
  1
WARNING :
 41
0.833333333333
  7
MICROCADAM
100
AcDbText
  0
TEXT
  5
4F0
100
AcDbEntity
  8
S2
390
962
  6
CONTINUOUS
 62
          92
 48
25.39999961853
100
AcDbText
 10
-9.415978246037
 20
-90.912655674925
 30
0.0
 40
3.0
  1
do not position the screws
 41
0.833333333333
  7
MICROCADAM
100
AcDbText
  0
TEXT
  5
4F1
100
AcDbEntity
  8
S2
390
962
  6
CONTINUOUS
 62
          92
 48
25.39999961853
100
AcDbText
 10
-9.415978246037
 20
-96.412655674925
 30
0.0
 40
3.0
  1
in the same place as card
 41
0.833333333333
  7
MICROCADAM
100
AcDbText
  0
TEXT
  5
4F2
100
AcDbEntity
  8
S2
390
962
  6
CONTINUOUS
 62
          92
 48
25.39999961853
100
AcDbText
 10
-9.415978246037
 20
-101.912655674925
 30
0.0
 40
3.0
  1
fixing support
 41
0.833333333333
  7
MICROCADAM
100
AcDbText
  0
LINE
  5
4F3
100
AcDbEntity
  8
IV
390
962
  6
CONTINUOUS
 62
           1
 48
25.39999961853
100
AcDbLine
 10
80.467213517587
 20
-110.632981981126
 30
0.0
 11
80.474977669297
 21
-110.912746959846
 31
0.0
  0
LINE
  5
4F4
100
AcDbEntity
  8
IV
390
962
  6
CONTINUOUS
 62
           1
 48
25.39999961853
100
AcDbLine
 10
120.270012407746
 20
-136.000537035356
 30
0.0
 11
120.270012407747
 21
-154.779958396691
 31
0.0
  0
LINE
  5
4F5
100
AcDbEntity
  8
IV
390
962
  6
CONTINUOUS
 62
           1
 48
25.39999961853
100
AcDbLine
 10
105.320270334237
 20
-110.515066265076
 30
0.0
 11
105.673818330033
 21
-110.719187295616
 31
0.0
  0
LINE
  5
4F6
100
AcDbEntity
  8
IV
390
962
  6
CONTINUOUS
 62
           1
 48
25.39999961853
100
AcDbLine
 10
114.412148031478
 20
-162.944924205968
 30
0.0
 11
112.290827687919
 21
-163.353172496432
 31
0.0
  0
LINE
  5
4F7
100
AcDbEntity
  8
IV
390
962
  6
CONTINUOUS
 62
           1
 48
25.39999961853
100
AcDbLine
 10
112.290827687918
 20
-144.573751135096
 30
0.0
 11
112.290827687919
 21
-163.353172496432
 31
0.0
  0
LINE
  5
4F8
100
AcDbEntity
  8
IV
390
962
  6
CONTINUOUS
 62
           1
 48
25.39999961853
100
AcDbLine
 10
114.412148031477
 20
-144.165502844626
 30
0.0
 11
112.290827687918
 21
-144.573751135096
 31
0.0
  0
LINE
  5
4F9
100
AcDbEntity
  8
IV
390
962
  6
CONTINUOUS
 62
           1
 48
25.39999961853
100
AcDbLine
 10
95.673818330037
 20
-111.709763752756
 30
0.0
 11
94.259604767657
 21
-113.342756914606
 31
0.0
  0
LINE
  5
4FA
100
AcDbEntity
  8
IV
390
962
  6
CONTINUOUS
 62
           1
 48
25.39999961853
100
AcDbLine
 10
93.899747990007
 20
-113.134993507166
 30
0.0
 11
94.259604767657
 21
-113.342756914606
 31
0.0
  0
LINE
  5
4FB
100
AcDbEntity
  8
IV
390
962
  6
CONTINUOUS
 62
           1
 48
25.39999961853
100
AcDbLine
 10
82.858246609427
 20
-110.817618623106
 30
0.0
 11
83.780367275867
 21
-108.958190116946
 31
0.0
  0
LINE
  5
4FC
100
AcDbEntity
  8
IV
390
962
  6
CONTINUOUS
 62
           1
 48
25.39999961853
100
AcDbLine
 10
86.448916547517
 20
-110.517629976206
 30
0.0
 11
87.548194391977
 21
-108.681006753546
 31
0.0
  0
LINE
  5
4FD
100
AcDbEntity
  8
IV
390
962
  6
CONTINUOUS
 62
           1
 48
25.39999961853
100
AcDbLine
 10
80.575671731037
 20
-110.546496083616
 30
0.0
 11
79.768689414477
 21
-112.347262843186
 31
0.0
  0
LINE
  5
4FE
100
AcDbEntity
  8
IV
390
962
  6
CONTINUOUS
 62
           1
 48
25.39999961853
100
AcDbLine
 10
95.320270334237
 20
-111.505642722206
 30
0.0
 11
93.899747990007
 21
-113.134993507166
 31
0.0
  0
LINE
  5
4FF
100
AcDbEntity
  8
IV
390
962
  6
CONTINUOUS
 62
           1
 48
25.39999961853
100
AcDbLine
 10
114.412148031477
 20
-144.165502844626
 30
0.0
 11
114.412148031478
 21
-162.944924205968
 31
0.0
  0
LINE
  5
500
100
AcDbEntity
  8
IV
390
962
  6
CONTINUOUS
 62
           1
 48
25.39999961853
100
AcDbLine
 10
110.815959348562
 20
-162.501656863685
 30
0.0
 11
112.290827687919
 21
-163.353172496432
 31
0.0
  0
LINE
  5
501
100
AcDbEntity
  8
IV
390
962
  6
CONTINUOUS
 62
           1
 48
25.39999961853
100
AcDbLine
 10
95.320270334237
 20
-111.505642722206
 30
0.0
 11
95.673818330037
 21
-111.709763752756
 31
0.0
  0
LINE
  5
502
100
AcDbEntity
  8
IV
390
962
  6
CONTINUOUS
 62
           1
 48
25.39999961853
100
AcDbLine
 10
-89.941711731393
 20
-278.409152303596
 30
0.0
 11
112.437279692121
 21
-161.565587126889
 31
0.0
  0
LINE
  5
503
100
AcDbEntity
  8
IV
390
962
  6
CONTINUOUS
 62
           1
 48
25.39999961853
100
AcDbLine
 10
-116.306197365193
 20
-227.204342164926
 30
0.0
 11
82.966716473127
 21
-112.154071718146
 31
0.0
  0
LINE
  5
504
100
AcDbEntity
  8
IV
390
962
  6
CONTINUOUS
 62
           1
 48
25.39999961853
100
AcDbLine
 10
112.290833082714
 20
-159.270692706481
 30
0.0
 11
-89.941711731393
 21
-276.029706893796
 31
0.0
  0
LINE
  5
505
100
AcDbEntity
  8
IV
390
962
  6
CONTINUOUS
 62
           1
 48
25.39999961853
100
AcDbLine
 10
112.644386473307
 20
-159.883065142177
 30
0.0
 11
-89.941711731393
 21
-276.846203474796
 31
0.0
  0
LINE
  5
506
100
AcDbEntity
  8
IV
390
962
  6
CONTINUOUS
 62
           1
 48
25.39999961853
100
AcDbLine
 10
112.644386473307
 20
-161.107810013568
 30
0.0
 11
-89.941711731393
 21
-278.070948346196
 31
0.0
  0
LINE
  5
507
100
AcDbEntity
  8
IV
390
962
  6
CONTINUOUS
 62
           1
 48
25.39999961853
100
AcDbLine
 10
94.618720306537
 20
-113.145968170416
 30
0.0
 11
-107.963803246093
 21
-230.107042676626
 31
0.0
  0
LINE
  5
508
100
AcDbEntity
  8
IV
390
962
  6
CONTINUOUS
 62
           1
 48
25.39999961853
100
AcDbLine
 10
94.721760388707
 20
-113.484187385266
 30
0.0
 11
-107.622774770993
 21
-230.307859228756
 31
0.0
  0
LINE
  5
509
100
AcDbEntity
  8
IV
390
962
  6
CONTINUOUS
 62
           1
 48
25.39999961853
100
AcDbLine
 10
-107.206383571493
 20
-230.563159629086
 30
0.0
 11
94.977264990977
 21
-113.832375705776
 31
0.0
  0
LINE
  5
50A
100
AcDbEntity
  8
IV
390
962
  6
CONTINUOUS
 62
           1
 48
25.39999961853
100
AcDbLine
 10
-89.941711731393
 20
-275.705411261396
 30
0.0
 11
112.470123483555
 21
-158.84288371284
 31
0.0
  0
LINE
  5
50B
100
AcDbEntity
  8
IV
390
962
  6
CONTINUOUS
 62
           1
 48
25.39999961853
100
AcDbLine
 10
94.977263771017
 20
-113.832376410126
 30
0.0
 11
-107.206383571493
 21
-230.563159629086
 31
0.0
  0
LINE
  5
50C
100
AcDbEntity
  8
IV
390
962
  6
CONTINUOUS
 62
           1
 48
25.39999961853
100
AcDbLine
 10
96.011407046957
 20
-113.951621232916
 30
0.0
 11
-106.620530566393
 21
-230.941224960386
 31
0.0
  0
LINE
  5
50D
100
AcDbEntity
  8
IV
390
962
  6
CONTINUOUS
 62
           1
 48
25.39999961853
100
AcDbLine
 10
112.573676874148
 20
-143.104098403296
 30
0.0
 11
-89.975166313393
 21
-260.045727541686
 31
0.0
  0
LINE
  5
50E
100
AcDbEntity
  8
IV
390
962
  6
CONTINUOUS
 62
           1
 48
25.39999961853
100
AcDbLine
 10
112.573676874148
 20
-158.613995156179
 30
0.0
 11
-89.941711731393
 21
-275.536309282696
 31
0.0
  0
LINE
  5
50F
100
AcDbEntity
  8
IV
390
962
  6
CONTINUOUS
 62
           1
 48
25.39999961853
100
AcDbLine
 10
-90.648818512593
 20
-281.336928440496
 30
0.0
 11
-89.941711731393
 21
-280.112183569096
 31
0.0
  0
LINE
  5
510
100
AcDbEntity
  8
IV
390
962
  6
CONTINUOUS
 62
           1
 48
25.39999961853
100
AcDbLine
 10
-89.941711731393
 20
-261.332762207756
 30
0.0
 11
-89.941711731393
 21
-280.112183569096
 31
0.0
  0
LINE
  5
511
100
AcDbEntity
  8
IV
390
962
  6
CONTINUOUS
 62
           1
 48
25.39999961853
100
AcDbLine
 10
-90.648818512593
 20
-262.557507079196
 30
0.0
 11
-89.941711731393
 21
-261.332762207756
 31
0.0
  0
LINE
  5
512
100
AcDbEntity
  8
IV
390
962
  6
CONTINUOUS
 62
           1
 48
25.39999961853
100
AcDbLine
 10
-109.387148214093
 20
-230.101767987276
 30
0.0
 11
-107.972934651693
 21
-230.101767987276
 31
0.0
  0
LINE
  5
513
100
AcDbEntity
  8
IV
390
962
  6
CONTINUOUS
 62
           1
 48
25.39999961853
100
AcDbLine
 10
-108.332791429393
 20
-229.894004579826
 30
0.0
 11
-107.972934651693
 21
-230.101767987276
 31
0.0
  0
LINE
  5
514
100
AcDbEntity
  8
IV
390
962
  6
CONTINUOUS
 62
           1
 48
25.39999961853
100
AcDbLine
 10
-109.740696209893
 20
-229.897646956726
 30
0.0
 11
-108.332791429393
 21
-229.894004579826
 31
0.0
  0
LINE
  5
515
100
AcDbEntity
  8
IV
390
962
  6
CONTINUOUS
 62
           1
 48
25.39999961853
100
AcDbLine
 10
-90.648818512593
 20
-262.557507079196
 30
0.0
 11
-90.648818512593
 21
-281.336928440496
 31
0.0
  0
LINE
  5
516
100
AcDbEntity
  8
IV
390
962
  6
CONTINUOUS
 62
           1
 48
25.39999961853
100
AcDbLine
 10
-135.903652508593
 20
-271.538969469396
 30
0.0
 11
-124.078753887093
 21
-278.366077871596
 31
0.0
  0
LINE
  5
517
100
AcDbEntity
  8
IV
390
962
  6
CONTINUOUS
 62
           1
 48
25.39999961853
100
AcDbLine
 10
-138.732079633293
 20
-253.517070126666
 30
0.0
 11
-138.732079633293
 21
-266.639989983796
 31
0.0
  0
LINE
  5
518
100
AcDbEntity
  8
IV
390
962
  6
CONTINUOUS
 62
           1
 48
25.39999961853
100
AcDbLine
 10
-123.882831833593
 20
-278.479193521896
 30
0.0
 11
-118.933089760093
 21
-281.336928440496
 31
0.0
  0
LINE
  5
519
100
AcDbEntity
  8
IV
390
962
  6
CONTINUOUS
 62
           1
 48
25.39999961853
100
AcDbLine
 10
-118.933089760093
 20
-262.557507079196
 30
0.0
 11
-118.933089760093
 21
-281.336928440496
 31
0.0
  0
LINE
  5
51A
100
AcDbEntity
  8
IV
390
962
  6
CONTINUOUS
 62
           1
 48
25.39999961853
100
AcDbLine
 10
-123.882831833593
 20
-254.392544384566
 30
0.0
 11
-123.529283837793
 21
-254.596665415106
 31
0.0
  0
LINE
  5
51B
100
AcDbEntity
  8
IV
390
962
  6
CONTINUOUS
 62
           1
 48
25.39999961853
100
AcDbLine
 10
-109.740696209893
 20
-229.897646956726
 30
0.0
 11
-109.387148214093
 21
-230.101767987276
 31
0.0
  0
LWPOLYLINE
  5
51C
100
AcDbEntity
  8
IV
390
962
  6
CONTINUOUS
 62
           1
 48
25.39999961853
100
AcDbPolyline
 90
       19
 70
           0
 10
79.924745481207
 20
-111.999026491756
 10
80.053712543821
 20
-111.704110081412
 10
80.181026868244
 20
-111.409985653826
 10
80.266838909489
 20
-111.217211528893
 10
80.355364490345
 20
-111.021269834813
 10
80.414839975392
 20
-110.889774628957
 10
80.470944625579
 20
-110.765892530281
 10
80.474418179787
 20
-110.757905353598
 10
80.477669485034
 20
-110.748402461755
 10
80.480301141636
 20
-110.737864664886
 10
80.481926061125
 20
-110.731142629827
 10
80.481398675953
 20
-110.740593901888
 10
80.478864826974
 20
-110.76428805976
 10
80.477303002551
 20
-110.786564312136
 10
80.476911073686
 20
-110.803847744389
 10
80.475986558537
 20
-110.839755624014
 10
80.474979030925
 20
-110.878420861653
 10
80.474775953284
 20
-110.895671824813
 10
80.474977669297
 20
-110.912746959846
  0
ELLIPSE
  5
531
100
AcDbEntity
  8
IV
390
962
  6
CONTINUOUS
 62
           1
100
AcDbEllipse
 10
100.270012407744
 20
-154.779958396689
 30
0.0
 11
20.000000000003112
 21
-0.000000000002474
 31
0.0
210
0.0
220
0.0
230
1.0
 40
0.57735026919
 41
5.4977871437821362
 42
6.2831853071795862
  0
LWPOLYLINE
  5
532
100
AcDbEntity
  8
IV
390
962
  6
CONTINUOUS
 62
           1
 48
25.39999961853
100
AcDbPolyline
 90
       33
 70
           0
 10
105.673818330033
 20
-110.719187295616
 10
106.602927048807
 20
-111.281328020972
 10
107.508283806839
 20
-111.880688382099
 10
108.389178225929
 20
-112.516098827606
 10
109.244899927879
 20
-113.186389806104
 10
110.01273822474
 20
-113.835869414835
 10
110.756355237676
 20
-114.511690921516
 10
111.475821334505
 20
-115.213013180219
 10
112.171206883046
 20
-115.938995045013
 10
112.783039459193
 20
-116.620333109111
 10
113.373689852759
 20
-117.31956327431
 10
113.943158685864
 20
-118.036143883217
 10
114.491446580628
 20
-118.769533278436
 10
114.955846094525
 20
-119.427683049885
 10
115.402938940706
 20
-120.097331069284
 10
115.832505563121
 20
-120.778330566768
 10
116.244326405723
 20
-121.47053477247
 10
116.701926344027
 20
-122.291727532715
 10
117.134196015778
 20
-123.126135874844
 10
117.541061876753
 20
-123.973299677329
 10
117.922450382732
 20
-124.832758818643
 10
118.276320979384
 20
-125.699376736678
 10
118.603528592644
 20
-126.575881375482
 10
118.903413677468
 20
-127.462036615037
 10
119.17531668881
 20
-128.357606335329
 10
119.426301093213
 20
-129.292970523177
 10
119.645689216882
 20
-130.235749298142
 10
119.833103744458
 20
-131.185515585792
 10
119.988167360587
 20
-132.141842311696
 10
120.110235307892
 20
-133.102780978834
 10
120.198449580777
 20
-134.066736020035
 10
120.251984005356
 20
-135.032917887981
 10
120.270012407746
 20
-136.000537035356
  0
ELLIPSE
  5
555
100
AcDbEntity
  8
IV
390
962
  6
CONTINUOUS
 62
           1
100
AcDbEllipse
 10
95.673818330017
 20
-128.039695371322
 30
0.0
 11
10.00000000001563
 21
17.320508075705956
 31
0.0
210
0.0
220
0.0
230
1.0
 40
0.577350269188
 41
0.0000000000000001
 42
0.7853981633973287
  0
ELLIPSE
  5
556
100
AcDbEntity
  8
IV
390
962
  6
CONTINUOUS
 62
           1
100
AcDbEllipse
 10
95.320270334231
 20
-127.835574340748
 30
0.0
 11
10.000000000013351
 21
17.320508075667689
 31
0.0
210
0.0
220
0.0
230
1.0
 40
0.57735026919
 41
0.0
 42
0.7853981633974483
  0
LWPOLYLINE
  5
557
100
AcDbEntity
  8
IV
390
962
  6
CONTINUOUS
 62
           1
 48
25.39999961853
100
AcDbPolyline
 90
       28
 70
           0
 10
81.606448986247
 20
-109.849164599026
 10
82.916801843562
 20
-109.132341284461
 10
84.261751527435
 20
-108.481818350391
 10
84.945556560985
 20
-108.185236363679
 10
85.637492455498
 20
-107.909211976144
 10
86.337623478547
 20
-107.655110549449
 10
87.046013897707
 20
-107.424297445253
 10
87.977057552364
 20
-107.161508320546
 10
88.919085007861
 20
-106.941453117153
 10
89.867329897346
 20
-106.765558681399
 10
90.823017989597
 20
-106.635201461099
 10
91.538912082088
 20
-106.568921744821
 10
92.256421061838
 20
-106.529560252575
 10
92.97494065399
 20
-106.517413713062
 10
93.693866583688
 20
-106.532778854985
 10
94.324297654098
 20
-106.569115197545
 10
94.952729017359
 20
-106.626716812759
 10
95.578819461897
 20
-106.705449811313
 10
96.202227776137
 20
-106.805180303897
 10
97.27141733145
 20
-107.026164848491
 10
98.326643778652
 20
-107.305906249169
 10
99.191830926418
 20
-107.580337439046
 10
100.045656802943
 20
-107.888457132133
 10
100.74084313349
 20
-108.164677460741
 10
101.42818215999
 20
-108.459438501448
 10
102.779975008806
 20
-109.100402538247
 10
104.100171884141
 20
-109.801864910331
 10
105.390837575443
 20
-110.555808280776
  0
LWPOLYLINE
  5
575
100
AcDbEntity
  8
IV
390
962
  6
CONTINUOUS
 62
           1
 48
25.39999961853
100
AcDbPolyline
 90
       17
 70
           0
 10
95.320270334237
 20
-111.505642722206
 10
94.400860769962
 20
-110.968829587394
 10
93.459087126034
 20
-110.47306161004
 10
92.494462531976
 20
-110.022813941877
 10
91.506500117308
 20
-109.622561734641
 10
90.619657084163
 20
-109.316353915225
 10
89.719269123597
 20
-109.059327374054
 10
88.805277514861
 20
-108.856839015473
 10
87.877623537204
 20
-108.714245743828
 10
87.041640495737
 20
-108.642270090566
 10
86.204937192943
 20
-108.627424625854
 10
85.370574932633
 20
-108.674305462026
 10
84.541615018619
 20
-108.78750871141
 10
83.770753172469
 20
-108.958621533734
 10
83.017178290113
 20
-109.194361667611
 10
82.297044003784
 20
-109.490674408886
 10
81.606448986247
 20
-109.849164599026
  0
LWPOLYLINE
  5
588
100
AcDbEntity
  8
IV
390
962
  6
CONTINUOUS
 62
           1
 48
25.39999961853
100
AcDbPolyline
 90
        5
 70
           0
 10
83.780367275867
 20
-108.958190116946
 10
82.985324841212
 20
-109.208124510086
 10
82.216056792342
 20
-109.530924957123
 10
81.488490137288
 20
-109.919939457692
 10
80.801509920997
 20
-110.375187629906
  0
ELLIPSE
  5
58F
100
AcDbEntity
  8
IV
390
962
  6
CONTINUOUS
 62
           1
100
AcDbEllipse
 10
94.259604767659
 20
-134.163419728264
 30
0.0
 11
-12.750000000002016
 21
22.083647796504696
 31
0.0
210
0.0
220
0.0
230
1.0
 40
0.57735026919
 41
3.926990816987217
 42
5.4977871437821353
  0
LWPOLYLINE
  5
590
100
AcDbEntity
  8
IV
390
962
  6
CONTINUOUS
 62
           1
 48
25.39999961853
100
AcDbPolyline
 90
        3
 70
           0
 10
80.467213517587
 20
-110.632981981126
 10
80.521272494654
 20
-110.589525678273
 10
80.575671731037
 20
-110.546496083616
  0
LWPOLYLINE
  5
595
100
AcDbEntity
  8
IV
390
962
  6
CONTINUOUS
 62
           1
 48
25.39999961853
100
AcDbPolyline
 90
        3
 70
           0
 10
80.575671731037
 20
-110.546496083616
 10
80.687891181276
 20
-110.459919513818
 10
80.801509920997
 20
-110.375187629906
  0
LWPOLYLINE
  5
59A
100
AcDbEntity
  8
IV
390
962
  6
CONTINUOUS
 62
           1
 48
25.39999961853
100
AcDbPolyline
 90
        8
 70
           0
 10
87.548194391977
 20
-108.681006753546
 10
86.582720705805
 20
-108.628338537864
 10
86.099083787142
 20
-108.631560234908
 10
85.615471286427
 20
-108.65575068101
 10
85.151392132124
 20
-108.699604789537
 10
84.690322664656
 20
-108.764218938415
 10
84.233051505433
 20
-108.850208817575
 10
83.780367275867
 20
-108.958190116946
  0
LWPOLYLINE
  5
5A4
100
AcDbEntity
  8
IV
390
962
  6
CONTINUOUS
 62
           1
 48
25.39999961853
100
AcDbPolyline
 90
        9
 70
           0
 10
95.320270334237
 20
-111.505642722206
 10
94.3222842498
 20
-110.925168355244
 10
93.298137930951
 20
-110.393476819734
 10
92.246863841364
 20
-109.91658066982
 10
91.167494444712
 20
-109.500492459642
 10
90.280222031987
 20
-109.214923546903
 10
89.380499622125
 20
-108.979622025028
 10
88.469449610373
 20
-108.799884293936
 10
87.548194391977
 20
-108.681006753546
  0
LWPOLYLINE
  5
5AF
100
AcDbEntity
  8
IV
390
962
  6
CONTINUOUS
 62
           1
 48
25.39999961853
100
AcDbPolyline
 90
        9
 70
           0
 10
79.768689414477
 20
-112.347262843186
 10
80.20821881888
 20
-112.053014694525
 10
80.654900426362
 20
-111.769665702518
 10
81.019980716852
 20
-111.555187374659
 10
81.394214198865
 20
-111.357352791067
 10
81.739640959276
 20
-111.19805532159
 10
82.093154877911
 20
-111.057583850655
 10
82.47315520461
 20
-110.929507923512
 10
82.858246609427
 20
-110.817618623106
  0
LWPOLYLINE
  5
5BA
100
AcDbEntity
  8
IV
390
962
  6
CONTINUOUS
 62
           1
 48
25.39999961853
100
AcDbPolyline
 90
        7
 70
           0
 10
86.448916547517
 20
-110.517629976206
 10
85.521907862163
 20
-110.477537582673
 10
85.057861658304
 20
-110.485879698092
 10
84.594078391286
 20
-110.514320167838
 10
83.718726135242
 20
-110.626293530872
 10
83.286269332232
 20
-110.711772773295
 10
82.858246609427
 20
-110.817618623106
  0
LWPOLYLINE
  5
5C3
100
AcDbEntity
  8
IV
390
962
  6
CONTINUOUS
 62
           1
 48
25.39999961853
100
AcDbPolyline
 90
       12
 70
           0
 10
93.899747990007
 20
-113.134993507166
 10
93.896594151442
 20
-113.133107570451
 10
93.893440212448
 20
-113.131221731802
 10
93.028285126925
 20
-112.637023027086
 10
92.365116133101
 20
-112.289921598047
 10
91.348883030762
 20
-111.812923562178
 10
90.30876121759
 20
-111.395585274622
 10
89.365869774165
 20
-111.081318828374
 10
88.64831192277
 20
-110.884255106846
 10
88.104723778132
 20
-110.759825700657
 10
87.281266936114
 20
-110.61318891319
 10
86.448916547517
 20
-110.517629976206
  0
LWPOLYLINE
  5
5D1
100
AcDbEntity
  8
IV
390
962
  6
CONTINUOUS
 62
           1
 48
25.39999961853
100
AcDbPolyline
 90
        3
 70
           0
 10
79.794609063457
 20
-113.985488785016
 10
79.782433838596
 20
-113.166363413477
 10
79.768689414477
 20
-112.347262843186
  0
ELLIPSE
  5
5D6
100
AcDbEntity
  8
IV
390
962
  6
CONTINUOUS
 62
           1
100
AcDbEllipse
 10
100.270012407747
 20
-136.000537035342
 30
0.0
 11
19.999999999999673
 21
-0.0000000000208416
 31
0.0
210
0.0
220
0.0
230
1.0
 40
0.577350269189
 41
5.497787143782138
 42
6.2831853071795862
  0
ELLIPSE
  5
5D7
100
AcDbEntity
  8
IV
390
962
  6
CONTINUOUS
 62
           1
100
AcDbEllipse
 10
95.67381833004
 20
-133.346923147334
 30
0.0
 11
-13.249999999996744
 21
22.949673200280888
 31
0.0
210
0.0
220
0.0
230
1.0
 40
0.57735026919
 41
3.9269908169871854
 42
5.4977871437821344
  0
LWPOLYLINE
  5
5D8
100
AcDbEntity
  8
IV
390
962
  6
CONTINUOUS
 62
           1
 48
25.39999961853
100
AcDbPolyline
 90
        3
 70
           0
 10
80.806353113067
 20
-110.371559983076
 10
81.199257905946
 20
-110.099419075822
 10
81.606448986247
 20
-109.849164599026
  0
ELLIPSE
  5
5DD
100
AcDbEntity
  8
IV
390
962
  6
CONTINUOUS
 62
           1
100
AcDbEllipse
 10
-131.379576013181
 20
-267.293999549592
 30
0.0
 11
1.0268632027682967
 21
-1.778579335002836
 31
0.0
210
0.0
220
0.0
230
1.0
 40
0.577350292182
 41
5.4977871437821886
 42
5.5473714932984635
  0
ELLIPSE
  5
5DE
100
AcDbEntity
  8
IV
390
962
  6
CONTINUOUS
 62
           1
100
AcDbEllipse
 10
-131.37957608929
 20
-267.293999568288
 30
0.0
 11
-1.026863232931486
 21
1.778579335147602
 31
0.0
210
0.0
220
0.0
230
1.0
 40
0.577350262524
 41
0.7358138265745969
 42
0.7853981633974339
  0
ELLIPSE
  5
5DF
100
AcDbEntity
  8
IV
390
962
  6
CONTINUOUS
 62
           1
100
AcDbEllipse
 10
-133.782332164704
 20
-268.681231435993
 30
0.0
 11
-1.8750000003869722
 21
3.2475952640403127
 31
0.0
210
0.0
220
0.0
230
1.0
 40
0.57735026915
 41
5.4977871437821522
 42
6.2831853071795862
  0
ELLIPSE
  5
5E0
100
AcDbEntity
  8
IV
390
962
  6
CONTINUOUS
 62
           1
100
AcDbEllipse
 10
-132.809002960646
 20
-268.11927955889
 30
0.0
 11
-1.8750000002622582
 21
3.2475952648228197
 31
0.0
210
0.0
220
0.0
230
1.0
 40
0.577350269039
 41
0.2629937354669252
 42
0.7853981632942024
  0
ELLIPSE
  5
5E1
100
AcDbEntity
  8
IV
390
962
  6
CONTINUOUS
 62
           1
100
AcDbEllipse
 10
-133.782332164873
 20
-268.68123143623
 30
0.0
 11
1.8749999998323286
 21
-3.2475952640941479
 31
0.0
210
0.0
220
0.0
230
1.0
 40
0.577350269185
 41
0.0
 42
0.7853981633974545
  0
ELLIPSE
  5
5E2
100
AcDbEntity
  8
IV
390
962
  6
CONTINUOUS
 62
           1
100
AcDbEllipse
 10
-132.809002960068
 20
-268.119279558574
 30
0.0
 11
1.8749999996731594
 21
-3.2475952636023986
 31
0.0
210
0.0
220
0.0
230
1.0
 40
0.577350269325
 41
5.4977871437821353
 42
6.0206244897078376
  0
LWPOLYLINE
  5
5E3
100
AcDbEntity
  8
IV
390
962
  6
CONTINUOUS
 62
           1
 48
25.39999961853
100
AcDbPolyline
 90
       19
 70
           0
 10
-118.066103284293
 20
-227.029839155266
 10
-117.966629760535
 20
-227.035054455169
 10
-117.867140538439
 20
-227.040916436653
 10
-117.245566973055
 20
-227.091217406962
 10
-116.630730409351
 20
-227.161181546563
 10
-116.471768539395
 20
-227.182045984555
 10
-116.308752240901
 20
-227.203991587855
 10
-116.132468994713
 20
-227.227973799838
 10
-115.970867468305
 20
-227.251205518829
 10
-115.893538462974
 20
-227.262962312036
 10
-115.792430033288
 20
-227.276594610566
 10
-115.725923216905
 20
-227.284736430932
 10
-115.696522196846
 20
-227.289230974792
 10
-115.721582331018
 20
-227.28807788469
 10
-115.767854748474
 20
-227.284680260374
 10
-115.883679803257
 20
-227.274433433776
 10
-115.977676713206
 20
-227.265184600394
 10
-116.079948837901
 20
-227.256745227395
 10
-116.186693948493
 20
-227.250212668446
  0
LWPOLYLINE
  5
5F8
100
AcDbEntity
  8
IV
390
962
  6
CONTINUOUS
 62
           1
 48
25.39999961853
100
AcDbPolyline
 90
       11
 70
           0
 10
-108.332791429393
 20
-229.894004579826
 10
-108.335945281603
 20
-229.892118636634
 10
-108.339099206912
 20
-229.890232804462
 10
-109.310403228282
 20
-229.339013505083
 10
-110.306863582205
 20
-228.836186936086
 10
-111.329612657674
 20
-228.387776760067
 10
-112.379782843683
 20
-227.99980663962
 10
-113.313668696938
 20
-227.717282910148
 10
-114.260656860189
 20
-227.49371575444
 10
-115.218935791388
 20
-227.33579554853
 10
-116.186693948493
 20
-227.250212668446
  0
LWPOLYLINE
  5
605
100
AcDbEntity
  8
IV
390
962
  6
CONTINUOUS
 62
           1
 48
25.39999961853
100
AcDbPolyline
 90
       10
 70
           0
 10
-109.740696209893
 20
-229.897646956726
 10
-110.770239066878
 20
-229.299570743446
 10
-111.827389482614
 20
-228.753410017956
 10
-112.913526119584
 20
-228.265829921517
 10
-114.030027640268
 20
-227.843495595391
 10
-115.019291857955
 20
-227.536935649962
 10
-116.023028575116
 20
-227.29408564743
 10
-117.039283735858
 20
-227.122526508848
 10
-117.551495090107
 20
-227.065850051366
 10
-118.066103284293
 20
-227.029839155266
  0
LWPOLYLINE
  5
611
100
AcDbEntity
  8
IV
390
962
  6
CONTINUOUS
 62
           1
 48
25.39999961853
100
AcDbPolyline
 90
        5
 70
           0
 10
-123.454517557893
 20
-228.241168833546
 10
-124.476145134744
 20
-228.860348095934
 10
-125.471421637203
 20
-229.521116985487
 10
-126.440136002808
 20
-230.220531020923
 10
-127.382077169093
 20
-230.955645720956
  0
LWPOLYLINE
  5
618
100
AcDbEntity
  8
IV
390
962
  6
CONTINUOUS
 62
           1
 48
25.39999961853
100
AcDbPolyline
 90
        3
 70
           0
 10
-122.625851838093
 20
-227.819978283716
 10
-123.045792878209
 20
-228.019542617262
 10
-123.454517557893
 20
-228.241168833546
  0
LWPOLYLINE
  5
61D
100
AcDbEntity
  8
IV
390
962
  6
CONTINUOUS
 62
           1
 48
25.39999961853
100
AcDbPolyline
 90
        9
 70
           0
 10
-122.620300271093
 20
-227.817492409886
 10
-122.093675544199
 20
-227.604219453206
 10
-121.554784542713
 20
-227.424825233002
 10
-121.005315389408
 20
-227.278768368821
 10
-120.446956207055
 20
-227.165507480211
 10
-119.85460410421
 20
-227.081466526059
 10
-119.259555484135
 20
-227.032032243832
 10
-118.662993994829
 20
-227.015418498559
 10
-118.066103284293
 20
-227.029839155266
  0
ELLIPSE
  5
628
100
AcDbEntity
  8
IV
390
962
  6
CONTINUOUS
 62
           1
100
AcDbEllipse
 10
-133.782332164993
 20
-268.681231436096
 30
0.0
 11
1.8750000000354954
 21
-3.2475952641783041
 31
0.0
210
0.0
220
0.0
230
1.0
 40
0.577350269202
 41
3.9269908169872494
 42
5.4977871437821575
  0
ELLIPSE
  5
629
100
AcDbEntity
  8
IV
390
962
  6
CONTINUOUS
 62
           1
100
AcDbEllipse
 10
-133.782332164699
 20
-268.681231436199
 30
0.0
 11
1.8749999996762803
 21
-3.2475952641141319
 31
0.0
210
0.0
220
0.0
230
1.0
 40
0.57735026925
 41
5.4977871437821131
 42
6.2831853071795862
  0
ELLIPSE
  5
62A
100
AcDbEntity
  8
IV
390
962
  6
CONTINUOUS
 62
           1
100
AcDbEllipse
 10
-133.782332164992
 20
-268.681231436096
 30
0.0
 11
-1.874999999964849
 21
3.2475952642490356
 31
0.0
210
0.0
220
0.0
230
1.0
 40
0.577350269173
 41
3.926990816979838
 42
5.49778714378213
  0
ELLIPSE
  5
62B
100
AcDbEntity
  8
IV
390
962
  6
CONTINUOUS
 62
           1
100
AcDbEllipse
 10
-133.78233216487
 20
-268.681231436303
 30
0.0
 11
-1.8750000001812428
 21
3.2475952643734471
 31
0.0
210
0.0
220
0.0
230
1.0
 40
0.577350269177
 41
0.0
 42
0.785398163366009
  0
ELLIPSE
  5
62C
100
AcDbEntity
  8
IV
390
962
  6
CONTINUOUS
 62
           1
100
AcDbEllipse
 10
-132.809002960693
 20
-268.119279557996
 30
0.0
 11
-1.8750000000356153
 21
3.2475952641784138
 31
0.0
210
0.0
220
0.0
230
1.0
 40
0.577350269202
 41
0.7853981633974613
 42
2.3561944901923262
  0
ELLIPSE
  5
62D
100
AcDbEntity
  8
IV
390
962
  6
CONTINUOUS
 62
           1
100
AcDbEllipse
 10
-131.379576071893
 20
-267.293999558996
 30
0.0
 11
-1.0268632518012695
 21
1.7785793245251338
 31
0.0
210
0.0
220
0.0
230
1.0
 40
0.577350269181
 41
0.7853981633974756
 42
2.3561944901923488
  0
ELLIPSE
  5
62E
100
AcDbEntity
  8
IV
390
962
  6
CONTINUOUS
 62
           1
100
AcDbEllipse
 10
-107.97293465169
 20
-250.922430800924
 30
0.0
 11
-12.750000000029674
 21
22.083647796497655
 31
0.0
210
0.0
220
0.0
230
1.0
 40
0.57735026919
 41
3.9269908169872436
 42
5.4977871437821335
  0
ELLIPSE
  5
62F
100
AcDbEntity
  8
IV
390
962
  6
CONTINUOUS
 62
           1
100
AcDbEllipse
 10
-104.790954136293
 20
-273.171962631198
 30
0.0
 11
20.000000000025516
 21
0.0
 31
0.0
210
0.0
220
0.0
230
1.0
 40
0.57735026919
 41
3.9269908169872405
 42
5.4977871437821388
  0
ELLIPSE
  5
630
100
AcDbEntity
  8
IV
390
962
  6
CONTINUOUS
 62
           1
100
AcDbEllipse
 10
-135.903652508593
 20
-268.272983145696
 30
0.0
 11
1.9999999999671929
 21
-3.4641016151613138
 31
0.0
210
0.0
220
0.0
230
1.0
 40
0.577350269177
 41
3.9269908169857484
 42
5.4977871437821397
  0
ELLIPSE
  5
631
100
AcDbEntity
  8
IV
390
962
  6
CONTINUOUS
 62
           1
100
AcDbEllipse
 10
-104.790954136293
 20
-254.392541269998
 30
0.0
 11
-20.000000000025569
 21
0.0
 31
0.0
210
0.0
220
0.0
230
1.0
 40
0.577350269183
 41
0.7853981633974471
 42
2.3561944901923444
  0
ELLIPSE
  5
632
100
AcDbEntity
  8
IV
390
962
  6
CONTINUOUS
 62
           1
100
AcDbEllipse
 10
-109.38714821409
 20
-251.738927381904
 30
0.0
 11
-13.250000000039188
 21
22.949673200316251
 31
0.0
210
0.0
220
0.0
230
1.0
 40
0.57735026919
 41
3.9269908169872423
 42
5.4977871437821353
  0
ELLIPSE
  5
633
100
AcDbEntity
  8
IV
390
962
  6
CONTINUOUS
 62
           1
100
AcDbEllipse
 10
-123.529283837792
 20
-259.903893191186
 30
0.0
 11
-3.2499999999909508
 21
5.6291651246300294
 31
0.0
210
0.0
220
0.0
230
1.0
 40
0.577350269189
 41
3.9269908169792287
 42
5.4977871437821424
  0
ELLIPSE
  5
634
100
AcDbEntity
  8
IV
390
962
  6
CONTINUOUS
 62
           1
100
AcDbEllipse
 10
-109.387148214095
 20
-246.431699605825
 30
0.0
 11
9.9999999999773923
 21
17.320508075686273
 31
0.0
210
0.0
220
0.0
230
1.0
 40
0.577350269189
 41
0.7853981633974487
 42
2.3561944901923417
  0
ELLIPSE
  5
635
100
AcDbEntity
  8
IV
390
962
  6
CONTINUOUS
 62
           1
100
AcDbEllipse
 10
-109.740696209891
 20
-246.227578575277
 30
0.0
 11
-9.9999999999789537
 21
-17.320508075688714
 31
0.0
210
0.0
220
0.0
230
1.0
 40
0.577350269189
 41
3.9269908169872392
 42
5.4977871437821344
  0
LWPOLYLINE
  5
636
100
AcDbEntity
  8
IV
390
962
  6
CONTINUOUS
 62
           1
 48
25.39999961853
100
AcDbPolyline
 90
       17
 70
           0
 10
-109.740696209893
 20
-229.897646956726
 10
-110.5947390771
 20
-229.397321870634
 10
-111.468144071365
 20
-228.932191271777
 10
-112.361305158738
 20
-228.505785368942
 10
-113.274616305266
 20
-228.121634370914
 10
-114.101247377678
 20
-227.819612422543
 10
-114.940433759428
 20
-227.559199974534
 10
-115.792342704775
 20
-227.344534462535
 10
-116.65714146798
 20
-227.179753322192
 10
-117.441069208329
 20
-227.078233708149
 10
-118.22802673405
 20
-227.024729855939
 10
-119.015939486916
 20
-227.023149886929
 10
-119.8027329087
 20
-227.077401922484
 10
-120.536374562195
 20
-227.182515703645
 10
-121.259947611646
 20
-227.342736750988
 10
-121.952689614587
 20
-227.554081959067
 10
-122.625851838093
 20
-227.819978283716
  0
LWPOLYLINE
  5
649
100
AcDbEntity
  8
IV
390
962
  6
CONTINUOUS
 62
           1
 48
25.39999961853
100
AcDbPolyline
 90
       23
 70
           0
 10
-138.732079633293
 20
-253.517070126666
 10
-138.387786486672
 20
-253.251950305441
 10
-138.030936864453
 20
-253.004176325357
 10
-137.662075508919
 20
-252.774288303615
 10
-137.281747162355
 20
-252.562826357416
 10
-136.893018599192
 20
-252.371443448353
 10
-136.495861719172
 20
-252.199724743724
 10
-136.090850860314
 20
-252.047555146127
 10
-135.678560360635
 20
-251.91481955816
 10
-135.250360896951
 20
-251.799138474118
 10
-134.817627110261
 20
-251.703773398926
 10
-133.940971607234
 20
-251.571885251256
 10
-133.015087760159
 20
-251.514189158542
 10
-132.087433281255
 20
-251.532858959062
 10
-131.579085958917
 20
-251.573143505143
 10
-130.821677613969
 20
-251.670602696569
 10
-130.070948759361
 20
-251.809796084027
 10
-129.08142567943
 20
-252.055048084706
 10
-128.106317427969
 20
-252.361872508241
 10
-127.007779606845
 20
-252.781317996964
 10
-125.938449697769
 20
-253.263784557109
 10
-124.897182255199
 20
-253.802963061902
 10
-123.882831833593
 20
-254.392544384566
  0
LWPOLYLINE
  5
662
100
AcDbEntity
  8
IV
390
962
  6
CONTINUOUS
 62
           1
 48
25.39999961853
100
AcDbPolyline
 90
        3
 70
           0
 10
-123.882831833593
 20
-278.479193521896
 10
-123.980665738768
 20
-278.422415509715
 10
-124.078753887093
 20
-278.366077871596
  0
ELLIPSE
  5
667
100
AcDbEntity
  8
IV
390
962
  6
CONTINUOUS
 62
           1
100
AcDbEllipse
 10
-124.589944009568
 20
-245.35210431738
 30
0.0
 11
-9.999999999999897
 21
-17.320508075687119
 31
0.0
210
0.0
220
0.0
230
1.0
 40
0.577350269189
 41
4.1257301433046294
 42
5.4977871437821344
  0
LINE
  5
668
100
AcDbEntity
  8
I2
390
962
  6
CONTINUOUS
 62
           1
 48
25.39999961853
100
AcDbLine
 10
-208.839048211599
 20
-259.908449462282
 30
0.0
 11
-209.546154992786
 21
-258.68370459089
 31
0.0
  0
LINE
  5
669
100
AcDbEntity
  8
I2
390
962
  6
CONTINUOUS
 62
           1
 48
25.39999961853
100
AcDbLine
 10
-209.546154992786
 20
-239.904283229549
 30
0.0
 11
-209.546154992786
 21
-258.68370459089
 31
0.0
  0
LINE
  5
66A
100
AcDbEntity
  8
I2
390
962
  6
CONTINUOUS
 62
           1
 48
25.39999961853
100
AcDbLine
 10
-208.839048211599
 20
-241.129028100949
 30
0.0
 11
-209.546154992786
 21
-239.904283229549
 31
0.0
  0
LINE
  5
66B
100
AcDbEntity
  8
I2
390
962
  6
CONTINUOUS
 62
           1
 48
25.39999961853
100
AcDbLine
 10
-190.10071851016
 20
-208.673289009069
 30
0.0
 11
-191.51493207253
 21
-208.673289009069
 31
0.0
  0
LINE
  5
66C
100
AcDbEntity
  8
I2
390
962
  6
CONTINUOUS
 62
           1
 48
25.39999961853
100
AcDbLine
 10
-191.15507529488
 20
-208.465525601619
 30
0.0
 11
-191.51493207253
 21
-208.673289009069
 31
0.0
  0
LINE
  5
66D
100
AcDbEntity
  8
I2
390
962
  6
CONTINUOUS
 62
           1
 48
25.39999961853
100
AcDbLine
 10
-189.74717051436
 20
-208.469167978518
 30
0.0
 11
-191.15507529488
 21
-208.465525601618
 31
0.0
  0
LINE
  5
66E
100
AcDbEntity
  8
I2
390
962
  6
CONTINUOUS
 62
           1
 48
25.39999961853
100
AcDbLine
 10
-208.839048211599
 20
-241.129028100949
 30
0.0
 11
-208.839048211599
 21
-259.908449462282
 31
0.0
  0
LINE
  5
66F
100
AcDbEntity
  8
I2
390
962
  6
CONTINUOUS
 62
           1
 48
25.39999961853
100
AcDbLine
 10
-160.75578709091
 20
-232.088591148459
 30
0.0
 11
-160.75578709091
 21
-245.211511005579
 31
0.0
  0
LINE
  5
670
100
AcDbEntity
  8
I2
390
962
  6
CONTINUOUS
 62
           1
 48
25.39999961853
100
AcDbLine
 10
-180.55477696414
 20
-259.90844946228
 30
0.0
 11
-175.60503489063
 21
-257.050714543721
 31
0.0
  0
LINE
  5
671
100
AcDbEntity
  8
I2
390
962
  6
CONTINUOUS
 62
           1
 48
25.39999961853
100
AcDbLine
 10
-163.58421421566
 20
-250.110490491149
 30
0.0
 11
-175.40911283713
 21
-256.937598893393
 31
0.0
  0
LINE
  5
672
100
AcDbEntity
  8
I2
390
962
  6
CONTINUOUS
 62
           1
 48
25.39999961853
100
AcDbLine
 10
-180.55477696414
 20
-241.129028100939
 30
0.0
 11
-180.55477696414
 21
-259.908449462281
 31
0.0
  0
LINE
  5
673
100
AcDbEntity
  8
I2
390
962
  6
CONTINUOUS
 62
           1
 48
25.39999961853
100
AcDbLine
 10
-189.74717051436
 20
-208.469167978519
 30
0.0
 11
-190.10071851016
 21
-208.673289009068
 31
0.0
  0
LINE
  5
674
100
AcDbEntity
  8
I2
390
962
  6
CONTINUOUS
 62
           1
 48
25.39999961853
100
AcDbLine
 10
-175.60503489063
 20
-232.964065406359
 30
0.0
 11
-175.95858288642
 21
-233.168186436899
 31
0.0
  0
LINE
  5
675
100
AcDbEntity
  8
I2
390
962
  6
CONTINUOUS
 62
           1
 48
25.39999961853
100
AcDbLine
 10
-411.92514641633
 20
-140.137108148709
 30
0.0
 11
-209.546154992786
 21
-256.980673325396
 31
0.0
  0
LINE
  5
676
100
AcDbEntity
  8
I2
390
962
  6
CONTINUOUS
 62
           1
 48
25.39999961853
100
AcDbLine
 10
-382.45458319733
 20
-90.725592739909
 30
0.0
 11
-183.1770223242
 21
-205.778546153499
 31
0.0
  0
LINE
  5
677
100
AcDbEntity
  8
I2
390
962
  6
CONTINUOUS
 62
           1
 48
25.39999961853
100
AcDbLine
 10
-209.546154992786
 20
-254.601227915625
 30
0.0
 11
-411.77869980693
 21
-137.842213728308
 31
0.0
  0
LINE
  5
678
100
AcDbEntity
  8
I2
390
962
  6
CONTINUOUS
 62
           1
 48
25.39999961853
100
AcDbLine
 10
-209.546154992786
 20
-255.417724496554
 30
0.0
 11
-412.13225319753
 21
-138.454586164009
 31
0.0
  0
LINE
  5
679
100
AcDbEntity
  8
I2
390
962
  6
CONTINUOUS
 62
           1
 48
25.39999961853
100
AcDbLine
 10
-209.546154992786
 20
-256.642469367945
 30
0.0
 11
-412.13225319753
 21
-139.679331035409
 31
0.0
  0
LINE
  5
67A
100
AcDbEntity
  8
I2
390
962
  6
CONTINUOUS
 62
           1
 48
25.39999961853
100
AcDbLine
 10
-191.52406347814
 20
-208.678563698419
 30
0.0
 11
-394.10658703073
 21
-91.717489192209
 31
0.0
  0
LINE
  5
67B
100
AcDbEntity
  8
I2
390
962
  6
CONTINUOUS
 62
           1
 48
25.39999961853
100
AcDbLine
 10
-191.86509195326
 20
-208.879380250539
 30
0.0
 11
-394.20962711293
 21
-92.055708407109
 31
0.0
  0
LINE
  5
67C
100
AcDbEntity
  8
I2
390
962
  6
CONTINUOUS
 62
           1
 48
25.39999961853
100
AcDbLine
 10
-394.46513171523
 20
-92.403896727609
 30
0.0
 11
-192.2814831527
 21
-209.134680650869
 31
0.0
  0
LINE
  5
67D
100
AcDbEntity
  8
I2
390
962
  6
CONTINUOUS
 62
           1
 48
25.39999961853
100
AcDbLine
 10
-411.95799020783
 20
-137.414404734609
 30
0.0
 11
-209.546154992786
 21
-254.276932283174
 31
0.0
  0
LINE
  5
67E
100
AcDbEntity
  8
I2
390
962
  6
CONTINUOUS
 62
           1
 48
25.39999961853
100
AcDbLine
 10
-192.2814831527
 20
-209.134680650869
 30
0.0
 11
-394.46513049523
 21
-92.403897431909
 31
0.0
  0
LINE
  5
67F
100
AcDbEntity
  8
I2
390
962
  6
CONTINUOUS
 62
           1
 48
25.39999961853
100
AcDbLine
 10
-192.86733615786
 20
-209.512745982179
 30
0.0
 11
-395.49927377123
 21
-92.523142254709
 31
0.0
  0
LINE
  5
680
100
AcDbEntity
  8
I2
390
962
  6
CONTINUOUS
 62
           1
 48
25.39999961853
100
AcDbLine
 10
-209.51270041082
 20
-238.617248563469
 30
0.0
 11
-412.06154359843
 21
-121.675619425109
 31
0.0
  0
LINE
  5
681
100
AcDbEntity
  8
I2
390
962
  6
CONTINUOUS
 62
           1
 48
25.39999961853
100
AcDbLine
 10
-209.546154992786
 20
-254.107830304448
 30
0.0
 11
-412.06154359843
 21
-137.185516178009
 31
0.0
  0
LINE
  5
682
100
AcDbEntity
  8
I2
390
962
  6
CONTINUOUS
 62
           1
 48
25.39999961853
100
AcDbLine
 10
-419.75787913193
 20
-114.572058057109
 30
0.0
 11
-419.75787913193
 21
-133.351479418509
 31
0.0
  0
LINE
  5
683
100
AcDbEntity
  8
I2
390
962
  6
CONTINUOUS
 62
           1
 48
25.39999961853
100
AcDbLine
 10
-405.16168505423
 20
-89.290708317409
 30
0.0
 11
-404.80813705843
 21
-89.086587286909
 31
0.0
  0
LINE
  5
684
100
AcDbEntity
  8
I2
390
962
  6
CONTINUOUS
 62
           1
 48
25.39999961853
100
AcDbLine
 10
-380.00331519263
 20
-89.165604349809
 30
0.0
 11
-379.23212349223
 21
-90.965104142109
 31
0.0
  0
LINE
  5
685
100
AcDbEntity
  8
I2
390
962
  6
CONTINUOUS
 62
           1
 48
25.39999961853
100
AcDbLine
 10
-413.90001475573
 20
-141.516445227809
 30
0.0
 11
-411.77869441213
 21
-141.924693518209
 31
0.0
  0
LINE
  5
686
100
AcDbEntity
  8
I2
390
962
  6
CONTINUOUS
 62
           1
 48
25.39999961853
100
AcDbLine
 10
-411.77869441213
 20
-123.145272156909
 30
0.0
 11
-411.77869441213
 21
-141.924693518209
 31
0.0
  0
LINE
  5
687
100
AcDbEntity
  8
I2
390
962
  6
CONTINUOUS
 62
           1
 48
25.39999961853
100
AcDbLine
 10
-413.90001475573
 20
-122.737023866409
 30
0.0
 11
-411.77869441213
 21
-123.145272156909
 31
0.0
  0
LINE
  5
688
100
AcDbEntity
  8
I2
390
962
  6
CONTINUOUS
 62
           1
 48
25.39999961853
100
AcDbLine
 10
-395.16168505423
 20
-90.281284774509
 30
0.0
 11
-393.74747149193
 21
-91.914277936409
 31
0.0
  0
LINE
  5
689
100
AcDbEntity
  8
I2
390
962
  6
CONTINUOUS
 62
           1
 48
25.39999961853
100
AcDbLine
 10
-393.38761471423
 20
-91.706514528909
 30
0.0
 11
-393.74747149193
 21
-91.914277936409
 31
0.0
  0
LINE
  5
68A
100
AcDbEntity
  8
I2
390
962
  6
CONTINUOUS
 62
           1
 48
25.39999961853
100
AcDbLine
 10
-394.80813705843
 20
-90.077163744008
 30
0.0
 11
-393.38761471423
 21
-91.706514528908
 31
0.0
  0
LINE
  5
68B
100
AcDbEntity
  8
I2
390
962
  6
CONTINUOUS
 62
           1
 48
25.39999961853
100
AcDbLine
 10
-413.90001475573
 20
-122.737023866409
 30
0.0
 11
-413.90001475573
 21
-141.516445227809
 31
0.0
  0
LINE
  5
68C
100
AcDbEntity
  8
I2
390
962
  6
CONTINUOUS
 62
           1
 48
25.39999961853
100
AcDbLine
 10
-410.30382607283
 20
-141.073177885509
 30
0.0
 11
-411.77869441213
 21
-141.924693518209
 31
0.0
  0
LINE
  5
68D
100
AcDbEntity
  8
I2
390
962
  6
CONTINUOUS
 62
           1
 48
25.39999961853
100
AcDbLine
 10
-394.80813705843
 20
-90.077163744009
 30
0.0
 11
-395.16168505423
 21
-90.281284774509
 31
0.0
  0
ELLIPSE
  5
68E
100
AcDbEntity
  8
I2
390
962
  6
CONTINUOUS
 62
           1
100
AcDbEllipse
 10
-168.108290651438
 20
-245.865520573962
 30
0.0
 11
1.0268632488556957
 21
1.7785793208296203
 31
0.0
210
0.0
220
0.0
230
1.0
 40
0.577350271359
 41
5.4977871437821602
 42
5.547371484728278
  0
ELLIPSE
  5
68F
100
AcDbEntity
  8
I2
390
962
  6
CONTINUOUS
 62
           1
100
AcDbEllipse
 10
-168.108290654094
 20
-245.865520571136
 30
0.0
 11
-1.026863244515001
 21
-1.7785793349172565
 31
0.0
210
0.0
220
0.0
230
1.0
 40
0.577350269794
 41
0.7358138144313345
 42
0.7853981576457801
  0
ELLIPSE
  5
690
100
AcDbEntity
  8
I2
390
962
  6
CONTINUOUS
 62
           1
100
AcDbEllipse
 10
-165.705534559221
 20
-247.252752457887
 30
0.0
 11
1.8750000000036804
 21
3.2475952641772823
 31
0.0
210
0.0
220
0.0
230
1.0
 40
0.577350269192
 41
5.4977871437821362
 42
6.2831853071795862
  0
ELLIPSE
  5
691
100
AcDbEntity
  8
I2
390
962
  6
CONTINUOUS
 62
           1
100
AcDbEllipse
 10
-166.678863763444
 20
-246.690800579822
 30
0.0
 11
1.8749999999400231
 21
3.2475952642272881
 31
0.0
210
0.0
220
0.0
230
1.0
 40
0.577350269182
 41
5.4977871437821424
 42
6.0206244898141126
  0
ELLIPSE
  5
692
100
AcDbEntity
  8
I2
390
962
  6
CONTINUOUS
 62
           1
100
AcDbEllipse
 10
-165.705534559222
 20
-247.2527524579
 30
0.0
 11
-1.8749999999965423
 21
-3.2475952641942984
 31
0.0
210
0.0
220
0.0
230
1.0
 40
0.57735026919
 41
0.0
 42
0.7853981633968182
  0
ELLIPSE
  5
693
100
AcDbEntity
  8
I2
390
962
  6
CONTINUOUS
 62
           1
100
AcDbEllipse
 10
-166.678863763479
 20
-246.690800579795
 30
0.0
 11
-1.8749999999924489
 21
-3.2475952642086519
 31
0.0
210
0.0
220
0.0
230
1.0
 40
0.577350269186
 41
0.2629937354667022
 42
0.7853981633918851
  0
LWPOLYLINE
  5
694
100
AcDbEntity
  8
I2
390
962
  6
CONTINUOUS
 62
           1
 48
25.39999961853
100
AcDbPolyline
 90
        7
 70
           0
 10
-184.09655748033
 20
-205.886730183979
 10
-183.889646971657
 20
-205.86267536441
 10
-183.682787985173
 20
-205.838175843075
 10
-183.457911048341
 20
-205.811618955854
 10
-183.233024822053
 20
-205.785142864373
 10
-182.741958050264
 20
-205.727300075985
 10
-182.25083224039
 20
-205.669962442679
  0
LWPOLYLINE
  5
69D
100
AcDbEntity
  8
I2
390
962
  6
CONTINUOUS
 62
           1
 48
25.39999961853
100
AcDbPolyline
 90
        9
 70
           0
 10
-189.74717051436
 20
-208.469167978519
 10
-188.786268547398
 20
-207.909102035759
 10
-187.801136485098
 20
-207.393943502966
 10
-186.790882056608
 20
-206.929016352764
 10
-185.754612991074
 20
-206.519644557777
 10
-184.896079672782
 20
-206.232887502352
 10
-184.025342383844
 20
-205.992521982381
 10
-183.14329521085
 20
-205.803297221333
 10
-182.25083224039
 20
-205.669962442679
  0
LWPOLYLINE
  5
6A8
100
AcDbEntity
  8
I2
390
962
  6
CONTINUOUS
 62
           1
 48
25.39999961853
100
AcDbPolyline
 90
       12
 70
           0
 10
-191.15507529488
 20
-208.465525601619
 10
-191.151921454587
 20
-208.463639664144
 10
-191.14876751732
 20
-208.461753826255
 10
-190.327164029803
 20
-207.991372642906
 10
-189.698169379902
 20
-207.659847636449
 10
-188.73526948818
 20
-207.201596468322
 10
-187.750520984781
 20
-206.796283326185
 10
-186.858157375141
 20
-206.4859894355
 10
-186.179081143275
 20
-206.287170169018
 10
-185.145861840502
 20
-206.048292331259
 10
-184.623118980113
 20
-205.957418282675
 10
-184.09655748033
 20
-205.886730183979
  0
LWPOLYLINE
  5
6B6
100
AcDbEntity
  8
I2
390
962
  6
CONTINUOUS
 62
           1
 48
25.39999961853
100
AcDbPolyline
 90
        5
 70
           0
 10
-176.03334916637
 20
-206.812689855339
 10
-175.011721589504
 20
-207.431869117722
 10
-174.016445087031
 20
-208.092638007274
 10
-173.047730721415
 20
-208.792052042711
 10
-172.10578955512
 20
-209.527166742749
  0
LWPOLYLINE
  5
6BD
100
AcDbEntity
  8
I2
390
962
  6
CONTINUOUS
 62
           1
 48
25.39999961853
100
AcDbPolyline
 90
        3
 70
           0
 10
-176.86201488611
 20
-206.391499305509
 10
-176.442073846026
 20
-206.591063639061
 10
-176.03334916637
 20
-206.812689855339
  0
ELLIPSE
  5
6C2
100
AcDbEntity
  8
I2
390
962
  6
CONTINUOUS
 62
           1
100
AcDbEllipse
 10
-165.705534559217
 20
-247.252752457898
 30
0.0
 11
1.874999999995917
 21
3.2475952641902341
 31
0.0
210
0.0
220
0.0
230
1.0
 40
0.577350269191
 41
0.0
 42
0.7853981633964979
  0
ELLIPSE
  5
6C3
100
AcDbEntity
  8
I2
390
962
  6
CONTINUOUS
 62
           1
100
AcDbEllipse
 10
-165.70553455922
 20
-247.252752457898
 30
0.0
 11
-1.8750000000002149
 21
-3.2475952641924866
 31
0.0
210
0.0
220
0.0
230
1.0
 40
0.57735026919
 41
3.9269908169872392
 42
5.497787143782138
  0
ELLIPSE
  5
6C4
100
AcDbEntity
  8
I2
390
962
  6
CONTINUOUS
 62
           1
100
AcDbEllipse
 10
-165.705534559218
 20
-247.252752457892
 30
0.0
 11
-1.8750000000003275
 21
-3.2475952642021673
 31
0.0
210
0.0
220
0.0
230
1.0
 40
0.577350269189
 41
5.4977871437821424
 42
6.2831853071795862
  0
ELLIPSE
  5
6C5
100
AcDbEntity
  8
I2
390
962
  6
CONTINUOUS
 62
           1
100
AcDbEllipse
 10
-165.70553455922
 20
-247.252752457901
 30
0.0
 11
1.875000000000181
 21
3.247595264193901
 31
0.0
210
0.0
220
0.0
230
1.0
 40
0.577350269189
 41
3.9269908169870229
 42
5.4977871437821406
  0
ELLIPSE
  5
6C6
100
AcDbEntity
  8
I2
390
962
  6
CONTINUOUS
 62
           1
100
AcDbEllipse
 10
-168.1082906523
 20
-245.865520580759
 30
0.0
 11
1.0268632517941985
 21
1.7785793245392967
 31
0.0
210
0.0
220
0.0
230
1.0
 40
0.57735026919
 41
3.9269908169872525
 42
5.4977871437821344
  0
ELLIPSE
  5
6C7
100
AcDbEntity
  8
I2
390
962
  6
CONTINUOUS
 62
           1
100
AcDbEllipse
 10
-166.67886376349
 20
-246.690800579807
 30
0.0
 11
1.8750000000002069
 21
3.2475952641910553
 31
0.0
210
0.0
220
0.0
230
1.0
 40
0.57735026919
 41
3.9269908169872569
 42
5.4977871437821504
  0
ELLIPSE
  5
6C8
100
AcDbEntity
  8
I2
390
962
  6
CONTINUOUS
 62
           1
100
AcDbEllipse
 10
-191.514932072533
 20
-229.493951822717
 30
0.0
 11
12.749999999998419
 21
22.083647796497701
 31
0.0
210
0.0
220
0.0
230
1.0
 40
0.577350269189
 41
0.7853981633971877
 42
2.3561944901923448
  0
LWPOLYLINE
  5
6C9
100
AcDbEntity
  8
I2
390
962
  6
CONTINUOUS
 62
           1
 48
25.39999961853
100
AcDbPolyline
 90
        8
 70
           0
 10
-181.9802808527
 20
-205.641537709359
 10
-181.015937253527
 20
-205.588234498601
 10
-180.532845336278
 20
-205.591134550579
 10
-180.049764185627
 20
-205.615007748974
 10
-179.586183836418
 20
-205.658565346699
 10
-179.12560448624
 20
-205.722892995842
 10
-178.668816092777
 20
-205.808606647642
 10
-178.21660861371
 20
-205.916322253339
  0
LWPOLYLINE
  5
6D3
100
AcDbEntity
  8
I2
390
962
  6
CONTINUOUS
 62
           1
 48
25.39999961853
100
AcDbPolyline
 90
        3
 70
           0
 10
-181.9802808527
 20
-205.641537709359
 10
-182.11563140561
 20
-205.655037204228
 10
-182.25083224039
 20
-205.669962442679
  0
ELLIPSE
  5
6D8
100
AcDbEntity
  8
I2
390
962
  6
CONTINUOUS
 62
           1
100
AcDbEllipse
 10
-163.58421421566
 20
-246.844504167439
 30
0.0
 11
-2.0000000000025682
 21
-3.4641016151400601
 31
0.0
210
0.0
220
0.0
230
1.0
 40
0.577350269189
 41
0.7853981633960459
 42
2.3561944901923395
  0
ELLIPSE
  5
6D9
100
AcDbEntity
  8
I2
390
962
  6
CONTINUOUS
 62
           1
100
AcDbEllipse
 10
-194.696912587869
 20
-251.743483653006
 30
0.0
 11
-19.999999999996575
 21
0.0
 31
0.0
210
0.0
220
0.0
230
1.0
 40
0.57735026919
 41
0.7853981633974383
 42
2.3561944901923431
  0
ELLIPSE
  5
6DA
100
AcDbEntity
  8
I2
390
962
  6
CONTINUOUS
 62
           1
100
AcDbEllipse
 10
-194.696912587869
 20
-232.964062291669
 30
0.0
 11
19.999999999996575
 21
0.000000000007077
 31
0.0
210
0.0
220
0.0
230
1.0
 40
0.57735026919
 41
3.9269908169872405
 42
5.4977871437821362
  0
ELLIPSE
  5
6DB
100
AcDbEntity
  8
I2
390
962
  6
CONTINUOUS
 62
           1
100
AcDbEllipse
 10
-175.958582886421
 20
-238.475414212928
 30
0.0
 11
3.2500000000050075
 21
5.6291651245946523
 31
0.0
210
0.0
220
0.0
230
1.0
 40
0.577350269191
 41
0.7853981633968685
 42
2.3561944901923502
  0
ELLIPSE
  5
6DC
100
AcDbEntity
  8
I2
390
962
  6
CONTINUOUS
 62
           1
100
AcDbEllipse
 10
-190.100718510162
 20
-230.310448403657
 30
0.0
 11
13.249999999995861
 21
22.949673200288039
 31
0.0
210
0.0
220
0.0
230
1.0
 40
0.57735026919
 41
0.7853981633974486
 42
2.3561944901923448
  0
ELLIPSE
  5
6DD
100
AcDbEntity
  8
I2
390
962
  6
CONTINUOUS
 62
           1
100
AcDbEllipse
 10
-190.100718510158
 20
-225.003220627618
 30
0.0
 11
-10.000000000005821
 21
17.320508075686234
 31
0.0
210
0.0
220
0.0
230
1.0
 40
0.57735026919
 41
3.926990816987241
 42
5.4977871437821362
  0
ELLIPSE
  5
6DE
100
AcDbEntity
  8
I2
390
962
  6
CONTINUOUS
 62
           1
100
AcDbEllipse
 10
-189.747170514358
 20
-224.799099597078
 30
0.0
 11
9.9999999999986144
 21
-17.320508075693368
 31
0.0
210
0.0
220
0.0
230
1.0
 40
0.577350269189
 41
0.7853981633971806
 42
2.3561944901923488
  0
LWPOLYLINE
  5
6DF
100
AcDbEntity
  8
I2
390
962
  6
CONTINUOUS
 62
           1
 48
25.39999961853
100
AcDbPolyline
 90
       23
 70
           0
 10
-160.75578709091
 20
-232.088591148459
 10
-161.100080237532
 20
-231.823471327233
 10
-161.456929859753
 20
-231.57569734715
 10
-161.825791215288
 20
-231.345809325408
 10
-162.206119561854
 20
-231.134347379209
 10
-162.594848125018
 20
-230.942964470145
 10
-162.992005005038
 20
-230.771245765517
 10
-163.397015863898
 20
-230.61907616792
 10
-163.809306363578
 20
-230.486340579953
 10
-164.237505827263
 20
-230.370659495911
 10
-164.670239613953
 20
-230.275294420719
 10
-165.546895116981
 20
-230.143406273049
 10
-166.472778964057
 20
-230.085710180335
 10
-167.400433442961
 20
-230.104379980855
 10
-167.9087807653
 20
-230.144664526935
 10
-168.666189110247
 20
-230.242123718361
 10
-169.416917964856
 20
-230.38131710582
 10
-170.406441044788
 20
-230.626569106499
 10
-171.381549296249
 20
-230.933393530034
 10
-172.480087117374
 20
-231.352839018757
 10
-173.549417026451
 20
-231.835305578902
 10
-174.590684469022
 20
-232.374484083695
 10
-175.60503489063
 20
-232.964065406359
  0
LWPOLYLINE
  5
6F8
100
AcDbEntity
  8
I2
390
962
  6
CONTINUOUS
 62
           1
 48
25.39999961853
100
AcDbPolyline
 90
       17
 70
           0
 10
-189.74717051436
 20
-208.469167978519
 10
-188.893127647146
 20
-207.968842892427
 10
-188.019722652875
 20
-207.503712293571
 10
-187.126561565497
 20
-207.077306390736
 10
-186.213250418963
 20
-206.693155392707
 10
-185.38661934655
 20
-206.391133444336
 10
-184.547432964799
 20
-206.130720996328
 10
-183.69552401945
 20
-205.916055484328
 10
-182.830725256244
 20
-205.751274343985
 10
-182.046797515894
 20
-205.649754729942
 10
-181.259839990172
 20
-205.596250877732
 10
-180.471927237305
 20
-205.594670908722
 10
-179.68513381552
 20
-205.648922944277
 10
-178.951492162023
 20
-205.754036725438
 10
-178.227919112568
 20
-205.91425777278
 10
-177.535177109622
 20
-206.12560298086
 10
-176.86201488611
 20
-206.391499305509
  0
LWPOLYLINE
  5
70B
100
AcDbEntity
  8
I2
390
962
  6
CONTINUOUS
 62
           1
 48
25.39999961853
100
AcDbPolyline
 90
        3
 70
           0
 10
-175.40911283713
 20
-256.937598893393
 10
-175.50720098545
 20
-256.993936531535
 10
-175.60503489063
 20
-257.050714543722
  0
ELLIPSE
  5
710
100
AcDbEntity
  8
I2
390
962
  6
CONTINUOUS
 62
           1
100
AcDbEllipse
 10
-174.897922714647
 20
-223.923625339172
 30
0.0
 11
10.000000000015177
 21
-17.320508075683399
 31
0.0
210
0.0
220
0.0
230
1.0
 40
0.577350269189
 41
0.7853981633963652
 42
2.1574551638742929
  0
ELLIPSE
  5
711
100
AcDbEntity
  8
I2
390
962
  6
CONTINUOUS
 62
           1
100
AcDbEllipse
 10
-399.757879132162
 20
-133.351479418947
 30
0.0
 11
-19.999999999767407
 21
0.0000000006572012
 31
0.0
210
0.0
220
0.0
230
1.0
 40
0.577350269189
 41
0.0
 42
0.7853981633974496
  0
LWPOLYLINE
  5
712
100
AcDbEntity
  8
I2
390
962
  6
CONTINUOUS
 62
           1
 48
25.39999961853
100
AcDbPolyline
 90
       33
 70
           0
 10
-405.16168505423
 20
-89.290708317409
 10
-405.990653615859
 20
-89.790130945543
 10
-406.800624445892
 20
-90.319584051171
 10
-407.591326863238
 20
-90.877957373062
 10
-408.362490186807
 20
-91.464140649985
 10
-409.11316161769
 20
-92.076593043707
 10
-409.84197608666
 20
-92.713781929454
 10
-410.548752394089
 20
-93.375167005324
 10
-411.233309340348
 20
-94.060207969417
 10
-411.872943963307
 20
-94.743467744755
 10
-412.490434370045
 20
-95.446253466209
 10
-413.085905847153
 20
-96.167875891007
 10
-413.659483681221
 20
-96.907645776378
 10
-414.21310287813
 20
-97.667667481925
 10
-414.743335321768
 20
-98.443605554706
 10
-415.249819307314
 20
-99.235166242792
 10
-415.732193129944
 20
-100.042055794257
 10
-416.125749135392
 20
-100.744805208608
 10
-416.500728688971
 20
-101.457320564979
 10
-416.857114462275
 20
-102.179338337322
 10
-417.194889126897
 20
-102.910594999587
 10
-417.555879026639
 20
-103.75212094265
 10
-417.891721621255
 20
-104.603585723236
 10
-418.201947510623
 20
-105.46471905142
 10
-418.486087294619
 20
-106.335250637277
 10
-418.767113257941
 20
-107.300463120134
 10
-419.014743101797
 20
-108.274200166499
 10
-419.228213188534
 20
-109.256102143727
 10
-419.4067598805
 20
-110.24580941917
 10
-419.559388044827
 20
-111.32203164087
 10
-419.669222422918
 20
-112.402613808602
 10
-419.735605342658
 20
-113.486355941103
 10
-419.75787913193
 20
-114.572058057109
  0
ELLIPSE
  5
735
100
AcDbEntity
  8
I2
390
962
  6
CONTINUOUS
 62
           1
100
AcDbEllipse
 10
-394.808137058249
 20
-106.407095362594
 30
0.0
 11
-10.000000000192259
 21
17.320508075679317
 31
0.0
210
0.0
220
0.0
230
1.0
 40
0.577350269185
 41
5.4977871437821388
 42
6.2831853071795862
  0
ELLIPSE
  5
736
100
AcDbEntity
  8
I2
390
962
  6
CONTINUOUS
 62
           1
100
AcDbEllipse
 10
-395.161685054049
 20
-106.611216393094
 30
0.0
 11
-10.000000000192269
 21
17.320508075679427
 31
0.0
210
0.0
220
0.0
230
1.0
 40
0.577350269185
 41
5.4977871437821335
 42
6.2831853071795862
  0
LWPOLYLINE
  5
737
100
AcDbEntity
  8
I2
390
962
  6
CONTINUOUS
 62
           1
 48
25.39999961853
100
AcDbPolyline
 90
       28
 70
           0
 10
-404.87870429963
 20
-89.127329302609
 10
-403.588038608364
 20
-88.373385932137
 10
-402.267841733051
 20
-87.67192356005
 10
-400.916048884241
 20
-87.030959523253
 10
-400.228709857744
 20
-86.736198482548
 10
-399.5335235272
 20
-86.459978153941
 10
-398.679697650673
 20
-86.151858460852
 10
-397.814510502905
 20
-85.877427270976
 10
-396.759284055695
 20
-85.597685870301
 10
-395.690094500375
 20
-85.376701325714
 10
-395.066686186131
 20
-85.276970833133
 10
-394.44059574159
 20
-85.198237834581
 10
-393.812164378325
 20
-85.14063621937
 10
-393.181733307911
 20
-85.10429987681
 10
-392.462807378213
 20
-85.088934734888
 10
-391.74428778606
 20
-85.101081274399
 10
-391.026778806309
 20
-85.140442766643
 10
-390.310884713817
 20
-85.206722482919
 10
-389.355196621573
 20
-85.337079703216
 10
-388.406951732094
 20
-85.512974138964
 10
-387.464924276604
 20
-85.733029342347
 10
-386.533880621954
 20
-85.995818467043
 10
-385.82549020279
 20
-86.226631571232
 10
-385.125359179738
 20
-86.480732997923
 10
-384.433423285223
 20
-86.756757385453
 10
-383.74961825167
 20
-87.053339372163
 10
-382.404668567773
 20
-87.703862306241
 10
-381.09431571043
 20
-88.420685620809
  0
LWPOLYLINE
  5
755
100
AcDbEntity
  8
I2
390
962
  6
CONTINUOUS
 62
           1
 48
25.39999961853
100
AcDbPolyline
 90
       17
 70
           0
 10
-394.80813705843
 20
-90.077163744009
 10
-393.888727494163
 20
-89.540350609191
 10
-392.946953850242
 20
-89.044582631832
 10
-391.982329256189
 20
-88.594334963666
 10
-390.994366841525
 20
-88.194082756429
 10
-390.10752380838
 20
-87.887874937013
 10
-389.207135847813
 20
-87.630848395843
 10
-388.293144239075
 20
-87.428360037264
 10
-387.365490261417
 20
-87.285766765621
 10
-386.529507219947
 20
-87.21379111236
 10
-385.692803917149
 20
-87.19894564765
 10
-384.858441656834
 20
-87.245826483823
 10
-384.029481742816
 20
-87.359029733207
 10
-383.258619896662
 20
-87.53014255553
 10
-382.505045014302
 20
-87.765882689405
 10
-381.78491072797
 20
-88.062195430674
 10
-381.09431571043
 20
-88.420685620809
  0
LWPOLYLINE
  5
768
100
AcDbEntity
  8
I2
390
962
  6
CONTINUOUS
 62
           1
 48
25.39999961853
100
AcDbPolyline
 90
       20
 70
           0
 10
-394.80813705843
 20
-90.077163744009
 10
-393.822244719533
 20
-89.503516760385
 10
-392.810502834277
 20
-88.9772931628
 10
-391.772936696086
 20
-88.504507034303
 10
-390.70957159838
 20
-88.09117245794
 10
-389.730956272895
 20
-87.775691639341
 10
-388.735081601713
 20
-87.521395159145
 10
-387.789095444221
 20
-87.345015166045
 10
-386.833071016105
 20
-87.235168510209
 10
-385.926784829056
 20
-87.198697894936
 10
-385.020503033168
 20
-87.233546326403
 10
-384.161188299935
 20
-87.338453624939
 10
-383.314340844517
 20
-87.517582423002
 10
-382.509669307408
 20
-87.765900172827
 10
-382.117023141209
 20
-87.917753577079
 10
-381.731547641767
 20
-88.08833061528
 10
-381.355472233794
 20
-88.276877510726
 10
-380.989325381867
 20
-88.483067593359
 10
-380.633674403581
 20
-88.70651771276
 10
-380.28908661653
 20
-88.946844718509
  0
LWPOLYLINE
  5
77E
100
AcDbEntity
  8
I2
390
962
  6
CONTINUOUS
 62
           1
 48
25.39999961853
100
AcDbPolyline
 90
        3
 70
           0
 10
-379.23212349223
 20
-90.965104142109
 10
-379.248578727302
 20
-91.766536949501
 10
-379.26343866673
 20
-92.568000893709
  0
LWPOLYLINE
  5
783
100
AcDbEntity
  8
I2
390
962
  6
CONTINUOUS
 62
           1
 48
25.39999961853
100
AcDbPolyline
 90
        3
 70
           0
 10
-380.00331519263
 20
-89.165604349809
 10
-380.145090480844
 20
-89.054773844899
 10
-380.28908661653
 20
-88.946844718509
  0
ELLIPSE
  5
788
100
AcDbEntity
  8
I2
390
962
  6
CONTINUOUS
 62
           1
100
AcDbEllipse
 10
-393.747471491932
 20
-112.734940750107
 30
0.0
 11
12.749999999958799
 21
22.083647796511855
 31
0.0
210
0.0
220
0.0
230
1.0
 40
0.577350269189
 41
0.7853981633974504
 42
2.3561944901923453
  0
LWPOLYLINE
  5
789
100
AcDbEntity
  8
I2
390
962
  6
CONTINUOUS
 62
           1
 48
25.39999961853
100
AcDbPolyline
 90
        3
 70
           0
 10
-379.95332608363
 20
-89.205798705609
 10
-379.978284529836
 20
-89.185656620244
 10
-380.00331519263
 20
-89.165604349809
  0
LWPOLYLINE
  5
78E
100
AcDbEntity
  8
I2
390
962
  6
CONTINUOUS
 62
           1
 48
25.39999961853
100
AcDbPolyline
 90
       20
 70
           0
 10
-393.38761471423
 20
-91.706514528909
 10
-393.384460864224
 20
-91.704628586212
 10
-393.38130693671
 20
-91.702742753555
 10
-392.414584763473
 20
-91.154184753874
 10
-391.422550650437
 20
-90.65338388142
 10
-390.405321737999
 20
-90.206534043766
 10
-389.363015166553
 20
-89.819829148481
 10
-388.405508047832
 20
-89.529451269434
 10
-387.431785986104
 20
-89.300913369559
 10
-386.507713238019
 20
-89.149286660393
 10
-385.575078487478
 20
-89.064803587414
 10
-384.691451526328
 20
-89.052726606798
 10
-383.809825579725
 20
-89.112333787822
 10
-382.973920312062
 20
-89.241316920506
 10
-382.152960171898
 20
-89.444337956556
 10
-381.372549990321
 20
-89.716450446932
 10
-380.621415173049
 20
-90.061650079394
 10
-380.257662297897
 20
-90.262135439169
 10
-379.904527486559
 20
-90.479861856409
 10
-379.23212349223
 20
-90.965104142109
  0
ELLIPSE
  5
7A4
100
AcDbEntity
  8
I2
390
962
  6
CONTINUOUS
 62
           1
100
AcDbEllipse
 10
-399.757879132162
 20
-114.572058056964
 30
0.0
 11
-19.999999999767404
 21
-0.0000000002170239
 31
0.0
210
0.0
220
0.0
230
1.0
 40
0.577350269201
 41
0.0
 42
0.7853981633911109
  0
ELLIPSE
  5
7A5
100
AcDbEntity
  8
I2
390
962
  6
CONTINUOUS
 62
           1
100
AcDbEllipse
 10
-395.161685054232
 20
-111.918444169107
 30
0.0
 11
13.250000000039007
 21
22.949673200302197
 31
0.0
210
0.0
220
0.0
230
1.0
 40
0.57735026919
 41
0.7853981633962277
 42
2.3561944901923444
  0
INSERT
  5
95D
100
AcDbEntity
  8
0
390
962
  6
CONTINUOUS
 62
           7
 48
25.39999961853
100
AcDbBlockReference
  2
SYMTB130-002-VT001
 10
-437.204033259458
 20
-314.522109154989
 30
0.0
  0
ENDSEC
  0
SECTION
  2
OBJECTS
  0
DICTIONARY
  5
19
100
AcDbDictionary
280
           0
281
           1
  3
ACAD_GROUP
350
1A
  3
ACAD_MLINESTYLE
350
1B
  3
ACAD_LAYOUT
350
963
  3
ACAD_PLOTSETTINGS
350
967
  3
ACAD_PLOTSTYLENAME
350
964
  3
ACAD_WIPEOUT_VARS
350
968
  0
DICTIONARY
  5
1A
102
{ACAD_REACTORS
330
19
102
}
100
AcDbDictionary
280
           0
281
           1
  0
DICTIONARY
  5
1B
102
{ACAD_REACTORS
330
19
102
}
100
AcDbDictionary
280
           0
281
           1
  3
STANDARD
350
1C
  0
MLINESTYLE
  5
1C
102
{ACAD_REACTORS
330
1B
102
}
100
AcDbMlineStyle
  2
Standard
 70
           0
  3

 62
           0
 51
90.0
 52
90.0
 71
           2
 49
0.5
 62
         256
  6
ByLayer
 49
-0.5
 62
         256
  6
ByLayer
  0
ACDBDICTIONARYWDFLT
  5
964
102
{ACAD_REACTORS
330
19
102
}
100
AcDbDictionary
281
           1
  3
NORMAL
350
962
100
AcDbDictionaryWithDefault
340
962
  0
ACDBPLACEHOLDER
  5
962
102
{ACAD_REACTORS
330
964
102
}
  0
LAYOUT
  5
965
102
{ACAD_REACTORS
330
963
102
}
100
AcDbPlotSettings
  1

  2

  4

  6

 40
0.0
 41
0.0
 42
0.0
 43
0.0
 44
0.0
 45
0.0
 46
0.0
 47
0.0
 48
0.0
 49
0.0
140
0.0
141
0.0
142
1.0
143
1.0
 70
        1024
 72
           0
 73
           0
 74
           0
  7

 75
           0
147
1.0
148
0.0
149
0.0
100
AcDbLayout
  1
MODEL
 70
           0
 71
           0
 10
0.0
 20
0.0
 11
0.0
 21
0.0
 12
0.0
 22
0.0
 32
0.0
 14
0.0
 24
0.0
 34
0.0
 15
0.0
 25
0.0
 35
0.0
146
0.0
 13
0.0
 23
0.0
 33
0.0
 16
0.0
 26
0.0
 36
0.0
 17
0.0
 27
0.0
 37
0.0
 76
           0
330
A
331
0
345
0
346
0
  0
LAYOUT
  5
966
102
{ACAD_REACTORS
330
963
102
}
100
AcDbPlotSettings
  1

  2

  4

  6

 40
0.0
 41
0.0
 42
0.0
 43
0.0
 44
0.0
 45
0.0
 46
0.0
 47
0.0
 48
0.0
 49
0.0
140
0.0
141
0.0
142
1.0
143
1.0
 70
           0
 72
           0
 73
           0
 74
           0
  7

 75
           0
147
1.0
148
0.0
149
0.0
100
AcDbLayout
  1
LAYOUT1
 70
           0
 71
           0
 10
0.0
 20
0.0
 11
0.0
 21
0.0
 12
0.0
 22
0.0
 32
0.0
 14
0.0
 24
0.0
 34
0.0
 15
0.0
 25
0.0
 35
0.0
146
0.0
 13
0.0
 23
0.0
 33
0.0
 16
0.0
 26
0.0
 36
0.0
 17
0.0
 27
0.0
 37
0.0
 76
           0
330
B
331
0
345
0
346
0
  0
DICTIONARY
  5
963
102
{ACAD_REACTORS
330
19
102
}
100
AcDbDictionary
280
           0
281
           1
  3
MODEL
350
965
  3
LAYOUT1
350
966
  0
DICTIONARY
  5
967
102
{ACAD_REACTORS
330
19
102
}
100
AcDbDictionary
280
           0
281
           1
  0
WIPEOUTVARIABLES
  5
968
100
AcDbWipeoutVariables
 70
           1
  0
ENDSEC
  0
EOF
