  0
SECTION
  2
HEADER
  9
$ACADVER
  1
AC1015
  9
$ACADMAINTVER
 70
     6
  9
$DWGCODEPAGE
  3
ANSI_1252
  9
$INSBASE
 10
0.0
 20
0.0
 30
0.0
  9
$EXTMIN
 10
0.0
 20
0.0
 30
0.0
  9
$EXTMAX
 10
594.0
 20
420.0
 30
0.0
  9
$LIMMIN
 10
0.0
 20
0.0
  9
$LIMMAX
 10
594.0
 20
420.0
  9
$ORTHOMODE
 70
     0
  9
$REGENMODE
 70
     1
  9
$FILLMODE
 70
     1
  9
$QTEXTMODE
 70
     0
  9
$MIRRTEXT
 70
     1
  9
$LTSCALE
 40
1.0
  9
$ATTMODE
 70
     1
  9
$TEXTSIZE
 40
3.5
  9
$TRACEWID
 40
1.0
  9
$TEXTSTYLE
  7
Standard
  9
$CLAYER
  8
0
  9
$CELTYPE
  6
ByLayer
  9
$CECOLOR
 62
   256
  9
$CELTSCALE
 40
1.0
  9
$DISPSILH
 70
     0
  9
$DIMSCALE
 40
1.0
  9
$DIMASZ
 40
3.81
  9
$DIMEXO
 40
0.0
  9
$DIMDLI
 40
3.75
  9
$DIMRND
 40
0.0
  9
$DIMDLE
 40
0.0
  9
$DIMEXE
 40
1.0
  9
$DIMTP
 40
0.0
  9
$DIMTM
 40
0.0
  9
$DIMTXT
 40
3.2
  9
$DIMCEN
 40
2.5
  9
$DIMTSZ
 40
0.0
  9
$DIMTOL
 70
     0
  9
$DIMLIM
 70
     0
  9
$DIMTIH
 70
     1
  9
$DIMTOH
 70
     1
  9
$DIMSE1
 70
     0
  9
$DIMSE2
 70
     0
  9
$DIMTAD
 70
     1
  9
$DIMZIN
 70
     0
  9
$DIMBLK
  1

  9
$DIMASO
 70
     1
  9
$DIMSHO
 70
     1
  9
$DIMPOST
  1

  9
$DIMAPOST
  1

  9
$DIMALT
 70
     0
  9
$DIMALTD
 70
     3
  9
$DIMALTF
 40
0.0393700787
  9
$DIMLFAC
 40
1.0
  9
$DIMTOFL
 70
     1
  9
$DIMTVP
 40
0.0
  9
$DIMTIX
 70
     0
  9
$DIMSOXD
 70
     0
  9
$DIMSAH
 70
     0
  9
$DIMBLK1
  1

  9
$DIMBLK2
  1

  9
$DIMSTYLE
  2
ISO-25
  9
$DIMCLRD
 70
     0
  9
$DIMCLRE
 70
     0
  9
$DIMCLRT
 70
     0
  9
$DIMTFAC
 40
1.0
  9
$DIMGAP
 40
1.524
  9
$DIMJUST
 70
     0
  9
$DIMSD1
 70
     0
  9
$DIMSD2
 70
     0
  9
$DIMTOLJ
 70
     0
  9
$DIMTZIN
 70
     0
  9
$DIMALTZ
 70
     0
  9
$DIMALTTZ
 70
     0
  9
$DIMUPT
 70
     0
  9
$DIMDEC
 70
     2
  9
$DIMTDEC
 70
     2
  9
$DIMALTU
 70
     2
  9
$DIMALTTD
 70
     3
  9
$DIMTXSTY
  7
Standard
  9
$DIMAUNIT
 70
     0
  9
$DIMADEC
 70
     2
  9
$DIMALTRND
 40
0.0
  9
$DIMAZIN
 70
     0
  9
$DIMDSEP
 70
    44
  9
$DIMATFIT
 70
     3
  9
$DIMFRAC
 70
     0
  9
$DIMLDRBLK
  1

  9
$DIMLUNIT
 70
     2
  9
$DIMLWD
 70
    -2
  9
$DIMLWE
 70
    -2
  9
$DIMTMOVE
 70
     0
  9
$LUNITS
 70
     2
  9
$LUPREC
 70
     2
  9
$SKETCHINC
 40
1.0
  9
$FILLETRAD
 40
10.0
  9
$AUNITS
 70
     0
  9
$AUPREC
 70
     1
  9
$MENU
  1
.
  9
$ELEVATION
 40
0.0
  9
$PELEVATION
 40
0.0
  9
$THICKNESS
 40
0.0
  9
$LIMCHECK
 70
     0
  9
$CHAMFERA
 40
0.0
  9
$CHAMFERB
 40
0.0
  9
$CHAMFERC
 40
0.0
  9
$CHAMFERD
 40
0.0
  9
$SKPOLY
 70
     0
  9
$TDCREATE
 40
2458221.487671331
  9
$TDUCREATE
 40
2458221.404337998
  9
$TDUPDATE
 40
2458221.487675197
  9
$TDUUPDATE
 40
2458221.404341863
  9
$TDINDWG
 40
0.0000000116
  9
$TDUSRTIMER
 40
0.0000000116
  9
$USRTIMER
 70
     1
  9
$ANGBASE
 50
0.0
  9
$ANGDIR
 70
     0
  9
$PDMODE
 70
     0
  9
$PDSIZE
 40
-1.0
  9
$PLINEWID
 40
0.0
  9
$SPLFRAME
 70
     0
  9
$SPLINETYPE
 70
     6
  9
$SPLINESEGS
 70
     8
  9
$HANDSEED
  5
437
  9
$SURFTAB1
 70
     6
  9
$SURFTAB2
 70
     6
  9
$SURFTYPE
 70
     6
  9
$SURFU
 70
     6
  9
$SURFV
 70
     6
  9
$UCSBASE
  2

  9
$UCSNAME
  2

  9
$UCSORG
 10
0.0
 20
0.0
 30
0.0
  9
$UCSXDIR
 10
1.0
 20
0.0
 30
0.0
  9
$UCSYDIR
 10
0.0
 20
1.0
 30
0.0
  9
$UCSORTHOREF
  2

  9
$UCSORTHOVIEW
 70
     0
  9
$UCSORGTOP
 10
0.0
 20
0.0
 30
0.0
  9
$UCSORGBOTTOM
 10
0.0
 20
0.0
 30
0.0
  9
$UCSORGLEFT
 10
0.0
 20
0.0
 30
0.0
  9
$UCSORGRIGHT
 10
0.0
 20
0.0
 30
0.0
  9
$UCSORGFRONT
 10
0.0
 20
0.0
 30
0.0
  9
$UCSORGBACK
 10
0.0
 20
0.0
 30
0.0
  9
$PUCSBASE
  2

  9
$PUCSNAME
  2

  9
$PUCSORG
 10
0.0
 20
0.0
 30
0.0
  9
$PUCSXDIR
 10
1.0
 20
0.0
 30
0.0
  9
$PUCSYDIR
 10
0.0
 20
1.0
 30
0.0
  9
$PUCSORTHOREF
  2

  9
$PUCSORTHOVIEW
 70
     0
  9
$PUCSORGTOP
 10
0.0
 20
0.0
 30
0.0
  9
$PUCSORGBOTTOM
 10
0.0
 20
0.0
 30
0.0
  9
$PUCSORGLEFT
 10
0.0
 20
0.0
 30
0.0
  9
$PUCSORGRIGHT
 10
0.0
 20
0.0
 30
0.0
  9
$PUCSORGFRONT
 10
0.0
 20
0.0
 30
0.0
  9
$PUCSORGBACK
 10
0.0
 20
0.0
 30
0.0
  9
$USERI1
 70
     0
  9
$USERI2
 70
     0
  9
$USERI3
 70
     0
  9
$USERI4
 70
     0
  9
$USERI5
 70
     0
  9
$USERR1
 40
0.0
  9
$USERR2
 40
0.0
  9
$USERR3
 40
0.0
  9
$USERR4
 40
0.0
  9
$USERR5
 40
0.0
  9
$WORLDVIEW
 70
     1
  9
$SHADEDGE
 70
     3
  9
$SHADEDIF
 70
    70
  9
$TILEMODE
 70
     1
  9
$MAXACTVP
 70
    64
  9
$PINSBASE
 10
0.0
 20
0.0
 30
0.0
  9
$PLIMCHECK
 70
     0
  9
$PEXTMIN
 10
1.0000000000E+20
 20
1.0000000000E+20
 30
1.0000000000E+20
  9
$PEXTMAX
 10
-1.0000000000E+20
 20
-1.0000000000E+20
 30
-1.0000000000E+20
  9
$PLIMMIN
 10
0.0
 20
0.0
  9
$PLIMMAX
 10
420.0
 20
297.0
  9
$UNITMODE
 70
     0
  9
$VISRETAIN
 70
     1
  9
$PLINEGEN
 70
     0
  9
$PSLTSCALE
 70
     1
  9
$TREEDEPTH
 70
  3020
  9
$CMLSTYLE
  2
Standard
  9
$CMLJUST
 70
     0
  9
$CMLSCALE
 40
20.0
  9
$PROXYGRAPHICS
 70
     1
  9
$MEASUREMENT
 70
     1
  9
$CELWEIGHT
370
    -1
  9
$ENDCAPS
280
     0
  9
$JOINSTYLE
280
     0
  9
$LWDISPLAY
290
     1
  9
$INSUNITS
 70
     4
  9
$HYPERLINKBASE
  1

  9
$STYLESHEET
  1

  9
$XEDIT
290
     1
  9
$CEPSNTYPE
380
     0
  9
$PSTYLEMODE
290
     1
  9
$FINGERPRINTGUID
  2
{B3E11405-C6BE-4292-B3C2-5A9E0BC06E11}
  9
$VERSIONGUID
  2
{FAEB1C32-E019-11D5-929B-00C0DF256EC4}
  9
$EXTNAMES
290
     1
  9
$PSVPSCALE
 40
0.0
  9
$OLESTARTUP
290
     0
  0
ENDSEC
  0
SECTION
  2
CLASSES
  0
CLASS
  1
ACDBDICTIONARYWDFLT
  2
AcDbDictionaryWithDefault
  3
ObjectDBX Classes
 90
        0
280
     0
281
     0
  0
CLASS
  1
VISUALSTYLE
  2
AcDbVisualStyle
  3
ObjectDBX Classes
 90
     4095
280
     0
281
     0
  0
CLASS
  1
MATERIAL
  2
AcDbMaterial
  3
ObjectDBX Classes
 90
     1153
280
     0
281
     0
  0
CLASS
  1
SCALE
  2
AcDbScale
  3
ObjectDBX Classes
 90
     1153
280
     0
281
     0
  0
CLASS
  1
TABLESTYLE
  2
AcDbTableStyle
  3
ObjectDBX Classes
 90
     4095
280
     0
281
     0
  0
CLASS
  1
MLEADERSTYLE
  2
AcDbMLeaderStyle
  3
ACDB_MLEADERSTYLE_CLASS
 90
     4095
280
     0
281
     0
  0
CLASS
  1
SUN
  2
AcDbSun
  3
SCENEOE
 90
     1153
280
     0
281
     0
  0
CLASS
  1
ACDBPLACEHOLDER
  2
AcDbPlaceHolder
  3
ObjectDBX Classes
 90
        0
280
     0
281
     0
  0
CLASS
  1
LAYOUT
  2
AcDbLayout
  3
ObjectDBX Classes
 90
        0
280
     0
281
     0
  0
ENDSEC
  0
SECTION
  2
TABLES
  0
TABLE
  2
VPORT
  5
8
330
0
100
AcDbSymbolTable
 70
     1
  0
VPORT
  5
29
330
8
100
AcDbSymbolTableRecord
100
AcDbViewportTableRecord
  2
*Active
 70
     0
 10
0.0
 20
0.0
 11
1.0
 21
1.0
 12
297.0
 22
210.0
 13
0.0
 23
0.0
 14
10.0
 24
10.0
 15
10.0
 25
10.0
 16
0.0
 26
0.0
 36
1.0
 17
0.0
 27
0.0
 37
0.0
 40
420.0
 41
1.4142857143
 42
50.0
 43
0.0
 44
0.0
 50
0.0
 51
0.0
 71
     0
 72
  2000
 73
     1
 74
     3
 75
     0
 76
     0
 77
     0
 78
     0
281
     0
 65
     1
110
0.0
120
0.0
130
0.0
111
1.0
121
0.0
131
0.0
112
0.0
122
1.0
132
0.0
 79
     0
146
0.0
  0
ENDTAB
  0
TABLE
  2
LTYPE
  5
5
330
0
100
AcDbSymbolTable
 70
     6
  0
LTYPE
  5
14
330
5
100
AcDbSymbolTableRecord
100
AcDbLinetypeTableRecord
  2
ByBlock
 70
     0
  3

 72
    65
 73
     0
 40
0.0
  0
LTYPE
  5
15
330
5
100
AcDbSymbolTableRecord
100
AcDbLinetypeTableRecord
  2
ByLayer
 70
     0
  3

 72
    65
 73
     0
 40
0.0
  0
LTYPE
  5
16
330
5
100
AcDbSymbolTableRecord
100
AcDbLinetypeTableRecord
  2
Continuous
 70
     0
  3
Solid line
 72
    65
 73
     0
 40
0.0
  0
LTYPE
  5
6E
330
5
100
AcDbSymbolTableRecord
100
AcDbLinetypeTableRecord
  2
HIDDEN
 70
     0
  3
Hidden __ __ __ __ __ __ __ __ __ __ __ __ __ __
 72
    65
 73
     2
 40
1.905
 49
1.27
 74
     0
 49
-0.635
 74
     0
  0
LTYPE
  5
6F
330
5
100
AcDbSymbolTableRecord
100
AcDbLinetypeTableRecord
  2
PHANTOM
 70
     0
  3
Phantom ______  __  __  ______  __  __  ______
 72
    65
 73
     6
 40
12.7
 49
6.35
 74
     0
 49
-1.27
 74
     0
 49
1.27
 74
     0
 49
-1.27
 74
     0
 49
1.27
 74
     0
 49
-1.27
 74
     0
  0
LTYPE
  5
70
330
5
100
AcDbSymbolTableRecord
100
AcDbLinetypeTableRecord
  2
CENTER
 70
     0
  3
Center ____ _ ____ _ ____ _ ____ _ ____ _ ____
 72
    65
 73
     4
 40
10.16
 49
6.35
 74
     0
 49
-1.27
 74
     0
 49
1.27
 74
     0
 49
-1.27
 74
     0
  0
LTYPE
  5
71
330
5
100
AcDbSymbolTableRecord
100
AcDbLinetypeTableRecord
  2
CENTERX2
 70
     0
  3
Center (2x) ________  __  ________  __  _____
 72
    65
 73
     4
 40
20.32
 49
12.7
 74
     0
 49
-2.54
 74
     0
 49
2.54
 74
     0
 49
-2.54
 74
     0
  0
LTYPE
  5
72
330
5
100
AcDbSymbolTableRecord
100
AcDbLinetypeTableRecord
  2
DOT2
 70
     0
  3
Dot (.5x) ........................................
 72
    65
 73
     2
 40
0.635
 49
0.0
 74
     0
 49
-0.635
 74
     0
  0
ENDTAB
  0
TABLE
  2
LAYER
  5
2
330
0
100
AcDbSymbolTable
 70
    10
  0
LAYER
  5
10
330
2
100
AcDbSymbolTableRecord
100
AcDbLayerTableRecord
  2
0
 70
     0
 62
     7
  6
Continuous
370
    -3
390
F
  0
LAYER
  5
73
330
2
100
AcDbSymbolTableRecord
100
AcDbLayerTableRecord
  2
SLD-0
 70
     0
 62
     7
  6
Continuous
370
    -3
390
F
  0
LAYER
  5
74
330
2
100
AcDbSymbolTableRecord
100
AcDbLayerTableRecord
  2
PV
 70
     0
 62
     7
  6
Continuous
370
    -3
390
F
  0
LAYER
  5
75
330
2
100
AcDbSymbolTableRecord
100
AcDbLayerTableRecord
  2
COTATION
 70
     0
 62
     1
  6
Continuous
370
    -3
390
F
  0
LAYER
  5
76
330
2
100
AcDbSymbolTableRecord
100
AcDbLayerTableRecord
  2
NOTE
 70
     0
 62
     5
  6
Continuous
370
    -3
390
F
  0
LAYER
  5
77
330
2
100
AcDbSymbolTableRecord
100
AcDbLayerTableRecord
  2
COTATION2
 70
     0
 62
    96
  6
Continuous
370
    -3
390
F
  0
LAYER
  5
78
330
2
100
AcDbSymbolTableRecord
100
AcDbLayerTableRecord
  2
COTATION3
 70
     0
 62
    30
  6
Continuous
370
    -3
390
F
  0
LAYER
  5
79
330
2
100
AcDbSymbolTableRecord
100
AcDbLayerTableRecord
  2
LOGO1
 70
     0
 62
   156
  6
Continuous
370
    -3
390
F
  0
LAYER
  5
7A
330
2
100
AcDbSymbolTableRecord
100
AcDbLayerTableRecord
  2
LOGO2
 70
     0
 62
   161
  6
Continuous
370
    -3
390
F
  0
LAYER
  5
7B
330
2
100
AcDbSymbolTableRecord
100
AcDbLayerTableRecord
  2
NOTES
 70
     0
 62
     5
  6
Continuous
370
    -3
390
F
  0
ENDTAB
  0
TABLE
  2
STYLE
  5
3
330
0
100
AcDbSymbolTable
 70
     7
  0
STYLE
  5
11
330
3
100
AcDbSymbolTableRecord
100
AcDbTextStyleTableRecord
  2
Standard
 70
     0
 40
0.0
 41
1.0
 50
0.0
 71
     0
 42
3.5
  3
txt
  4

  0
STYLE
  5
143
330
3
100
AcDbSymbolTableRecord
100
AcDbTextStyleTableRecord
  2
SLDTEXTSTYLE0
 70
     0
 40
0.0
 41
0.75
 50
0.0
 71
     0
 42
3.5
  3
TXT
  4

  0
STYLE
  5
16B
330
3
100
AcDbSymbolTableRecord
100
AcDbTextStyleTableRecord
  2
SLDTEXTSTYLE1
 70
     0
 40
0.0
 41
0.6666666667
 50
0.0
 71
     0
 42
3.5
  3
TXT
  4

  0
STYLE
  5
179
330
3
100
AcDbSymbolTableRecord
100
AcDbTextStyleTableRecord
  2
SLDTEXTSTYLE2
 70
     0
 40
0.0
 41
0.7
 50
0.0
 71
     0
 42
3.5
  3
TXT
  4

  0
STYLE
  5
17B
330
3
100
AcDbSymbolTableRecord
100
AcDbTextStyleTableRecord
  2
SLDTEXTSTYLE3
 70
     0
 40
0.0
 41
0.6875
 50
0.0
 71
     0
 42
3.5
  3
TXT
  4

  0
STYLE
  5
181
330
3
100
AcDbSymbolTableRecord
100
AcDbTextStyleTableRecord
  2
SLDTEXTSTYLE4
 70
     0
 40
0.0
 41
0.6818181818
 50
0.0
 71
     0
 42
3.5
  3
TXT
  4

  0
STYLE
  5
188
330
3
100
AcDbSymbolTableRecord
100
AcDbTextStyleTableRecord
  2
SLDTEXTSTYLE5
 70
     0
 40
0.0
 41
0.675
 50
0.0
 71
     0
 42
3.5
  3
TXT
  4

  0
ENDTAB
  0
TABLE
  2
VIEW
  5
6
330
0
100
AcDbSymbolTable
 70
     0
  0
ENDTAB
  0
TABLE
  2
UCS
  5
7
330
0
100
AcDbSymbolTable
 70
     0
  0
ENDTAB
  0
TABLE
  2
APPID
  5
9
330
0
100
AcDbSymbolTable
 70
     1
  0
APPID
  5
12
330
9
100
AcDbSymbolTableRecord
100
AcDbRegAppTableRecord
  2
ACAD
 70
     0
  0
ENDTAB
  0
TABLE
  2
DIMSTYLE
  5
A
330
0
100
AcDbSymbolTable
 70
     5
100
AcDbDimStyleTable
  0
DIMSTYLE
105
27
330
A
100
AcDbSymbolTableRecord
100
AcDbDimStyleTableRecord
  2
ISO-25
 70
     0
 41
2.5
 42
0.625
 43
3.75
 44
1.25
 73
     0
 74
     0
 77
     1
 78
     8
140
2.5
141
2.5
143
0.0393700787
147
0.625
171
     3
172
     1
178
     0
271
     2
272
     2
274
     3
278
    44
283
     0
284
     8
340
11
  0
DIMSTYLE
105
214
102
{ACAD_REACTORS
330
213
330
21E
330
228
330
232
330
394
330
39E
330
3A8
330
3C5
330
3CF
330
3E6
330
3FD
102
}
330
A
100
AcDbSymbolTableRecord
100
AcDbDimStyleTableRecord
  2
SLDDIMSTYLE0
 70
     0
 41
3.81
 44
0.0
 45
0.000000001
 73
     0
 74
     0
 77
     1
 78
    12
 79
     3
140
3.2
147
0.8
173
     1
178
     0
271
     2
272
     2
276
     2
284
    12
340
143
  0
DIMSTYLE
105
3B3
102
{ACAD_REACTORS
330
3B2
330
3BC
102
}
330
A
100
AcDbSymbolTableRecord
100
AcDbDimStyleTableRecord
  2
SLDDIMSTYLE1
 70
     0
 41
3.81
 44
0.0
 45
0.000000001
 78
    12
 79
     3
140
3.2
141
0.0
147
0.8
173
     1
178
     0
271
     2
272
     2
276
     2
284
    12
340
143
  0
DIMSTYLE
105
3DA
102
{ACAD_REACTORS
330
3D9
102
}
330
A
100
AcDbSymbolTableRecord
100
AcDbDimStyleTableRecord
  2
SLDDIMSTYLE2
 70
     0
 41
3.81
 44
0.0
 45
0.000000001
 78
    12
 79
     3
140
3.2
141
0.0
147
0.8
172
     1
173
     1
178
     0
271
     2
272
     2
276
     2
284
    12
340
143
  0
DIMSTYLE
105
3F1
102
{ACAD_REACTORS
330
3F0
102
}
330
A
100
AcDbSymbolTableRecord
100
AcDbDimStyleTableRecord
  2
SLDDIMSTYLE3
 70
     0
 41
3.81
 44
0.0
 45
0.000000001
 73
     0
 74
     0
 77
     1
 78
    12
 79
     3
140
3.2
147
0.8
172
     1
173
     1
178
     0
271
     2
272
     2
276
     2
284
    12
289
     0
340
143
  0
ENDTAB
  0
TABLE
  2
BLOCK_RECORD
  5
1
330
0
100
AcDbSymbolTable
 70
    23
  0
BLOCK_RECORD
  5
1F
330
1
100
AcDbSymbolTableRecord
100
AcDbBlockTableRecord
  2
*Model_Space
340
22
  0
BLOCK_RECORD
  5
1B
330
1
100
AcDbSymbolTableRecord
100
AcDbBlockTableRecord
  2
*Paper_Space
340
1E
  0
BLOCK_RECORD
  5
23
330
1
100
AcDbSymbolTableRecord
100
AcDbBlockTableRecord
  2
*Paper_Space0
340
26
  0
BLOCK_RECORD
  5
7C
330
1
100
AcDbSymbolTableRecord
100
AcDbBlockTableRecord
  2
Bloc2
340
0
102
{BLKREFS
331
142
102
}
  0
BLOCK_RECORD
  5
163
330
1
100
AcDbSymbolTableRecord
100
AcDbBlockTableRecord
  2
SW_NOTE_0
340
0
102
{BLKREFS
331
16A
102
}
  0
BLOCK_RECORD
  5
18C
330
1
100
AcDbSymbolTableRecord
100
AcDbBlockTableRecord
  2
SW_NOTE_1
340
0
102
{BLKREFS
331
192
102
}
  0
BLOCK_RECORD
  5
215
330
1
100
AcDbSymbolTableRecord
100
AcDbBlockTableRecord
  2
_D
340
0
  0
BLOCK_RECORD
  5
21F
330
1
100
AcDbSymbolTableRecord
100
AcDbBlockTableRecord
  2
_D_1
340
0
  0
BLOCK_RECORD
  5
229
330
1
100
AcDbSymbolTableRecord
100
AcDbBlockTableRecord
  2
_D_2
340
0
  0
BLOCK_RECORD
  5
233
330
1
100
AcDbSymbolTableRecord
100
AcDbBlockTableRecord
  2
_D_3
340
0
  0
BLOCK_RECORD
  5
395
330
1
100
AcDbSymbolTableRecord
100
AcDbBlockTableRecord
  2
_D_4
340
0
  0
BLOCK_RECORD
  5
39F
330
1
100
AcDbSymbolTableRecord
100
AcDbBlockTableRecord
  2
_D_5
340
0
  0
BLOCK_RECORD
  5
3A9
330
1
100
AcDbSymbolTableRecord
100
AcDbBlockTableRecord
  2
_D_6
340
0
  0
BLOCK_RECORD
  5
3B4
330
1
100
AcDbSymbolTableRecord
100
AcDbBlockTableRecord
  2
_D_7
340
0
  0
BLOCK_RECORD
  5
3BD
330
1
100
AcDbSymbolTableRecord
100
AcDbBlockTableRecord
  2
_D_8
340
0
  0
BLOCK_RECORD
  5
3C6
330
1
100
AcDbSymbolTableRecord
100
AcDbBlockTableRecord
  2
_D_9
340
0
  0
BLOCK_RECORD
  5
3D0
330
1
100
AcDbSymbolTableRecord
100
AcDbBlockTableRecord
  2
_D_10
340
0
  0
BLOCK_RECORD
  5
3DB
330
1
100
AcDbSymbolTableRecord
100
AcDbBlockTableRecord
  2
_D_11
340
0
  0
BLOCK_RECORD
  5
3E7
330
1
100
AcDbSymbolTableRecord
100
AcDbBlockTableRecord
  2
_D_12
340
0
  0
BLOCK_RECORD
  5
3F2
330
1
100
AcDbSymbolTableRecord
100
AcDbBlockTableRecord
  2
_D_13
340
0
  0
BLOCK_RECORD
  5
3FE
330
1
100
AcDbSymbolTableRecord
100
AcDbBlockTableRecord
  2
_D_14
340
0
  0
BLOCK_RECORD
  5
407
330
1
100
AcDbSymbolTableRecord
100
AcDbBlockTableRecord
  2
SW_CENTERMARKSYMBOL_0
340
0
102
{BLKREFS
331
412
102
}
  0
BLOCK_RECORD
  5
413
330
1
100
AcDbSymbolTableRecord
100
AcDbBlockTableRecord
  2
SW_CENTERMARKSYMBOL_1
340
0
102
{BLKREFS
331
41E
102
}
  0
BLOCK_RECORD
  5
41F
330
1
100
AcDbSymbolTableRecord
100
AcDbBlockTableRecord
  2
SW_CENTERMARKSYMBOL_2
340
0
102
{BLKREFS
331
42A
102
}
  0
BLOCK_RECORD
  5
42B
330
1
100
AcDbSymbolTableRecord
100
AcDbBlockTableRecord
  2
SW_CENTERMARKSYMBOL_3
340
0
102
{BLKREFS
331
436
102
}
  0
ENDTAB
  0
ENDSEC
  0
SECTION
  2
BLOCKS
  0
BLOCK
  5
20
330
1F
100
AcDbEntity
  8
0
100
AcDbBlockBegin
  2
*Model_Space
 70
     0
 10
0.0
 20
0.0
 30
0.0
  3
*Model_Space
  1

  0
ENDBLK
  5
21
330
1F
100
AcDbEntity
  8
0
100
AcDbBlockEnd
  0
BLOCK
  5
1C
330
1B
100
AcDbEntity
 67
     1
  8
0
100
AcDbBlockBegin
  2
*Paper_Space
 70
     0
 10
0.0
 20
0.0
 30
0.0
  3
*Paper_Space
  1

  0
ENDBLK
  5
1D
330
1B
100
AcDbEntity
 67
     1
  8
0
100
AcDbBlockEnd
  0
BLOCK
  5
24
330
23
100
AcDbEntity
  8
0
100
AcDbBlockBegin
  2
*Paper_Space0
 70
     0
 10
0.0
 20
0.0
 30
0.0
  3
*Paper_Space0
  1

  0
ENDBLK
  5
25
330
23
100
AcDbEntity
  8
0
100
AcDbBlockEnd
  0
BLOCK
  5
7D
330
7C
100
AcDbEntity
  8
0
100
AcDbBlockBegin
  2
Bloc2
 70
     0
 10
0.0
 20
0.0
 30
0.0
  3
Bloc2
  1

  0
CIRCLE
  5
7F
330
7C
100
AcDbEntity
  8
PV
  6
Continuous
100
AcDbCircle
 10
8.0102707617
 20
1.7
 30
0.0
 40
0.6400000000000101
  0
CIRCLE
  5
80
330
7C
100
AcDbEntity
  8
PV
  6
Continuous
100
AcDbCircle
 10
8.0102707617
 20
1.7
 30
0.0
 40
1.199999999999928
  0
LINE
  5
81
330
7C
100
AcDbEntity
  8
PV
  6
CENTER
100
AcDbLine
 10
8.0102707617
 20
0.0
 30
0.0
 11
8.0102707617
 21
3.4
 31
0.0
  0
LINE
  5
82
330
7C
100
AcDbEntity
  8
PV
  6
Continuous
100
AcDbLine
 10
4.0102707617
 20
2.9
 30
0.0
 11
4.0102707617
 21
0.5
 31
0.0
  0
LINE
  5
83
330
7C
100
AcDbEntity
  8
PV
  6
Continuous
100
AcDbLine
 10
0.8102707617
 20
1.06
 30
0.0
 11
4.0102707617
 21
0.5
 31
0.0
  0
LINE
  5
84
330
7C
100
AcDbEntity
  8
PV
  6
Continuous
100
AcDbLine
 10
0.8102707617
 20
2.339999
 30
0.0
 11
0.8102707617
 21
1.06
 31
0.0
  0
LINE
  5
85
330
7C
100
AcDbEntity
  8
PV
  6
CENTER
100
AcDbLine
 10
9.7436336225
 20
1.7471354655
 30
0.0
 11
0.0
 21
1.7000647717
 31
0.0
  0
LINE
  5
86
330
7C
100
AcDbEntity
  8
PV
  6
Continuous
100
AcDbLine
 10
0.8102707617
 20
2.339999
 30
0.0
 11
4.0102707617
 21
2.9
 31
0.0
  0
ENDBLK
  5
7E
330
7C
100
AcDbEntity
  8
0
100
AcDbBlockEnd
  0
BLOCK
  5
164
330
163
100
AcDbEntity
  8
0
100
AcDbBlockBegin
  2
SW_NOTE_0
 70
     0
 10
0.0
 20
0.0
 30
0.0
  3
SW_NOTE_0
  1

  0
MTEXT
  5
166
330
163
100
AcDbEntity
  8
PV
 62
     0
100
AcDbMText
 10
-2.5781354795
 20
0.0
 30
0.0
 40
2.0
 41
0.0
 71
     1
 72
     1
  1
PDM Project :
  7
SLDTEXTSTYLE0
 11
-3.491481338843133E-15
 21
1.0
 31
0.0
 73
     1
 44
1.0
  0
MTEXT
  5
167
330
163
100
AcDbEntity
  8
PV
 62
     0
100
AcDbMText
 10
-2.5781354795
 20
18.3881937861
 30
0.0
 40
2.0
 41
0.0
 71
     1
 72
     1
  1
-
  7
SLDTEXTSTYLE0
 11
-3.491481338843133E-15
 21
1.0
 31
0.0
 73
     1
 44
1.0
  0
MTEXT
  5
168
330
163
100
AcDbEntity
  8
PV
 62
     0
100
AcDbMText
 10
-2.5781354795
 20
20.7312505096
 30
0.0
 40
2.0
 41
0.0
 71
     1
 72
     1
  1
File Name :
  7
SLDTEXTSTYLE0
 11
-3.491481338843133E-15
 21
1.0
 31
0.0
 73
     1
 44
1.0
  0
MTEXT
  5
169
330
163
100
AcDbEntity
  8
PV
 62
     0
100
AcDbMText
 10
-2.5781354795
 20
35.4121535718
 30
0.0
 40
2.0
 41
0.0
 71
     1
 72
     1
  1
Ceiling Installation Dimension
  7
SLDTEXTSTYLE0
 11
-3.491481338843133E-15
 21
1.0
 31
0.0
 73
     1
 44
1.0
  0
ENDBLK
  5
165
330
163
100
AcDbEntity
  8
0
100
AcDbBlockEnd
  0
BLOCK
  5
18D
330
18C
100
AcDbEntity
  8
0
100
AcDbBlockBegin
  2
SW_NOTE_1
 70
     0
 10
0.0
 20
0.0
 30
0.0
  3
SW_NOTE_1
  1

  0
MTEXT
  5
18F
330
18C
100
AcDbEntity
  8
SLD-0
 62
     0
100
AcDbMText
 10
0.0
 20
3.4106583948
 30
0.0
 40
2.6458333333
 41
0.0
 71
     1
 72
     1
  1
A
  7
SLDTEXTSTYLE2
 73
     1
 44
1.0
  0
MTEXT
  5
190
330
18C
100
AcDbEntity
  8
SLD-0
 62
     0
100
AcDbMText
 10
2.9447143897
 20
3.4106583948
 30
0.0
 40
2.6458333333
 41
0.0
 71
     1
 72
     1
  1
HALMA
  7
SLDTEXTSTYLE2
 73
     1
 44
1.0
  0
MTEXT
  5
191
330
18C
100
AcDbEntity
  8
SLD-0
 62
     0
100
AcDbMText
 10
15.2233410627
 20
3.4106583948
 30
0.0
 40
2.6458333333
 41
0.0
 71
     1
 72
     1
  1
COMPANY
  7
SLDTEXTSTYLE2
 73
     1
 44
1.0
  0
ENDBLK
  5
18E
330
18C
100
AcDbEntity
  8
0
100
AcDbBlockEnd
  0
BLOCK
  5
216
330
215
100
AcDbEntity
  8
0
100
AcDbBlockBegin
  2
_D
 70
     0
 10
0.0
 20
0.0
 30
0.0
  3
_D
  1

  0
SOLID
  5
218
330
215
100
AcDbEntity
  8
COTATION
100
AcDbTrace
 10
306.9650073135
 20
351.4277797622
 30
0.0
 11
306.3935073135
 21
347.6177797622
 31
0.0
 12
307.5365073135
 22
347.6177797622
 32
0.0
 13
307.5365073135
 23
347.6177797622
 33
0.0
  0
SOLID
  5
219
330
215
100
AcDbEntity
  8
COTATION
100
AcDbTrace
 10
306.9650073135
 20
289.9016856773
 30
0.0
 11
307.5365073135
 21
293.7116856773
 31
0.0
 12
306.3935073135
 22
293.7116856773
 32
0.0
 13
306.3935073135
 23
293.7116856773
 33
0.0
  0
LINE
  5
21A
330
215
100
AcDbEntity
  8
COTATION
100
AcDbLine
 10
193.383281408
 20
351.4277797622
 30
0.0
 11
307.9650073135
 21
351.4277797622
 31
0.0
  0
LINE
  5
21B
330
215
100
AcDbEntity
  8
COTATION
100
AcDbLine
 10
193.383281408
 20
289.9016856773
 30
0.0
 11
307.9650073135
 21
289.9016856773
 31
0.0
  0
LINE
  5
21C
330
215
100
AcDbEntity
  8
COTATION
100
AcDbLine
 10
306.9650073135
 20
351.4277797622
 30
0.0
 11
306.9650073135
 21
289.9016856773
 31
0.0
  0
MTEXT
  5
21D
330
215
100
AcDbEntity
  8
COTATION
100
AcDbMText
 10
302.8399907209
 20
315.3447327232
 30
0.0
 40
3.2
 41
0.0
 71
     1
 72
     1
  1
61,53
  7
SLDTEXTSTYLE0
 11
-7.044195017643634E-15
 21
1.0
 31
0.0
 73
     1
 44
1.0
  0
ENDBLK
  5
217
330
215
100
AcDbEntity
  8
0
100
AcDbBlockEnd
  0
BLOCK
  5
220
330
21F
100
AcDbEntity
  8
0
100
AcDbBlockBegin
  2
_D_1
 70
     0
 10
0.0
 20
0.0
 30
0.0
  3
_D_1
  1

  0
SOLID
  5
222
330
21F
100
AcDbEntity
  8
COTATION
100
AcDbTrace
 10
111.1292175964
 20
361.6845754266
 30
0.0
 11
114.9392175964
 21
361.1130754266
 31
0.0
 12
114.9392175964
 22
362.2560754266
 32
0.0
 13
114.9392175964
 23
362.2560754266
 33
0.0
  0
SOLID
  5
223
330
21F
100
AcDbEntity
  8
COTATION
100
AcDbTrace
 10
275.6373401429
 20
361.6845754266
 30
0.0
 11
271.8273401429
 21
362.2560754266
 31
0.0
 12
271.8273401429
 22
361.1130754266
 32
0.0
 13
271.8273401429
 23
361.1130754266
 33
0.0
  0
LINE
  5
224
330
21F
100
AcDbEntity
  8
COTATION
100
AcDbLine
 10
111.1292175964
 20
351.4277797622
 30
0.0
 11
111.1292175964
 21
362.6845754266
 31
0.0
  0
LINE
  5
225
330
21F
100
AcDbEntity
  8
COTATION
100
AcDbLine
 10
275.6373401429
 20
351.4277797622
 30
0.0
 11
275.6373401429
 21
362.6845754266
 31
0.0
  0
LINE
  5
226
330
21F
100
AcDbEntity
  8
COTATION
100
AcDbLine
 10
111.1292175964
 20
361.6845754266
 30
0.0
 11
275.6373401429
 21
361.6845754266
 31
0.0
  0
MTEXT
  5
227
330
21F
100
AcDbEntity
  8
COTATION
100
AcDbMText
 10
186.8810565999
 20
365.8095920193
 30
0.0
 40
3.2
 41
0.0
 71
     1
 72
     1
  1
164,51
  7
SLDTEXTSTYLE0
 73
     1
 44
1.0
  0
ENDBLK
  5
221
330
21F
100
AcDbEntity
  8
0
100
AcDbBlockEnd
  0
BLOCK
  5
22A
330
229
100
AcDbEntity
  8
0
100
AcDbBlockBegin
  2
_D_2
 70
     0
 10
0.0
 20
0.0
 30
0.0
  3
_D_2
  1

  0
SOLID
  5
22C
330
229
100
AcDbEntity
  8
COTATION
100
AcDbTrace
 10
93.4433739074
 20
371.684574149
 30
0.0
 11
97.2533739147
 21
371.1130741977
 31
0.0
 12
97.2533739001
 22
372.2560741977
 32
0.0
 13
97.2533739001
 23
372.2560741977
 33
0.0
  0
SOLID
  5
22D
330
229
100
AcDbEntity
  8
COTATION
100
AcDbTrace
 10
293.3231877154
 20
371.6845767042
 30
0.0
 11
289.513187708
 21
372.2560766555
 31
0.0
 12
289.5131877227
 22
371.1130766555
 32
0.0
 13
289.5131877227
 23
371.1130766555
 33
0.0
  0
LINE
  5
22E
330
229
100
AcDbEntity
  8
COTATION
100
AcDbLine
 10
93.4433744962
 20
325.627778711
 30
0.0
 11
93.4433738946
 21
372.684574149
 31
0.0
  0
LINE
  5
22F
330
229
100
AcDbEntity
  8
COTATION
100
AcDbLine
 10
293.3231883041
 20
325.6277812662
 30
0.0
 11
293.3231877026
 21
372.6845767042
 31
0.0
  0
LINE
  5
230
330
229
100
AcDbEntity
  8
COTATION
100
AcDbLine
 10
93.4433739074
 20
371.684574149
 30
0.0
 11
293.3231877154
 21
371.6845767042
 31
0.0
  0
MTEXT
  5
231
330
229
100
AcDbEntity
  8
COTATION
100
AcDbMText
 10
186.8810584889
 20
375.8095919361
 30
0.0
 40
3.2
 41
0.0
 71
     1
 72
     1
  1
199,88
  7
SLDTEXTSTYLE0
 11
0.9999999999999999
 21
1.278383035102963E-8
 31
0.0
 73
     1
 44
1.0
  0
ENDBLK
  5
22B
330
229
100
AcDbEntity
  8
0
100
AcDbBlockEnd
  0
BLOCK
  5
234
330
233
100
AcDbEntity
  8
0
100
AcDbBlockBegin
  2
_D_3
 70
     0
 10
0.0
 20
0.0
 30
0.0
  3
_D_3
  1

  0
SOLID
  5
236
330
233
100
AcDbEntity
  8
COTATION
100
AcDbTrace
 10
80.3072769504
 20
351.4277797622
 30
0.0
 11
79.7357769504
 21
347.6177797622
 31
0.0
 12
80.8787769504
 22
347.6177797622
 32
0.0
 13
80.8787769504
 23
347.6177797622
 33
0.0
  0
SOLID
  5
237
330
233
100
AcDbEntity
  8
COTATION
100
AcDbTrace
 10
80.3072769504
 20
325.6277798294
 30
0.0
 11
80.8787769504
 21
329.4377798294
 31
0.0
 12
79.7357769504
 22
329.4377798294
 32
0.0
 13
79.7357769504
 23
329.4377798294
 33
0.0
  0
LINE
  5
238
330
233
100
AcDbEntity
  8
COTATION
100
AcDbLine
 10
111.1292175964
 20
351.4277797622
 30
0.0
 11
79.3072769504
 21
351.4277797622
 31
0.0
  0
LINE
  5
239
330
233
100
AcDbEntity
  8
COTATION
100
AcDbLine
 10
129.8326214012
 20
325.6277798294
 30
0.0
 11
79.3072769504
 21
325.6277798294
 31
0.0
  0
LINE
  5
23A
330
233
100
AcDbEntity
  8
COTATION
100
AcDbLine
 10
80.3072769504
 20
351.4277797622
 30
0.0
 11
80.3072769504
 21
325.6277798294
 31
0.0
  0
MTEXT
  5
23B
330
233
100
AcDbEntity
  8
COTATION
100
AcDbMText
 10
76.1822603578
 20
334.3903419348
 30
0.0
 40
3.2
 41
0.0
 71
     1
 72
     1
  1
25,8
  7
SLDTEXTSTYLE0
 11
8.943016536958620E-15
 21
1.0
 31
0.0
 73
     1
 44
1.0
  0
ENDBLK
  5
235
330
233
100
AcDbEntity
  8
0
100
AcDbBlockEnd
  0
BLOCK
  5
396
330
395
100
AcDbEntity
  8
0
100
AcDbBlockBegin
  2
_D_4
 70
     0
 10
0.0
 20
0.0
 30
0.0
  3
_D_4
  1

  0
SOLID
  5
398
330
395
100
AcDbEntity
  8
COTATION
100
AcDbTrace
 10
306.9650073135
 20
220.8559719752
 30
0.0
 11
306.3935073135
 21
217.0459719752
 31
0.0
 12
307.5365073135
 22
217.0459719752
 32
0.0
 13
307.5365073135
 23
217.0459719752
 33
0.0
  0
SOLID
  5
399
330
395
100
AcDbEntity
  8
COTATION
100
AcDbTrace
 10
306.9650073135
 20
118.2589258999
 30
0.0
 11
307.5365073135
 21
122.0689258999
 31
0.0
 12
306.3935073135
 22
122.0689258999
 32
0.0
 13
306.3935073135
 23
122.0689258999
 33
0.0
  0
LINE
  5
39A
330
395
100
AcDbEntity
  8
COTATION
100
AcDbLine
 10
193.3824382403
 20
220.8559719752
 30
0.0
 11
307.9650073135
 21
220.8559719752
 31
0.0
  0
LINE
  5
39B
330
395
100
AcDbEntity
  8
COTATION
100
AcDbLine
 10
193.3824382403
 20
118.2589258999
 30
0.0
 11
307.9650073135
 21
118.2589258999
 31
0.0
  0
LINE
  5
39C
330
395
100
AcDbEntity
  8
COTATION
100
AcDbLine
 10
306.9650073135
 20
220.8559719752
 30
0.0
 11
306.9650073135
 21
118.2589258999
 31
0.0
  0
MTEXT
  5
39D
330
395
100
AcDbEntity
  8
COTATION
100
AcDbMText
 10
302.8399907209
 20
164.237448941
 30
0.0
 40
3.2
 41
0.0
 71
     1
 72
     1
  1
102,6
  7
SLDTEXTSTYLE0
 11
-7.044195017643634E-15
 21
1.0
 31
0.0
 73
     1
 44
1.0
  0
ENDBLK
  5
397
330
395
100
AcDbEntity
  8
0
100
AcDbBlockEnd
  0
BLOCK
  5
3A0
330
39F
100
AcDbEntity
  8
0
100
AcDbBlockBegin
  2
_D_5
 70
     0
 10
0.0
 20
0.0
 30
0.0
  3
_D_5
  1

  0
SOLID
  5
3A2
330
39F
100
AcDbEntity
  8
COTATION
100
AcDbTrace
 10
316.9658504812
 20
240.410483593
 30
0.0
 11
316.3943504812
 21
236.600483593
 31
0.0
 12
317.5373504812
 22
236.600483593
 32
0.0
 13
317.5373504812
 23
236.600483593
 33
0.0
  0
SOLID
  5
3A3
330
39F
100
AcDbEntity
  8
COTATION
100
AcDbTrace
 10
316.9658504812
 20
98.7044161565
 30
0.0
 11
317.5373504812
 21
102.5144161565
 31
0.0
 12
316.3943504812
 22
102.5144161565
 32
0.0
 13
316.3943504812
 23
102.5144161565
 33
0.0
  0
LINE
  5
3A4
330
39F
100
AcDbEntity
  8
COTATION
100
AcDbLine
 10
193.3824382403
 20
240.410483593
 30
0.0
 11
317.9658504812
 21
240.410483593
 31
0.0
  0
LINE
  5
3A5
330
39F
100
AcDbEntity
  8
COTATION
100
AcDbLine
 10
193.3824382403
 20
98.7044161565
 30
0.0
 11
317.9658504812
 21
98.7044161565
 31
0.0
  0
LINE
  5
3A6
330
39F
100
AcDbEntity
  8
COTATION
100
AcDbLine
 10
316.9658504812
 20
240.410483593
 30
0.0
 11
316.9658504812
 21
98.7044161565
 31
0.0
  0
MTEXT
  5
3A7
330
39F
100
AcDbEntity
  8
COTATION
100
AcDbMText
 10
312.8408338886
 20
163.055227605
 30
0.0
 40
3.2
 41
0.0
 71
     1
 72
     1
  1
141,71
  7
SLDTEXTSTYLE0
 11
-7.044195017643634E-15
 21
1.0
 31
0.0
 73
     1
 44
1.0
  0
ENDBLK
  5
3A1
330
39F
100
AcDbEntity
  8
0
100
AcDbBlockEnd
  0
BLOCK
  5
3AA
330
3A9
100
AcDbEntity
  8
0
100
AcDbBlockBegin
  2
_D_6
 70
     0
 10
0.0
 20
0.0
 30
0.0
  3
_D_6
  1

  0
SOLID
  5
3AC
330
3A9
100
AcDbEntity
  8
COTATION
100
AcDbTrace
 10
143.383281408
 20
74.6990651091
 30
0.0
 11
147.193281408
 21
74.1275651091
 31
0.0
 12
147.193281408
 22
75.2705651091
 32
0.0
 13
147.193281408
 23
75.2705651091
 33
0.0
  0
SOLID
  5
3AD
330
3A9
100
AcDbEntity
  8
COTATION
100
AcDbTrace
 10
243.383281408
 20
74.6990651091
 30
0.0
 11
239.573281408
 21
75.2705651091
 31
0.0
 12
239.573281408
 22
74.1275651091
 32
0.0
 13
239.573281408
 23
74.1275651091
 33
0.0
  0
LINE
  5
3AE
330
3A9
100
AcDbEntity
  8
COTATION
100
AcDbLine
 10
143.383281408
 20
164.8074498696
 30
0.0
 11
143.383281408
 21
73.6990651091
 31
0.0
  0
LINE
  5
3AF
330
3A9
100
AcDbEntity
  8
COTATION
100
AcDbLine
 10
243.383281408
 20
164.8074498696
 30
0.0
 11
243.383281408
 21
73.6990651091
 31
0.0
  0
LINE
  5
3B0
330
3A9
100
AcDbEntity
  8
COTATION
100
AcDbLine
 10
143.383281408
 20
74.6990651091
 30
0.0
 11
243.383281408
 21
74.6990651091
 31
0.0
  0
MTEXT
  5
3B1
330
3A9
100
AcDbEntity
  8
COTATION
100
AcDbMText
 10
189.8366145884
 20
78.8240817017
 30
0.0
 40
3.2
 41
0.0
 71
     1
 72
     1
  1
100
  7
SLDTEXTSTYLE0
 73
     1
 44
1.0
  0
ENDBLK
  5
3AB
330
3A9
100
AcDbEntity
  8
0
100
AcDbBlockEnd
  0
BLOCK
  5
3B5
330
3B4
100
AcDbEntity
  8
0
100
AcDbBlockBegin
  2
_D_7
 70
     0
 10
0.0
 20
0.0
 30
0.0
  3
_D_7
  1

  0
SOLID
  5
3B7
330
3B4
100
AcDbEntity
  8
COTATION
100
AcDbTrace
 10
141.797427098
 20
167.9613401906
 30
0.0
 11
138.7066352746
 21
165.6614014622
 31
0.0
 12
139.5174589915
 22
164.8557874727
 32
0.0
 13
139.5174589915
 23
164.8557874727
 33
0.0
  0
LINE
  5
3B8
330
3B4
100
AcDbEntity
  8
COTATION
100
AcDbLine
 10
141.797427098
 20
167.9613401906
 30
0.0
 11
80.7125546772
 21
106.4814454121
 31
0.0
  0
LINE
  5
3B9
330
3B4
100
AcDbEntity
  8
COTATION
100
AcDbLine
 10
143.383281408
 20
169.5574498696
 30
0.0
 11
141.797427098
 21
167.9613401906
 31
0.0
  0
LINE
  5
3BA
330
3B4
100
AcDbEntity
  8
COTATION
100
AcDbLine
 10
80.7125546772
 20
106.4814454121
 30
0.0
 11
68.2583875332
 21
106.4814454121
 31
0.0
  0
MTEXT
  5
3BB
330
3B4
100
AcDbEntity
  8
COTATION
100
AcDbMText
 10
68.2583875332
 20
110.6064620047
 30
0.0
 40
3.2
 41
0.0
 71
     1
 72
     1
  1
R2,25
  7
SLDTEXTSTYLE0
 73
     1
 44
1.0
  0
ENDBLK
  5
3B6
330
3B4
100
AcDbEntity
  8
0
100
AcDbBlockEnd
  0
BLOCK
  5
3BE
330
3BD
100
AcDbEntity
  8
0
100
AcDbBlockBegin
  2
_D_8
 70
     0
 10
0.0
 20
0.0
 30
0.0
  3
_D_8
  1

  0
SOLID
  5
3C0
330
3BD
100
AcDbEntity
  8
COTATION
100
AcDbTrace
 10
140.2115727761
 20
181.7496692159
 30
0.0
 11
137.9316046581
 21
184.8552219253
 31
0.0
 12
137.1207809442
 22
184.0496079328
 32
0.0
 13
137.1207809442
 23
184.0496079328
 33
0.0
  0
LINE
  5
3C1
330
3BD
100
AcDbEntity
  8
COTATION
100
AcDbLine
 10
140.2115727761
 20
181.7496692159
 30
0.0
 11
80.7125542116
 21
241.6334543271
 31
0.0
  0
LINE
  5
3C2
330
3BD
100
AcDbEntity
  8
COTATION
100
AcDbLine
 10
143.383281408
 20
178.5574498696
 30
0.0
 11
140.2115727761
 21
181.7496692159
 31
0.0
  0
LINE
  5
3C3
330
3BD
100
AcDbEntity
  8
COTATION
100
AcDbLine
 10
80.7125542116
 20
241.6334543271
 30
0.0
 11
70.622831614
 21
241.6334543271
 31
0.0
  0
MTEXT
  5
3C4
330
3BD
100
AcDbEntity
  8
COTATION
100
AcDbMText
 10
70.622831614
 20
245.7584709198
 30
0.0
 40
3.2
 41
0.0
 71
     1
 72
     1
  1
R4,5
  7
SLDTEXTSTYLE0
 73
     1
 44
1.0
  0
ENDBLK
  5
3BF
330
3BD
100
AcDbEntity
  8
0
100
AcDbBlockEnd
  0
BLOCK
  5
3C7
330
3C6
100
AcDbEntity
  8
0
100
AcDbBlockBegin
  2
_D_9
 70
     0
 10
0.0
 20
0.0
 30
0.0
  3
_D_9
  1

  0
SOLID
  5
3C9
330
3C6
100
AcDbEntity
  8
COTATION
100
AcDbTrace
 10
246.383281408
 20
252.8223455521
 30
0.0
 11
242.573281408
 21
253.3938455521
 31
0.0
 12
242.573281408
 22
252.2508455521
 32
0.0
 13
242.573281408
 23
252.2508455521
 33
0.0
  0
SOLID
  5
3CA
330
3C6
100
AcDbEntity
  8
COTATION
100
AcDbTrace
 10
140.383281408
 20
252.8223455521
 30
0.0
 11
144.193281408
 21
252.2508455521
 31
0.0
 12
144.193281408
 22
253.3938455521
 32
0.0
 13
144.193281408
 23
253.3938455521
 33
0.0
  0
LINE
  5
3CB
330
3C6
100
AcDbEntity
  8
COTATION
100
AcDbLine
 10
246.383281408
 20
144.3074498696
 30
0.0
 11
246.383281408
 21
253.8223455521
 31
0.0
  0
LINE
  5
3CC
330
3C6
100
AcDbEntity
  8
COTATION
100
AcDbLine
 10
140.383281408
 20
204.3074498696
 30
0.0
 11
140.383281408
 21
253.8223455521
 31
0.0
  0
LINE
  5
3CD
330
3C6
100
AcDbEntity
  8
COTATION
100
AcDbLine
 10
246.383281408
 20
252.8223455521
 30
0.0
 11
140.383281408
 21
252.8223455521
 31
0.0
  0
MTEXT
  5
3CE
330
3C6
100
AcDbEntity
  8
COTATION
100
AcDbMText
 10
189.8366145884
 20
256.9473621447
 30
0.0
 40
3.2
 41
0.0
 71
     1
 72
     1
  1
106
  7
SLDTEXTSTYLE0
 73
     1
 44
1.0
  0
ENDBLK
  5
3C8
330
3C6
100
AcDbEntity
  8
0
100
AcDbBlockEnd
  0
BLOCK
  5
3D1
330
3D0
100
AcDbEntity
  8
0
100
AcDbBlockBegin
  2
_D_10
 70
     0
 10
0.0
 20
0.0
 30
0.0
  3
_D_10
  1

  0
SOLID
  5
3D3
330
3D0
100
AcDbEntity
  8
COTATION
100
AcDbTrace
 10
80.3072769504
 20
199.5574498696
 30
0.0
 11
79.7357769504
 21
195.7474498696
 31
0.0
 12
80.8787769504
 22
195.7474498696
 32
0.0
 13
80.8787769504
 23
195.7474498696
 33
0.0
  0
SOLID
  5
3D4
330
3D0
100
AcDbEntity
  8
COTATION
100
AcDbTrace
 10
80.3072769504
 20
139.5574498696
 30
0.0
 11
80.8787769504
 21
143.3674498696
 31
0.0
 12
79.7357769504
 22
143.3674498696
 32
0.0
 13
79.7357769504
 23
143.3674498696
 33
0.0
  0
LINE
  5
3D5
330
3D0
100
AcDbEntity
  8
COTATION
100
AcDbLine
 10
135.633281408
 20
199.5574498696
 30
0.0
 11
79.3072769504
 21
199.5574498696
 31
0.0
  0
LINE
  5
3D6
330
3D0
100
AcDbEntity
  8
COTATION
100
AcDbLine
 10
241.633281408
 20
139.5574498696
 30
0.0
 11
79.3072769504
 21
139.5574498696
 31
0.0
  0
LINE
  5
3D7
330
3D0
100
AcDbEntity
  8
COTATION
100
AcDbLine
 10
80.3072769504
 20
199.5574498696
 30
0.0
 11
80.3072769504
 21
139.5574498696
 31
0.0
  0
MTEXT
  5
3D8
330
3D0
100
AcDbEntity
  8
COTATION
100
AcDbMText
 10
76.1822603578
 20
167.1930053232
 30
0.0
 40
3.2
 41
0.0
 71
     1
 72
     1
  1
60
  7
SLDTEXTSTYLE0
 11
-7.044195017643634E-15
 21
1.0
 31
0.0
 73
     1
 44
1.0
  0
ENDBLK
  5
3D2
330
3D0
100
AcDbEntity
  8
0
100
AcDbBlockEnd
  0
BLOCK
  5
3DC
330
3DB
100
AcDbEntity
  8
0
100
AcDbBlockBegin
  2
_D_11
 70
     0
 10
0.0
 20
0.0
 30
0.0
  3
_D_11
  1

  0
SOLID
  5
3DE
330
3DB
100
AcDbEntity
  8
COTATION
100
AcDbTrace
 10
141.9682509234
 20
197.9604615681
 30
0.0
 11
144.2464976077
 21
194.8536457873
 31
0.0
 12
145.0577676648
 22
195.6588103012
 32
0.0
 13
145.0577676648
 23
195.6588103012
 33
0.0
  0
SOLID
  5
3DF
330
3DB
100
AcDbEntity
  8
COTATION
100
AcDbTrace
 10
138.7983118925
 20
201.1544381711
 30
0.0
 11
136.5200652083
 21
204.2612539519
 31
0.0
 12
135.7087951511
 22
203.456089438
 32
0.0
 13
135.7087951511
 23
203.456089438
 33
0.0
  0
LINE
  5
3E0
330
3DB
100
AcDbEntity
  8
COTATION
100
AcDbLine
 10
141.9682509234
 20
197.9604615681
 30
0.0
 11
144.6450883273
 21
195.26332577
 31
0.0
  0
LINE
  5
3E1
330
3DB
100
AcDbEntity
  8
COTATION
100
AcDbLine
 10
138.7983118925
 20
201.1544381711
 30
0.0
 11
87.5236634523
 21
252.8179010479
 31
0.0
  0
LINE
  5
3E2
330
3DB
100
AcDbEntity
  8
COTATION
100
AcDbLine
 10
141.9682509234
 20
197.9604615681
 30
0.0
 11
138.7983118925
 21
201.1544381711
 31
0.0
  0
LINE
  5
3E3
330
3DB
100
AcDbEntity
  8
COTATION
100
AcDbLine
 10
87.5236634523
 20
252.8179010479
 30
0.0
 11
75.1990525917
 21
252.8179010479
 31
0.0
  0
MTEXT
  5
3E4
330
3DB
100
AcDbEntity
  8
COTATION
100
AcDbMText
 10
75.1990525917
 20
256.942918048
 30
0.0
 40
3.2
 41
0.0
 71
     1
 72
     1
  1
%%c
  7
SLDTEXTSTYLE0
 73
     1
 44
1.0
  0
MTEXT
  5
3E5
330
3DB
100
AcDbEntity
  8
COTATION
100
AcDbMText
 10
80.025052552
 20
256.9918069534
 30
0.0
 40
3.2
 41
0.0
 71
     1
 72
     1
  1
4,5
  7
SLDTEXTSTYLE0
 73
     1
 44
1.0
  0
ENDBLK
  5
3DD
330
3DB
100
AcDbEntity
  8
0
100
AcDbBlockEnd
  0
BLOCK
  5
3E8
330
3E7
100
AcDbEntity
  8
0
100
AcDbBlockBegin
  2
_D_12
 70
     0
 10
0.0
 20
0.0
 30
0.0
  3
_D_12
  1

  0
SOLID
  5
3EA
330
3E7
100
AcDbEntity
  8
COTATION
100
AcDbTrace
 10
80.3072769504
 20
137.5574498696
 30
0.0
 11
79.7357769504
 21
133.7474498696
 31
0.0
 12
80.8787769504
 22
133.7474498696
 32
0.0
 13
80.8787769504
 23
133.7474498696
 33
0.0
  0
SOLID
  5
3EB
330
3E7
100
AcDbEntity
  8
COTATION
100
AcDbTrace
 10
80.3072769504
 20
119.2589258895
 30
0.0
 11
80.8787769504
 21
123.0689258895
 31
0.0
 12
79.7357769504
 22
123.0689258895
 32
0.0
 13
79.7357769504
 23
123.0689258895
 33
0.0
  0
LINE
  5
3EC
330
3E7
100
AcDbEntity
  8
COTATION
100
AcDbLine
 10
186.597344239
 20
137.5574498696
 30
0.0
 11
79.3072769504
 21
137.5574498696
 31
0.0
  0
LINE
  5
3ED
330
3E7
100
AcDbEntity
  8
COTATION
100
AcDbLine
 10
185.8993412783
 20
119.2589258895
 30
0.0
 11
79.3072769504
 21
119.2589258895
 31
0.0
  0
LINE
  5
3EE
330
3E7
100
AcDbEntity
  8
COTATION
100
AcDbLine
 10
80.3072769504
 20
137.5574498696
 30
0.0
 11
80.3072769504
 21
119.2589258895
 31
0.0
  0
MTEXT
  5
3EF
330
3E7
100
AcDbEntity
  8
COTATION
100
AcDbMText
 10
76.1822603578
 20
124.2704101562
 30
0.0
 40
3.2
 41
0.0
 71
     1
 72
     1
  1
18,3
  7
SLDTEXTSTYLE0
 11
-7.044195017643634E-15
 21
1.0
 31
0.0
 73
     1
 44
1.0
  0
ENDBLK
  5
3E9
330
3E7
100
AcDbEntity
  8
0
100
AcDbBlockEnd
  0
BLOCK
  5
3F3
330
3F2
100
AcDbEntity
  8
0
100
AcDbBlockBegin
  2
_D_13
 70
     0
 10
0.0
 20
0.0
 30
0.0
  3
_D_13
  1

  0
SOLID
  5
3F5
330
3F2
100
AcDbEntity
  8
COTATION
100
AcDbTrace
 10
185.5976487343
 20
84.6990651091
 30
0.0
 11
181.7876487343
 21
85.2705651091
 31
0.0
 12
181.7876487343
 22
84.1275651091
 32
0.0
 13
181.7876487343
 23
84.1275651091
 33
0.0
  0
SOLID
  5
3F6
330
3F2
100
AcDbEntity
  8
COTATION
100
AcDbTrace
 10
201.1689140816
 20
84.6990651091
 30
0.0
 11
204.9789140816
 21
84.1275651091
 31
0.0
 12
204.9789140816
 22
85.2705651091
 32
0.0
 13
204.9789140816
 23
85.2705651091
 33
0.0
  0
LINE
  5
3F7
330
3F2
100
AcDbEntity
  8
COTATION
100
AcDbLine
 10
185.5976487343
 20
136.5401550374
 30
0.0
 11
185.5976487343
 21
83.6990651091
 31
0.0
  0
LINE
  5
3F8
330
3F2
100
AcDbEntity
  8
COTATION
100
AcDbLine
 10
201.1689140816
 20
136.5401550374
 30
0.0
 11
201.1689140816
 21
83.6990651091
 31
0.0
  0
LINE
  5
3F9
330
3F2
100
AcDbEntity
  8
COTATION
100
AcDbLine
 10
185.5976487343
 20
84.6990651091
 30
0.0
 11
181.7976487343
 21
84.6990651091
 31
0.0
  0
LINE
  5
3FA
330
3F2
100
AcDbEntity
  8
COTATION
100
AcDbLine
 10
185.5976487343
 20
84.6990651091
 30
0.0
 11
201.1689140816
 21
84.6990651091
 31
0.0
  0
LINE
  5
3FB
330
3F2
100
AcDbEntity
  8
COTATION
100
AcDbLine
 10
201.1689140816
 20
84.6990651091
 30
0.0
 11
204.9689140816
 21
84.6990651091
 31
0.0
  0
MTEXT
  5
3FC
330
3F2
100
AcDbEntity
  8
COTATION
100
AcDbMText
 10
188.0632814114
 20
88.8240817017
 30
0.0
 40
3.2
 41
0.0
 71
     1
 72
     1
  1
15,57
  7
SLDTEXTSTYLE0
 73
     1
 44
1.0
  0
ENDBLK
  5
3F4
330
3F2
100
AcDbEntity
  8
0
100
AcDbBlockEnd
  0
BLOCK
  5
3FF
330
3FE
100
AcDbEntity
  8
0
100
AcDbBlockBegin
  2
_D_14
 70
     0
 10
0.0
 20
0.0
 30
0.0
  3
_D_14
  1

  0
SOLID
  5
401
330
3FE
100
AcDbEntity
  8
COTATION
100
AcDbTrace
 10
70.3072769504
 20
137.5574498696
 30
0.0
 11
70.8787769504
 21
141.3674498696
 31
0.0
 12
69.7357769504
 22
141.3674498696
 32
0.0
 13
69.7357769504
 23
141.3674498696
 33
0.0
  0
SOLID
  5
402
330
3FE
100
AcDbEntity
  8
COTATION
100
AcDbTrace
 10
70.3072769504
 20
201.5574498696
 30
0.0
 11
69.7357769504
 21
197.7474498696
 31
0.0
 12
70.8787769504
 22
197.7474498696
 32
0.0
 13
70.8787769504
 23
197.7474498696
 33
0.0
  0
LINE
  5
403
330
3FE
100
AcDbEntity
  8
COTATION
100
AcDbLine
 10
186.597344239
 20
137.5574498696
 30
0.0
 11
69.3072769504
 21
137.5574498696
 31
0.0
  0
LINE
  5
404
330
3FE
100
AcDbEntity
  8
COTATION
100
AcDbLine
 10
186.597344239
 20
201.5574498696
 30
0.0
 11
69.3072769504
 21
201.5574498696
 31
0.0
  0
LINE
  5
405
330
3FE
100
AcDbEntity
  8
COTATION
100
AcDbLine
 10
70.3072769504
 20
137.5574498696
 30
0.0
 11
70.3072769504
 21
201.5574498696
 31
0.0
  0
MTEXT
  5
406
330
3FE
100
AcDbEntity
  8
COTATION
100
AcDbMText
 10
66.1822603578
 20
167.1930053232
 30
0.0
 40
3.2
 41
0.0
 71
     1
 72
     1
  1
64
  7
SLDTEXTSTYLE0
 11
6.123233995736766E-17
 21
1.0
 31
0.0
 73
     1
 44
1.0
  0
ENDBLK
  5
400
330
3FE
100
AcDbEntity
  8
0
100
AcDbBlockEnd
  0
BLOCK
  5
408
330
407
100
AcDbEntity
  8
0
100
AcDbBlockBegin
  2
SW_CENTERMARKSYMBOL_0
 70
     0
 10
0.0
 20
0.0
 30
0.0
  3
SW_CENTERMARKSYMBOL_0
  1

  0
LINE
  5
40A
330
407
100
AcDbEntity
  8
0
  6
Continuous
 62
     0
370
     0
100
AcDbLine
 10
0.0
 20
0.0
 30
0.0
 11
0.0
 21
2.5
 31
0.0
  0
LINE
  5
40B
330
407
100
AcDbEntity
  8
0
  6
Continuous
 62
     0
370
     0
100
AcDbLine
 10
0.0
 20
0.0
 30
0.0
 11
-2.5
 21
0.0
 31
0.0
  0
LINE
  5
40C
330
407
100
AcDbEntity
  8
0
  6
Continuous
 62
     0
370
     0
100
AcDbLine
 10
0.0
 20
0.0
 30
0.0
 11
0.0
 21
-2.5
 31
0.0
  0
LINE
  5
40D
330
407
100
AcDbEntity
  8
0
  6
Continuous
 62
     0
370
     0
100
AcDbLine
 10
0.0
 20
0.0
 30
0.0
 11
2.5
 21
0.0
 31
0.0
  0
LINE
  5
40E
330
407
100
AcDbEntity
  8
0
  6
Continuous
 62
     0
370
     0
100
AcDbLine
 10
0.0
 20
2.5
 30
0.0
 11
0.0
 21
4.75
 31
0.0
  0
LINE
  5
40F
330
407
100
AcDbEntity
  8
0
  6
Continuous
 62
     0
370
     0
100
AcDbLine
 10
-2.5
 20
0.0
 30
0.0
 11
-4.75
 21
0.0
 31
0.0
  0
LINE
  5
410
330
407
100
AcDbEntity
  8
0
  6
Continuous
 62
     0
370
     0
100
AcDbLine
 10
0.0
 20
-2.5
 30
0.0
 11
0.0
 21
-4.75
 31
0.0
  0
LINE
  5
411
330
407
100
AcDbEntity
  8
0
  6
Continuous
 62
     0
370
     0
100
AcDbLine
 10
2.5
 20
0.0
 30
0.0
 11
4.75
 21
0.0
 31
0.0
  0
ENDBLK
  5
409
330
407
100
AcDbEntity
  8
0
100
AcDbBlockEnd
  0
BLOCK
  5
414
330
413
100
AcDbEntity
  8
0
100
AcDbBlockBegin
  2
SW_CENTERMARKSYMBOL_1
 70
     0
 10
0.0
 20
0.0
 30
0.0
  3
SW_CENTERMARKSYMBOL_1
  1

  0
LINE
  5
416
330
413
100
AcDbEntity
  8
0
  6
Continuous
 62
     0
370
     0
100
AcDbLine
 10
0.0
 20
0.0
 30
0.0
 11
0.0
 21
2.5
 31
0.0
  0
LINE
  5
417
330
413
100
AcDbEntity
  8
0
  6
Continuous
 62
     0
370
     0
100
AcDbLine
 10
0.0
 20
0.0
 30
0.0
 11
-2.5
 21
0.0
 31
0.0
  0
LINE
  5
418
330
413
100
AcDbEntity
  8
0
  6
Continuous
 62
     0
370
     0
100
AcDbLine
 10
0.0
 20
0.0
 30
0.0
 11
0.0
 21
-2.5
 31
0.0
  0
LINE
  5
419
330
413
100
AcDbEntity
  8
0
  6
Continuous
 62
     0
370
     0
100
AcDbLine
 10
0.0
 20
0.0
 30
0.0
 11
2.5
 21
0.0
 31
0.0
  0
LINE
  5
41A
330
413
100
AcDbEntity
  8
0
  6
Continuous
 62
     0
370
     0
100
AcDbLine
 10
0.0
 20
2.5
 30
0.0
 11
0.0
 21
4.75
 31
0.0
  0
LINE
  5
41B
330
413
100
AcDbEntity
  8
0
  6
Continuous
 62
     0
370
     0
100
AcDbLine
 10
-2.5
 20
0.0
 30
0.0
 11
-4.75
 21
0.0
 31
0.0
  0
LINE
  5
41C
330
413
100
AcDbEntity
  8
0
  6
Continuous
 62
     0
370
     0
100
AcDbLine
 10
0.0
 20
-2.5
 30
0.0
 11
0.0
 21
-4.75
 31
0.0
  0
LINE
  5
41D
330
413
100
AcDbEntity
  8
0
  6
Continuous
 62
     0
370
     0
100
AcDbLine
 10
2.5
 20
0.0
 30
0.0
 11
4.75
 21
0.0
 31
0.0
  0
ENDBLK
  5
415
330
413
100
AcDbEntity
  8
0
100
AcDbBlockEnd
  0
BLOCK
  5
420
330
41F
100
AcDbEntity
  8
0
100
AcDbBlockBegin
  2
SW_CENTERMARKSYMBOL_2
 70
     0
 10
0.0
 20
0.0
 30
0.0
  3
SW_CENTERMARKSYMBOL_2
  1

  0
LINE
  5
422
330
41F
100
AcDbEntity
  8
0
  6
Continuous
 62
     0
370
     0
100
AcDbLine
 10
0.0
 20
0.0
 30
0.0
 11
0.0
 21
2.5
 31
0.0
  0
LINE
  5
423
330
41F
100
AcDbEntity
  8
0
  6
Continuous
 62
     0
370
     0
100
AcDbLine
 10
0.0
 20
0.0
 30
0.0
 11
-2.5
 21
0.0
 31
0.0
  0
LINE
  5
424
330
41F
100
AcDbEntity
  8
0
  6
Continuous
 62
     0
370
     0
100
AcDbLine
 10
0.0
 20
0.0
 30
0.0
 11
0.0
 21
-2.5
 31
0.0
  0
LINE
  5
425
330
41F
100
AcDbEntity
  8
0
  6
Continuous
 62
     0
370
     0
100
AcDbLine
 10
0.0
 20
0.0
 30
0.0
 11
2.5
 21
0.0
 31
0.0
  0
LINE
  5
426
330
41F
100
AcDbEntity
  8
0
  6
Continuous
 62
     0
370
     0
100
AcDbLine
 10
0.0
 20
2.5
 30
0.0
 11
0.0
 21
4.75
 31
0.0
  0
LINE
  5
427
330
41F
100
AcDbEntity
  8
0
  6
Continuous
 62
     0
370
     0
100
AcDbLine
 10
-2.5
 20
0.0
 30
0.0
 11
-4.75
 21
0.0
 31
0.0
  0
LINE
  5
428
330
41F
100
AcDbEntity
  8
0
  6
Continuous
 62
     0
370
     0
100
AcDbLine
 10
0.0
 20
-2.5
 30
0.0
 11
0.0
 21
-4.75
 31
0.0
  0
LINE
  5
429
330
41F
100
AcDbEntity
  8
0
  6
Continuous
 62
     0
370
     0
100
AcDbLine
 10
2.5
 20
0.0
 30
0.0
 11
4.75
 21
0.0
 31
0.0
  0
ENDBLK
  5
421
330
41F
100
AcDbEntity
  8
0
100
AcDbBlockEnd
  0
BLOCK
  5
42C
330
42B
100
AcDbEntity
  8
0
100
AcDbBlockBegin
  2
SW_CENTERMARKSYMBOL_3
 70
     0
 10
0.0
 20
0.0
 30
0.0
  3
SW_CENTERMARKSYMBOL_3
  1

  0
LINE
  5
42E
330
42B
100
AcDbEntity
  8
0
  6
Continuous
 62
     0
370
     0
100
AcDbLine
 10
0.0
 20
0.0
 30
0.0
 11
0.0
 21
2.5
 31
0.0
  0
LINE
  5
42F
330
42B
100
AcDbEntity
  8
0
  6
Continuous
 62
     0
370
     0
100
AcDbLine
 10
0.0
 20
0.0
 30
0.0
 11
-2.5
 21
0.0
 31
0.0
  0
LINE
  5
430
330
42B
100
AcDbEntity
  8
0
  6
Continuous
 62
     0
370
     0
100
AcDbLine
 10
0.0
 20
0.0
 30
0.0
 11
0.0
 21
-2.5
 31
0.0
  0
LINE
  5
431
330
42B
100
AcDbEntity
  8
0
  6
Continuous
 62
     0
370
     0
100
AcDbLine
 10
0.0
 20
0.0
 30
0.0
 11
2.5
 21
0.0
 31
0.0
  0
LINE
  5
432
330
42B
100
AcDbEntity
  8
0
  6
Continuous
 62
     0
370
     0
100
AcDbLine
 10
0.0
 20
2.5
 30
0.0
 11
0.0
 21
4.75
 31
0.0
  0
LINE
  5
433
330
42B
100
AcDbEntity
  8
0
  6
Continuous
 62
     0
370
     0
100
AcDbLine
 10
-2.5
 20
0.0
 30
0.0
 11
-4.75
 21
0.0
 31
0.0
  0
LINE
  5
434
330
42B
100
AcDbEntity
  8
0
  6
Continuous
 62
     0
370
     0
100
AcDbLine
 10
0.0
 20
-2.5
 30
0.0
 11
0.0
 21
-4.75
 31
0.0
  0
LINE
  5
435
330
42B
100
AcDbEntity
  8
0
  6
Continuous
 62
     0
370
     0
100
AcDbLine
 10
2.5
 20
0.0
 30
0.0
 11
4.75
 21
0.0
 31
0.0
  0
ENDBLK
  5
42D
330
42B
100
AcDbEntity
  8
0
100
AcDbBlockEnd
  0
ENDSEC
  0
SECTION
  2
ENTITIES
  0
HATCH
  5
87
330
1F
100
AcDbEntity
  8
LOGO1
 62
   156
100
AcDbHatch
 10
0.0
 20
0.0
 30
0.0
210
0.0
220
0.0
230
1.0
  2
SOLID
 70
     1
 71
     0
 91
        1
 92
        0
 93
       36
 72
     2
 10
403.534550763144
 20
34.01647979037206
 40
1.148514851000037
 50
90.03360903892279
 51
180.0115505332992
 73
     1
 72
     1
 10
402.3860359354821
 20
34.01624825571012
 11
402.3870279236388
 21
29.09554611504758
 72
     2
 10
403.6369568047801
 20
29.09579809425936
 40
1.249928906540162
 50
180.0115505333007
 51
360.0000000000008
 73
     1
 72
     1
 10
404.8868857113202
 20
29.09579809425936
 11
404.8868857113202
 21
33.30659809247552
 72
     1
 10
404.8868857113202
 20
33.30659809247552
 11
406.8916179699482
 21
33.30659809247552
 72
     4
 94
        3
 73
     1
 74
     0
 95
        8
 96
        4
 40
0.4772727272727271
 40
0.4772727272727271
 40
0.4772727272727271
 40
0.4772727272727271
 40
0.4999999999999998
 40
0.4999999999999998
 40
0.4999999999999998
 40
0.4999999999999998
 10
406.8916179699482
 20
33.30659809247552
 42
1.0
 10
407.7953843062001
 20
33.30659809247557
 42
1.0
 10
408.468414008886
 20
33.27765551823034
 42
1.0
 10
408.9089843057296
 20
33.08286739950076
 42
1.0
 72
     4
 94
        3
 73
     1
 74
     0
 95
        8
 96
        4
 40
0.4999999999999998
 40
0.4999999999999998
 40
0.4999999999999998
 40
0.4999999999999998
 40
0.5227272727272726
 40
0.5227272727272726
 40
0.5227272727272726
 40
0.5227272727272726
 10
408.9089843057296
 20
33.08286739950076
 42
1.0
 10
409.3498991570286
 20
32.88784957780091
 42
1.0
 10
409.5706437113907
 20
32.49540205321424
 42
1.0
 10
409.5706437113907
 20
31.90368720197903
 42
1.0
 72
     4
 94
        3
 73
     1
 74
     0
 95
        8
 96
        4
 40
0.5227272727272726
 40
0.5227272727272726
 40
0.5227272727272726
 40
0.5227272727272726
 40
0.5454545454545453
 40
0.5454545454545453
 40
0.5454545454545453
 40
0.5454545454545453
 10
409.5706437113907
 20
31.90368720197903
 42
1.0
 10
409.5706437113907
 20
31.62655056843275
 42
1.0
 10
409.4995506421138
 20
31.37594462794454
 42
1.0
 10
409.3604654936578
 20
31.15175452902933
 42
1.0
 72
     4
 94
        3
 73
     1
 74
     0
 95
        8
 96
        4
 40
0.5454545454545453
 40
0.5454545454545453
 40
0.5454545454545453
 40
0.5454545454545453
 40
0.568181818181818
 40
0.568181818181818
 40
0.568181818181818
 40
0.568181818181818
 10
409.3604654936578
 20
31.15175452902933
 42
1.0
 10
409.1817565828422
 20
30.83671690540005
 42
1.0
 10
408.9226516324566
 20
30.62389710350974
 42
1.0
 10
408.5869407415092
 20
30.51260601444786
 42
1.0
 72
     4
 94
        3
 73
     1
 74
     0
 95
        8
 96
        4
 40
0.568181818181818
 40
0.568181818181818
 40
0.568181818181818
 40
0.568181818181818
 40
0.5909090909090907
 40
0.5909090909090907
 40
0.5909090909090907
 40
0.5909090909090907
 10
408.5869407415092
 20
30.51260601444786
 42
1.0
 10
408.5251506425255
 20
30.49204759861493
 42
1.0
 10
408.4587664841377
 20
30.47355650951386
 42
1.0
 10
408.3875585633756
 20
30.45644363823394
 42
1.0
 72
     1
 10
408.3875585633756
 20
30.45644363823394
 11
408.3875585633756
 21
30.45047136100873
 72
     4
 94
        3
 73
     1
 74
     0
 95
        8
 96
        4
 40
0.6136363636363634
 40
0.6136363636363634
 40
0.6136363636363634
 40
0.6136363636363634
 40
0.6363636363636361
 40
0.6363636363636361
 40
0.6363636363636361
 40
0.6363636363636361
 10
408.3875585633756
 20
30.45047136100873
 42
1.0
 10
408.0071704447245
 20
30.32872878680273
 42
1.0
 10
407.7290001478122
 20
29.96924363843975
 42
1.0
 10
407.7290001478122
 20
29.53855056931473
 42
1.0
 72
     4
 94
        3
 73
     1
 74
     0
 95
        8
 96
        4
 40
0.6363636363636361
 40
0.6363636363636361
 40
0.6363636363636361
 40
0.6363636363636361
 40
0.6590909090909088
 40
0.6590909090909088
 40
0.6590909090909088
 40
0.6590909090909088
 10
407.7290001478122
 20
29.53855056931473
 42
1.0
 10
407.7290001478122
 20
29.10797235167481
 42
1.0
 10
408.0071704447245
 20
28.74791294588633
 42
1.0
 10
408.3875585633756
 20
28.62559611425483
 42
1.0
 72
     4
 94
        2
 73
     1
 74
     0
 95
        6
 96
        3
 40
0.6590909090909088
 40
0.6590909090909088
 40
0.6590909090909088
 40
0.6818181818181815
 40
0.6818181818181815
 40
0.6818181818181815
 10
408.3875585633756
 20
28.62559611425483
 42
1.0
 10
408.4248852960332
 20
28.61319215386401
 42
1.0
 10
408.479784305911
 20
28.59676839149475
 42
1.0
 72
     4
 94
        3
 73
     1
 74
     0
 95
        8
 96
        4
 40
0.6818181818181815
 40
0.6818181818181815
 40
0.6818181818181815
 40
0.6818181818181815
 40
0.7045454545454543
 40
0.7045454545454543
 40
0.7045454545454543
 40
0.7045454545454543
 10
408.479784305911
 20
28.59676839149475
 42
1.0
 10
408.8555783651582
 20
28.53176245092812
 42
1.0
 10
409.167859553145
 20
28.42759215394245
 42
1.0
 10
409.4104258896762
 20
28.28000799558891
 42
1.0
 72
     4
 94
        3
 73
     1
 74
     0
 95
        8
 96
        4
 40
0.7045454545454543
 40
0.7045454545454543
 40
0.7045454545454543
 40
0.7045454545454543
 40
0.727272727272727
 40
0.727272727272727
 40
0.727272727272727
 40
0.727272727272727
 10
409.4104258896762
 20
28.28000799558891
 42
1.0
 10
409.8458278696904
 20
28.01550502540365
 42
1.0
 10
410.0632417309846
 20
27.70919611464193
 42
1.0
 10
410.0632417309846
 20
27.12253472875117
 42
1.0
 72
     4
 94
        3
 73
     1
 74
     0
 95
        8
 96
        4
 40
0.727272727272727
 40
0.727272727272727
 40
0.727272727272727
 40
0.727272727272727
 40
0.7499999999999997
 40
0.7499999999999997
 40
0.7499999999999997
 40
0.7499999999999997
 10
410.0632417309846
 20
27.12253472875117
 42
1.0
 10
410.0632417309846
 20
25.97459413517664
 42
1.0
 10
409.2235625234185
 20
25.40125552155745
 42
1.0
 10
407.5452377716523
 20
25.40125552155745
 42
1.0
 72
     1
 10
407.5452377716523
 20
25.40125552155745
 11
402.3733605461142
 21
25.40125552155745
 72
     1
 10
402.3733605461142
 20
25.40125552155745
 11
402.3733605461142
 21
24.67022581889597
 72
     2
 10
403.5218753971142
 20
24.67022581889597
 40
1.148514850999996
 50
180.0
 51
270.0351459458573
 73
     1
 72
     1
 10
403.5225799104061
 20
23.52171118397458
 11
407.641368464681
 21
23.52423770056815
 72
     4
 94
        3
 73
     1
 74
     0
 95
        8
 96
        4
 40
0.954545454545454
 40
0.954545454545454
 40
0.954545454545454
 40
0.954545454545454
 40
0.9772727272727267
 40
0.9772727272727267
 40
0.9772727272727267
 40
0.9772727272727267
 10
407.641368464681
 20
23.52423770056815
 42
1.0
 10
407.9737486625604
 20
23.52423770056814
 42
1.0
 10
408.2841922267857
 20
23.53239215601025
 42
1.0
 10
408.574077375178
 20
23.54778225501361
 42
1.0
 72
     4
 94
        3
 73
     1
 74
     0
 95
        8
 96
        4
 40
0.6666666666666666
 40
0.6666666666666666
 40
0.6666666666666666
 40
0.6666666666666666
 40
0.8333333333333333
 40
0.8333333333333333
 40
0.8333333333333333
 40
0.8333333333333333
 10
408.574077375178
 20
23.54778225501361
 42
1.0
 10
408.8497209394181
 20
23.56259809659153
 42
1.0
 10
409.1066437115868
 20
23.58464958173076
 42
1.0
 10
409.3435823253481
 20
23.61416641340145
 42
1.0
 72
     4
 94
        3
 73
     1
 74
     0
 95
        8
 96
        4
 40
0.8333333333333333
 40
0.8333333333333333
 40
0.8333333333333333
 40
0.8333333333333333
 40
1.0
 40
1.0
 40
1.0
 40
1.0
 10
409.3435823253481
 20
23.61416641340145
 42
1.0
 10
409.830552622172
 20
23.67515255198957
 42
1.0
 10
410.2606714338716
 20
23.77851888857954
 42
1.0
 10
410.635661532723
 20
23.92610304693302
 42
1.0
 72
     4
 94
        3
 73
     1
 74
     0
 95
        8
 96
        4
 40
0.0
 40
0.0
 40
0.0
 40
0.0
 40
0.1666666666666667
 40
0.1666666666666667
 40
0.1666666666666667
 40
0.1666666666666667
 10
410.635661532723
 20
23.92610304693302
 42
1.0
 10
411.2348417304897
 20
24.17349314583841
 42
1.0
 10
411.7102120273187
 20
24.55629314567673
 42
1.0
 10
412.0642991558819
 20
25.07588126426916
 42
1.0
 72
     4
 94
        3
 73
     1
 74
     0
 95
        8
 96
        4
 40
0.1666666666666667
 40
0.1666666666666667
 40
0.1666666666666667
 40
0.1666666666666667
 40
0.3333333333333333
 40
0.3333333333333333
 40
0.3333333333333333
 40
0.3333333333333333
 10
412.0642991558819
 20
25.07588126426916
 42
1.0
 10
412.4172377695943
 20
25.59489512543603
 42
1.0
 10
412.593764502193
 20
26.17845552122913
 42
1.0
 10
412.593764502193
 20
26.82644760016331
 42
1.0
 72
     1
 10
412.593764502193
 20
26.82644760016331
 11
412.582279353683
 21
27.11013076836036
 72
     4
 94
        3
 73
     1
 74
     0
 95
        8
 96
        4
 40
0.4
 40
0.4
 40
0.4
 40
0.4
 40
0.6000000000000001
 40
0.6000000000000001
 40
0.6000000000000001
 40
0.6000000000000001
 10
412.582279353683
 20
27.11013076836036
 42
1.0
 10
412.535190244792
 20
27.66980205525263
 42
1.0
 10
412.3454555914068
 20
28.14919215406006
 42
1.0
 10
412.0152575717443
 20
28.54841591626764
 42
1.0
 72
     4
 94
        3
 73
     1
 74
     0
 95
        8
 96
        4
 40
0.0
 40
0.0
 40
0.0
 40
0.0
 40
0.0227272727272727
 40
0.0227272727272727
 40
0.0227272727272727
 40
0.0227272727272727
 10
412.0152575717443
 20
28.54841591626764
 42
1.0
 10
411.6107506412221
 20
29.03745353982343
 42
1.0
 10
410.995031829601
 20
29.40716047036032
 42
1.0
 10
410.1645407408429
 20
29.65581393560182
 42
1.0
 72
     4
 94
        3
 73
     1
 74
     0
 95
        8
 96
        4
 40
0.0227272727272727
 40
0.0227272727272727
 40
0.0227272727272727
 40
0.0227272727272727
 40
0.0454545454545455
 40
0.0454545454545455
 40
0.0454545454545455
 40
0.0454545454545455
 10
410.1645407408429
 20
29.65581393560182
 42
1.0
 10
411.3975862848764
 20
30.19550106408672
 42
1.0
 10
412.0138793539231
 20
31.04827334095425
 42
1.0
 10
412.0138793539231
 20
32.21355650877886
 42
1.0
 72
     4
 94
        3
 73
     1
 74
     0
 95
        8
 96
        4
 40
0.0454545454545455
 40
0.0454545454545455
 40
0.0454545454545455
 40
0.0454545454545455
 40
0.0681818181818182
 40
0.0681818181818182
 40
0.0681818181818182
 40
0.0681818181818182
 10
412.0138793539231
 20
32.21355650877886
 42
1.0
 10
412.0138793539231
 20
32.55213868685367
 42
1.0
 10
411.9555347994923
 20
32.87429710255915
 42
1.0
 10
411.8372377698392
 20
33.17888324104432
 42
1.0
 72
     4
 94
        3
 73
     1
 74
     0
 95
        8
 96
        4
 40
0.0681818181818182
 40
0.0681818181818182
 40
0.0681818181818182
 40
0.0681818181818182
 40
0.0909090909090909
 40
0.0909090909090909
 40
0.0909090909090909
 40
0.0909090909090909
 10
411.8372377698392
 20
33.17888324104432
 42
1.0
 10
411.7191704431564
 20
33.48312482507423
 42
1.0
 10
411.5489605422383
 20
33.76072086456097
 42
1.0
 10
411.3240813344124
 20
34.01327928029582
 42
1.0
 72
     4
 94
        3
 73
     1
 74
     0
 95
        8
 96
        4
 40
0.0909090909090909
 40
0.0909090909090909
 40
0.0909090909090909
 40
0.0909090909090909
 40
0.1136363636363637
 40
0.1136363636363637
 40
0.1136363636363637
 40
0.1136363636363637
 10
411.3240813344124
 20
34.01327928029582
 42
1.0
 10
411.0996615325271
 20
34.26422977523932
 42
1.0
 10
410.8421645029329
 20
34.47234066624053
 42
1.0
 10
410.5514753941448
 20
34.63634858696332
 42
1.0
 72
     4
 94
        3
 73
     1
 74
     0
 95
        8
 96
        4
 40
0.1136363636363637
 40
0.1136363636363637
 40
0.1136363636363637
 40
0.1136363636363637
 40
0.1363636363636364
 40
0.1363636363636364
 40
0.1363636363636364
 40
0.1363636363636364
 10
410.5514753941448
 20
34.63634858696332
 42
1.0
 10
410.2095625230021
 20
34.83044759678236
 42
1.0
 10
409.8246951964319
 20
34.96229710167712
 42
1.0
 10
409.3933130183963
 20
35.0305188838265
 42
1.0
 72
     4
 94
        3
 73
     1
 74
     0
 95
        8
 96
        4
 40
0.1363636363636364
 40
0.1363636363636364
 40
0.1363636363636364
 40
0.1363636363636364
 40
0.1590909090909091
 40
0.1590909090909091
 40
0.1590909090909091
 40
0.1590909090909091
 10
409.3933130183963
 20
35.0305188838265
 42
1.0
 10
408.9637684641224
 20
35.09862581449083
 42
1.0
 10
408.4544021277039
 20
35.16753670555087
 42
1.0
 10
407.8678555932982
 20
35.16753670555086
 42
1.0
 72
     1
 10
407.8678555932982
 20
35.16753670555087
 11
403.533877057708
 21
35.16499444377821
 97
        0
 75
     0
 76
     1
 98
        1
 10
0.0
 20
0.0
  0
HATCH
  5
88
330
1F
100
AcDbEntity
  8
LOGO1
 62
   156
100
AcDbHatch
 10
0.0
 20
0.0
 30
0.0
210
0.0
220
0.0
230
1.0
  2
SOLID
 70
     1
 71
     0
 91
        1
 92
        0
 93
       44
 72
     2
 10
414.4195585608277
 20
24.66781393770881
 40
1.148514850999982
 50
90.0
 51
180.0
 73
     0
 72
     1
 10
413.2710437098277
 20
24.66781393770881
 11
413.2710437098277
 21
34.02029015408034
 72
     2
 10
414.4195585608277
 20
34.02029015408034
 40
1.14851485099999
 50
180.0
 51
270.0123096399385
 73
     0
 72
     1
 10
414.4198053120595
 20
35.16880497857386
 11
420.3194523382684
 21
35.16753747628309
 72
     2
 10
420.3192496443839
 20
34.22408957744991
 40
0.9434479206069416
 50
270.0123096399361
 51
450.0000000000008
 73
     0
 72
     1
 10
420.3192496443839
 20
33.28064165684294
 11
415.7619427186765
 21
33.28064165684294
 72
     1
 10
415.7619427186765
 20
33.28064165684294
 11
415.7691783622378
 21
30.51513274712001
 72
     1
 10
415.7691783622378
 20
30.51513274712001
 11
417.4708345742408
 21
30.51421522675232
 72
     2
 10
417.470301132233
 20
29.52488034299414
 40
0.9893350275721516
 50
270.0308934549922
 51
450.0000000000008
 73
     0
 72
     1
 10
417.470301132233
 20
28.53554531542199
 11
415.7691783606743
 21
28.53554531542199
 72
     1
 10
415.7691783606743
 20
28.53554531542199
 11
415.7691783606743
 21
25.37345422764878
 72
     1
 10
415.7691783606743
 20
25.37345422764878
 11
420.6387664774293
 21
25.37345422764878
 72
     1
 10
420.6387664774293
 20
25.37345422764878
 11
424.2584258818409
 21
33.80435719438447
 72
     4
 94
        3
 73
     1
 74
     0
 95
        8
 96
        4
 40
0.2692307692307693
 40
0.2692307692307693
 40
0.2692307692307693
 40
0.2692307692307693
 40
0.3076923076923077
 40
0.3076923076923077
 40
0.3076923076923077
 40
0.3076923076923077
 10
424.2584258818409
 20
33.80435719438447
 42
1.0
 10
424.3829248916893
 20
34.10274135267429
 42
1.0
 10
424.5174159807413
 20
34.35001660009459
 42
1.0
 10
424.6602912282057
 20
34.54675719407088
 42
1.0
 72
     4
 94
        3
 73
     1
 74
     0
 95
        8
 96
        4
 40
0.2307692307692308
 40
0.2307692307692308
 40
0.2307692307692308
 40
0.2307692307692308
 40
0.2692307692307693
 40
0.2692307692307693
 40
0.2692307692307693
 40
0.2692307692307693
 10
424.6602912282057
 20
34.54675719407088
 42
1.0
 10
424.8024773667595
 20
34.74303838210676
 42
1.0
 10
424.989111030047
 20
34.90383046124681
 42
1.0
 10
425.2218001388597
 20
35.02614729287831
 42
1.0
 72
     4
 94
        3
 73
     1
 74
     0
 95
        8
 96
        4
 40
0.1923076923076923
 40
0.1923076923076923
 40
0.1923076923076923
 40
0.1923076923076923
 40
0.2307692307692308
 40
0.2307692307692308
 40
0.2307692307692308
 40
0.2307692307692308
 10
425.2218001388597
 20
35.02614729287831
 42
1.0
 10
425.4546040991573
 20
35.14754531262901
 42
1.0
 10
425.7405842970564
 20
35.20853145121708
 42
1.0
 10
426.081348653348
 20
35.20853145121708
 42
1.0
 72
     4
 94
        3
 73
     1
 74
     0
 95
        8
 96
        4
 40
0.1538461538461539
 40
0.1538461538461539
 40
0.1538461538461539
 40
0.1538461538461539
 40
0.1923076923076923
 40
0.1923076923076923
 40
0.1923076923076923
 40
0.1923076923076923
 10
426.081348653348
 20
35.20853145121708
 42
1.0
 10
426.4272813264693
 20
35.20853145121708
 42
1.0
 10
426.7164773659511
 20
35.14754531262901
 42
1.0
 10
426.9487070688232
 20
35.02614729287831
 42
1.0
 72
     4
 94
        3
 73
     1
 74
     0
 95
        8
 96
        4
 40
0.1153846153846154
 40
0.1153846153846154
 40
0.1153846153846154
 40
0.1153846153846154
 40
0.1538461538461539
 40
0.1538461538461539
 40
0.1538461538461539
 40
0.1538461538461539
 10
426.9487070688232
 20
35.02614729287831
 42
1.0
 10
427.1813961776359
 20
34.90383046124681
 42
1.0
 10
427.3682595438935
 20
34.74705818408533
 42
1.0
 10
427.5117090487834
 20
34.55525620396829
 42
1.0
 72
     4
 94
        3
 73
     1
 74
     0
 95
        8
 96
        4
 40
0.0769230769230769
 40
0.0769230769230769
 40
0.0769230769230769
 40
0.0769230769230769
 40
0.1153846153846154
 40
0.1153846153846154
 40
0.1153846153846154
 40
0.1153846153846154
 10
427.5117090487834
 20
34.55525620396829
 42
1.0
 10
427.653665484367
 20
34.36276511494071
 42
1.0
 10
427.7738001377817
 20
34.15695125364152
 42
1.0
 10
427.8713090486315
 20
33.9360918477942
 42
1.0
 72
     1
 10
427.8713090486315
 20
33.9360918477942
 11
431.7500553377327
 21
25.12971846859165
 72
     2
 10
430.6989759435123
 20
24.66677303982848
 40
1.148514850999989
 50
336.2290216667355
 51
450.0000000000008
 73
     0
 72
     1
 10
430.6989759435123
 20
23.51825818882849
 11
429.5050714257425
 21
23.51825818882849
 72
     1
 10
429.5050714257425
 20
23.51825818882849
 11
429.5050714257425
 21
24.66769908622377
 72
     2
 10
429.1605169704424
 20
24.66769908622377
 40
0.3445544552999891
 50
0.0
 51
90.0
 73
     1
 72
     1
 10
429.1605169704424
 20
25.01225354152373
 11
428.6118714261198
 21
25.01225354152373
 72
     1
 10
428.6118714261198
 20
25.01225354152373
 11
428.6118714261198
 21
26.15950502618766
 72
     2
 10
428.2673169708198
 20
26.15950502618766
 40
0.3445544552999891
 50
0.0
 51
90.0
 73
     1
 72
     1
 10
428.2673169708198
 20
26.50405948148762
 11
427.5713169711137
 21
26.50405948148762
 72
     1
 10
427.5713169711137
 20
26.50405948148762
 11
427.5713169711137
 21
27.65016245130056
 72
     2
 10
427.2267625158137
 20
27.65016245130056
 40
0.3445544552999891
 50
0.0
 51
90.0
 73
     1
 72
     1
 10
427.2267625158137
 20
27.99471690660052
 11
426.699019941608
 21
27.99471690660053
 72
     1
 10
426.699019941608
 20
27.99471690660053
 11
426.699019941608
 21
32.61898225137371
 72
     2
 10
426.1313664765012
 20
32.61898225137371
 40
0.5676534651068155
 50
0.0
 51
180.0
 73
     1
 72
     1
 10
425.5637130113943
 20
32.61898225137371
 11
425.5637130113944
 21
27.99471690660055
 72
     1
 10
425.5637130113944
 20
27.99471690660055
 11
425.0359704375313
 21
27.99471690660055
 72
     2
 10
425.0359704375313
 20
27.65016245130056
 40
0.3445544552999891
 50
90.0
 51
180.0
 73
     1
 72
     1
 10
424.6914159822313
 20
27.65016245130056
 11
424.6914159822313
 21
26.50405948148762
 72
     1
 10
424.6914159822313
 20
26.50405948148762
 11
423.9955308340104
 21
26.50405948148765
 72
     2
 10
423.9955308340104
 20
26.15950502618766
 40
0.3445544552999891
 50
90.0
 51
180.0
 73
     1
 72
     1
 10
423.6509763787104
 20
26.15950502618766
 11
423.6509763787104
 21
25.01225354152373
 72
     1
 10
423.6509763787104
 20
25.01225354152373
 11
423.1019862799324
 21
25.01225354152376
 72
     2
 10
423.1019862799324
 20
24.66769908622377
 40
0.3445544552999891
 50
90.0
 51
180.0
 73
     1
 72
     1
 10
422.7574318246323
 20
24.66769908622377
 11
422.7574318246323
 21
23.51929908670883
 72
     1
 10
422.7574318246323
 20
23.51929908670883
 11
414.4195585608277
 21
23.51929908670883
 97
        0
 75
     0
 76
     1
 98
        1
 10
0.0
 20
0.0
  0
HATCH
  5
89
330
1F
100
AcDbEntity
  8
LOGO2
100
AcDbHatch
 10
0.0
 20
0.0
 30
0.0
210
0.0
220
0.0
230
1.0
  2
SOLID
 70
     1
 71
     0
 91
        1
 92
        0
 93
       11
 72
     4
 94
        3
 73
     1
 74
     0
 95
        8
 96
        4
 40
0.8333333333333333
 40
0.8333333333333333
 40
0.8333333333333333
 40
0.8333333333333333
 40
1.0
 40
1.0
 40
1.0
 40
1.0
 10
410.635661532723
 20
23.92610304693302
 42
1.0
 10
410.2606714338716
 20
23.77851888857954
 42
1.0
 10
409.830552622172
 20
23.67515255198957
 42
1.0
 10
409.3435823253481
 20
23.61416641340145
 42
1.0
 72
     4
 94
        3
 73
     1
 74
     0
 95
        8
 96
        4
 40
0.6666666666666666
 40
0.6666666666666666
 40
0.6666666666666666
 40
0.6666666666666666
 40
0.8332189192419924
 40
0.8332189192419924
 40
0.8332189192419924
 40
0.8332189192419924
 10
409.3435823253481
 20
23.61416641340145
 42
1.0
 10
409.106806366284
 20
23.58466984457961
 42
1.0
 10
408.8500736770266
 20
23.56262837611728
 42
1.0
 10
408.5746450238533
 20
23.54781277778224
 42
1.0
 72
     3
 10
418.0936456472367
 20
26.62718466630079
 11
-9.281964393266785
 21
-5.518954020724276
 40
0.4790317882064724
 50
347.1910077409003
 51
475.4587400700618
 73
     1
 72
     1
 10
422.7350966760496
 20
23.51929908670883
 11
414.4195585608277
 21
23.51929908670883
 72
     2
 10
414.4195585608277
 20
24.66781393770881
 40
1.148514850999982
 50
90.0
 51
180.0
 73
     0
 72
     1
 10
413.2710437098277
 20
24.66781393770881
 11
413.2710437098277
 21
29.59718058199307
 72
     3
 10
418.0936456472367
 20
26.62718466630079
 11
-9.281964393266785
 21
-5.518954020724276
 40
0.4790317882064724
 50
297.6379401018559
 51
311.7284851151879
 73
     1
 72
     4
 94
        3
 73
     1
 74
     0
 95
        8
 96
        4
 40
0.4001113005305137
 40
0.4001113005305137
 40
0.4001113005305137
 40
0.4001113005305137
 40
0.6000000000000001
 40
0.6000000000000001
 40
0.6000000000000001
 40
0.6000000000000001
 10
412.0158087094629
 20
28.54774933453832
 42
1.0
 10
412.3456667229059
 20
28.14865856547416
 42
1.0
 10
412.535216450006
 20
27.66949059669691
 42
1.0
 10
412.582279353683
 20
27.11013076836036
 42
1.0
 72
     1
 10
412.5822793536828
 20
27.11013076836036
 11
412.5937645021929
 21
26.82644760016331
 72
     4
 94
        3
 73
     1
 74
     0
 95
        8
 96
        4
 40
0.1666666666666667
 40
0.1666666666666667
 40
0.1666666666666667
 40
0.1666666666666667
 40
0.3333333333333333
 40
0.3333333333333333
 40
0.3333333333333333
 40
0.3333333333333333
 10
412.593764502193
 20
26.82644760016331
 42
1.0
 10
412.593764502193
 20
26.17845552122913
 42
1.0
 10
412.4172377695943
 20
25.59489512543603
 42
1.0
 10
412.0642991558819
 20
25.07588126426916
 42
1.0
 72
     4
 94
        3
 73
     1
 74
     0
 95
        8
 96
        4
 40
0.0
 40
0.0
 40
0.0
 40
0.0
 40
0.1666666666666667
 40
0.1666666666666667
 40
0.1666666666666667
 40
0.1666666666666667
 10
412.0642991558819
 20
25.07588126426916
 42
1.0
 10
411.7102120273187
 20
24.55629314567673
 42
1.0
 10
411.2348417304897
 20
24.17349314583841
 42
1.0
 10
410.635661532723
 20
23.92610304693302
 42
1.0
 97
        0
 75
     0
 76
     1
 98
        1
 10
0.0
 20
0.0
  0
HATCH
  5
8A
330
1F
100
AcDbEntity
  8
LOGO2
100
AcDbHatch
 10
0.0
 20
0.0
 30
0.0
210
0.0
220
0.0
230
1.0
  2
SOLID
 70
     1
 71
     0
 91
        1
 92
        0
 93
        8
 72
     1
 10
420.6387664774292
 20
25.37345422764875
 11
424.21203548148
 21
33.69630477278024
 72
     3
 10
418.0936456472367
 20
26.62718466630079
 11
-9.281964393266785
 21
-5.518954020724276
 40
0.4790317882064724
 50
198.3882528627385
 51
265.9349358139634
 73
     1
 72
     1
 10
415.7672327870454
 20
31.25874393851274
 11
415.7691783622378
 21
30.51513274712001
 72
     1
 10
415.7691783622378
 20
30.51513274712001
 11
417.4708345742408
 21
30.51421522675233
 72
     2
 10
417.470301132233
 20
29.52488034299414
 40
0.9893350275721516
 50
270.0308934549922
 51
450.0000000000008
 73
     0
 72
     1
 10
417.470301132233
 20
28.53554531542199
 11
415.7691783606743
 21
28.53554531542199
 72
     1
 10
415.7691783606743
 20
28.53554531542199
 11
415.7691783606743
 21
25.37345422764878
 72
     1
 10
415.7691783606743
 20
25.37345422764878
 11
420.6387664774292
 21
25.37345422764875
 97
        0
 75
     0
 76
     1
 98
        1
 10
0.0
 20
0.0
  0
HATCH
  5
8B
330
1F
100
AcDbEntity
  8
LOGO2
100
AcDbHatch
 10
0.0
 20
0.0
 30
0.0
210
0.0
220
0.0
230
1.0
  2
SOLID
 70
     1
 71
     0
 91
        1
 92
        0
 93
       16
 72
     2
 10
426.1313664765012
 20
32.61898225137371
 40
0.5676534651068155
 50
0.0
 51
41.75773977957849
 73
     1
 72
     3
 10
418.0936456472367
 20
26.62718466630079
 11
-9.281964393266785
 21
-5.518954020724276
 40
0.4790317882064724
 50
186.2383696561388
 51
187.9643607386017
 73
     1
 72
     2
 10
426.1313664765012
 20
32.61898225137371
 40
0.5676534651068155
 50
76.67331806432392
 51
180.0
 73
     1
 72
     1
 10
425.5637130113943
 20
32.61898225137371
 11
425.5637130113944
 21
27.99471690660055
 72
     1
 10
425.5637130113944
 20
27.99471690660055
 11
425.0359704375313
 21
27.99471690660052
 72
     2
 10
425.0359704375313
 20
27.65016245130056
 40
0.3445544552999891
 50
90.0
 51
180.0
 73
     1
 72
     1
 10
424.6914159822313
 20
27.65016245130056
 11
424.6914159822313
 21
26.50405948148762
 72
     1
 10
424.6914159822313
 20
26.50405948148762
 11
423.9955308340104
 21
26.50405948148762
 72
     2
 10
423.9955308340104
 20
26.15950502618766
 40
0.3445544552999891
 50
90.0
 51
180.0
 73
     1
 72
     1
 10
423.6509763787104
 20
26.15950502618766
 11
423.6509763787104
 21
25.01225354152373
 72
     1
 10
423.6509763787104
 20
25.01225354152373
 11
423.1019862799324
 21
25.01225354152373
 72
     2
 10
423.1019862799324
 20
24.66769908622377
 40
0.3445544552999891
 50
90.0
 51
180.0
 73
     1
 72
     1
 10
422.7574318246323
 20
24.66769908622377
 11
422.7574318246323
 21
23.53613456762297
 72
     3
 10
418.0936456472367
 20
26.62718466630079
 11
-9.281964393266785
 21
-5.518954020724276
 40
0.4790317882064724
 50
115.7292479518688
 51
158.0895097581671
 73
     1
 72
     1
 10
426.9021856039875
 20
27.99471690660052
 11
426.699019941608
 21
27.99471690660053
 72
     1
 10
426.699019941608
 20
27.99471690660053
 11
426.699019941608
 21
32.61898225137371
 97
        0
 75
     0
 76
     1
 98
        1
 10
0.0
 20
0.0
  0
LINE
  5
8C
330
1F
100
AcDbEntity
  8
0
  6
Continuous
 62
     7
370
    18
100
AcDbLine
 10
293.5906613835
 20
10.8093412992
 30
0.0
 11
293.5906613835
 21
4.8093412992
 31
0.0
  0
LINE
  5
8D
330
1F
100
AcDbEntity
  8
SLD-0
 62
     9
370
    18
100
AcDbLine
 10
500.1426088032
 20
20.8499946885
 30
0.0
 11
500.1426088032
 21
10.8093412992
 31
0.0
  0
LINE
  5
8E
330
1F
100
AcDbEntity
  8
LOGO1
100
AcDbLine
 10
403.5338770577
 20
35.1649944438
 30
0.0
 11
407.8678555933
 21
35.1675367056
 31
0.0
  0
LINE
  5
8F
330
1F
100
AcDbEntity
  8
LOGO2
100
AcDbLine
 10
424.2584258818
 20
33.8043571944
 30
0.0
 11
420.6387664774
 21
25.3734542276
 31
0.0
  0
LINE
  5
90
330
1F
100
AcDbEntity
  8
LOGO1
100
AcDbLine
 10
402.3860359355
 20
34.0162482557
 30
0.0
 11
402.3870279236
 21
29.095546115
 31
0.0
  0
LINE
  5
91
330
1F
100
AcDbEntity
  8
LOGO1
100
AcDbLine
 10
404.8868857113
 20
33.3065980925
 30
0.0
 11
404.8868857113
 21
29.0957980943
 31
0.0
  0
LINE
  5
92
330
1F
100
AcDbEntity
  8
LOGO1
100
AcDbLine
 10
406.8916179699
 20
33.3065980925
 30
0.0
 11
404.8868857113
 21
33.3065980925
 31
0.0
  0
LINE
  5
93
330
1F
100
AcDbEntity
  8
LOGO1
100
AcDbLine
 10
407.5452377717
 20
25.4012555216
 30
0.0
 11
402.3733605461
 21
25.4012555216
 31
0.0
  0
LINE
  5
94
330
1F
100
AcDbEntity
  8
LOGO1
100
AcDbLine
 10
402.3733605461
 20
24.6702258189
 30
0.0
 11
402.3733605461
 21
25.4012555216
 31
0.0
  0
LINE
  5
95
330
1F
100
AcDbEntity
  8
LOGO1
 62
   228
100
AcDbLine
 10
408.3875585634
 20
30.4564436382
 30
0.0
 11
408.3875585634
 21
30.450471361
 31
0.0
  0
LINE
  5
96
330
1F
100
AcDbEntity
  8
LOGO1
 62
   228
100
AcDbLine
 10
403.5225799104
 20
23.521711184
 30
0.0
 11
407.6413684647
 21
23.5242377006
 31
0.0
  0
LINE
  5
97
330
1F
100
AcDbEntity
  8
LOGO1
100
AcDbLine
 10
412.5822793537
 20
27.1101307684
 30
0.0
 11
412.5937645022
 21
26.8264476002
 31
0.0
  0
LINE
  5
98
330
1F
100
AcDbEntity
  8
LOGO1
 62
   228
100
AcDbLine
 10
415.7691783622
 20
30.5151327471
 30
0.0
 11
415.7619427187
 21
33.2806416568
 31
0.0
  0
LINE
  5
99
330
1F
100
AcDbEntity
  8
LOGO1
 62
   228
100
AcDbLine
 10
415.7619427187
 20
33.2806416568
 30
0.0
 11
420.3192496444
 21
33.2806416568
 31
0.0
  0
LINE
  5
9A
330
1F
100
AcDbEntity
  8
LOGO1
100
AcDbLine
 10
426.6990199416
 20
27.9947169066
 30
0.0
 11
427.2267625158
 21
27.9947169066
 31
0.0
  0
LINE
  5
9B
330
1F
100
AcDbEntity
  8
LOGO1
 62
   228
100
AcDbLine
 10
420.3194523383
 20
35.1675374763
 30
0.0
 11
414.4198053121
 21
35.1688049786
 31
0.0
  0
LINE
  5
9C
330
1F
100
AcDbEntity
  8
LOGO1
100
AcDbLine
 10
413.2710437098
 20
24.6678139377
 30
0.0
 11
413.2710437098
 21
34.0202901541
 31
0.0
  0
LINE
  5
9D
330
1F
100
AcDbEntity
  8
LOGO1
 62
   228
100
AcDbLine
 10
431.7500553377
 20
25.1297184686
 30
0.0
 11
427.8713090486
 21
33.9360918478
 31
0.0
  0
LINE
  5
9E
330
1F
100
AcDbEntity
  8
LOGO1
 62
   228
100
AcDbLine
 10
427.5713169711
 20
27.6501624513
 30
0.0
 11
427.5713169711
 21
26.5040594815
 31
0.0
  0
LINE
  5
9F
330
1F
100
AcDbEntity
  8
LOGO1
 62
   228
100
AcDbLine
 10
427.5713169711
 20
26.5040594815
 30
0.0
 11
428.2673169708
 21
26.5040594815
 31
0.0
  0
LINE
  5
A0
330
1F
100
AcDbEntity
  8
LOGO1
 62
   228
100
AcDbLine
 10
428.6118714261
 20
26.1595050262
 30
0.0
 11
428.6118714261
 21
25.0122535415
 31
0.0
  0
LINE
  5
A1
330
1F
100
AcDbEntity
  8
LOGO1
 62
   228
100
AcDbLine
 10
428.6118714261
 20
25.0122535415
 30
0.0
 11
429.1605169704
 21
25.0122535415
 31
0.0
  0
LINE
  5
A2
330
1F
100
AcDbEntity
  8
LOGO1
 62
   228
100
AcDbLine
 10
429.5050714257
 20
24.6676990862
 30
0.0
 11
429.5050714257
 21
23.5182581888
 31
0.0
  0
LINE
  5
A3
330
1F
100
AcDbEntity
  8
LOGO1
 62
   228
100
AcDbLine
 10
429.5050714257
 20
23.5182581888
 30
0.0
 11
430.6989759435
 21
23.5182581888
 31
0.0
  0
LINE
  5
A4
330
1F
100
AcDbEntity
  8
PV
  6
Continuous
 62
     7
100
AcDbLine
 10
584.5906613835
 20
10.8093412992
 30
0.0
 11
584.5906613835
 21
408.8093412992
 31
0.0
  0
LINE
  5
A5
330
1F
100
AcDbEntity
  8
PV
  6
Continuous
 62
     7
100
AcDbLine
 10
12.5906613835
 20
10.8093412992
 30
0.0
 11
584.5906613835
 21
10.8093412992
 31
0.0
  0
LINE
  5
A6
330
1F
100
AcDbEntity
  8
LOGO1
100
AcDbLine
 10
415.7691783622
 20
30.5151327471
 30
0.0
 11
417.4708345742
 21
30.5142152268
 31
0.0
  0
LINE
  5
A7
330
1F
100
AcDbEntity
  8
PV
  6
Continuous
 62
     7
100
AcDbLine
 10
441.5906613835
 20
10.8093412992
 30
0.0
 11
441.5906613835
 21
4.8093412992
 31
0.0
  0
LINE
  5
A8
330
1F
100
AcDbEntity
  8
PV
  6
Continuous
 62
     7
100
AcDbLine
 10
14.5240612644
 20
301.8093412992
 30
0.0
 11
6.5240612644
 21
301.8093412992
 31
0.0
  0
LINE
  5
A9
330
1F
100
AcDbEntity
  8
PV
  6
Continuous
 62
     7
100
AcDbLine
 10
6.5240612644
 20
301.8093412992
 30
0.0
 11
13.5240612644
 21
299.8093412992
 31
0.0
  0
LINE
  5
AA
330
1F
100
AcDbEntity
  8
PV
  6
Continuous
 62
     7
100
AcDbLine
 10
515.5906613835
 20
10.8093412992
 30
0.0
 11
515.5906613835
 21
4.8093412992
 31
0.0
  0
LINE
  5
AB
330
1F
100
AcDbEntity
  8
PV
  6
Continuous
 62
     7
100
AcDbLine
 10
6.5240612644
 20
301.8093412992
 30
0.0
 11
13.5240612644
 21
302.8093412992
 31
0.0
  0
LINE
  5
AC
330
1F
100
AcDbEntity
  8
PV
  6
Continuous
 62
     7
100
AcDbLine
 10
13.5240612644
 20
302.8093412992
 30
0.0
 11
13.5240612644
 21
299.8093412992
 31
0.0
  0
LINE
  5
AD
330
1F
100
AcDbEntity
  8
PV
  6
Continuous
 62
     7
100
AcDbLine
 10
12.5906613835
 20
408.8093412992
 30
0.0
 11
584.5906613835
 21
408.8093412992
 31
0.0
  0
LINE
  5
AE
330
1F
100
AcDbEntity
  8
PV
  6
Continuous
 62
     7
100
AcDbLine
 10
590.734339184
 20
414.8955730658
 30
0.0
 11
590.734339184
 21
408.8955730658
 31
0.0
  0
LINE
  5
AF
330
1F
100
AcDbEntity
  8
PV
  6
Continuous
 62
     7
100
AcDbLine
 10
6.5240612644
 20
4.8093412992
 30
0.0
 11
12.5240612644
 21
4.8093412992
 31
0.0
  0
LINE
  5
B0
330
1F
100
AcDbEntity
  8
PV
  6
Continuous
 62
     7
100
AcDbLine
 10
378.5906613835
 20
11.8093412992
 30
0.0
 11
381.5906613835
 21
11.8093412992
 31
0.0
  0
LINE
  5
B1
330
1F
100
AcDbEntity
  8
PV
  6
Continuous
 62
     7
100
AcDbLine
 10
6.6677390649
 20
414.8955730658
 30
0.0
 11
6.6677390649
 21
408.8955730658
 31
0.0
  0
LINE
  5
B2
330
1F
100
AcDbEntity
  8
PV
  6
Continuous
 62
     7
100
AcDbLine
 10
380.5906613835
 20
4.8093412992
 30
0.0
 11
381.5906613835
 21
11.8093412992
 31
0.0
  0
LINE
  5
B3
330
1F
100
AcDbEntity
  8
PV
  6
Continuous
 62
     7
100
AcDbLine
 10
380.5906613835
 20
12.8093412992
 30
0.0
 11
380.5906613835
 21
4.8093412992
 31
0.0
  0
LINE
  5
B4
330
1F
100
AcDbEntity
  8
PV
  6
Continuous
 62
     7
100
AcDbLine
 10
380.5906613835
 20
4.8093412992
 30
0.0
 11
378.5906613835
 21
11.8093412992
 31
0.0
  0
LINE
  5
B5
330
1F
100
AcDbEntity
  8
PV
  6
Continuous
 62
     7
100
AcDbLine
 10
6.5240612644
 20
10.8093412992
 30
0.0
 11
6.5240612644
 21
4.8093412992
 31
0.0
  0
LINE
  5
B6
330
1F
100
AcDbEntity
  8
PV
  6
Continuous
 62
     7
100
AcDbLine
 10
12.5906613835
 20
408.8093412992
 30
0.0
 11
12.5906613835
 21
10.8093412992
 31
0.0
  0
LINE
  5
B7
330
1F
100
AcDbEntity
  8
PV
  6
Continuous
 62
     7
100
AcDbLine
 10
584.734339184
 20
414.8955730658
 30
0.0
 11
590.734339184
 21
414.8955730658
 31
0.0
  0
LINE
  5
B8
330
1F
100
AcDbEntity
  8
PV
  6
Continuous
 62
     7
100
AcDbLine
 10
584.5906613835
 20
4.8093412992
 30
0.0
 11
590.5906613835
 21
4.8093412992
 31
0.0
  0
LINE
  5
B9
330
1F
100
AcDbEntity
  8
PV
  6
Continuous
 62
     7
100
AcDbLine
 10
6.5240612644
 20
10.8093412992
 30
0.0
 11
6.5240612644
 21
4.8093412992
 31
0.0
  0
LINE
  5
BA
330
1F
100
AcDbEntity
  8
PV
  6
Continuous
 62
     7
100
AcDbLine
 10
590.5906613835
 20
10.8093412992
 30
0.0
 11
590.5906613835
 21
4.8093412992
 31
0.0
  0
LINE
  5
BB
330
1F
100
AcDbEntity
  8
PV
  6
Continuous
 62
     7
100
AcDbLine
 10
6.6677390649
 20
414.8955730658
 30
0.0
 11
12.6677390649
 21
414.8955730658
 31
0.0
  0
LINE
  5
BC
330
1F
100
AcDbEntity
  8
PV
  6
Continuous
 62
     7
100
AcDbLine
 10
590.5906613835
 20
109.8093412992
 30
0.0
 11
584.5906613835
 21
109.8093412992
 31
0.0
  0
LINE
  5
BD
330
1F
100
AcDbEntity
  8
LOGO1
100
AcDbLine
 10
415.7691783607
 20
25.3734542276
 30
0.0
 11
420.6387664774
 21
25.3734542276
 31
0.0
  0
LINE
  5
BE
330
1F
100
AcDbEntity
  8
PV
  6
Continuous
 62
     7
100
AcDbLine
 10
590.5906613835
 20
161.8093412992
 30
0.0
 11
584.5906613835
 21
161.8093412992
 31
0.0
  0
LINE
  5
BF
330
1F
100
AcDbEntity
  8
PV
  6
Continuous
 62
     7
100
AcDbLine
 10
590.5906613835
 20
301.8093412992
 30
0.0
 11
584.5906613835
 21
301.8093412992
 31
0.0
  0
LINE
  5
C0
330
1F
100
AcDbEntity
  8
PV
  6
Continuous
 62
     7
100
AcDbLine
 10
590.5906613835
 20
266.8093412992
 30
0.0
 11
584.5906613835
 21
266.8093412992
 31
0.0
  0
LINE
  5
C1
330
1F
100
AcDbEntity
  8
PV
  6
Continuous
 62
     7
100
AcDbLine
 10
590.5906613835
 20
319.8093412992
 30
0.0
 11
584.5906613835
 21
319.8093412992
 31
0.0
  0
LINE
  5
C2
330
1F
100
AcDbEntity
  8
PV
  6
Continuous
 62
     7
100
AcDbLine
 10
590.5906613835
 20
371.8093412992
 30
0.0
 11
584.5906613835
 21
371.8093412992
 31
0.0
  0
LINE
  5
C3
330
1F
100
AcDbEntity
  8
LOGO1
100
AcDbLine
 10
415.7691783607
 20
28.5355453154
 30
0.0
 11
417.4703011322
 21
28.5355453154
 31
0.0
  0
LINE
  5
C4
330
1F
100
AcDbEntity
  8
PV
  6
Continuous
 62
     7
100
AcDbLine
 10
367.5906613835
 20
10.8093412992
 30
0.0
 11
367.5906613835
 21
4.8093412992
 31
0.0
  0
LINE
  5
C5
330
1F
100
AcDbEntity
  8
PV
  6
Continuous
 62
     7
100
AcDbLine
 10
219.5906613835
 20
10.8093412992
 30
0.0
 11
219.5906613835
 21
4.8093412992
 31
0.0
  0
LINE
  5
C6
330
1F
100
AcDbEntity
  8
PV
  6
Continuous
 62
     7
100
AcDbLine
 10
144.5906613835
 20
10.8093412992
 30
0.0
 11
144.5906613835
 21
4.8093412992
 31
0.0
  0
LINE
  5
C7
330
1F
100
AcDbEntity
  8
LOGO1
100
AcDbLine
 10
415.7691783607
 20
25.3734542276
 30
0.0
 11
415.7691783607
 21
28.5355453154
 31
0.0
  0
LINE
  5
C8
330
1F
100
AcDbEntity
  8
SLD-0
100
AcDbLine
 10
549.3382196402
 20
16.8499946885
 30
0.0
 11
584.5906613835
 21
16.8499946885
 31
0.0
  0
LINE
  5
C9
330
1F
100
AcDbEntity
  8
PV
  6
Continuous
 62
     7
100
AcDbLine
 10
70.5906613835
 20
10.8093412992
 30
0.0
 11
70.5906613835
 21
4.8093412992
 31
0.0
  0
LINE
  5
CA
330
1F
100
AcDbEntity
  8
LOGO1
100
AcDbLine
 10
426.6990199416
 20
27.9947169066
 30
0.0
 11
426.6990199416
 21
32.6189822514
 31
0.0
  0
LINE
  5
CB
330
1F
100
AcDbEntity
  8
LOGO1
100
AcDbLine
 10
425.5637130114
 20
27.9947169066
 30
0.0
 11
425.5637130114
 21
32.6189822514
 31
0.0
  0
LINE
  5
CC
330
1F
100
AcDbEntity
  8
LOGO1
100
AcDbLine
 10
424.6914159822
 20
26.5040594815
 30
0.0
 11
424.6914159822
 21
27.6501624513
 31
0.0
  0
LINE
  5
CD
330
1F
100
AcDbEntity
  8
LOGO1
100
AcDbLine
 10
423.6509763787
 20
25.0122535415
 30
0.0
 11
423.6509763787
 21
26.1595050262
 31
0.0
  0
LINE
  5
CE
330
1F
100
AcDbEntity
  8
PV
  6
Continuous
 62
     7
100
AcDbLine
 10
515.734339184
 20
414.8955730658
 30
0.0
 11
515.734339184
 21
408.8955730658
 31
0.0
  0
LINE
  5
CF
330
1F
100
AcDbEntity
  8
PV
  6
Continuous
 62
     7
100
AcDbLine
 10
441.734339184
 20
414.8955730658
 30
0.0
 11
441.734339184
 21
408.8955730658
 31
0.0
  0
LINE
  5
D0
330
1F
100
AcDbEntity
  8
PV
  6
Continuous
 62
     7
100
AcDbLine
 10
70.734339184
 20
414.8955730658
 30
0.0
 11
70.734339184
 21
408.8955730658
 31
0.0
  0
LINE
  5
D1
330
1F
100
AcDbEntity
  8
PV
  6
Continuous
 62
     7
100
AcDbLine
 10
144.734339184
 20
414.8955730658
 30
0.0
 11
144.734339184
 21
408.8955730658
 31
0.0
  0
LINE
  5
D2
330
1F
100
AcDbEntity
  8
PV
  6
Continuous
 62
     7
100
AcDbLine
 10
219.734339184
 20
414.8955730658
 30
0.0
 11
219.734339184
 21
408.8955730658
 31
0.0
  0
LINE
  5
D3
330
1F
100
AcDbEntity
  8
PV
  6
Continuous
 62
     7
100
AcDbLine
 10
293.734339184
 20
414.8955730658
 30
0.0
 11
293.734339184
 21
408.8955730658
 31
0.0
  0
LINE
  5
D4
330
1F
100
AcDbEntity
  8
PV
  6
Continuous
 62
     7
100
AcDbLine
 10
367.734339184
 20
414.8955730658
 30
0.0
 11
367.734339184
 21
408.8955730658
 31
0.0
  0
LINE
  5
D5
330
1F
100
AcDbEntity
  8
PV
  6
Continuous
 62
     7
100
AcDbLine
 10
12.5240612644
 20
56.8093412992
 30
0.0
 11
6.5240612644
 21
56.8093412992
 31
0.0
  0
LINE
  5
D6
330
1F
100
AcDbEntity
  8
PV
  6
Continuous
 62
     7
100
AcDbLine
 10
12.5240612644
 20
371.8093412992
 30
0.0
 11
6.5240612644
 21
371.8093412992
 31
0.0
  0
LINE
  5
D7
330
1F
100
AcDbEntity
  8
PV
  6
Continuous
 62
     7
100
AcDbLine
 10
12.5240612644
 20
319.8093412992
 30
0.0
 11
6.5240612644
 21
319.8093412992
 31
0.0
  0
LINE
  5
D8
330
1F
100
AcDbEntity
  8
PV
  6
Continuous
 62
     7
100
AcDbLine
 10
12.5240612644
 20
266.8093412992
 30
0.0
 11
6.5240612644
 21
266.8093412992
 31
0.0
  0
LINE
  5
D9
330
1F
100
AcDbEntity
  8
PV
  6
Continuous
 62
     7
100
AcDbLine
 10
12.5240612644
 20
301.8093412992
 30
0.0
 11
6.5240612644
 21
301.8093412992
 31
0.0
  0
LINE
  5
DA
330
1F
100
AcDbEntity
  8
PV
  6
Continuous
 62
     7
100
AcDbLine
 10
12.5240612644
 20
161.8093412992
 30
0.0
 11
6.5240612644
 21
161.8093412992
 31
0.0
  0
LINE
  5
DB
330
1F
100
AcDbEntity
  8
PV
  6
Continuous
 62
     7
100
AcDbLine
 10
12.5240612644
 20
109.8093412992
 30
0.0
 11
6.5240612644
 21
109.8093412992
 31
0.0
  0
LINE
  5
DC
330
1F
100
AcDbEntity
  8
PV
  6
Continuous
 62
     7
100
AcDbLine
 10
9.5240612644
 20
301.8093412992
 30
0.0
 11
12.5240612644
 21
301.8093412992
 31
0.0
  0
LINE
  5
DD
330
1F
100
AcDbEntity
  8
PV
  6
Continuous
 62
     7
100
AcDbLine
 10
168.5906613835
 20
11.8093412992
 30
0.0
 11
171.5906613835
 21
11.8093412992
 31
0.0
  0
LINE
  5
DE
330
1F
100
AcDbEntity
  8
PV
  6
Continuous
 62
     7
100
AcDbLine
 10
170.5906613835
 20
4.8093412992
 30
0.0
 11
171.5906613835
 21
11.8093412992
 31
0.0
  0
LINE
  5
DF
330
1F
100
AcDbEntity
  8
PV
  6
Continuous
 62
     7
100
AcDbLine
 10
170.5906613835
 20
12.8093412992
 30
0.0
 11
170.5906613835
 21
4.8093412992
 31
0.0
  0
LINE
  5
E0
330
1F
100
AcDbEntity
  8
PV
  6
Continuous
 62
     7
100
AcDbLine
 10
170.5906613835
 20
4.8093412992
 30
0.0
 11
168.5906613835
 21
11.8093412992
 31
0.0
  0
LINE
  5
E1
330
1F
100
AcDbEntity
  8
PV
  6
Continuous
 62
     7
100
AcDbLine
 10
378.734339184
 20
407.8955730658
 30
0.0
 11
381.734339184
 21
407.8955730658
 31
0.0
  0
LINE
  5
E2
330
1F
100
AcDbEntity
  8
PV
  6
Continuous
 62
     7
100
AcDbLine
 10
380.734339184
 20
414.8955730658
 30
0.0
 11
381.734339184
 21
407.8955730658
 31
0.0
  0
LINE
  5
E3
330
1F
100
AcDbEntity
  8
PV
  6
Continuous
 62
     7
100
AcDbLine
 10
380.734339184
 20
405.8955730658
 30
0.0
 11
380.734339184
 21
414.8955730658
 31
0.0
  0
LINE
  5
E4
330
1F
100
AcDbEntity
  8
PV
  6
Continuous
 62
     7
100
AcDbLine
 10
380.734339184
 20
414.8955730658
 30
0.0
 11
378.734339184
 21
407.8955730658
 31
0.0
  0
LINE
  5
E5
330
1F
100
AcDbEntity
  8
PV
  6
Continuous
 62
     7
100
AcDbLine
 10
168.734339184
 20
407.8955730658
 30
0.0
 11
171.734339184
 21
407.8955730658
 31
0.0
  0
LINE
  5
E6
330
1F
100
AcDbEntity
  8
PV
  6
Continuous
 62
     7
100
AcDbLine
 10
170.734339184
 20
414.8955730658
 30
0.0
 11
171.734339184
 21
407.8955730658
 31
0.0
  0
LINE
  5
E7
330
1F
100
AcDbEntity
  8
PV
  6
Continuous
 62
     7
100
AcDbLine
 10
170.734339184
 20
405.8955730658
 30
0.0
 11
170.734339184
 21
414.8955730658
 31
0.0
  0
LINE
  5
E8
330
1F
100
AcDbEntity
  8
PV
  6
Continuous
 62
     7
100
AcDbLine
 10
170.734339184
 20
414.8955730658
 30
0.0
 11
168.734339184
 21
407.8955730658
 31
0.0
  0
LINE
  5
E9
330
1F
100
AcDbEntity
  8
PV
  6
Continuous
 62
     7
100
AcDbLine
 10
583.5906613835
 20
302.8093412992
 30
0.0
 11
583.5906613835
 21
299.8093412992
 31
0.0
  0
LINE
  5
EA
330
1F
100
AcDbEntity
  8
PV
  6
Continuous
 62
     7
100
AcDbLine
 10
590.5906613835
 20
301.8093412992
 30
0.0
 11
583.5906613835
 21
302.8093412992
 31
0.0
  0
LINE
  5
EB
330
1F
100
AcDbEntity
  8
PV
  6
Continuous
 62
     7
100
AcDbLine
 10
590.5906613835
 20
301.8093412992
 30
0.0
 11
583.5906613835
 21
299.8093412992
 31
0.0
  0
LINE
  5
EC
330
1F
100
AcDbEntity
  8
PV
  6
Continuous
 62
     7
100
AcDbLine
 10
581.5906613835
 20
301.8093412992
 30
0.0
 11
590.5906613835
 21
301.8093412992
 31
0.0
  0
LINE
  5
ED
330
1F
100
AcDbEntity
  8
PV
  6
Continuous
 62
     7
100
AcDbLine
 10
584.5906613835
 20
301.8093412992
 30
0.0
 11
590.5906613835
 21
301.8093412992
 31
0.0
  0
LINE
  5
EE
330
1F
100
AcDbEntity
  8
SLD-0
 62
     9
100
AcDbLine
 10
529.3382196402
 20
10.8093412992
 30
0.0
 11
529.3382196402
 21
20.8499946885
 31
0.0
  0
LINE
  5
EF
330
1F
100
AcDbEntity
  8
SLD-0
 62
     9
100
AcDbLine
 10
514.7426088032
 20
20.8499946885
 30
0.0
 11
514.7426088032
 21
10.8093412992
 31
0.0
  0
LINE
  5
F0
330
1F
100
AcDbEntity
  8
0
  6
Continuous
 62
     9
370
    18
100
AcDbLine
 10
396.5906613835
 20
74.8499946885
 30
0.0
 11
584.5906613835
 21
74.8499946885
 31
0.0
  0
LINE
  5
F1
330
1F
100
AcDbEntity
  8
SLD-0
100
AcDbLine
 10
549.3382196402
 20
28.8499946885
 30
0.0
 11
584.5906613835
 21
28.8499946885
 31
0.0
  0
LINE
  5
F2
330
1F
100
AcDbEntity
  8
PV
 62
     9
100
AcDbLine
 10
396.5906613835
 20
69.8499946885
 30
0.0
 11
396.5906613835
 21
74.8499946885
 31
0.0
  0
LINE
  5
F3
330
1F
100
AcDbEntity
  8
LOGO1
100
AcDbLine
 10
422.7574318246
 20
23.5192990867
 30
0.0
 11
422.7574318246
 21
24.6676990862
 31
0.0
  0
LINE
  5
F4
330
1F
100
AcDbEntity
  8
SLD-0
 62
     9
100
AcDbLine
 10
549.3382196402
 20
24.8499946885
 30
0.0
 11
584.5906613835
 21
24.8499946885
 31
0.0
  0
LINE
  5
F5
330
1F
100
AcDbEntity
  8
SLD-0
 62
     9
100
AcDbLine
 10
529.3382196402
 20
17.4545662738
 30
0.0
 11
437.3382196402
 21
17.4545662738
 31
0.0
  0
LINE
  5
F6
330
1F
100
AcDbEntity
  8
PV
370
    18
100
AcDbLine
 10
437.3382196402
 20
20.8499946885
 30
0.0
 11
549.3382196402
 21
20.8499946885
 31
0.0
  0
LINE
  5
F7
330
1F
100
AcDbEntity
  8
PV
100
AcDbLine
 10
549.3382196402
 20
10.8093412992
 30
0.0
 11
549.3382196402
 21
36.8499946885
 31
0.0
  0
LINE
  5
F8
330
1F
100
AcDbEntity
  8
PV
370
    25
100
AcDbLine
 10
437.3382196402
 20
10.8093412992
 30
0.0
 11
437.3382196402
 21
36.8499946885
 31
0.0
  0
LINE
  5
F9
330
1F
100
AcDbEntity
  8
PV
 62
     9
100
AcDbLine
 10
437.3382196402
 20
24.8499946885
 30
0.0
 11
549.3382196402
 21
24.8499946885
 31
0.0
  0
LINE
  5
FA
330
1F
100
AcDbEntity
  8
PV
 62
     9
100
AcDbLine
 10
437.3382196402
 20
28.8499946885
 30
0.0
 11
549.3382196402
 21
28.8499946885
 31
0.0
  0
LINE
  5
FB
330
1F
100
AcDbEntity
  8
PV
 62
     9
100
AcDbLine
 10
564.2962645591
 20
16.8499946885
 30
0.0
 11
564.2962645591
 21
28.8499946885
 31
0.0
  0
LINE
  5
FC
330
1F
100
AcDbEntity
  8
PV
 62
     9
100
AcDbLine
 10
437.3382196402
 20
32.8499946885
 30
0.0
 11
584.5906613835
 21
32.8499946885
 31
0.0
  0
LINE
  5
FD
330
1F
100
AcDbEntity
  8
PV
 62
     9
100
AcDbLine
 10
491.5798242983
 20
24.8499946885
 30
0.0
 11
491.5798242983
 21
20.8499946885
 31
0.0
  0
LINE
  5
FE
330
1F
100
AcDbEntity
  8
PV
370
    25
100
AcDbLine
 10
396.5906613835
 20
36.8499946885
 30
0.0
 11
584.5906613835
 21
36.8499946885
 31
0.0
  0
LINE
  5
FF
330
1F
100
AcDbEntity
  8
PV
 62
     9
100
AcDbLine
 10
396.5906613835
 20
40.8499946885
 30
0.0
 11
584.5906613835
 21
40.8499946885
 31
0.0
  0
LINE
  5
100
330
1F
100
AcDbEntity
  8
PV
 62
     9
100
AcDbLine
 10
396.5906613835
 20
44.8499946885
 30
0.0
 11
584.5906613835
 21
44.8499946885
 31
0.0
  0
LINE
  5
101
330
1F
100
AcDbEntity
  8
PV
 62
     9
100
AcDbLine
 10
396.5906613835
 20
48.8499946885
 30
0.0
 11
584.5906613835
 21
48.8499946885
 31
0.0
  0
LINE
  5
102
330
1F
100
AcDbEntity
  8
PV
 62
     9
100
AcDbLine
 10
396.5906613835
 20
52.8499946885
 30
0.0
 11
584.5906613835
 21
52.8499946885
 31
0.0
  0
LINE
  5
103
330
1F
100
AcDbEntity
  8
PV
 62
     9
100
AcDbLine
 10
396.5906613835
 20
56.8499946885
 30
0.0
 11
584.5906613835
 21
56.8499946885
 31
0.0
  0
LINE
  5
104
330
1F
100
AcDbEntity
  8
PV
 62
     9
100
AcDbLine
 10
396.5906613835
 20
60.8499946885
 30
0.0
 11
584.5906613835
 21
60.8499946885
 31
0.0
  0
LINE
  5
105
330
1F
100
AcDbEntity
  8
PV
370
    25
100
AcDbLine
 10
396.5906613835
 20
69.8499946885
 30
0.0
 11
396.5906613835
 21
10.8297420728
 31
0.0
  0
LINE
  5
106
330
1F
100
AcDbEntity
  8
PV
370
    25
100
AcDbLine
 10
396.5906613835
 20
65.3499946885
 30
0.0
 11
584.5906613835
 21
65.3499946885
 31
0.0
  0
LINE
  5
107
330
1F
100
AcDbEntity
  8
PV
370
    25
100
AcDbLine
 10
396.5906613835
 20
69.8499946885
 30
0.0
 11
584.5906613835
 21
69.8499946885
 31
0.0
  0
LINE
  5
108
330
1F
100
AcDbEntity
  8
PV
 62
     9
100
AcDbLine
 10
413.2384120988
 20
60.8499946885
 30
0.0
 11
413.2384120988
 21
36.8499946885
 31
0.0
  0
LINE
  5
109
330
1F
100
AcDbEntity
  8
PV
 62
     9
100
AcDbLine
 10
423.201328272
 20
60.8499946885
 30
0.0
 11
423.201328272
 21
36.8499946885
 31
0.0
  0
LINE
  5
10A
330
1F
100
AcDbEntity
  8
PV
 62
     9
100
AcDbLine
 10
573.2462128811
 20
60.8499946885
 30
0.0
 11
573.2462128811
 21
36.8499946885
 31
0.0
  0
LINE
  5
10B
330
1F
100
AcDbEntity
  8
PV
 62
     9
100
AcDbLine
 10
562.2462128811
 20
60.8499946885
 30
0.0
 11
562.2462128811
 21
36.8499946885
 31
0.0
  0
LINE
  5
10C
330
1F
100
AcDbEntity
  8
LOGO1
100
AcDbLine
 10
414.4195585608
 20
23.5192990867
 30
0.0
 11
422.7574318246
 21
23.5192990867
 31
0.0
  0
LINE
  5
10D
330
1F
100
AcDbEntity
  8
LOGO1
100
AcDbLine
 10
425.0359704375
 20
27.9947169066
 30
0.0
 11
425.5637130114
 21
27.9947169066
 31
0.0
  0
LINE
  5
10E
330
1F
100
AcDbEntity
  8
LOGO1
100
AcDbLine
 10
423.995530834
 20
26.5040594815
 30
0.0
 11
424.6914159822
 21
26.5040594815
 31
0.0
  0
LINE
  5
10F
330
1F
100
AcDbEntity
  8
LOGO1
100
AcDbLine
 10
423.1019862799
 20
25.0122535415
 30
0.0
 11
423.6509763787
 21
25.0122535415
 31
0.0
  0
LINE
  5
110
330
1F
100
AcDbEntity
  8
LOGO1
 62
   151
100
AcDbLine
 10
426.8455704368
 20
27.8987010651
 30
0.0
 11
426.9010437041
 21
27.9947169066
 31
0.0
  0
ARC
  5
111
330
1F
100
AcDbEntity
  8
LOGO1
100
AcDbCircle
 10
403.6369568048
 20
29.0957980943
 30
0.0
 40
1.249928906540163
100
AcDbArc
 50
180.0115505333
 51
0.0
  0
ARC
  5
112
330
1F
100
AcDbEntity
  8
LOGO1
100
AcDbCircle
 10
429.1605169704
 20
24.6676990862
 30
0.0
 40
0.3445544553000559
100
AcDbArc
 50
0.0
 51
90.0
  0
ARC
  5
113
330
1F
100
AcDbEntity
  8
LOGO1
100
AcDbCircle
 10
428.2673169708
 20
26.1595050262
 30
0.0
 40
0.3445544552999991
100
AcDbArc
 50
0.0
 51
90.0
  0
ARC
  5
114
330
1F
100
AcDbEntity
  8
LOGO1
100
AcDbCircle
 10
427.2267625158
 20
27.6501624513
 30
0.0
 40
0.3445544552999991
100
AcDbArc
 50
0.0
 51
90.0
  0
ARC
  5
115
330
1F
100
AcDbEntity
  8
LOGO1
100
AcDbCircle
 10
425.0359704375
 20
27.6501624513
 30
0.0
 40
0.3445544552999991
100
AcDbArc
 50
90.0
 51
180.0
  0
ARC
  5
116
330
1F
100
AcDbEntity
  8
LOGO1
100
AcDbCircle
 10
423.995530834
 20
26.1595050262
 30
0.0
 40
0.3445544552999991
100
AcDbArc
 50
90.0
 51
180.0
  0
ARC
  5
117
330
1F
100
AcDbEntity
  8
LOGO1
100
AcDbCircle
 10
423.1019862799
 20
24.6676990862
 30
0.0
 40
0.3445544553000559
100
AcDbArc
 50
90.0
 51
180.0
  0
ARC
  5
118
330
1F
100
AcDbEntity
  8
LOGO1
100
AcDbCircle
 10
426.1313664765
 20
32.6189822514
 30
0.0
 40
0.5676534651068437
100
AcDbArc
 50
0.0
 51
180.0
  0
ARC
  5
119
330
1F
100
AcDbEntity
  8
LOGO1
100
AcDbCircle
 10
420.3192496444
 20
34.2240895774
 30
0.0
 40
0.943447920606971
100
AcDbArc
 50
270.0
 51
89.9876903601
  0
ARC
  5
11A
330
1F
100
AcDbEntity
  8
LOGO1
100
AcDbCircle
 10
417.4703011322
 20
29.524880343
 30
0.0
 40
0.9893350275721563
100
AcDbArc
 50
270.0
 51
89.969106545
  0
ARC
  5
11B
330
1F
100
AcDbEntity
  8
LOGO1
100
AcDbCircle
 10
403.5345507631
 20
34.0164797904
 30
0.0
 40
1.148514851000051
100
AcDbArc
 50
90.0336090389
 51
180.0115505333
  0
ARC
  5
11C
330
1F
100
AcDbEntity
  8
LOGO1
100
AcDbCircle
 10
403.5218753971
 20
24.6702258189
 30
0.0
 40
1.148514851000016
100
AcDbArc
 50
180.0
 51
270.0351459459
  0
ARC
  5
11D
330
1F
100
AcDbEntity
  8
LOGO1
100
AcDbCircle
 10
414.4195585608
 20
34.0202901541
 30
0.0
 40
1.148514850999997
100
AcDbArc
 50
89.9876903601
 51
180.0
  0
ARC
  5
11E
330
1F
100
AcDbEntity
  8
LOGO1
100
AcDbCircle
 10
414.4195585608
 20
24.6678139377
 30
0.0
 40
1.148514850999984
100
AcDbArc
 50
180.0
 51
270.0
  0
ARC
  5
11F
330
1F
100
AcDbEntity
  8
LOGO1
100
AcDbCircle
 10
430.6989759435
 20
24.6667730398
 30
0.0
 40
1.148514850999991
100
AcDbArc
 50
270.0
 51
23.7709783333
  0
SPLINE
  5
120
330
1F
100
AcDbEntity
  8
LOGO1
 62
   228
100
AcDbSpline
210
0.0
220
0.0
230
1.0
 70
     8
 71
     3
 72
     8
 73
     4
 74
     0
 42
0.000000001
 43
0.00000001
 40
0.0
 40
0.0
 40
0.0
 40
0.0
 40
0.0227272727272727
 40
0.0227272727272727
 40
0.0227272727272727
 40
0.0227272727272727
 10
412.0152575717443
 20
28.54841591626764
 30
0.0
 10
411.6107506412221
 20
29.03745353982343
 30
0.0
 10
410.995031829601
 20
29.40716047036032
 30
0.0
 10
410.1645407408429
 20
29.65581393560182
 30
0.0
  0
SPLINE
  5
121
330
1F
100
AcDbEntity
  8
LOGO1
 62
   228
100
AcDbSpline
210
0.0
220
0.0
230
1.0
 70
     8
 71
     3
 72
     8
 73
     4
 74
     0
 42
0.000000001
 43
0.00000001
 40
0.0227272727272727
 40
0.0227272727272727
 40
0.0227272727272727
 40
0.0227272727272727
 40
0.0454545454545455
 40
0.0454545454545455
 40
0.0454545454545455
 40
0.0454545454545455
 10
410.1645407408429
 20
29.65581393560182
 30
0.0
 10
411.3975862848764
 20
30.19550106408672
 30
0.0
 10
412.0138793539231
 20
31.04827334095425
 30
0.0
 10
412.0138793539231
 20
32.21355650877886
 30
0.0
  0
SPLINE
  5
122
330
1F
100
AcDbEntity
  8
LOGO1
 62
   228
100
AcDbSpline
210
0.0
220
0.0
230
1.0
 70
     8
 71
     3
 72
     8
 73
     4
 74
     0
 42
0.000000001
 43
0.00000001
 40
0.0454545454545455
 40
0.0454545454545455
 40
0.0454545454545455
 40
0.0454545454545455
 40
0.0681818181818182
 40
0.0681818181818182
 40
0.0681818181818182
 40
0.0681818181818182
 10
412.0138793539231
 20
32.21355650877886
 30
0.0
 10
412.0138793539231
 20
32.55213868685367
 30
0.0
 10
411.9555347994923
 20
32.87429710255915
 30
0.0
 10
411.8372377698392
 20
33.17888324104432
 30
0.0
  0
SPLINE
  5
123
330
1F
100
AcDbEntity
  8
LOGO1
 62
   228
100
AcDbSpline
210
0.0
220
0.0
230
1.0
 70
     8
 71
     3
 72
     8
 73
     4
 74
     0
 42
0.000000001
 43
0.00000001
 40
0.0681818181818182
 40
0.0681818181818182
 40
0.0681818181818182
 40
0.0681818181818182
 40
0.0909090909090909
 40
0.0909090909090909
 40
0.0909090909090909
 40
0.0909090909090909
 10
411.8372377698392
 20
33.17888324104432
 30
0.0
 10
411.7191704431564
 20
33.48312482507423
 30
0.0
 10
411.5489605422383
 20
33.76072086456097
 30
0.0
 10
411.3240813344124
 20
34.01327928029582
 30
0.0
  0
SPLINE
  5
124
330
1F
100
AcDbEntity
  8
LOGO1
 62
   228
100
AcDbSpline
210
0.0
220
0.0
230
1.0
 70
     8
 71
     3
 72
     8
 73
     4
 74
     0
 42
0.000000001
 43
0.00000001
 40
0.0909090909090909
 40
0.0909090909090909
 40
0.0909090909090909
 40
0.0909090909090909
 40
0.1136363636363637
 40
0.1136363636363637
 40
0.1136363636363637
 40
0.1136363636363637
 10
411.3240813344124
 20
34.01327928029582
 30
0.0
 10
411.0996615325271
 20
34.26422977523932
 30
0.0
 10
410.8421645029329
 20
34.47234066624053
 30
0.0
 10
410.5514753941448
 20
34.63634858696332
 30
0.0
  0
SPLINE
  5
125
330
1F
100
AcDbEntity
  8
LOGO1
 62
   228
100
AcDbSpline
210
0.0
220
0.0
230
1.0
 70
     8
 71
     3
 72
     8
 73
     4
 74
     0
 42
0.000000001
 43
0.00000001
 40
0.1136363636363637
 40
0.1136363636363637
 40
0.1136363636363637
 40
0.1136363636363637
 40
0.1363636363636364
 40
0.1363636363636364
 40
0.1363636363636364
 40
0.1363636363636364
 10
410.5514753941448
 20
34.63634858696332
 30
0.0
 10
410.2095625230021
 20
34.83044759678236
 30
0.0
 10
409.8246951964319
 20
34.96229710167712
 30
0.0
 10
409.3933130183963
 20
35.0305188838265
 30
0.0
  0
SPLINE
  5
126
330
1F
100
AcDbEntity
  8
LOGO1
 62
   228
100
AcDbSpline
210
0.0
220
0.0
230
1.0
 70
     8
 71
     3
 72
     8
 73
     4
 74
     0
 42
0.000000001
 43
0.00000001
 40
0.1363636363636364
 40
0.1363636363636364
 40
0.1363636363636364
 40
0.1363636363636364
 40
0.1590909090909091
 40
0.1590909090909091
 40
0.1590909090909091
 40
0.1590909090909091
 10
409.3933130183963
 20
35.0305188838265
 30
0.0
 10
408.9637684641224
 20
35.09862581449083
 30
0.0
 10
408.4544021277039
 20
35.16753670555087
 30
0.0
 10
407.8678555932982
 20
35.16753670555086
 30
0.0
  0
SPLINE
  5
127
330
1F
100
AcDbEntity
  8
LOGO1
 62
   228
100
AcDbSpline
210
0.0
220
0.0
230
1.0
 70
     8
 71
     3
 72
     8
 73
     4
 74
     0
 42
0.000000001
 43
0.00000001
 40
0.4772727272727271
 40
0.4772727272727271
 40
0.4772727272727271
 40
0.4772727272727271
 40
0.4999999999999998
 40
0.4999999999999998
 40
0.4999999999999998
 40
0.4999999999999998
 10
406.8916179699482
 20
33.30659809247552
 30
0.0
 10
407.7953843062001
 20
33.30659809247557
 30
0.0
 10
408.468414008886
 20
33.27765551823034
 30
0.0
 10
408.9089843057296
 20
33.08286739950076
 30
0.0
  0
SPLINE
  5
128
330
1F
100
AcDbEntity
  8
LOGO1
 62
   228
100
AcDbSpline
210
0.0
220
0.0
230
1.0
 70
     8
 71
     3
 72
     8
 73
     4
 74
     0
 42
0.000000001
 43
0.00000001
 40
0.4999999999999998
 40
0.4999999999999998
 40
0.4999999999999998
 40
0.4999999999999998
 40
0.5227272727272726
 40
0.5227272727272726
 40
0.5227272727272726
 40
0.5227272727272726
 10
408.9089843057296
 20
33.08286739950076
 30
0.0
 10
409.3498991570286
 20
32.88784957780091
 30
0.0
 10
409.5706437113907
 20
32.49540205321424
 30
0.0
 10
409.5706437113907
 20
31.90368720197903
 30
0.0
  0
SPLINE
  5
129
330
1F
100
AcDbEntity
  8
LOGO1
 62
   228
100
AcDbSpline
210
0.0
220
0.0
230
1.0
 70
     8
 71
     3
 72
     8
 73
     4
 74
     0
 42
0.000000001
 43
0.00000001
 40
0.5227272727272726
 40
0.5227272727272726
 40
0.5227272727272726
 40
0.5227272727272726
 40
0.5454545454545453
 40
0.5454545454545453
 40
0.5454545454545453
 40
0.5454545454545453
 10
409.5706437113907
 20
31.90368720197903
 30
0.0
 10
409.5706437113907
 20
31.62655056843275
 30
0.0
 10
409.4995506421138
 20
31.37594462794454
 30
0.0
 10
409.3604654936578
 20
31.15175452902933
 30
0.0
  0
SPLINE
  5
12A
330
1F
100
AcDbEntity
  8
LOGO1
 62
   228
100
AcDbSpline
210
0.0
220
0.0
230
1.0
 70
     8
 71
     3
 72
     8
 73
     4
 74
     0
 42
0.000000001
 43
0.00000001
 40
0.5454545454545453
 40
0.5454545454545453
 40
0.5454545454545453
 40
0.5454545454545453
 40
0.568181818181818
 40
0.568181818181818
 40
0.568181818181818
 40
0.568181818181818
 10
409.3604654936578
 20
31.15175452902933
 30
0.0
 10
409.1817565828422
 20
30.83671690540005
 30
0.0
 10
408.9226516324566
 20
30.62389710350974
 30
0.0
 10
408.5869407415092
 20
30.51260601444786
 30
0.0
  0
SPLINE
  5
12B
330
1F
100
AcDbEntity
  8
LOGO1
 62
   228
100
AcDbSpline
210
0.0
220
0.0
230
1.0
 70
     8
 71
     3
 72
     8
 73
     4
 74
     0
 42
0.000000001
 43
0.00000001
 40
0.568181818181818
 40
0.568181818181818
 40
0.568181818181818
 40
0.568181818181818
 40
0.5909090909090907
 40
0.5909090909090907
 40
0.5909090909090907
 40
0.5909090909090907
 10
408.5869407415092
 20
30.51260601444786
 30
0.0
 10
408.5251506425255
 20
30.49204759861493
 30
0.0
 10
408.4587664841377
 20
30.47355650951386
 30
0.0
 10
408.3875585633756
 20
30.45644363823394
 30
0.0
  0
SPLINE
  5
12C
330
1F
100
AcDbEntity
  8
LOGO1
 62
   228
100
AcDbSpline
210
0.0
220
0.0
230
1.0
 70
     8
 71
     3
 72
     8
 73
     4
 74
     0
 42
0.000000001
 43
0.00000001
 40
0.6136363636363634
 40
0.6136363636363634
 40
0.6136363636363634
 40
0.6136363636363634
 40
0.6363636363636361
 40
0.6363636363636361
 40
0.6363636363636361
 40
0.6363636363636361
 10
408.3875585633756
 20
30.45047136100873
 30
0.0
 10
408.0071704447245
 20
30.32872878680273
 30
0.0
 10
407.7290001478122
 20
29.96924363843975
 30
0.0
 10
407.7290001478122
 20
29.53855056931473
 30
0.0
  0
SPLINE
  5
12D
330
1F
100
AcDbEntity
  8
LOGO1
 62
   228
100
AcDbSpline
210
0.0
220
0.0
230
1.0
 70
     8
 71
     3
 72
     8
 73
     4
 74
     0
 42
0.000000001
 43
0.00000001
 40
0.6363636363636361
 40
0.6363636363636361
 40
0.6363636363636361
 40
0.6363636363636361
 40
0.6590909090909088
 40
0.6590909090909088
 40
0.6590909090909088
 40
0.6590909090909088
 10
407.7290001478122
 20
29.53855056931473
 30
0.0
 10
407.7290001478122
 20
29.10797235167481
 30
0.0
 10
408.0071704447245
 20
28.74791294588633
 30
0.0
 10
408.3875585633756
 20
28.62559611425483
 30
0.0
  0
SPLINE
  5
12E
330
1F
100
AcDbEntity
  8
LOGO1
 62
   228
100
AcDbSpline
210
0.0
220
0.0
230
1.0
 70
     8
 71
     2
 72
     6
 73
     3
 74
     0
 42
0.000000001
 43
0.00000001
 40
0.6590909090909088
 40
0.6590909090909088
 40
0.6590909090909088
 40
0.6818181818181815
 40
0.6818181818181815
 40
0.6818181818181815
 10
408.3875585633756
 20
28.62559611425483
 30
0.0
 10
408.4248852960332
 20
28.61319215386401
 30
0.0
 10
408.479784305911
 20
28.59676839149475
 30
0.0
  0
SPLINE
  5
12F
330
1F
100
AcDbEntity
  8
LOGO1
 62
   228
100
AcDbSpline
210
0.0
220
0.0
230
1.0
 70
     8
 71
     3
 72
     8
 73
     4
 74
     0
 42
0.000000001
 43
0.00000001
 40
0.6818181818181815
 40
0.6818181818181815
 40
0.6818181818181815
 40
0.6818181818181815
 40
0.7045454545454543
 40
0.7045454545454543
 40
0.7045454545454543
 40
0.7045454545454543
 10
408.479784305911
 20
28.59676839149475
 30
0.0
 10
408.8555783651582
 20
28.53176245092812
 30
0.0
 10
409.167859553145
 20
28.42759215394245
 30
0.0
 10
409.4104258896762
 20
28.28000799558891
 30
0.0
  0
SPLINE
  5
130
330
1F
100
AcDbEntity
  8
LOGO1
 62
   228
100
AcDbSpline
210
0.0
220
0.0
230
1.0
 70
     8
 71
     3
 72
     8
 73
     4
 74
     0
 42
0.000000001
 43
0.00000001
 40
0.7045454545454543
 40
0.7045454545454543
 40
0.7045454545454543
 40
0.7045454545454543
 40
0.727272727272727
 40
0.727272727272727
 40
0.727272727272727
 40
0.727272727272727
 10
409.4104258896762
 20
28.28000799558891
 30
0.0
 10
409.8458278696904
 20
28.01550502540365
 30
0.0
 10
410.0632417309846
 20
27.70919611464193
 30
0.0
 10
410.0632417309846
 20
27.12253472875117
 30
0.0
  0
SPLINE
  5
131
330
1F
100
AcDbEntity
  8
LOGO1
 62
   228
100
AcDbSpline
210
0.0
220
0.0
230
1.0
 70
     8
 71
     3
 72
     8
 73
     4
 74
     0
 42
0.000000001
 43
0.00000001
 40
0.727272727272727
 40
0.727272727272727
 40
0.727272727272727
 40
0.727272727272727
 40
0.7499999999999997
 40
0.7499999999999997
 40
0.7499999999999997
 40
0.7499999999999997
 10
410.0632417309846
 20
27.12253472875117
 30
0.0
 10
410.0632417309846
 20
25.97459413517664
 30
0.0
 10
409.2235625234185
 20
25.40125552155745
 30
0.0
 10
407.5452377716523
 20
25.40125552155745
 30
0.0
  0
SPLINE
  5
132
330
1F
100
AcDbEntity
  8
LOGO1
 62
   228
100
AcDbSpline
210
0.0
220
0.0
230
1.0
 70
     8
 71
     3
 72
     8
 73
     4
 74
     0
 42
0.000000001
 43
0.00000001
 40
0.954545454545454
 40
0.954545454545454
 40
0.954545454545454
 40
0.954545454545454
 40
0.9772727272727267
 40
0.9772727272727267
 40
0.9772727272727267
 40
0.9772727272727267
 10
407.641368464681
 20
23.52423770056815
 30
0.0
 10
407.9737486625604
 20
23.52423770056814
 30
0.0
 10
408.2841922267857
 20
23.53239215601025
 30
0.0
 10
408.574077375178
 20
23.54778225501361
 30
0.0
  0
SPLINE
  5
133
330
1F
100
AcDbEntity
  8
LOGO1
 62
   228
100
AcDbSpline
210
0.0
220
0.0
230
1.0
 70
     8
 71
     3
 72
     8
 73
     4
 74
     0
 42
0.000000001
 43
0.00000001
 40
0.0769230769230769
 40
0.0769230769230769
 40
0.0769230769230769
 40
0.0769230769230769
 40
0.1153846153846154
 40
0.1153846153846154
 40
0.1153846153846154
 40
0.1153846153846154
 10
427.8713090486315
 20
33.9360918477942
 30
0.0
 10
427.7738001377817
 20
34.15695125364152
 30
0.0
 10
427.653665484367
 20
34.36276511494071
 30
0.0
 10
427.5117090487834
 20
34.55525620396829
 30
0.0
  0
SPLINE
  5
134
330
1F
100
AcDbEntity
  8
LOGO1
 62
   228
100
AcDbSpline
210
0.0
220
0.0
230
1.0
 70
     8
 71
     3
 72
     8
 73
     4
 74
     0
 42
0.000000001
 43
0.00000001
 40
0.1153846153846154
 40
0.1153846153846154
 40
0.1153846153846154
 40
0.1153846153846154
 40
0.1538461538461539
 40
0.1538461538461539
 40
0.1538461538461539
 40
0.1538461538461539
 10
427.5117090487834
 20
34.55525620396829
 30
0.0
 10
427.3682595438935
 20
34.74705818408533
 30
0.0
 10
427.1813961776359
 20
34.90383046124681
 30
0.0
 10
426.9487070688232
 20
35.02614729287831
 30
0.0
  0
SPLINE
  5
135
330
1F
100
AcDbEntity
  8
LOGO1
 62
   228
100
AcDbSpline
210
0.0
220
0.0
230
1.0
 70
     8
 71
     3
 72
     8
 73
     4
 74
     0
 42
0.000000001
 43
0.00000001
 40
0.1538461538461539
 40
0.1538461538461539
 40
0.1538461538461539
 40
0.1538461538461539
 40
0.1923076923076923
 40
0.1923076923076923
 40
0.1923076923076923
 40
0.1923076923076923
 10
426.9487070688232
 20
35.02614729287831
 30
0.0
 10
426.7164773659511
 20
35.14754531262901
 30
0.0
 10
426.4272813264693
 20
35.20853145121708
 30
0.0
 10
426.081348653348
 20
35.20853145121708
 30
0.0
  0
SPLINE
  5
136
330
1F
100
AcDbEntity
  8
LOGO1
 62
   228
100
AcDbSpline
210
0.0
220
0.0
230
1.0
 70
     8
 71
     3
 72
     8
 73
     4
 74
     0
 42
0.000000001
 43
0.00000001
 40
0.1923076923076923
 40
0.1923076923076923
 40
0.1923076923076923
 40
0.1923076923076923
 40
0.2307692307692308
 40
0.2307692307692308
 40
0.2307692307692308
 40
0.2307692307692308
 10
426.081348653348
 20
35.20853145121708
 30
0.0
 10
425.7405842970564
 20
35.20853145121708
 30
0.0
 10
425.4546040991573
 20
35.14754531262901
 30
0.0
 10
425.2218001388597
 20
35.02614729287831
 30
0.0
  0
SPLINE
  5
137
330
1F
100
AcDbEntity
  8
LOGO1
 62
   228
100
AcDbSpline
210
0.0
220
0.0
230
1.0
 70
     8
 71
     3
 72
     8
 73
     4
 74
     0
 42
0.000000001
 43
0.00000001
 40
0.2307692307692308
 40
0.2307692307692308
 40
0.2307692307692308
 40
0.2307692307692308
 40
0.2692307692307693
 40
0.2692307692307693
 40
0.2692307692307693
 40
0.2692307692307693
 10
425.2218001388597
 20
35.02614729287831
 30
0.0
 10
424.989111030047
 20
34.90383046124681
 30
0.0
 10
424.8024773667595
 20
34.74303838210676
 30
0.0
 10
424.6602912282057
 20
34.54675719407088
 30
0.0
  0
SPLINE
  5
138
330
1F
100
AcDbEntity
  8
LOGO1
 62
   228
100
AcDbSpline
210
0.0
220
0.0
230
1.0
 70
     8
 71
     3
 72
     8
 73
     4
 74
     0
 42
0.000000001
 43
0.00000001
 40
0.2692307692307693
 40
0.2692307692307693
 40
0.2692307692307693
 40
0.2692307692307693
 40
0.3076923076923077
 40
0.3076923076923077
 40
0.3076923076923077
 40
0.3076923076923077
 10
424.6602912282057
 20
34.54675719407088
 30
0.0
 10
424.5174159807413
 20
34.35001660009459
 30
0.0
 10
424.3829248916893
 20
34.10274135267429
 30
0.0
 10
424.2584258818409
 20
33.80435719438447
 30
0.0
  0
SPLINE
  5
139
330
1F
100
AcDbEntity
  8
LOGO1
 62
   150
100
AcDbSpline
210
0.0
220
0.0
230
1.0
 70
     8
 71
     3
 72
     8
 73
     4
 74
     0
 42
0.000000001
 43
0.00000001
 40
0.4
 40
0.4
 40
0.4
 40
0.4
 40
0.6000000000000001
 40
0.6000000000000001
 40
0.6000000000000001
 40
0.6000000000000001
 10
412.0152575717443
 20
28.54841591626764
 30
0.0
 10
412.3454555914068
 20
28.14919215406006
 30
0.0
 10
412.535190244792
 20
27.66980205525263
 30
0.0
 10
412.582279353683
 20
27.11013076836036
 30
0.0
  0
SPLINE
  5
13A
330
1F
100
AcDbEntity
  8
LOGO1
 62
   228
100
AcDbSpline
210
0.0
220
0.0
230
1.0
 70
     8
 71
     3
 72
     8
 73
     4
 74
     0
 42
0.000000001
 43
0.00000001
 40
0.0
 40
0.0
 40
0.0
 40
0.0
 40
0.1666666666666667
 40
0.1666666666666667
 40
0.1666666666666667
 40
0.1666666666666667
 10
410.635661532723
 20
23.92610304693302
 30
0.0
 10
411.2348417304897
 20
24.17349314583841
 30
0.0
 10
411.7102120273187
 20
24.55629314567673
 30
0.0
 10
412.0642991558819
 20
25.07588126426916
 30
0.0
  0
SPLINE
  5
13B
330
1F
100
AcDbEntity
  8
LOGO1
 62
   228
100
AcDbSpline
210
0.0
220
0.0
230
1.0
 70
     8
 71
     3
 72
     8
 73
     4
 74
     0
 42
0.000000001
 43
0.00000001
 40
0.1666666666666667
 40
0.1666666666666667
 40
0.1666666666666667
 40
0.1666666666666667
 40
0.3333333333333333
 40
0.3333333333333333
 40
0.3333333333333333
 40
0.3333333333333333
 10
412.0642991558819
 20
25.07588126426916
 30
0.0
 10
412.4172377695943
 20
25.59489512543603
 30
0.0
 10
412.593764502193
 20
26.17845552122913
 30
0.0
 10
412.593764502193
 20
26.82644760016331
 30
0.0
  0
SPLINE
  5
13C
330
1F
100
AcDbEntity
  8
LOGO1
 62
   228
100
AcDbSpline
210
0.0
220
0.0
230
1.0
 70
     8
 71
     3
 72
     8
 73
     4
 74
     0
 42
0.000000001
 43
0.00000001
 40
0.6666666666666666
 40
0.6666666666666666
 40
0.6666666666666666
 40
0.6666666666666666
 40
0.8333333333333333
 40
0.8333333333333333
 40
0.8333333333333333
 40
0.8333333333333333
 10
408.574077375178
 20
23.54778225501361
 30
0.0
 10
408.8497209394181
 20
23.56259809659153
 30
0.0
 10
409.1066437115868
 20
23.58464958173076
 30
0.0
 10
409.3435823253481
 20
23.61416641340145
 30
0.0
  0
SPLINE
  5
13D
330
1F
100
AcDbEntity
  8
LOGO1
 62
   228
100
AcDbSpline
210
0.0
220
0.0
230
1.0
 70
     8
 71
     3
 72
     8
 73
     4
 74
     0
 42
0.000000001
 43
0.00000001
 40
0.8333333333333333
 40
0.8333333333333333
 40
0.8333333333333333
 40
0.8333333333333333
 40
1.0
 40
1.0
 40
1.0
 40
1.0
 10
409.3435823253481
 20
23.61416641340145
 30
0.0
 10
409.830552622172
 20
23.67515255198957
 30
0.0
 10
410.2606714338716
 20
23.77851888857954
 30
0.0
 10
410.635661532723
 20
23.92610304693302
 30
0.0
  0
ELLIPSE
  5
13E
330
1F
100
AcDbEntity
  8
LOGO2
100
AcDbEllipse
 10
418.0936456472
 20
26.6271846663
 30
0.0
 11
-9.281964393266776
 21
-5.518954020724276
 31
0.0
210
0.0
220
0.0
230
1.0
 40
0.4790317882
 41
5.840044660114029
 42
8.726334306476211
  0
ELLIPSE
  5
13F
330
1F
100
AcDbEntity
  8
LOGO2
100
AcDbEllipse
 10
418.0936456472
 20
26.6271846663
 30
0.0
 11
-9.281964393266776
 21
-5.518954020724276
 31
0.0
210
0.0
220
0.0
230
1.0
 40
0.4790317882
 41
4.95815412981559
 42
5.11614622350664
  0
ELLIPSE
  5
140
330
1F
100
AcDbEntity
  8
LOGO2
100
AcDbEllipse
 10
418.0936456472
 20
26.6271846663
 30
0.0
 11
-9.281964393266776
 21
-5.518954020724276
 31
0.0
210
0.0
220
0.0
230
1.0
 40
0.4790317882
 41
3.748252181811123
 42
4.678358273021188
  0
ELLIPSE
  5
141
330
1F
100
AcDbEntity
  8
SLD-0
100
AcDbEllipse
 10
418.0936456472
 20
26.6271846663
 30
0.0
 11
-9.281964393266776
 21
-5.518954020724276
 31
0.0
210
0.0
220
0.0
230
1.0
 40
0.4790317882
 41
3.365945528146923
 42
3.425750292857198
  0
INSERT
  5
142
330
1F
100
AcDbEntity
  8
0
  6
Continuous
 62
     7
100
AcDbBlockReference
  2
Bloc2
 10
530.3954163704
 20
12.7407193599
 30
0.0
 41
1.75
 42
1.75
 43
1.75
  0
MTEXT
  5
144
330
1F
100
AcDbEntity
  8
PV
 62
     7
100
AcDbMText
 10
31.5906613835
 20
8.8432111389
 30
0.0
 40
3.0
 41
0.0
 71
     1
 72
     1
  1
H
  7
SLDTEXTSTYLE0
 73
     1
 44
1.0
  0
MTEXT
  5
145
330
1F
100
AcDbEntity
  8
PV
 62
     7
100
AcDbMText
 10
106.5906613835
 20
8.8432111389
 30
0.0
 40
3.0
 41
0.0
 71
     1
 72
     1
  1
G
  7
SLDTEXTSTYLE0
 73
     1
 44
1.0
  0
MTEXT
  5
146
330
1F
100
AcDbEntity
  8
PV
 62
     7
100
AcDbMText
 10
180.5906613835
 20
8.8432111389
 30
0.0
 40
3.0
 41
0.0
 71
     1
 72
     1
  1
F
  7
SLDTEXTSTYLE0
 73
     1
 44
1.0
  0
MTEXT
  5
147
330
1F
100
AcDbEntity
  8
PV
 62
     7
100
AcDbMText
 10
254.5906613835
 20
8.8432111389
 30
0.0
 40
3.0
 41
0.0
 71
     1
 72
     1
  1
E
  7
SLDTEXTSTYLE0
 73
     1
 44
1.0
  0
MTEXT
  5
148
330
1F
100
AcDbEntity
  8
PV
 62
     7
100
AcDbMText
 10
328.5906613835
 20
8.8432111389
 30
0.0
 40
3.0
 41
0.0
 71
     1
 72
     1
  1
D
  7
SLDTEXTSTYLE0
 73
     1
 44
1.0
  0
MTEXT
  5
149
330
1F
100
AcDbEntity
  8
PV
 62
     7
100
AcDbMText
 10
585.5906613835
 20
83.8432111389
 30
0.0
 40
3.0
 41
0.0
 71
     1
 72
     1
  1
2
  7
SLDTEXTSTYLE0
 73
     1
 44
1.0
  0
MTEXT
  5
14A
330
1F
100
AcDbEntity
  8
PV
 62
     7
100
AcDbMText
 10
585.5906613835
 20
136.8432111389
 30
0.0
 40
3.0
 41
0.0
 71
     1
 72
     1
  1
3
  7
SLDTEXTSTYLE0
 73
     1
 44
1.0
  0
MTEXT
  5
14B
330
1F
100
AcDbEntity
  8
PV
 62
     7
100
AcDbMText
 10
585.5906613835
 20
293.8432111389
 30
0.0
 40
3.0
 41
0.0
 71
     1
 72
     1
  1
6
  7
SLDTEXTSTYLE0
 73
     1
 44
1.0
  0
MTEXT
  5
14C
330
1F
100
AcDbEntity
  8
PV
 62
     7
100
AcDbMText
 10
585.5906613835
 20
241.8432111389
 30
0.0
 40
3.0
 41
0.0
 71
     1
 72
     1
  1
5
  7
SLDTEXTSTYLE0
 73
     1
 44
1.0
  0
MTEXT
  5
14D
330
1F
100
AcDbEntity
  8
PV
 62
     7
100
AcDbMText
 10
585.5906613835
 20
346.8432111389
 30
0.0
 40
3.0
 41
0.0
 71
     1
 72
     1
  1
7
  7
SLDTEXTSTYLE0
 73
     1
 44
1.0
  0
MTEXT
  5
14E
330
1F
100
AcDbEntity
  8
PV
 62
     7
100
AcDbMText
 10
585.5906613835
 20
188.8432111389
 30
0.0
 40
3.0
 41
0.0
 71
     1
 72
     1
  1
4
  7
SLDTEXTSTYLE0
 73
     1
 44
1.0
  0
MTEXT
  5
14F
330
1F
100
AcDbEntity
  8
PV
 62
     7
100
AcDbMText
 10
585.5906613835
 20
398.8432111389
 30
0.0
 40
3.0
 41
0.0
 71
     1
 72
     1
  1
8
  7
SLDTEXTSTYLE0
 73
     1
 44
1.0
  0
MTEXT
  5
150
330
1F
100
AcDbEntity
  8
PV
 62
     7
100
AcDbMText
 10
402.5906613835
 20
8.8432111389
 30
0.0
 40
3.0
 41
0.0
 71
     1
 72
     1
  1
C
  7
SLDTEXTSTYLE0
 73
     1
 44
1.0
  0
MTEXT
  5
151
330
1F
100
AcDbEntity
  8
PV
 62
     7
100
AcDbMText
 10
551.5906613835
 20
8.8432111389
 30
0.0
 40
3.0
 41
0.0
 71
     1
 72
     1
  1
A
  7
SLDTEXTSTYLE0
 73
     1
 44
1.0
  0
MTEXT
  5
152
330
1F
100
AcDbEntity
  8
PV
 62
     7
100
AcDbMText
 10
477.5906613835
 20
8.8432111389
 30
0.0
 40
3.0
 41
0.0
 71
     1
 72
     1
  1
B
  7
SLDTEXTSTYLE0
 73
     1
 44
1.0
  0
MTEXT
  5
153
330
1F
100
AcDbEntity
  8
PV
 62
     7
100
AcDbMText
 10
402.734339184
 20
412.9294429055
 30
0.0
 40
3.0
 41
0.0
 71
     1
 72
     1
  1
C
  7
SLDTEXTSTYLE0
 73
     1
 44
1.0
  0
MTEXT
  5
154
330
1F
100
AcDbEntity
  8
PV
 62
     7
100
AcDbMText
 10
551.734339184
 20
412.9294429055
 30
0.0
 40
3.0
 41
0.0
 71
     1
 72
     1
  1
A
  7
SLDTEXTSTYLE0
 73
     1
 44
1.0
  0
MTEXT
  5
155
330
1F
100
AcDbEntity
  8
PV
 62
     7
100
AcDbMText
 10
328.734339184
 20
412.9294429055
 30
0.0
 40
3.0
 41
0.0
 71
     1
 72
     1
  1
D
  7
SLDTEXTSTYLE0
 73
     1
 44
1.0
  0
MTEXT
  5
156
330
1F
100
AcDbEntity
  8
PV
 62
     7
100
AcDbMText
 10
477.734339184
 20
412.9294429055
 30
0.0
 40
3.0
 41
0.0
 71
     1
 72
     1
  1
B
  7
SLDTEXTSTYLE0
 73
     1
 44
1.0
  0
MTEXT
  5
157
330
1F
100
AcDbEntity
  8
PV
 62
     7
100
AcDbMText
 10
31.734339184
 20
412.9294429055
 30
0.0
 40
3.0
 41
0.0
 71
     1
 72
     1
  1
H
  7
SLDTEXTSTYLE0
 73
     1
 44
1.0
  0
MTEXT
  5
158
330
1F
100
AcDbEntity
  8
PV
 62
     7
100
AcDbMText
 10
180.734339184
 20
412.9294429055
 30
0.0
 40
3.0
 41
0.0
 71
     1
 72
     1
  1
F
  7
SLDTEXTSTYLE0
 73
     1
 44
1.0
  0
MTEXT
  5
159
330
1F
100
AcDbEntity
  8
PV
 62
     7
100
AcDbMText
 10
254.734339184
 20
412.9294429055
 30
0.0
 40
3.0
 41
0.0
 71
     1
 72
     1
  1
E
  7
SLDTEXTSTYLE0
 73
     1
 44
1.0
  0
MTEXT
  5
15A
330
1F
100
AcDbEntity
  8
PV
 62
     7
100
AcDbMText
 10
106.734339184
 20
412.9294429055
 30
0.0
 40
3.0
 41
0.0
 71
     1
 72
     1
  1
G
  7
SLDTEXTSTYLE0
 73
     1
 44
1.0
  0
MTEXT
  5
15B
330
1F
100
AcDbEntity
  8
PV
 62
     7
100
AcDbMText
 10
7.5898200332
 20
31.7368371107
 30
0.0
 40
3.0
 41
0.0
 71
     1
 72
     1
  1
1
  7
SLDTEXTSTYLE0
 73
     1
 44
1.0
  0
MTEXT
  5
15C
330
1F
100
AcDbEntity
  8
PV
 62
     7
100
AcDbMText
 10
7.5898200332
 20
346.7368371107
 30
0.0
 40
3.0
 41
0.0
 71
     1
 72
     1
  1
7
  7
SLDTEXTSTYLE0
 73
     1
 44
1.0
  0
MTEXT
  5
15D
330
1F
100
AcDbEntity
  8
PV
 62
     7
100
AcDbMText
 10
7.5898200332
 20
83.7368371107
 30
0.0
 40
3.0
 41
0.0
 71
     1
 72
     1
  1
2
  7
SLDTEXTSTYLE0
 73
     1
 44
1.0
  0
MTEXT
  5
15E
330
1F
100
AcDbEntity
  8
PV
 62
     7
100
AcDbMText
 10
7.5898200332
 20
136.7368371107
 30
0.0
 40
3.0
 41
0.0
 71
     1
 72
     1
  1
3
  7
SLDTEXTSTYLE0
 73
     1
 44
1.0
  0
MTEXT
  5
15F
330
1F
100
AcDbEntity
  8
PV
 62
     7
100
AcDbMText
 10
7.5898200332
 20
188.7368371107
 30
0.0
 40
3.0
 41
0.0
 71
     1
 72
     1
  1
4
  7
SLDTEXTSTYLE0
 73
     1
 44
1.0
  0
MTEXT
  5
160
330
1F
100
AcDbEntity
  8
PV
 62
     7
100
AcDbMText
 10
7.5898200332
 20
241.7368371107
 30
0.0
 40
3.0
 41
0.0
 71
     1
 72
     1
  1
5
  7
SLDTEXTSTYLE0
 73
     1
 44
1.0
  0
MTEXT
  5
161
330
1F
100
AcDbEntity
  8
PV
 62
     7
100
AcDbMText
 10
7.5898200332
 20
293.7368371107
 30
0.0
 40
3.0
 41
0.0
 71
     1
 72
     1
  1
6
  7
SLDTEXTSTYLE0
 73
     1
 44
1.0
  0
MTEXT
  5
162
330
1F
100
AcDbEntity
  8
PV
 62
     7
100
AcDbMText
 10
7.5898200332
 20
398.7368371107
 30
0.0
 40
3.0
 41
0.0
 71
     1
 72
     1
  1
8
  7
SLDTEXTSTYLE0
 73
     1
 44
1.0
  0
INSERT
  5
16A
330
1F
100
AcDbEntity
  8
PV
100
AcDbBlockReference
  2
SW_NOTE_0
 10
588.3870939717
 20
11.0037358829
 30
0.0
  0
MTEXT
  5
16C
330
1F
100
AcDbEntity
  8
PV
100
AcDbMText
 10
440.1644629696
 20
16.5434771319
 30
0.0
 40
4.4
 41
0.0
 71
     1
 72
     1
  1
E363 . A . PA . 01
  7
SLDTEXTSTYLE1
 73
     1
 44
1.0
  0
MTEXT
  5
16D
330
1F
100
AcDbEntity
  8
PV
100
AcDbMText
 10
438.9278781482
 20
35.7898522768
 30
0.0
 40
2.2
 41
0.0
 71
     1
 72
     1
  1
PROD. NAME : E363 - Stand-alone People Counting - Sigma
  7
SLDTEXTSTYLE0
 73
     1
 44
1.0
  0
MTEXT
  5
16E
330
1F
100
AcDbEntity
  8
PV
100
AcDbMText
 10
438.903305149
 20
23.8066825044
 30
0.0
 40
2.0
 41
0.0
 71
     1
 72
     1
  1
MATERIAL: -
  7
SLDTEXTSTYLE0
 73
     1
 44
1.0
  0
MTEXT
  5
16F
330
1F
100
AcDbEntity
  8
PV
100
AcDbMText
 10
397.6749058147
 20
68.4317283989
 30
0.0
 40
2.0
 41
0.0
 71
     1
 72
     1
  1
THIS DRAWING IS THE PROPERTY OF BEA AND MAY NOT BE REPRODUCED WITHOUT WRITTEN AGREEMENT
  7
SLDTEXTSTYLE0
 73
     1
 44
1.0
  0
MTEXT
  5
170
330
1F
100
AcDbEntity
  8
PV
100
AcDbMText
 10
475.7550930738
 20
63.8386234145
 30
0.0
 40
2.2
 41
0.0
 71
     1
 72
     1
  1
MODIFICATIONS LIST
  7
SLDTEXTSTYLE0
 73
     1
 44
1.0
  0
MTEXT
  5
171
330
1F
100
AcDbEntity
  8
PV
100
AcDbMText
 10
575.5376015728
 20
59.9485270941
 30
0.0
 40
2.0
 41
0.0
 71
     1
 72
     1
  1
\LRev :
  7
SLDTEXTSTYLE0
 73
     1
 44
1.0
  0
MTEXT
  5
172
330
1F
100
AcDbEntity
  8
PV
100
AcDbMText
 10
564.3433691488
 20
59.9485270941
 30
0.0
 40
2.0
 41
0.0
 71
     1
 72
     1
  1
\LVer :
  7
SLDTEXTSTYLE0
 73
     1
 44
1.0
  0
MTEXT
  5
173
330
1F
100
AcDbEntity
  8
PV
100
AcDbMText
 10
425.7545021544
 20
60.1027191103
 30
0.0
 40
2.0
 41
0.0
 71
     1
 72
     1
  1
\LDescription :
  7
SLDTEXTSTYLE0
 73
     1
 44
1.0
  0
MTEXT
  5
174
330
1F
100
AcDbEntity
  8
PV
100
AcDbMText
 10
415.5113620632
 20
60.1335032308
 30
0.0
 40
2.0
 41
0.0
 71
     1
 72
     1
  1
\LBy :
  7
SLDTEXTSTYLE0
 73
     1
 44
1.0
  0
MTEXT
  5
175
330
1F
100
AcDbEntity
  8
PV
100
AcDbMText
 10
399.2961353124
 20
60.0793639399
 30
0.0
 40
2.0
 41
0.0
 71
     1
 72
     1
  1
\LDate :
  7
SLDTEXTSTYLE0
 73
     1
 44
1.0
  0
MTEXT
  5
176
330
1F
100
AcDbEntity
  8
PV
100
AcDbMText
 10
438.9381013623
 20
31.8196557141
 30
0.0
 40
2.2
 41
0.0
 71
     1
 72
     1
  1
TITLE : Ceiling installation dimensions
  7
SLDTEXTSTYLE0
 73
     1
 44
1.0
  0
MTEXT
  5
177
330
1F
100
AcDbEntity
  8
PV
100
AcDbMText
 10
503.5896023692
 20
16.5434771319
 30
0.0
 40
4.4
 41
0.0
 71
     1
 72
     1
  1
1:1
  7
SLDTEXTSTYLE0
 73
     1
 44
1.0
  0
MTEXT
  5
178
330
1F
100
AcDbEntity
  8
PV
100
AcDbMText
 10
519.2785220064
 20
20.379342225
 30
0.0
 40
2.0
 41
0.0
 71
     1
 72
     1
  1
Size
  7
SLDTEXTSTYLE0
 73
     1
 44
1.0
  0
MTEXT
  5
17A
330
1F
100
AcDbEntity
  8
PV
100
AcDbMText
 10
551.4220571214
 20
35.8586877755
 30
0.0
 40
2.0
 41
0.0
 71
     1
 72
     1
  1
DRAWER : -
  7
SLDTEXTSTYLE2
 73
     1
 44
1.0
  0
MTEXT
  5
17C
330
1F
100
AcDbEntity
  8
PV
100
AcDbMText
 10
551.2682014054
 20
31.849032531
 30
0.0
 40
2.0
 41
0.0
 71
     1
 72
     1
  1
DATE : -
  7
SLDTEXTSTYLE3
 73
     1
 44
1.0
  0
MTEXT
  5
17D
330
1F
100
AcDbEntity
  8
PV
100
AcDbMText
 10
438.8881976778
 20
27.7659241448
 30
0.0
 40
2.0
 41
0.0
 71
     1
 72
     1
  1
GENERAL TOLERANCE : -
  7
SLDTEXTSTYLE0
 73
     1
 44
1.0
  0
MTEXT
  5
17E
330
1F
100
AcDbEntity
  8
PV
100
AcDbMText
 10
494.111551359
 20
23.7735000619
 30
0.0
 40
2.0
 41
0.0
 71
     1
 72
     1
  1
TREATEMENT: -
  7
SLDTEXTSTYLE0
 73
     1
 44
1.0
  0
MTEXT
  5
17F
330
1F
100
AcDbEntity
  8
PV
100
AcDbMText
 10
567.6364963493
 20
27.8089427766
 30
0.0
 40
2.0
 41
0.0
 71
     1
 72
     1
  1
APPROVED
  7
SLDTEXTSTYLE0
 73
     1
 44
1.0
  0
MTEXT
  5
180
330
1F
100
AcDbEntity
  8
PV
100
AcDbMText
 10
551.3495274681
 20
27.8135298181
 30
0.0
 40
2.0
 41
0.0
 71
     1
 72
     1
  1
VERIFIED
  7
SLDTEXTSTYLE0
 73
     1
 44
1.0
  0
MTEXT
  5
182
330
1F
100
AcDbEntity
  8
PV
100
AcDbMText
 10
554.175286699
 20
15.7351920012
 30
0.0
 40
3.5
 41
0.0
 71
     1
 72
     1
  1
PAGE: 1 / 1
  7
SLDTEXTSTYLE4
 73
     1
 44
1.0
  0
MTEXT
  5
183
330
1F
100
AcDbEntity
  8
PV
100
AcDbMText
 10
463.5434512114
 20
20.3654534115
 30
0.0
 40
2.0
 41
0.0
 71
     1
 72
     1
  1
Ver.Obj
  7
SLDTEXTSTYLE0
 73
     1
 44
1.0
  0
MTEXT
  5
184
330
1F
100
AcDbEntity
  8
PV
100
AcDbMText
 10
446.8465795598
 20
20.3654534115
 30
0.0
 40
2.0
 41
0.0
 71
     1
 72
     1
  1
Objet
  7
SLDTEXTSTYLE0
 73
     1
 44
1.0
  0
MTEXT
  5
185
330
1F
100
AcDbEntity
  8
PV
100
AcDbMText
 10
477.576042655
 20
20.3654534115
 30
0.0
 40
2.0
 41
0.0
 71
     1
 72
     1
  1
Doc.
  7
SLDTEXTSTYLE0
 73
     1
 44
1.0
  0
MTEXT
  5
186
330
1F
100
AcDbEntity
  8
LOGO1
100
AcDbMText
 10
408.8437921985
 20
14.226767533
 30
0.0
 40
1.3229166667
 41
0.0
 71
     1
 72
     1
  1
WWW.BEA.BE
  7
SLDTEXTSTYLE2
 73
     1
 44
1.0
  0
MTEXT
  5
187
330
1F
100
AcDbEntity
  8
PV
100
AcDbMText
 10
487.577222462
 20
20.3654534115
 30
0.0
 40
2.0
 41
0.0
 71
     1
 72
     1
  1
Rev.Doc.
  7
SLDTEXTSTYLE0
 73
     1
 44
1.0
  0
MTEXT
  5
189
330
1F
100
AcDbEntity
  8
PV
100
AcDbMText
 10
397.6749058147
 20
73.2399795164
 30
0.0
 40
2.0
 41
0.0
 71
     1
 72
     1
  1
Part Volume :   mm³  - Part Weight :  gr
  7
SLDTEXTSTYLE5
 73
     1
 44
1.0
  0
MTEXT
  5
18A
330
1F
100
AcDbEntity
  8
PV
100
AcDbMText
 10
504.1844303947
 20
20.379342225
 30
0.0
 40
2.0
 41
0.0
 71
     1
 72
     1
  1
Scale
  7
SLDTEXTSTYLE0
 73
     1
 44
1.0
  0
MTEXT
  5
18B
330
1F
100
AcDbEntity
  8
PV
100
AcDbMText
 10
517.9979928146
 20
16.6041559409
 30
0.0
 40
4.4
 41
0.0
 71
     1
 72
     1
  1
A2
  7
SLDTEXTSTYLE0
 73
     1
 44
1.0
  0
INSERT
  5
192
330
1F
100
AcDbEntity
  8
SLD-0
100
AcDbBlockReference
  2
SW_NOTE_1
 10
401.3220164304
 20
14.9354909382
 30
0.0
  0
LINE
  5
193
330
1F
100
AcDbEntity
  8
0
  6
Continuous
 62
     7
370
    25
100
AcDbLine
 10
145.4832826835
 20
351.4277792556
 30
0.0
 11
145.4832826835
 21
359.0277812464
 31
0.0
  0
LINE
  5
194
330
1F
100
AcDbEntity
  8
0
  6
Continuous
 62
     7
370
    25
100
AcDbLine
 10
141.2832823676
 20
359.0277812464
 30
0.0
 11
141.2832823676
 21
351.4277792556
 31
0.0
  0
ARC
  5
195
330
1F
100
AcDbEntity
  8
0
  6
Continuous
 62
     7
370
    25
100
AcDbCircle
 10
144.4761385508
 20
359.0277797623
 30
0.0
 40
3.192857142857147
100
AcDbArc
 50
110.0159596029
 51
180.0
  0
ARC
  5
196
330
1F
100
AcDbEntity
  8
0
  6
Continuous
 62
     7
370
    25
100
AcDbCircle
 10
142.2904242651
 20
359.0277797623
 30
0.0
 40
3.19285714285715
100
AcDbArc
 50
0.0
 51
69.9840403971
  0
LINE
  5
197
330
1F
100
AcDbEntity
  8
0
  6
Continuous
 62
     7
370
    25
100
AcDbLine
 10
245.4832804483
 20
351.4277792556
 30
0.0
 11
245.4832804483
 21
359.0277812464
 31
0.0
  0
LINE
  5
198
330
1F
100
AcDbEntity
  8
0
  6
Continuous
 62
     7
370
    25
100
AcDbLine
 10
241.2832801324
 20
359.0277812464
 30
0.0
 11
241.2832801324
 21
351.4277792556
 31
0.0
  0
ARC
  5
199
330
1F
100
AcDbEntity
  8
0
  6
Continuous
 62
     7
370
    25
100
AcDbCircle
 10
244.4761385508
 20
359.0277797623
 30
0.0
 40
3.192857142857137
100
AcDbArc
 50
110.0159596029
 51
180.0
  0
ARC
  5
19A
330
1F
100
AcDbEntity
  8
0
  6
Continuous
 62
     7
370
    25
100
AcDbCircle
 10
242.2904242651
 20
359.0277797623
 30
0.0
 40
3.192857142857179
100
AcDbArc
 50
0.0
 51
69.9840403971
  0
LINE
  5
19B
330
1F
100
AcDbEntity
  8
0
  6
Continuous
 62
     7
370
    25
100
AcDbLine
 10
293.2518621069
 20
325.6289760603
 30
0.0
 11
280.6475882512
 21
344.9277791215
 31
0.0
  0
LINE
  5
19C
330
1F
100
AcDbEntity
  8
0
  6
Continuous
 62
     7
370
    25
100
AcDbLine
 10
106.1189745647
 20
344.9277791215
 30
0.0
 11
93.5147454125
 21
325.6290440468
 31
0.0
  0
LWPOLYLINE
  5
19D
330
1F
100
AcDbEntity
  8
0
  6
Continuous
 62
     7
370
    25
100
AcDbPolyline
 90
        3
 70
   128
 43
0.0
 10
279.3901090604
 20
344.9277791215
 10
277.5137250406
 20
348.1777801199
 10
275.6373335701
 20
351.4277792556
  0
LWPOLYLINE
  5
19E
330
1F
100
AcDbEntity
  8
0
  6
Continuous
 62
     7
370
    25
100
AcDbPolyline
 90
        3
 70
   128
 43
0.0
 10
111.1292217952
 20
351.4277792556
 10
109.2528377754
 20
348.1777801199
 10
107.3764463049
 20
344.9277791215
  0
SPLINE
  5
19F
330
1F
100
AcDbEntity
  8
0
  6
Continuous
 62
     7
370
    25
100
AcDbSpline
210
0.0
220
0.0
230
1.0
 70
     8
 71
     3
 72
     9
 73
     5
 74
     0
 42
0.000000001
 43
0.00000001
 40
0.0
 40
0.0
 40
0.0
 40
0.0
 40
0.4966753214792234
 40
1.0
 40
1.0
 40
1.0
 40
1.0
 10
250.0651826244675
 20
297.5296254290192
 30
0.0
 10
251.5509477914644
 20
298.0700016217398
 30
0.0
 10
254.5423691541604
 20
299.1579884198581
 30
0.0
 10
257.4837424666028
 20
300.3748213689459
 30
0.0
 10
258.9642082434975
 20
300.987283421859
 30
0.0
  0
LINE
  5
1A0
330
1F
100
AcDbEntity
  8
0
  6
Continuous
 62
     7
370
    25
100
AcDbLine
 10
250.0016999525
 20
297.5047796054
 30
0.0
 11
250.002489714
 21
297.4595210535
 31
0.0
  0
LINE
  5
1A1
330
1F
100
AcDbEntity
  8
0
  6
Continuous
 62
     7
370
    25
100
AcDbLine
 10
258.964074133
 20
300.9793001247
 30
0.0
 11
258.9641858918
 21
300.9859423174
 31
0.0
  0
SPLINE
  5
1A2
330
1F
100
AcDbEntity
  8
0
  6
Continuous
 62
     7
370
    25
100
AcDbSpline
210
0.0
220
0.0
230
1.0
 70
     8
 71
     3
 72
     9
 73
     5
 74
     0
 42
0.000000001
 43
0.00000001
 40
0.0
 40
0.0
 40
0.0
 40
0.0
 40
0.8503406878585685
 40
0.9999999999999999
 40
0.9999999999999999
 40
0.9999999999999999
 40
0.9999999999999999
 10
290.8832778316818
 20
318.7277797397151
 30
0.0
 10
291.6681579376608
 20
319.7527113599217
 30
0.0
 10
292.5911763433253
 20
320.9580301631273
 30
0.0
 10
292.8120882841891
 20
322.4160774747556
 30
0.0
 10
292.8451498133026
 20
322.6342878324836
 30
0.0
  0
SPLINE
  5
1A3
330
1F
100
AcDbEntity
  8
0
  6
Continuous
 62
     7
370
    25
100
AcDbSpline
210
0.0
220
0.0
230
1.0
 70
     8
 71
     3
 72
     9
 73
     5
 74
     0
 42
0.000000001
 43
0.00000001
 40
0.0
 40
0.0
 40
0.0
 40
0.0
 40
0.1496593121414314
 40
0.9999999999999999
 40
0.9999999999999999
 40
0.9999999999999999
 40
0.9999999999999999
 10
93.9214130026184
 20
322.6342878324836
 30
0.0
 10
93.95447453173189
 20
322.4160774747556
 30
0.0
 10
94.17538647259565
 20
320.9580301631273
 30
0.0
 10
95.09840487826025
 20
319.7527113599217
 30
0.0
 10
95.8832849842392
 20
318.7277797397151
 30
0.0
  0
SPLINE
  5
1A4
330
1F
100
AcDbEntity
  8
0
  6
Continuous
 62
     7
370
    25
100
AcDbSpline
210
0.0
220
0.0
230
1.0
 70
     8
 71
     3
 72
    11
 73
     7
 74
     0
 42
0.000000001
 43
0.00000001
 40
0.0
 40
0.0
 40
0.0
 40
0.0
 40
0.2172081819028149
 40
0.4426736114166029
 40
0.697738197621917
 40
1.0
 40
1.0
 40
1.0
 40
1.0
 10
263.8476465922676
 20
315.5491554198711
 30
0.0
 10
263.8486819073036
 20
315.5446995453287
 30
0.0
 10
263.850791895251
 20
315.5356184045611
 30
0.0
 10
263.8869994465816
 20
315.537875979039
 30
0.0
 10
263.9685448006905
 20
315.5315122337348
 30
0.0
 10
264.0357170949495
 20
315.4920084870408
 30
0.0
 10
264.0721474868141
 20
315.4705839252024
 30
0.0
  0
SPLINE
  5
1A5
330
1F
100
AcDbEntity
  8
0
  6
Continuous
 62
     7
370
    25
100
AcDbSpline
210
0.0
220
0.0
230
1.0
 70
     8
 71
     3
 72
    10
 73
     6
 74
     0
 42
0.000000001
 43
0.00000001
 40
0.0
 40
0.0
 40
0.0
 40
0.0
 40
0.3906179995566257
 40
0.716785480582562
 40
1.0
 40
1.0
 40
1.0
 40
1.0
 10
122.6944004279457
 20
315.5104626921861
 30
0.0
 10
122.7313507787917
 20
315.5290129700385
 30
0.0
 10
122.7991548098883
 20
315.5630527988236
 30
0.0
 10
122.8847480883668
 20
315.5592506912947
 30
0.0
 10
122.9060504650009
 20
315.5536670963033
 30
0.0
 10
122.9159508925758
 20
315.5510720817297
 30
0.0
  0
LINE
  5
1A6
330
1F
100
AcDbEntity
  8
0
  6
Continuous
 62
     7
370
    25
100
AcDbLine
 10
122.9198475462
 20
315.5520872233
 30
0.0
 11
122.9246531707
 21
315.5533421805
 31
0.0
  0
SPLINE
  5
1A7
330
1F
100
AcDbEntity
  8
0
  6
Continuous
 62
     7
370
    25
100
AcDbSpline
210
0.0
220
0.0
230
1.0
 70
     8
 71
     3
 72
    13
 73
     9
 74
     0
 42
0.000000001
 43
0.00000001
 40
0.0
 40
0.0
 40
0.0
 40
0.0
 40
0.006259416807133
 40
0.2300919735755111
 40
0.3808642604867322
 40
0.5594409752386724
 40
0.7658203324972681
 40
1.0
 40
1.0
 40
1.0
 40
1.0
 10
258.9249213320099
 20
300.9755450321286
 30
0.0
 10
258.9960602708741
 20
301.0034676768203
 30
0.0
 10
261.6110800635613
 20
302.0298854122924
 30
0.0
 10
265.8176543202607
 20
304.0264828822577
 30
0.0
 10
271.8654930290773
 20
307.031040954429
 30
0.0
 10
277.5993719505274
 20
310.1823523217886
 30
0.0
 10
284.088187231382
 20
314.0670433543507
 30
0.0
 10
288.5249247749011
 20
317.110191020473
 30
0.0
 10
290.8832778316818
 20
318.7277797397151
 30
0.0
  0
SPLINE
  5
1A8
330
1F
100
AcDbEntity
  8
0
  6
Continuous
 62
     7
370
    25
100
AcDbSpline
210
0.0
220
0.0
230
1.0
 70
     8
 71
     3
 72
     9
 73
     5
 74
     0
 42
0.000000001
 43
0.00000001
 40
0.0
 40
0.0
 40
0.0
 40
0.0
 40
0.4487299877034229
 40
1.0
 40
1.0
 40
1.0
 40
1.0
 10
236.4605565649353
 20
293.4403947574942
 30
0.0
 10
238.5162195963362
 20
293.9513275171578
 30
0.0
 10
243.0972885860013
 20
295.0899471183984
 30
0.0
 10
247.5477693028998
 20
296.6656955519842
 30
0.0
 10
250.0011858624302
 20
297.5343584103434
 30
0.0
  0
SPLINE
  5
1A9
330
1F
100
AcDbEntity
  8
0
  6
Continuous
 62
     7
370
    25
100
AcDbSpline
210
0.0
220
0.0
230
1.0
 70
     8
 71
     3
 72
     9
 73
     5
 74
     0
 42
0.000000001
 43
0.00000001
 40
0.0
 40
0.0
 40
0.0
 40
0.0
 40
0.801988899823906
 40
1.0
 40
1.0
 40
1.0
 40
1.0
 10
143.3013391774975
 20
295.3924245221465
 30
0.0
 10
145.1503627377076
 20
294.7844899155988
 30
0.0
 10
147.4559103090219
 20
294.0264562237595
 30
0.0
 10
149.8162759181197
 20
293.4696030088927
 30
0.0
 10
150.2836545091949
 20
293.3593398911803
 30
0.0
  0
SPLINE
  5
1AA
330
1F
100
AcDbEntity
  8
0
  6
Continuous
 62
     7
370
    25
100
AcDbSpline
210
0.0
220
0.0
230
1.0
 70
     8
 71
     3
 72
    11
 73
     7
 74
     0
 42
0.000000001
 43
0.00000001
 40
0.0
 40
0.0
 40
0.0
 40
0.0
 40
0.3241818375473688
 40
0.6221626938481192
 40
0.9059172996950362
 40
1.0
 40
1.0
 40
1.0
 40
1.0
 10
95.8832849842392
 20
318.7277797397151
 30
0.0
 10
98.94277111284487
 20
316.6462504125374
 30
0.0
 10
104.8144699901336
 20
312.6514248439043
 30
0.0
 10
113.8244849925283
 20
307.5736783228679
 30
0.0
 10
120.695875261123
 20
304.0576553598167
 30
0.0
 10
124.6702487735675
 20
302.3865546954021
 30
0.0
 10
125.6598805171333
 20
301.9704452736228
 30
0.0
  0
ARC
  5
1AB
330
1F
100
AcDbEntity
  8
0
  6
Continuous
 62
     7
370
    25
100
AcDbCircle
 10
235.981437306
 20
295.25809772
 30
0.0
 40
2.000000000000014
100
AcDbArc
 50
262.1353448752
 51
284.7480695527
  0
ARC
  5
1AC
330
1F
100
AcDbEntity
  8
0
  6
Continuous
 62
     7
370
    25
100
AcDbCircle
 10
150.7851255406
 20
295.2580977217
 30
0.0
 40
1.999999999999998
100
AcDbArc
 50
255.2227571814
 51
277.8646812979
  0
LINE
  5
1AD
330
1F
100
AcDbEntity
  8
0
  6
Continuous
 62
     7
370
    25
100
AcDbLine
 10
223.6354344618
 20
293.8740297241
 30
0.0
 11
224.1968468857
 21
293.8597730381
 31
0.0
  0
LINE
  5
1AE
330
1F
100
AcDbEntity
  8
0
  6
Continuous
 62
     7
370
    25
100
AcDbLine
 10
226.9334432763
 20
293.768948598
 30
0.0
 11
227.9353787285
 21
293.7183777822
 31
0.0
  0
LINE
  5
1AF
330
1F
100
AcDbEntity
  8
0
  6
Continuous
 62
     7
370
    25
100
AcDbLine
 10
227.9352073652
 20
293.7183889581
 30
0.0
 11
235.9295909387
 21
293.2577679885
 31
0.0
  0
LWPOLYLINE
  5
1B0
330
1F
100
AcDbEntity
  8
0
  6
Continuous
 62
     7
370
    25
100
AcDbPolyline
 90
        3
 70
   128
 43
0.0
 10
150.8372997028
 20
293.257786615
 10
154.8133653683
 20
293.4868807925
 10
158.7894310337
 20
293.7159731073
  0
LINE
  5
1B1
330
1F
100
AcDbEntity
  8
0
  6
Continuous
 62
     7
370
    25
100
AcDbLine
 10
158.7892559451
 20
293.7159637941
 30
0.0
 11
159.9089031202
 21
293.7727744711
 31
0.0
  0
LINE
  5
1B2
330
1F
100
AcDbEntity
  8
0
  6
Continuous
 62
     7
370
    25
100
AcDbLine
 10
162.5754361135
 20
293.8599797917
 30
0.0
 11
163.2579707635
 21
293.8777308
 31
0.0
  0
LINE
  5
1B3
330
1F
100
AcDbEntity
  8
0
  6
Continuous
 62
     7
370
    25
100
AcDbLine
 10
189.0672885907
 20
346.7742062194
 30
0.0
 11
189.0873814096
 21
346.4277802987
 31
0.0
  0
LINE
  5
1B4
330
1F
100
AcDbEntity
  8
0
  6
Continuous
 62
     7
370
    25
100
AcDbLine
 10
197.6791814064
 20
346.4277802987
 30
0.0
 11
197.6992742252
 21
346.7742062194
 31
0.0
  0
SPLINE
  5
1B5
330
1F
100
AcDbEntity
  8
0
  6
Continuous
 62
     7
370
    25
100
AcDbSpline
210
0.0
220
0.0
230
1.0
 70
    24
 71
     3
 72
    16
 73
    12
 74
     0
 42
0.000000001
 43
0.00000001
 40
0.0
 40
0.0
 40
0.0
 40
0.0
 40
0.1134799217936804
 40
0.2269466297254156
 40
0.3430968234769571
 40
0.4592284564470028
 40
0.5558424585382545
 40
0.6524468505731504
 40
0.7517175639900323
 40
0.850979622566129
 40
1.0
 40
1.0
 40
1.0
 40
1.0
 10
272.9095568043076
 20
325.6277797764092
 30
0.0
 10
274.1804134444441
 20
325.6277797764092
 30
0.0
 10
276.7219787432599
 20
325.6277797764092
 30
0.0
 10
280.2214549663292
 20
325.6277797764092
 30
0.0
 10
283.4398519733367
 20
325.6277797764092
 30
0.0
 10
286.1431504866985
 20
325.6277797764092
 30
0.0
 10
288.3382755018624
 20
325.6277797764092
 30
0.0
 10
290.0928150227494
 20
325.6277797764092
 30
0.0
 10
291.4912854570841
 20
325.6277797764092
 30
0.0
 10
292.7242292221368
 20
325.6277797764092
 30
0.0
 10
293.0295832694721
 20
325.6277797764092
 30
0.0
 10
293.2128583175026
 20
325.6277797764092
 30
0.0
  0
LINE
  5
1B6
330
1F
100
AcDbEntity
  8
0
  6
Continuous
 62
     7
370
    25
100
AcDbLine
 10
272.9095568043
 20
325.6277797764
 30
0.0
 11
272.8597347719
 21
325.7405983305
 31
0.0
  0
LINE
  5
1B7
330
1F
100
AcDbEntity
  8
0
  6
Continuous
 62
     7
370
    25
100
AcDbLine
 10
265.0776852948
 20
325.7392572259
 30
0.0
 11
272.8597347719
 21
325.7405983305
 31
0.0
  0
LINE
  5
1B8
330
1F
100
AcDbEntity
  8
0
  6
Continuous
 62
     7
370
    25
100
AcDbLine
 10
265.0776852948
 20
325.7392572259
 30
0.0
 11
265.1254956704
 21
325.6277797764
 31
0.0
  0
LINE
  5
1B9
330
1F
100
AcDbEntity
  8
0
  6
Continuous
 62
     7
370
    25
100
AcDbLine
 10
121.6415067297
 20
325.6277797764
 30
0.0
 11
121.6889892799
 21
325.7379175184
 31
0.0
  0
LINE
  5
1BA
330
1F
100
AcDbEntity
  8
0
  6
Continuous
 62
     7
370
    25
100
AcDbLine
 10
113.9069472534
 20
325.7392581573
 30
0.0
 11
121.6889892799
 21
325.7379175184
 31
0.0
  0
LINE
  5
1BB
330
1F
100
AcDbEntity
  8
0
  6
Continuous
 62
     7
370
    25
100
AcDbLine
 10
113.9069472534
 20
325.7392581573
 30
0.0
 11
113.8574679476
 21
325.6277797764
 31
0.0
  0
SPLINE
  5
1BC
330
1F
100
AcDbEntity
  8
0
  6
Continuous
 62
     7
370
    25
100
AcDbSpline
210
0.0
220
0.0
230
1.0
 70
    24
 71
     3
 72
    15
 73
    11
 74
     0
 42
0.000000001
 43
0.00000001
 40
0.0
 40
0.0
 40
0.0
 40
0.0
 40
0.0647842940537824
 40
0.1871016273438077
 40
0.3098112335150535
 40
0.4321967382765076
 40
0.5592249058495352
 40
0.6865819756731943
 40
0.8137048031647293
 40
1.0
 40
1.0
 40
1.0
 40
1.0
 10
93.5537566524826
 20
325.6277797764092
 30
0.0
 10
93.61212361346948
 20
325.6277797764092
 30
0.0
 10
93.78069152862936
 20
325.6277797764092
 30
0.0
 10
94.56468961439607
 20
325.6277797764092
 30
0.0
 10
96.07282554088609
 20
325.6277797764092
 30
0.0
 10
98.18587876662355
 20
325.6277797764092
 30
0.0
 10
100.8813647597556
 20
325.6277797764092
 30
0.0
 10
104.1125329858808
 20
325.6277797764092
 30
0.0
 10
108.318901788623
 20
325.6277797764092
 30
0.0
 10
111.7926671196991
 20
325.6277797764092
 30
0.0
 10
113.8574679476105
 20
325.6277797764092
 30
0.0
  0
SPLINE
  5
1BD
330
1F
100
AcDbEntity
  8
0
  6
Continuous
 62
     7
370
    25
100
AcDbSpline
210
0.0
220
0.0
230
1.0
 70
    24
 71
     3
 72
    39
 73
    35
 74
     0
 42
0.000000001
 43
0.00000001
 40
0.0
 40
0.0
 40
0.0
 40
0.0
 40
0.0160307532627767
 40
0.0432826677991767
 40
0.0712700547364021
 40
0.0888291082777109
 40
0.1063914683565293
 40
0.142489719317083
 40
0.1674365941047319
 40
0.1923904006796791
 40
0.21802095094997
 40
0.2436558544239506
 40
0.2810811772121219
 40
0.3185163753557876
 40
0.3569689471588154
 40
0.3954263518987514
 40
0.4434835295811707
 40
0.4915443806676071
 40
0.5409991972030954
 40
0.59045108432249
 40
0.6285527531007359
 40
0.6666504538010003
 40
0.7056783597032851
 40
0.7446961340433401
 40
0.7689553906289899
 40
0.7932116260767158
 40
0.8179700527767682
 40
0.8427227960965172
 40
0.8789691252676785
 40
0.8975488188050949
 40
0.9161246253430627
 40
0.9450865401483807
 40
0.9748325375545625
 40
0.9999999999999999
 40
0.9999999999999999
 40
0.9999999999999999
 40
0.9999999999999999
 10
106.1206434947334
 20
344.9277791215031
 30
0.0
 10
106.1562443551609
 20
344.9277791215031
 30
0.0
 10
106.2523658654846
 20
344.9277791215031
 30
0.0
 10
107.287650506207
 20
344.9277791215031
 30
0.0
 10
109.1628395009837
 20
344.9277791215031
 30
0.0
 10
111.3342627360529
 20
344.9277791215031
 30
0.0
 10
114.1927731788889
 20
344.9277791215031
 30
0.0
 10
117.9657421236702
 20
344.9277791215031
 30
0.0
 10
122.6549497084305
 20
344.9277791215031
 30
0.0
 10
127.1066068892455
 20
344.9277791215031
 30
0.0
 10
131.8748690372832
 20
344.9277791215031
 30
0.0
 10
137.6871625692949
 20
344.9277791215031
 30
0.0
 10
144.5731175571421
 20
344.9277791215031
 30
0.0
 10
152.6314079748215
 20
344.9277791215031
 30
0.0
 10
160.9850968354587
 20
344.9277791215031
 30
0.0
 10
170.2904557066641
 20
344.9277791215031
 30
0.0
 10
180.4576783723585
 20
344.9277791215031
 30
0.0
 10
191.5437343674903
 20
344.9277791215031
 30
0.0
 10
202.749722558476
 20
344.9277791215031
 30
0.0
 10
213.1357610939977
 20
344.9277791215031
 30
0.0
 10
222.5434822954525
 20
344.9277791215031
 30
0.0
 10
231.0310378814861
 20
344.9277791215031
 30
0.0
 10
239.3845360695851
 20
344.9277791215032
 30
0.0
 10
246.4946086519652
 20
344.9277791215031
 30
0.0
 10
252.3390569301223
 20
344.9277791215031
 30
0.0
 10
257.0458609734442
 20
344.9277791215031
 30
0.0
 10
261.5547421352597
 20
344.9277791215031
 30
0.0
 10
266.4636095468509
 20
344.9277791215031
 30
0.0
 10
270.5605122706256
 20
344.9277791215031
 30
0.0
 10
273.8134694318564
 20
344.9277791215031
 30
0.0
 10
276.3830975642481
 20
344.9277791215031
 30
0.0
 10
278.7321348683044
 20
344.9277791215031
 30
0.0
 10
280.3891887634423
 20
344.9277791215031
 30
0.0
 10
280.5196267686757
 20
344.9277791215031
 30
0.0
 10
280.5794079881989
 20
344.9277791215031
 30
0.0
  0
SPLINE
  5
1BE
330
1F
100
AcDbEntity
  8
0
  6
Continuous
 62
     7
370
    25
100
AcDbSpline
210
0.0
220
0.0
230
1.0
 70
    24
 71
     3
 72
     9
 73
     5
 74
     0
 42
0.000000001
 43
0.00000001
 40
0.0
 40
0.0
 40
0.0
 40
0.0
 40
0.8823857166124177
 40
1.0
 40
1.0
 40
1.0
 40
1.0
 10
121.6415067297302
 20
325.6277797764092
 30
0.0
 10
123.975670350471
 20
325.6277797764092
 30
0.0
 10
126.6209575268115
 20
325.6277797764092
 30
0.0
 10
129.4946371181082
 20
325.6277797764092
 30
0.0
 10
129.8326228839241
 20
325.6277797764092
 30
0.0
  0
LINE
  5
1BF
330
1F
100
AcDbEntity
  8
0
  6
Continuous
 62
     7
370
    25
100
AcDbLine
 10
256.9339324814
 20
325.6277797764
 30
0.0
 11
265.1254956704
 21
325.6277797764
 31
0.0
  0
LINE
  5
1C0
330
1F
100
AcDbEntity
  8
0
  6
Continuous
 62
     7
370
    25
100
AcDbLine
 10
206.5516349953
 20
325.4277796505
 30
0.0
 11
206.5551265237
 21
325.6277797764
 31
0.0
  0
LINE
  5
1C1
330
1F
100
AcDbEntity
  8
0
  6
Continuous
 62
     7
370
    25
100
AcDbLine
 10
180.2149278206
 20
325.4277796505
 30
0.0
 11
180.2114362922
 21
325.6277797764
 31
0.0
  0
LINE
  5
1C2
330
1F
100
AcDbEntity
  8
0
  6
Continuous
 62
     7
370
    25
100
AcDbLine
 10
182.0508495998
 20
325.4277796505
 30
0.0
 11
182.0543411282
 21
325.6277797764
 31
0.0
  0
LINE
  5
1C3
330
1F
100
AcDbEntity
  8
0
  6
Continuous
 62
     7
370
    25
100
AcDbLine
 10
198.3832812962
 20
344.9277791215
 30
0.0
 11
198.3832812962
 21
346.9277794493
 31
0.0
  0
LINE
  5
1C4
330
1F
100
AcDbEntity
  8
0
  6
Continuous
 62
     7
370
    25
100
AcDbLine
 10
198.3832812962
 20
346.9277794493
 30
0.0
 11
188.3832815197
 21
346.9277794493
 31
0.0
  0
LINE
  5
1C5
330
1F
100
AcDbEntity
  8
0
  6
Continuous
 62
     7
370
    25
100
AcDbLine
 10
188.3832815197
 20
346.9277794493
 30
0.0
 11
188.3832815197
 21
344.9277791215
 31
0.0
  0
SPLINE
  5
1C6
330
1F
100
AcDbEntity
  8
0
  6
Continuous
 62
     7
370
    25
100
AcDbSpline
210
0.0
220
0.0
230
1.0
 70
    24
 71
     3
 72
    35
 73
    31
 74
     0
 42
0.000000001
 43
0.00000001
 40
0.0
 40
0.0
 40
0.0
 40
0.0
 40
0.0266050751021663
 40
0.0519627457413988
 40
0.077339570542013
 40
0.1012423669890454
 40
0.1252365716068484
 40
0.149179612450015
 40
0.184789606779971
 40
0.2205359458705868
 40
0.256215593553161
 40
0.2974311608968919
 40
0.338789187143858
 40
0.3801892079065491
 40
0.4214622402843182
 40
0.4788876874813267
 40
0.5364407809013372
 40
0.5938632231704752
 40
0.6461242869639076
 40
0.698490647312654
 40
0.7506748002990218
 40
0.78272741957176
 40
0.8148309140433703
 40
0.8468375657094974
 40
0.8705635651217115
 40
0.8943373110890384
 40
0.9180260806589547
 40
0.9457201025150291
 40
0.9733866240542967
 40
1.0
 40
1.0
 40
1.0
 40
1.0
 10
275.6023083907448
 20
351.4277792556136
 30
0.0
 10
275.5191424808046
 20
351.4277792556136
 30
0.0
 10
275.3567099743758
 20
351.4277792556136
 30
0.0
 10
273.8698939673616
 20
351.4277792556136
 30
0.0
 10
271.7645227635649
 20
351.4277792556136
 30
0.0
 10
269.0562416708652
 20
351.4277792556136
 30
0.0
 10
265.932353375957
 20
351.4277792556136
 30
0.0
 10
261.8490376550901
 20
351.4277792556136
 30
0.0
 10
256.672351943392
 20
351.4277792556136
 30
0.0
 10
250.353806885516
 20
351.4277792556136
 30
0.0
 10
243.3128005744773
 20
351.4277792556136
 30
0.0
 10
235.595333961528
 20
351.4277792556136
 30
0.0
 10
227.2393179737963
 20
351.4277792556136
 30
0.0
 10
218.6914109710461
 20
351.4277792556136
 30
0.0
 10
208.8952267986641
 20
351.4277792556136
 30
0.0
 10
197.8506687576018
 20
351.4277792556136
 30
0.0
 10
185.6268128977352
 20
351.4277792556136
 30
0.0
 10
173.8344678151704
 20
351.4277792556136
 30
0.0
 10
162.5708056575312
 20
351.4277792556136
 30
0.0
 10
151.930592889039
 20
351.4277792556136
 30
0.0
 10
143.0165520127995
 20
351.4277792556136
 30
0.0
 10
135.7999755664987
 20
351.4277792556136
 30
0.0
 10
130.1444569165159
 20
351.4277792556136
 30
0.0
 10
125.350710172045
 20
351.4277792556136
 30
0.0
 10
121.4027563154241
 20
351.4277792556136
 30
0.0
 10
118.2347948514917
 20
351.4277792556136
 30
0.0
 10
115.3584474140106
 20
351.4277792556136
 30
0.0
 10
113.03026408934
 20
351.4277792556136
 30
0.0
 10
111.4146000620337
 20
351.4277792556136
 30
0.0
 10
111.2440518728877
 20
351.4277792556136
 30
0.0
 10
111.16043227733
 20
351.4277792556136
 30
0.0
  0
LINE
  5
1C7
330
1F
100
AcDbEntity
  8
0
  6
Continuous
 62
     7
370
    25
100
AcDbLine
 10
256.9181670529
 20
324.9277795685
 30
0.0
 11
261.1583222729
 21
324.9277795685
 31
0.0
  0
LINE
  5
1C8
330
1F
100
AcDbEntity
  8
0
  6
Continuous
 62
     7
370
    25
100
AcDbLine
 10
125.6154229027
 20
324.9277795685
 30
0.0
 11
129.8475240451
 21
324.9277795685
 31
0.0
  0
SPLINE
  5
1C9
330
1F
100
AcDbEntity
  8
0
  6
Continuous
 62
     7
370
    25
100
AcDbSpline
210
0.0
220
0.0
230
1.0
 70
    24
 71
     3
 72
     9
 73
     5
 74
     0
 42
0.000000001
 43
0.00000001
 40
0.0
 40
0.0
 40
0.0
 40
0.0
 40
0.5721756489474951
 40
1.0
 40
1.0
 40
1.0
 40
1.0
 10
275.0148450118385
 20
344.9277791215031
 30
0.0
 10
275.3190583034875
 20
344.9277791215031
 30
0.0
 10
275.8507364554825
 20
344.9277791215031
 30
0.0
 10
275.8635707178765
 20
344.9277791215031
 30
0.0
 10
275.8690615278564
 20
344.9277791215031
 30
0.0
  0
LWPOLYLINE
  5
1CA
330
1F
100
AcDbEntity
  8
0
  6
Continuous
 62
     7
370
    25
100
AcDbPolyline
 90
        4
 70
   128
 43
0.0
 10
268.7070791704
 20
325.6291525459
 10
270.4630841595
 20
325.6762788651
 10
272.2190965992
 20
325.7234051844
 10
272.8597347719
 20
325.7405983305
  0
LINE
  5
1CB
330
1F
100
AcDbEntity
  8
0
  6
Continuous
 62
     7
370
    25
100
AcDbLine
 10
265.1877676231
 20
325.6285690723
 30
0.0
 11
263.3848910314
 21
325.6282701177
 31
0.0
  0
LWPOLYLINE
  5
1CC
330
1F
100
AcDbEntity
  8
0
  6
Continuous
 62
     7
370
    25
100
AcDbPolyline
 90
        7
 70
   128
 43
0.0
 10
118.0594687444
 20
325.6278165637
 10
116.6668732745
 20
325.6651896072
 10
116.206881879
 20
325.6775347536
 10
115.7468979341
 20
325.6898794344
 10
115.2869139892
 20
325.7022241151
 10
114.8269225937
 20
325.7145687958
 10
113.9069472534
 20
325.7392581573
  0
LINE
  5
1CD
330
1F
100
AcDbEntity
  8
0
  6
Continuous
 62
     7
370
    25
100
AcDbLine
 10
123.3814333659
 20
325.627787227
 30
0.0
 11
124.7578908783
 21
325.6277797764
 31
0.0
  0
LINE
  5
1CE
330
1F
100
AcDbEntity
  8
0
  6
Continuous
 62
     7
370
    25
100
AcDbLine
 10
259.3711068016
 20
323.3277797254
 30
0.0
 11
259.3299944979
 21
324.9277795685
 31
0.0
  0
LINE
  5
1CF
330
1F
100
AcDbEntity
  8
0
  6
Continuous
 62
     7
370
    25
100
AcDbLine
 10
127.3954560143
 20
323.3277797254
 30
0.0
 11
127.436568318
 21
324.9277795685
 31
0.0
  0
SPLINE
  5
1D0
330
1F
100
AcDbEntity
  8
0
  6
Continuous
 62
     7
370
    25
100
AcDbSpline
210
0.0
220
0.0
230
1.0
 70
     8
 71
     3
 72
    12
 73
     8
 74
     0
 42
0.000000001
 43
0.00000001
 40
0.0
 40
0.0
 40
0.0
 40
0.0
 40
0.2169077699774472
 40
0.4338163685182134
 40
0.6507260298666233
 40
0.8677414458314944
 40
1.0
 40
1.0
 40
1.0
 40
1.0
 10
293.1741152983986
 20
323.3190534656792
 30
0.0
 10
293.1733888123778
 20
323.262991541393
 30
0.0
 10
293.171935837561
 20
323.1508674786703
 30
0.0
 10
293.1727301495839
 20
323.0026403833256
 30
0.0
 10
293.1753985072464
 20
322.8917613001673
 30
0.0
 10
293.1789970097238
 20
322.835373820878
 30
0.0
 10
293.1815736621758
 20
322.8298656421852
 30
0.0
 10
293.1825493556343
 20
322.827779876247
 30
0.0
  0
SPLINE
  5
1D1
330
1F
100
AcDbEntity
  8
0
  6
Continuous
 62
     7
370
    25
100
AcDbSpline
210
0.0
220
0.0
230
1.0
 70
     8
 71
     3
 72
    12
 73
     8
 74
     0
 42
0.000000001
 43
0.00000001
 40
0.0
 40
0.0
 40
0.0
 40
0.0
 40
0.2171846484189617
 40
0.4343721649844311
 40
0.6514798120701789
 40
0.8684528640493239
 40
1.0
 40
1.0
 40
1.0
 40
1.0
 10
93.5840432626091
 20
322.827779876247
 30
0.0
 10
93.58563864951941
 20
322.8333081585294
 30
0.0
 10
93.58882944440874
 20
322.8443647961008
 30
0.0
 10
93.59248026719561
 20
322.9305975729887
 30
0.0
 10
93.59441189479013
 20
323.057498470734
 30
0.0
 10
93.59427679695781
 20
323.1953320075418
 30
0.0
 10
93.59298663610424
 20
323.285151546794
 30
0.0
 10
93.59249967158661
 20
323.3190534656792
 30
0.0
  0
LINE
  5
1D2
330
1F
100
AcDbEntity
  8
0
  6
Continuous
 62
     7
370
    25
100
AcDbLine
 10
118.0594240409
 20
325.6239050088
 30
0.0
 11
118.0594836456
 21
325.6291525459
 31
0.0
  0
SPLINE
  5
1D3
330
1F
100
AcDbEntity
  8
0
  6
Continuous
 62
     7
370
    25
100
AcDbSpline
210
0.0
220
0.0
230
1.0
 70
     8
 71
     3
 72
    17
 73
    13
 74
     0
 42
0.000000001
 43
0.00000001
 40
0.0
 40
0.0
 40
0.0
 40
0.0
 40
0.0703599585044414
 40
0.1670984859100277
 40
0.2662962425892358
 40
0.3725116390253304
 40
0.4862508436744906
 40
0.6049503847170185
 40
0.7233089849338065
 40
0.8359608805192301
 40
0.9414806469616848
 40
1.0
 40
1.0
 40
1.0
 40
1.0
 10
250.0456323009811
 20
297.5232346935122
 30
0.0
 10
250.0512260917511
 20
297.5256005747158
 30
0.0
 10
250.0645108347787
 20
297.5312193268491
 30
0.0
 10
250.5965008086259
 20
297.7541322520081
 30
0.0
 10
251.5095566090009
 20
298.1319753717199
 30
0.0
 10
252.7769084314818
 20
298.6472703084166
 30
0.0
 10
254.2944850139863
 20
299.2494037409722
 30
0.0
 10
255.8957608996969
 20
299.8660254535575
 30
0.0
 10
257.3473694881223
 20
300.4066056116892
 30
0.0
 10
258.3894733278789
 20
300.7831420453533
 30
0.0
 10
258.9310782067634
 20
300.9743290295001
 30
0.0
 10
258.9131134233855
 20
300.967973731068
 30
0.0
 10
258.9067046624504
 20
300.9657065404504
 30
0.0
  0
SPLINE
  5
1D4
330
1F
100
AcDbEntity
  8
0
  6
Continuous
 62
     7
370
    25
100
AcDbSpline
210
0.0
220
0.0
230
1.0
 70
     8
 71
     3
 72
     9
 73
     5
 74
     0
 42
0.000000001
 43
0.00000001
 40
0.0
 40
0.0
 40
0.0
 40
0.0
 40
0.2665307071223395
 40
1.0
 40
1.0
 40
1.0
 40
1.0
 10
261.1917381268822
 20
325.6278314648121
 30
0.0
 10
261.1847823455718
 20
325.4215756487573
 30
0.0
 10
261.1586848598993
 20
324.6477217904843
 30
0.0
 10
261.0685857561886
 20
323.8862764793185
 30
0.0
 10
261.0025008303009
 20
323.3277797253727
 30
0.0
  0
SPLINE
  5
1D5
330
1F
100
AcDbEntity
  8
0
  6
Continuous
 62
     7
370
    25
100
AcDbSpline
210
0.0
220
0.0
230
1.0
 70
     8
 71
     3
 72
    12
 73
     8
 74
     0
 42
0.000000001
 43
0.00000001
 40
0.0
 40
0.0
 40
0.0
 40
0.0
 40
0.2203779312185389
 40
0.4407560399937109
 40
0.6607442729655147
 40
0.8773210184416712
 40
0.9999999999999999
 40
0.9999999999999999
 40
0.9999999999999999
 40
0.9999999999999999
 10
125.6512303930603
 20
324.3103273698985
 30
0.0
 10
125.6713805503694
 20
324.1969334314023
 30
0.0
 10
125.7116808812225
 20
323.9701454630494
 30
0.0
 10
125.8923432064483
 20
323.6714985080061
 30
0.0
 10
126.1353010706901
 20
323.4499461451079
 30
0.0
 10
126.379668789841
 20
323.3415194344648
 30
0.0
 10
126.5279056438426
 20
323.3314286685825
 30
0.0
 10
126.5815098863922
 20
323.3277797253727
 30
0.0
  0
LINE
  5
1D6
330
1F
100
AcDbEntity
  8
0
  6
Continuous
 62
     7
370
    25
100
AcDbLine
 10
125.574824689
 20
325.6278314648
 30
0.0
 11
125.6512303931
 21
324.3103273699
 31
0.0
  0
SPLINE
  5
1D7
330
1F
100
AcDbEntity
  8
0
  6
Continuous
 62
     7
370
    25
100
AcDbSpline
210
0.0
220
0.0
230
1.0
 70
    24
 71
     3
 72
    15
 73
    11
 74
     0
 42
0.000000001
 43
0.00000001
 40
0.0
 40
0.0
 40
0.0
 40
0.0
 40
0.1006595593729702
 40
0.2013141356491377
 40
0.3344745675261835
 40
0.4676178431795872
 40
0.6007419890706974
 40
0.733845044053287
 40
0.8669262260265059
 40
1.0
 40
1.0
 40
1.0
 40
1.0
 10
259.7925935965858
 20
318.7277797397151
 30
0.0
 10
261.5029027899532
 20
318.7277797397151
 30
0.0
 10
264.9234365087602
 20
318.7277797397151
 30
0.0
 10
270.236917192159
 20
318.7277797397151
 30
0.0
 10
275.6359389955653
 20
318.7277797397151
 30
0.0
 10
280.8029004259837
 20
318.7277797397151
 30
0.0
 10
285.1147177245088
 20
318.7277797397151
 30
0.0
 10
288.3552702037291
 20
318.7277797397151
 30
0.0
 10
290.4805921635307
 20
318.7277797397151
 30
0.0
 10
290.7490517663467
 20
318.7277797397151
 30
0.0
 10
290.8832778316818
 20
318.7277797397151
 30
0.0
  0
SPLINE
  5
1D8
330
1F
100
AcDbEntity
  8
0
  6
Continuous
 62
     7
370
    25
100
AcDbSpline
210
0.0
220
0.0
230
1.0
 70
     8
 71
     3
 72
    47
 73
    43
 74
     0
 42
0.000000001
 43
0.00000001
 40
0.0
 40
0.0
 40
0.0
 40
0.0
 40
0.0024470165469995
 40
0.00734737821474
 40
0.0079616046802401
 40
0.0104125363526483
 40
0.0202122656242189
 40
0.0594253872619038
 40
0.0986370324778757
 40
0.1378473378316804
 40
0.1574476602003917
 40
0.1966563596234449
 40
0.2162565377066052
 40
0.2554641161473151
 40
0.275064158051021
 40
0.3142708838062448
 40
0.3338708629258144
 40
0.3730770231956923
 40
0.3926769332855675
 40
0.4318826726490523
 40
0.4514825633794431
 40
0.4906881873302884
 40
0.5102880567847624
 40
0.5494936279671384
 40
0.569093509712623
 40
0.6082992538618228
 40
0.6278991625924132
 40
0.6671052198362444
 40
0.6867051941790482
 40
0.7259117859187276
 40
0.7455118296437709
 40
0.7847191852240945
 40
0.8043193521277445
 40
0.8435278061932345
 40
0.8827371147262955
 40
0.9409938485144335
 40
0.970327600650711
 40
0.9850381913805719
 40
0.9924072859639473
 40
0.9928788921052998
 40
0.9947614832361219
 40
1.0
 40
1.0
 40
1.0
 40
1.0
 10
126.974766431459
 20
318.7278664691298
 30
0.0
 10
127.0587892092849
 20
318.7507161210264
 30
0.0
 10
127.3110748458888
 20
318.8193241714151
 30
0.0
 10
127.5770968180665
 20
318.9141774676884
 30
0.0
 10
127.8782192882736
 20
318.9443195265655
 30
0.0
 10
128.3916576302775
 20
318.9249744688395
 30
0.0
 10
130.4142396126013
 20
318.9581807757443
 30
0.0
 10
133.9920819882299
 20
318.9301002101757
 30
0.0
 10
138.8842369969427
 20
318.941195206071
 30
0.0
 10
143.066157972152
 20
318.9392684003012
 30
0.0
 10
147.3102004989
 20
318.94013319905
 30
0.0
 10
150.7532855655434
 20
318.9402810478331
 30
0.0
 10
155.1065064280578
 20
318.9406749787838
 30
0.0
 10
158.626148903818
 20
318.9409911241352
 30
0.0
 10
163.0628012253206
 20
318.9412689222083
 30
0.0
 10
166.6398421985308
 20
318.9412972532888
 30
0.0
 10
171.138125623509
 20
318.9414992724163
 30
0.0
 10
174.7565545342157
 20
318.9417884793972
 30
0.0
 10
179.2970529197873
 20
318.9418993144404
 30
0.0
 10
182.941909904094
 20
318.9418710370305
 30
0.0
 10
187.5070337543104
 20
318.9419293219043
 30
0.0
 10
191.1649211350444
 20
318.9420503451092
 30
0.0
 10
195.738076952124
 20
318.9420456006645
 30
0.0
 10
199.3958535782666
 20
318.9420293934384
 30
0.0
 10
203.9607223034221
 20
318.9419782715224
 30
0.0
 10
207.605288348252
 20
318.9419119168721
 30
0.0
 10
212.1452222734651
 20
318.941790613073
 30
0.0
 10
215.7630169525686
 20
318.9416602598748
 30
0.0
 10
220.2603835376057
 20
318.9414581615814
 30
0.0
 10
223.8366223833602
 20
318.9412602420122
 30
0.0
 10
228.2720825303815
 20
318.9409912568156
 30
0.0
 10
231.7905318837134
 20
318.940675186563
 30
0.0
 10
236.1422343744562
 20
318.9404708214147
 30
0.0
 10
240.4438782765587
 20
318.938927255306
 30
0.0
 10
246.3341361630007
 20
318.9436019029288
 30
0.0
 10
251.6381343795126
 20
318.9184277602316
 30
0.0
 10
255.80817305829
 20
318.9654078044935
 30
0.0
 10
257.8250474339031
 20
318.8979918615233
 30
0.0
 10
258.750115012904
 20
318.9807604727736
 30
0.0
 10
259.1032985537497
 20
318.9150902830796
 30
0.0
 10
259.3668297124515
 20
318.8429790095937
 30
0.0
 10
259.6120300506977
 20
318.7766571008618
 30
0.0
 10
259.7924073320709
 20
318.7278685646056
 30
0.0
  0
SPLINE
  5
1D9
330
1F
100
AcDbEntity
  8
0
  6
Continuous
 62
     7
370
    25
100
AcDbSpline
210
0.0
220
0.0
230
1.0
 70
    24
 71
     3
 72
    15
 73
    11
 74
     0
 42
0.000000001
 43
0.00000001
 40
0.0
 40
0.0
 40
0.0
 40
0.0
 40
0.1330713464866408
 40
0.2661521041980403
 40
0.399253157105303
 40
0.5323758918380105
 40
0.6655176352360791
 40
0.7986761739293065
 40
0.8993365607119427
 40
1.0
 40
1.0
 40
1.0
 40
1.0
 10
95.8832849842392
 20
318.7277797397151
 30
0.0
 10
96.01751518440423
 20
318.7277797397151
 30
0.0
 10
96.28598507791683
 20
318.7277797397151
 30
0.0
 10
98.41127090487888
 20
318.7277797397151
 30
0.0
 10
101.6518587560412
 20
318.7277797397151
 30
0.0
 10
105.9636544637613
 20
318.7277797397151
 30
0.0
 10
111.1306335364212
 20
318.7277797397151
 30
0.0
 10
116.5297325329012
 20
318.7277797397151
 30
0.0
 10
121.8434276167085
 20
318.7277797397151
 30
0.0
 10
125.2641786948662
 20
318.7277797397151
 30
0.0
 10
126.9745801669441
 20
318.7277797397151
 30
0.0
  0
LINE
  5
1DA
330
1F
100
AcDbEntity
  8
0
  6
Continuous
 62
     7
370
    25
100
AcDbLine
 10
93.8846592885
 20
322.6277797503
 30
0.0
 11
93.4433763009
 21
325.6277788451
 31
0.0
  0
SPLINE
  5
1DB
330
1F
100
AcDbEntity
  8
0
  6
Continuous
 62
     7
370
    25
100
AcDbSpline
210
0.0
220
0.0
230
1.0
 70
    24
 71
     3
 72
    17
 73
    13
 74
     0
 42
0.000000001
 43
0.00000001
 40
0.0
 40
0.0
 40
0.0
 40
0.0
 40
0.0980627562130872
 40
0.1955165584556144
 40
0.2894346048841315
 40
0.3831886699172065
 40
0.4766821499029989
 40
0.5710605320357974
 40
0.6648197193245087
 40
0.7581431293896856
 40
0.8792537654420496
 40
1.0
 40
1.0
 40
1.0
 40
1.0
 10
124.5140855294548
 20
325.6277797764092
 30
0.0
 10
122.9027268957375
 20
325.6277797764092
 30
0.0
 10
119.6900159066892
 20
325.6277797764092
 30
0.0
 10
115.2256044203264
 20
325.6277797764092
 30
0.0
 10
111.0798134620791
 20
325.6277797764092
 30
0.0
 10
107.2940882744501
 20
325.6277797764092
 30
0.0
 10
103.8454462045181
 20
325.6277797764092
 30
0.0
 10
100.7932734280969
 20
325.6277797764092
 30
0.0
 10
98.18978318992777
 20
325.6277797764092
 30
0.0
 10
95.90354109707717
 20
325.6277797764092
 30
0.0
 10
94.10063696487948
 20
325.6277797764092
 30
0.0
 10
93.66218338083924
 20
325.6277797764092
 30
0.0
 10
93.44328689397202
 20
325.6277797764092
 30
0.0
  0
LINE
  5
1DC
330
1F
100
AcDbEntity
  8
0
  6
Continuous
 62
     7
370
    25
100
AcDbLine
 10
124.5141004306
 20
325.6277779138
 30
0.0
 11
124.5816920978
 21
324.3103273699
 31
0.0
  0
SPLINE
  5
1DD
330
1F
100
AcDbEntity
  8
0
  6
Continuous
 62
     7
370
    25
100
AcDbSpline
210
0.0
220
0.0
230
1.0
 70
     8
 71
     3
 72
    12
 73
     8
 74
     0
 42
0.000000001
 43
0.00000001
 40
0.0
 40
0.0
 40
0.0
 40
0.0
 40
0.2130914654905852
 40
0.4261344123245014
 40
0.6406270887967176
 40
0.8581580083078573
 40
1.0
 40
1.0
 40
1.0
 40
1.0
 10
125.4967649561249
 20
323.3277797253727
 30
0.0
 10
125.4031122447636
 20
323.3385326981106
 30
0.0
 10
125.2158281457658
 20
323.360036195249
 30
0.0
 10
124.9519939273651
 20
323.5278089330233
 30
0.0
 10
124.7408299367791
 20
323.7759591808045
 30
0.0
 10
124.616506345359
 20
324.0527302940947
 30
0.0
 10
124.5915444030315
 20
324.2374283358214
 30
0.0
 10
124.5816920977913
 20
324.3103273698985
 30
0.0
  0
LINE
  5
1DE
330
1F
100
AcDbEntity
  8
0
  6
Continuous
 62
     7
370
    25
100
AcDbLine
 10
129.0820588452
 20
323.3277797254
 30
0.0
 11
125.4967649561
 21
323.3277797254
 31
0.0
  0
SPLINE
  5
1DF
330
1F
100
AcDbEntity
  8
0
  6
Continuous
 62
     7
370
    25
100
AcDbSpline
210
0.0
220
0.0
230
1.0
 70
     8
 71
     3
 72
    12
 73
     8
 74
     0
 42
0.000000001
 43
0.00000001
 40
0.0
 40
0.0
 40
0.0
 40
0.0
 40
0.2193807975432556
 40
0.4387606279761267
 40
0.657889440489553
 40
0.8747112445331771
 40
1.0
 40
1.0
 40
1.0
 40
1.0
 10
129.8606743198715
 20
324.3103273698985
 30
0.0
 10
129.8568712660133
 20
324.1972891273832
 30
0.0
 10
129.8492651750622
 20
323.9712131406663
 30
0.0
 10
129.7193218309733
 20
323.6731776005568
 30
0.0
 10
129.5158422710127
 20
323.4515428729669
 30
0.0
 10
129.2885309178895
 20
323.3419149082901
 30
0.0
 10
129.1374047307991
 20
323.3315687328001
 30
0.0
 10
129.0820588451706
 20
323.3277797253727
 30
0.0
  0
LINE
  5
1E0
330
1F
100
AcDbEntity
  8
0
  6
Continuous
 62
     7
370
    25
100
AcDbLine
 10
129.8606743199
 20
324.3103273699
 30
0.0
 11
129.8326228839
 21
325.6277797764
 31
0.0
  0
SPLINE
  5
1E1
330
1F
100
AcDbEntity
  8
0
  6
Continuous
 62
     7
370
    25
100
AcDbSpline
210
0.0
220
0.0
230
1.0
 70
    24
 71
     3
 72
    21
 73
    17
 74
     0
 42
0.000000001
 43
0.00000001
 40
0.0
 40
0.0
 40
0.0
 40
0.0
 40
0.0611606967646204
 40
0.1237305396061193
 40
0.1847576217499739
 40
0.2468399742955702
 40
0.3307374632268813
 40
0.4155992155713945
 40
0.5006314344084275
 40
0.564038142638732
 40
0.6272768183700272
 40
0.6909737307126268
 40
0.7539542652781496
 40
0.8366384771002019
 40
0.9188043919642522
 40
1.0
 40
1.0
 40
1.0
 40
1.0
 10
256.9339473825775
 20
325.6277797764092
 30
0.0
 10
254.5674138438588
 20
325.6277797764092
 30
0.0
 10
249.7798216934856
 20
325.6277797764092
 30
0.0
 10
242.2733999258373
 20
325.6277797764092
 30
0.0
 10
234.5433312819917
 20
325.6277797764092
 30
0.0
 10
225.7332952805299
 20
325.6277797764092
 30
0.0
 10
215.724682150394
 20
325.6277797764092
 30
0.0
 10
204.5734015318225
 20
325.6277797764092
 30
0.0
 10
194.2559188835999
 20
325.6277797764092
 30
0.0
 10
184.8969648774729
 20
325.6277797764092
 30
0.0
 10
176.5114297274523
 20
325.6277797764092
 30
0.0
 10
168.206169276498
 20
325.6277797764092
 30
0.0
 10
159.154125386095
 20
325.6277797764092
 30
0.0
 10
149.4938823515008
 20
325.6277797764092
 30
0.0
 10
139.338698703615
 20
325.6277797764092
 30
0.0
 10
132.9887377194345
 20
325.6277797764092
 30
0.0
 10
129.8326154333435
 20
325.6277797764092
 30
0.0
  0
SPLINE
  5
1E2
330
1F
100
AcDbEntity
  8
0
  6
Continuous
 62
     7
370
    25
100
AcDbSpline
210
0.0
220
0.0
230
1.0
 70
     8
 71
     3
 72
     9
 73
     5
 74
     0
 42
0.000000001
 43
0.00000001
 40
0.0
 40
0.0
 40
0.0
 40
0.0
 40
0.8238575353763714
 40
1.0
 40
1.0
 40
1.0
 40
1.0
 10
256.838706610807
 20
323.3277797253727
 30
0.0
 10
256.8821759798656
 20
323.9570653842693
 30
0.0
 10
256.9349391909694
 20
324.7208936335419
 30
0.0
 10
256.9340895838831
 20
325.4925399567084
 30
0.0
 10
256.9339399319969
 20
325.6284596418886
 30
0.0
  0
LINE
  5
1E3
330
1F
100
AcDbEntity
  8
0
  6
Continuous
 62
     7
370
    25
100
AcDbLine
 10
262.0876927954
 20
323.3277797254
 30
0.0
 11
256.8387066108
 21
323.3277797254
 31
0.0
  0
LINE
  5
1E4
330
1F
100
AcDbEntity
  8
0
  6
Continuous
 62
     7
370
    25
100
AcDbLine
 10
262.2524772865
 20
325.6283939836
 30
0.0
 11
262.0876927954
 21
323.3277797254
 31
0.0
  0
SPLINE
  5
1E5
330
1F
100
AcDbEntity
  8
0
  6
Continuous
 62
     7
370
    25
100
AcDbSpline
210
0.0
220
0.0
230
1.0
 70
    24
 71
     3
 72
    17
 73
    13
 74
     0
 42
0.000000001
 43
0.00000001
 40
0.0
 40
0.0
 40
0.0
 40
0.0
 40
0.1213319932787456
 40
0.2436349289565041
 40
0.3367916594919459
 40
0.4306812657979193
 40
0.5255080961293475
 40
0.6184561205744227
 40
0.7121249446268035
 40
0.8064533000434989
 40
0.9021971959674465
 40
1.0
 40
1.0
 40
1.0
 40
1.0
 10
293.3232684713684
 20
325.6277797764092
 30
0.0
 10
293.1027902376077
 20
325.6277797764092
 30
0.0
 10
292.6600694236888
 20
325.6277797764092
 30
0.0
 10
290.8389110525006
 20
325.6277797764092
 30
0.0
 10
288.5335978581662
 20
325.6277797764092
 30
0.0
 10
285.9177718863743
 20
325.6277797764092
 30
0.0
 10
282.8563109278771
 20
325.6277797764092
 30
0.0
 10
279.4024176807509
 20
325.6277797764092
 30
0.0
 10
275.6142958082752
 20
325.6277797764092
 30
0.0
 10
271.4831035362882
 20
325.6277797764092
 30
0.0
 10
267.040648330127
 20
325.6277797764092
 30
0.0
 10
263.8600063442514
 20
325.6277797764092
 30
0.0
 10
262.2527678591095
 20
325.6277797764092
 30
0.0
  0
LINE
  5
1E6
330
1F
100
AcDbEntity
  8
0
  6
Continuous
 62
     7
370
    25
100
AcDbLine
 10
293.323186515
 20
325.6277811734
 30
0.0
 11
292.8819035274
 21
322.6277797503
 31
0.0
  0
SPLINE
  5
1E7
330
1F
100
AcDbEntity
  8
0
  6
Continuous
 62
     7
370
    25
100
AcDbSpline
210
0.0
220
0.0
230
1.0
 70
     8
 71
     3
 72
    36
 73
    32
 74
     0
 42
0.000000001
 43
0.00000001
 40
0.0
 40
0.0
 40
0.0
 40
0.0
 40
0.0162269303776377
 40
0.0323351627330293
 40
0.0513970545784752
 40
0.0705088662579063
 40
0.0898367689093748
 40
0.1090323032692157
 40
0.1285945259763883
 40
0.1481580484816117
 40
0.2068380178044721
 40
0.2655314486536196
 40
0.3242384376630428
 40
0.3829501583451556
 40
0.4416678618213078
 40
0.5003876515026465
 40
0.5591071341001874
 40
0.617824521072431
 40
0.6765363744579295
 40
0.7352435560919499
 40
0.7939367290332187
 40
0.8526183975885688
 40
0.8721805057799784
 40
0.8917424591440877
 40
0.9108018097744282
 40
0.9252375335819086
 40
0.9396422852923659
 40
0.953921926593591
 40
0.968196382544561
 40
0.9840402862920379
 40
1.0
 40
1.0
 40
1.0
 40
1.0
 10
125.4717608076416
 20
311.2909958718269
 30
0.0
 10
124.9682304284389
 20
311.8286245009752
 30
0.0
 10
123.9648529335196
 20
312.8999490712342
 30
0.0
 10
122.9442516186446
 20
314.6309918725789
 30
0.0
 10
122.8044924808832
 20
316.3236936747948
 30
0.0
 10
124.0495469331147
 20
317.5585757133991
 30
0.0
 10
126.06494746751
 20
318.3067679602007
 30
0.0
 10
128.4901512272455
 20
318.8407570125187
 30
0.0
 10
131.4864365441376
 20
318.6966702131989
 30
0.0
 10
136.3918134310304
 20
318.7532899251121
 30
0.0
 10
143.6009061706044
 20
318.7165030201409
 30
0.0
 10
153.183927967444
 20
318.729179234527
 30
0.0
 10
163.0440847629799
 20
318.725781241438
 30
0.0
 10
173.0856042461465
 20
318.7266931563165
 30
0.0
 10
183.2448082278104
 20
318.7264440546638
 30
0.0
 10
193.4603742845526
 20
318.7265284306098
 30
0.0
 10
203.6755232067904
 20
318.7264400459898
 30
0.0
 10
213.8334651704486
 20
318.7267091906208
 30
0.0
 10
223.8725276720931
 20
318.7257211146066
 30
0.0
 10
233.7296234710739
 20
318.7294036598993
 30
0.0
 10
243.3071322017072
 20
318.7156656670885
 30
0.0
 10
250.513978799094
 20
318.7555344582516
 30
0.0
 10
255.410936371334
 20
318.6941738929695
 30
0.0
 10
258.4079310235692
 20
318.8499634434847
 30
0.0
 10
260.5864072111164
 20
318.323693267163
 30
0.0
 10
262.2835901194539
 20
317.7187202926114
 30
0.0
 10
263.4413034490757
 20
316.934027556911
 30
0.0
 10
263.9638061674792
 20
315.8322582244959
 30
0.0
 10
263.7053542092301
 20
314.4302843951833
 30
0.0
 10
262.7828073255662
 20
312.8774302634716
 30
0.0
 10
261.7950574523225
 20
311.8240233553715
 30
0.0
 10
261.2993841153465
 20
311.2954019589274
 30
0.0
  0
SPLINE
  5
1E8
330
1F
100
AcDbEntity
  8
0
  6
Continuous
 62
     7
370
    25
100
AcDbSpline
210
0.0
220
0.0
230
1.0
 70
     8
 71
     3
 72
    45
 73
    41
 74
     0
 42
0.000000001
 43
0.00000001
 40
0.0
 40
0.0
 40
0.0
 40
0.0
 40
0.0115265309303376
 40
0.0230662842286591
 40
0.0349456832061433
 40
0.0506807637388961
 40
0.0664321651602701
 40
0.0790369241031883
 40
0.0919594117005433
 40
0.0990859646658997
 40
0.1062506652841368
 40
0.1347580186192848
 40
0.1490080249614017
 40
0.2060676215181613
 40
0.2631168065894982
 40
0.291620600553606
 40
0.3486602578401931
 40
0.3771631950663144
 40
0.4341977759264878
 40
0.4912309544372427
 40
0.5197333998751037
 40
0.5767664502681744
 40
0.6338008068797434
 40
0.6623037524146616
 40
0.7193427706601874
 40
0.7763874483956102
 40
0.8048921456283716
 40
0.8395914750071182
 40
0.8744070746214668
 40
0.8877082235247162
 40
0.8943584561616508
 40
0.8996241638214553
 40
0.9049665845776792
 40
0.9211327105274757
 40
0.9324286259786339
 40
0.9440807418646112
 40
0.9597271983406466
 40
0.975331978664647
 40
0.9875262250745203
 40
1.0
 40
1.0
 40
1.0
 40
1.0
 10
125.4717608076416
 20
311.2909958718269
 30
0.0
 10
125.1070504664368
 20
311.6668943831057
 30
0.0
 10
124.3772114157977
 20
312.4191226081188
 30
0.0
 10
123.5219097770459
 20
313.5725106383404
 30
0.0
 10
122.9036344425676
 20
314.8367548247266
 30
0.0
 10
122.8709116690915
 20
316.1173850885412
 30
0.0
 10
123.7145822736614
 20
317.0830386914296
 30
0.0
 10
124.9761918422283
 20
317.7244086868994
 30
0.0
 10
126.1890920492402
 20
318.0978986986845
 30
0.0
 10
127.2684104513551
 20
318.3680455907045
 30
0.0
 10
129.0986203477852
 20
318.6973075441642
 30
0.0
 10
131.7398801163471
 20
318.4778092247213
 30
0.0
 10
136.7560538146491
 20
318.5304070224315
 30
0.0
 10
143.5135100575865
 20
318.4797034809072
 30
0.0
 10
151.2604326321809
 20
318.4812934900022
 30
0.0
 10
159.1718901437196
 20
318.4689250208694
 30
0.0
 10
165.6074912487264
 20
318.4622817926207
 30
0.0
 10
173.740711889566
 20
318.4539974972317
 30
0.0
 10
181.9483986275604
 20
318.4479261864387
 30
0.0
 10
190.2057052184594
 20
318.4461845522764
 30
0.0
 10
198.4654953269129
 20
318.4465104033136
 30
0.0
 10
206.7166437703853
 20
318.450055769414
 30
0.0
 10
214.9096148047965
 20
318.4564228555457
 30
0.0
 10
223.0208556050127
 20
318.4643359866989
 30
0.0
 10
231.0372380255545
 20
318.4741900557346
 30
0.0
 10
238.8635343942055
 20
318.4837841535329
 30
0.0
 10
245.3001896967932
 20
318.4963152292715
 30
0.0
 10
250.4226249307883
 20
318.4934461990258
 30
0.0
 10
254.6560927017479
 20
318.533774985128
 30
0.0
 10
257.3309483533773
 20
318.4880511615642
 30
0.0
 10
258.6175661058926
 20
318.5572316091774
 30
0.0
 10
259.3315167078119
 20
318.3945600182083
 30
0.0
 10
260.4171928493299
 20
318.1490079956904
 30
0.0
 10
261.6563933815362
 20
317.7833494606807
 30
0.0
 10
262.862212183975
 20
317.1825374104924
 30
0.0
 10
263.7096361391788
 20
316.4006180751718
 30
0.0
 10
263.9815162034574
 20
315.2305158609403
 30
0.0
 10
263.4219375535156
 20
313.8354625624787
 30
0.0
 10
262.4715692087439
 20
312.5077298660662
 30
0.0
 10
261.6930530947184
 20
311.7025525809202
 30
0.0
 10
261.2993841153465
 20
311.2954019589274
 30
0.0
  0
SPLINE
  5
1E9
330
1F
100
AcDbEntity
  8
0
  6
Continuous
 62
     7
370
    25
100
AcDbSpline
210
0.0
220
0.0
230
1.0
 70
     8
 71
     3
 72
    12
 73
     8
 74
     0
 42
0.000000001
 43
0.00000001
 40
0.0
 40
0.0
 40
0.0
 40
0.0
 40
0.0455879274774909
 40
0.2280411084627234
 40
0.5515019302164521
 40
0.8863737823389729
 40
0.9999999999999999
 40
0.9999999999999999
 40
0.9999999999999999
 40
0.9999999999999999
 10
261.4476730209671
 20
311.0887377543299
 30
0.0
 10
261.5136600946243
 20
311.1524586976606
 30
0.0
 10
261.843742339061
 20
311.471205246439
 30
0.0
 10
262.6014882865683
 20
312.2501017791288
 30
0.0
 10
263.527726662262
 20
313.4376561837149
 30
0.0
 10
264.2286119490921
 20
314.558714912672
 30
0.0
 10
264.2015446418202
 20
315.1096645792436
 30
0.0
 10
264.1946871858917
 20
315.2492467334419
 30
0.0
  0
SPLINE
  5
1EA
330
1F
100
AcDbEntity
  8
0
  6
Continuous
 62
     7
370
    25
100
AcDbSpline
210
0.0
220
0.0
230
1.0
 70
     8
 71
     3
 72
    12
 73
     8
 74
     0
 42
0.000000001
 43
0.00000001
 40
0.0
 40
0.0
 40
0.0
 40
0.0
 40
0.1371628192885098
 40
0.4270312413354396
 40
0.6538159764781651
 40
0.8864201337792285
 40
1.0
 40
1.0
 40
1.0
 40
1.0
 10
264.2006998044334
 20
315.5991953818052
 30
0.0
 10
264.2265145350628
 20
315.8384467879343
 30
0.0
 10
264.3068839567661
 20
316.5833120909406
 30
0.0
 10
263.4578829227993
 20
317.3936075728662
 30
0.0
 10
262.1359527896734
 20
318.0833045491486
 30
0.0
 10
260.8811151842928
 20
318.4705092504037
 30
0.0
 10
260.0616529538194
 20
318.6642237528043
 30
0.0
 10
259.792794762262
 20
318.7277797397151
 30
0.0
  0
SPLINE
  5
1EB
330
1F
100
AcDbEntity
  8
0
  6
Continuous
 62
     7
370
    25
100
AcDbSpline
210
0.0
220
0.0
230
1.0
 70
     8
 71
     3
 72
    15
 73
    11
 74
     0
 42
0.000000001
 43
0.00000001
 40
0.0
 40
0.0
 40
0.0
 40
0.0
 40
0.0982557210811439
 40
0.1955664804206863
 40
0.2930152428601075
 40
0.4305451680851243
 40
0.5672908085210331
 40
0.7040529013808705
 40
0.9100623712119222
 40
1.0
 40
1.0
 40
1.0
 40
1.0
 10
261.4476730209671
 20
311.0887377543299
 30
0.0
 10
260.4325242581081
 20
310.210445873093
 30
0.0
 10
258.4119897948601
 20
308.4623089696579
 30
0.0
 10
254.7843405823752
 20
306.0346124663141
 30
0.0
 10
250.4163483700814
 20
303.4682420605727
 30
0.0
 10
245.2148521602497
 20
300.8655752996941
 30
0.0
 10
239.1849550945241
 20
298.3359538214362
 30
0.0
 10
231.8985158862573
 20
295.8203482865235
 30
0.0
 10
225.1379154752216
 20
293.8911748126368
 30
0.0
 10
220.3793830323763
 20
293.0502749407417
 30
0.0
 10
218.9332761895739
 20
292.7947274429648
 30
0.0
  0
SPLINE
  5
1EC
330
1F
100
AcDbEntity
  8
0
  6
Continuous
 62
     7
370
    25
100
AcDbSpline
210
0.0
220
0.0
230
1.0
 70
     8
 71
     3
 72
    16
 73
    12
 74
     0
 42
0.000000001
 43
0.00000001
 40
0.0
 40
0.0
 40
0.0
 40
0.0
 40
0.0472037385878469
 40
0.2216539855392814
 40
0.3974695180829075
 40
0.5153164380374711
 40
0.6331588759823641
 40
0.7511170171548089
 40
0.8335617175184263
 40
0.9161722404927897
 40
1.0
 40
1.0
 40
1.0
 40
1.0
 10
176.0570102465235
 20
291.4626493139117
 30
0.0
 10
175.157532405009
 20
291.5558867481507
 30
0.0
 10
170.9338659234884
 20
291.9937005637253
 30
0.0
 10
163.4851561201139
 20
293.5128741773656
 30
0.0
 10
154.8906728683457
 20
295.788123590264
 30
0.0
 10
147.5793481660595
 20
298.3407076560171
 30
0.0
 10
141.5116376168292
 20
300.8835277224711
 30
0.0
 10
136.3010944455222
 20
303.4936701721958
 30
0.0
 10
131.9550007609946
 20
306.0544240873536
 30
0.0
 10
128.3486041892434
 20
308.4665621180242
 30
0.0
 10
126.3369520462255
 20
310.20721902362
 30
0.0
 10
125.3237699252449
 20
311.0839125720709
 30
0.0
  0
SPLINE
  5
1ED
330
1F
100
AcDbEntity
  8
0
  6
Continuous
 62
     7
370
    25
100
AcDbSpline
210
0.0
220
0.0
230
1.0
 70
     8
 71
     3
 72
    13
 73
     9
 74
     0
 42
0.000000001
 43
0.00000001
 40
0.0
 40
0.0
 40
0.0
 40
0.0
 40
0.0337035060703943
 40
0.1685613599711027
 40
0.3862438360509876
 40
0.6084875422644912
 40
0.9025098043628921
 40
1.0
 40
1.0
 40
1.0
 40
1.0
 10
126.9743864518486
 20
318.7277797397151
 30
0.0
 10
126.894107653466
 20
318.7092963818241
 30
0.0
 10
126.4926092632409
 20
318.6168555557442
 30
0.0
 10
125.6035759285376
 20
318.3868965909684
 30
0.0
 10
124.3790839660347
 20
317.9781144309412
 30
0.0
 10
123.1537009900917
 20
317.2674237610618
 30
0.0
 10
122.4094178731303
 20
316.4759888394005
 30
0.0
 10
122.5273420463787
 20
315.7843763250495
 30
0.0
 10
122.556706247934
 20
315.6121584607213
 30
0.0
  0
SPLINE
  5
1EE
330
1F
100
AcDbEntity
  8
0
  6
Continuous
 62
     7
370
    25
100
AcDbSpline
210
0.0
220
0.0
230
1.0
 70
     8
 71
     3
 72
    12
 73
     8
 74
     0
 42
0.000000001
 43
0.00000001
 40
0.0
 40
0.0
 40
0.0
 40
0.0
 40
0.1743101025447956
 40
0.4302867140808682
 40
0.6934258425620974
 40
0.9435988735913526
 40
1.0
 40
1.0
 40
1.0
 40
1.0
 10
122.5921039563499
 20
315.2639532482176
 30
0.0
 10
122.5947017151817
 20
315.0442379004808
 30
0.0
 10
122.6011143160313
 20
314.501867758816
 30
0.0
 10
123.205621199408
 20
313.5029236377069
 30
0.0
 10
124.0279373254264
 20
312.4068331497547
 30
0.0
 10
124.7962540036427
 20
311.5945507358157
 30
0.0
 10
125.2418015557693
 20
311.1632583812876
 30
0.0
 10
125.3237699252449
 20
311.0839125720709
 30
0.0
  0
SPLINE
  5
1EF
330
1F
100
AcDbEntity
  8
0
  6
Continuous
 62
     7
370
    25
100
AcDbSpline
210
0.0
220
0.0
230
1.0
 70
     8
 71
     3
 72
    37
 73
    33
 74
     0
 42
0.000000001
 43
0.00000001
 40
0.0
 40
0.0
 40
0.0
 40
0.0
 40
0.0022761584356862
 40
0.0113845470110926
 40
0.0479503050425349
 40
0.0844327365393149
 40
0.1208847305409969
 40
0.1573287543468513
 40
0.1937660359238858
 40
0.2302003107176115
 40
0.3031438758928278
 40
0.3395727214344423
 40
0.3760006747688777
 40
0.4124277542530627
 40
0.4488542837310294
 40
0.4670642076536664
 40
0.4852741494336498
 40
0.5034841150235653
 40
0.539911059765281
 40
0.5763378155598411
 40
0.6127648002327417
 40
0.6491920658432458
 40
0.6856199150963443
 40
0.7585525776475619
 40
0.7949848979403843
 40
0.831420275816801
 40
0.868014090990814
 40
0.9002441631962559
 40
0.9326599307411946
 40
0.9652955139174394
 40
0.9981271369988487
 40
1.0
 40
1.0
 40
1.0
 40
1.0
 10
261.2993841153465
 20
311.2954019589274
 30
0.0
 10
261.234397917462
 20
311.2318082783329
 30
0.0
 10
260.9093597244751
 20
310.9137349689422
 30
0.0
 10
259.4609709963376
 20
309.5857842694248
 30
0.0
 10
256.5936100437983
 20
307.3963979627847
 30
0.0
 10
252.3367047888768
 20
304.7127780659274
 30
0.0
 10
247.7948114055371
 20
302.2602233609266
 30
0.0
 10
243.0349654953103
 20
300.043562763586
 30
0.0
 10
238.106424076201
 20
298.0610881845179
 30
0.0
 10
231.3538203068613
 20
295.7265509011059
 30
0.0
 10
224.3805802326808
 20
293.8510683122493
 30
0.0
 10
217.2802358824248
 20
292.4234593110878
 30
0.0
 10
211.9042735517902
 20
291.5746293295687
 30
0.0
 10
206.4901282189421
 20
290.9440729982919
 30
0.0
 10
201.95654796502
 20
290.5975627188588
 30
0.0
 10
198.3224651626808
 20
290.4288057496689
 30
0.0
 10
195.5945320735625
 20
290.3567489130404
 30
0.0
 10
191.9554659125344
 20
290.3339062995897
 30
0.0
 10
187.4065974158785
 20
290.4431751798435
 30
0.0
 10
181.9600608335662
 20
290.7909786367258
 30
0.0
 10
176.5368182667808
 20
291.355841241509
 30
0.0
 10
171.1483855734901
 20
292.1382836550039
 30
0.0
 10
164.0238987161358
 20
293.472606504089
 30
0.0
 10
157.0181336186947
 20
295.2548121374209
 30
0.0
 10
150.2176374999955
 20
297.4932952869781
 30
0.0
 10
145.237866096428
 20
299.4062670325412
 30
0.0
 10
140.6013591540706
 20
301.4713808534284
 30
0.0
 10
136.3184747419945
 20
303.661681149243
 30
0.0
 10
132.40271892183
 20
305.9494498643808
 30
0.0
 10
128.7480410808726
 20
308.433493108913
 30
0.0
 10
126.5145326245274
 20
310.2689970826956
 30
0.0
 10
125.5251536533074
 20
311.2386666635236
 30
0.0
 10
125.4717608076416
 20
311.2909958718269
 30
0.0
  0
SPLINE
  5
1F0
330
1F
100
AcDbEntity
  8
0
  6
Continuous
 62
     7
370
    25
100
AcDbSpline
210
0.0
220
0.0
230
1.0
 70
     8
 71
     3
 72
     9
 73
     5
 74
     0
 42
0.000000001
 43
0.00000001
 40
0.0
 40
0.0
 40
0.0
 40
0.0
 40
0.6974244083950293
 40
0.9999999999999999
 40
0.9999999999999999
 40
0.9999999999999999
 40
0.9999999999999999
 10
250.0271399599396
 20
297.5166483802645
 30
0.0
 10
250.0160452510083
 20
297.5120879570115
 30
0.0
 10
250.0001371342321
 20
297.5055490071295
 30
0.0
 10
250.2049018579396
 20
297.5910740354957
 30
0.0
 10
250.2668586653553
 20
297.6169518215506
 30
0.0
  0
LWPOLYLINE
  5
1F1
330
1F
100
AcDbEntity
  8
0
  6
Continuous
 62
     7
370
    25
100
AcDbPolyline
 90
       12
 70
   128
 43
0.0
 10
258.9256440383
 20
300.9737121893
 10
258.9426909667
 20
300.9797192199
 10
258.533013342
 20
300.834596811
 10
257.7219356877
 20
300.5424967987
 10
256.5661047679
 20
300.1162490828
 10
255.1377167088
 20
299.5745806975
 10
253.5659720284
 20
298.9608950002
 10
252.057967065
 20
298.3557681573
 10
250.8635719401
 20
297.8656037731
 10
250.1646217984
 20
297.5743494017
 10
249.9996808451
 20
297.5051167441
 10
249.9996808451
 20
297.5051167441
  0
SPLINE
  5
1F2
330
1F
100
AcDbEntity
  8
0
  6
Continuous
 62
     7
370
    25
100
AcDbSpline
210
0.0
220
0.0
230
1.0
 70
     8
 71
     3
 72
     9
 73
     5
 74
     0
 42
0.000000001
 43
0.00000001
 40
0.0
 40
0.0
 40
0.0
 40
0.0
 40
0.0007061663119194
 40
1.0
 40
1.0
 40
1.0
 40
1.0
 10
143.2832044643246
 20
295.3326801789849
 30
0.0
 10
143.2832206166896
 20
295.3326739666081
 30
0.0
 10
143.306093932475
 20
295.3238766383523
 30
0.0
 10
143.2721737212448
 20
295.3364943349051
 30
0.0
 10
143.2382774633251
 20
295.3491031212657
 30
0.0
  0
SPLINE
  5
1F3
330
1F
100
AcDbEntity
  8
0
  6
Continuous
 62
     7
370
    25
100
AcDbSpline
210
0.0
220
0.0
230
1.0
 70
     8
 71
     3
 72
     9
 73
     5
 74
     0
 42
0.000000001
 43
0.00000001
 40
0.0
 40
0.0
 40
0.0
 40
0.0
 40
0.4368272751237696
 40
1.0
 40
1.0
 40
1.0
 40
1.0
 10
143.2382774633251
 20
295.3491031212657
 30
0.0
 10
143.2205614679981
 20
295.3555801559471
 30
0.0
 10
143.1800054030822
 20
295.3704076061781
 30
0.0
 10
143.1092047946009
 20
295.396304499521
 30
0.0
 10
143.0693318229996
 20
295.4108889235108
 30
0.0
  0
SPLINE
  5
1F4
330
1F
100
AcDbEntity
  8
0
  6
Continuous
 62
     7
370
    25
100
AcDbSpline
210
0.0
220
0.0
230
1.0
 70
     8
 71
     3
 72
     9
 73
     5
 74
     0
 42
0.000000001
 43
0.00000001
 40
0.0
 40
0.0
 40
0.0
 40
0.0
 40
0.7868924602267675
 40
1.0
 40
1.0
 40
1.0
 40
1.0
 10
143.0693318229996
 20
295.4108889235108
 30
0.0
 10
143.0113667830178
 20
295.4321003160788
 30
0.0
 10
142.9377035534004
 20
295.4590562136636
 30
0.0
 10
142.8442684565838
 20
295.4932908122395
 30
0.0
 10
142.8243567329727
 20
295.5005864633172
 30
0.0
  0
LINE
  5
1F5
330
1F
100
AcDbEntity
  8
0
  6
Continuous
 62
     7
370
    25
100
AcDbLine
 10
142.824356733
 20
295.5005864633
 30
0.0
 11
142.5457087439
 21
295.6027804894
 31
0.0
  0
SPLINE
  5
1F6
330
1F
100
AcDbEntity
  8
0
  6
Continuous
 62
     7
370
    25
100
AcDbSpline
210
0.0
220
0.0
230
1.0
 70
     8
 71
     3
 72
     9
 73
     5
 74
     0
 42
0.000000001
 43
0.00000001
 40
0.0
 40
0.0
 40
0.0
 40
0.0
 40
0.9432708385537526
 40
1.0
 40
1.0
 40
1.0
 40
1.0
 10
142.5457087439381
 20
295.6027804894297
 30
0.0
 10
142.3318112177862
 20
295.6813605488605
 30
0.0
 10
142.105049700935
 20
295.7646664841433
 30
0.0
 10
141.8400791666294
 20
295.8623792738639
 30
0.0
 10
141.8250476104103
 20
295.8679224384873
 30
0.0
  0
LINE
  5
1F7
330
1F
100
AcDbEntity
  8
0
  6
Continuous
 62
     7
370
    25
100
AcDbLine
 10
141.8250438851
 20
295.8679261638
 30
0.0
 11
140.8235144895
 21
296.2384994162
 31
0.0
  0
LINE
  5
1F8
330
1F
100
AcDbEntity
  8
0
  6
Continuous
 62
     7
370
    25
100
AcDbLine
 10
140.8235144895
 20
296.2384994162
 30
0.0
 11
139.6003303212
 21
296.6944060309
 31
0.0
  0
SPLINE
  5
1F9
330
1F
100
AcDbEntity
  8
0
  6
Continuous
 62
     7
370
    25
100
AcDbSpline
210
0.0
220
0.0
230
1.0
 70
     8
 71
     3
 72
     9
 73
     5
 74
     0
 42
0.000000001
 43
0.00000001
 40
0.0
 40
0.0
 40
0.0
 40
0.0
 40
0.6275400805867544
 40
1.0
 40
1.0
 40
1.0
 40
1.0
 10
139.6003303212009
 20
296.6944060308783
 30
0.0
 10
139.2202591570123
 20
296.8369711941577
 30
0.0
 10
138.6146067438099
 20
297.0641521626563
 30
0.0
 10
137.9815091869801
 20
297.3034450058476
 30
0.0
 10
137.7457057219826
 20
297.3925719989388
 30
0.0
  0
LINE
  5
1FA
330
1F
100
AcDbEntity
  8
0
  6
Continuous
 62
     7
370
    25
100
AcDbLine
 10
137.745705722
 20
297.3925719989
 30
0.0
 11
136.3898788673
 21
297.9081391377
 31
0.0
  0
SPLINE
  5
1FB
330
1F
100
AcDbEntity
  8
0
  6
Continuous
 62
     7
370
    25
100
AcDbSpline
210
0.0
220
0.0
230
1.0
 70
     8
 71
     3
 72
    10
 73
     6
 74
     0
 42
0.000000001
 43
0.00000001
 40
0.0
 40
0.0
 40
0.0
 40
0.0
 40
0.6773560423332836
 40
0.8830290067788324
 40
1.0
 40
1.0
 40
1.0
 40
1.0
 10
136.3898788672768
 20
297.9081391377299
 30
0.0
 10
135.9529005234437
 20
298.0754363428074
 30
0.0
 10
135.3832377038583
 20
298.293531813437
 30
0.0
 10
134.7313993059568
 20
298.5447403590695
 30
0.0
 10
134.5206611217566
 20
298.625944339239
 30
0.0
 10
134.4442603272282
 20
298.6553839428275
 30
0.0
  0
LINE
  5
1FC
330
1F
100
AcDbEntity
  8
0
  6
Continuous
 62
     7
370
    25
100
AcDbLine
 10
134.4442603272
 20
298.6553839428
 30
0.0
 11
133.8923958224
 21
298.8688821925
 31
0.0
  0
SPLINE
  5
1FD
330
1F
100
AcDbEntity
  8
0
  6
Continuous
 62
     7
370
    25
100
AcDbSpline
210
0.0
220
0.0
230
1.0
 70
     8
 71
     3
 72
    13
 73
     9
 74
     0
 42
0.000000001
 43
0.00000001
 40
0.0
 40
0.0
 40
0.0
 40
0.0
 40
0.1653509713040252
 40
0.3730284881367163
 40
0.576011391124733
 40
0.7672781951099207
 40
0.946900336120792
 40
1.0
 40
1.0
 40
1.0
 40
1.0
 10
133.8923920971237
 20
298.8688803298323
 30
0.0
 10
133.2488537960007
 20
299.1247836549168
 30
0.0
 10
131.7970442442768
 20
299.7020964442677
 30
0.0
 10
129.5360729322769
 20
300.5574089920285
 30
0.0
 10
127.4767900440752
 20
301.2986283325091
 30
0.0
 10
126.1287460076245
 20
301.7614030113033
 30
0.0
 10
125.5246678013381
 20
301.9615800282921
 30
0.0
 10
125.6183572215424
 20
301.9304615661545
 30
0.0
 10
125.6397341471992
 20
301.9233613295405
 30
0.0
  0
SPLINE
  5
1FE
330
1F
100
AcDbEntity
  8
0
  6
Continuous
 62
     7
370
    25
100
AcDbSpline
210
0.0
220
0.0
230
1.0
 70
     8
 71
     3
 72
    33
 73
    29
 74
     0
 42
0.000000001
 43
0.00000001
 40
0.0
 40
0.0
 40
0.0
 40
0.0
 40
0.0133508341595132
 40
0.0400821756667645
 40
0.0668744686894736
 40
0.0936785172291441
 40
0.1471285466012094
 40
0.2005487940065842
 40
0.2539535912897776
 40
0.3073497151627445
 40
0.3607393609340067
 40
0.3874211176761893
 40
0.4408066244733524
 40
0.4674881549821296
 40
0.4941696918527216
 40
0.5208513723340885
 40
0.5742362649385324
 40
0.6009177144518141
 40
0.6543038805593839
 40
0.6809860277919615
 40
0.707668419758543
 40
0.7610631121546725
 40
0.8144678413407411
 40
0.8411530745075673
 40
0.8945860281516745
 40
0.946474530455362
 40
0.9730607922453586
 40
1.0
 40
1.0
 40
1.0
 40
1.0
 10
125.3237699252449
 20
311.0839125720709
 30
0.0
 10
125.7254693371215
 20
310.7142723548328
 30
0.0
 10
126.9314603785577
 20
309.6045301511757
 30
0.0
 10
129.2619420117288
 20
307.8269956174398
 30
0.0
 10
132.2880653913885
 20
305.8071412060201
 30
0.0
 10
136.5840704129041
 20
303.2813951219018
 30
0.0
 10
142.3005810683502
 20
300.4334943528659
 30
0.0
 10
149.5355846376794
 20
297.5225697730535
 30
0.0
 10
157.0427783695324
 20
295.1094834780638
 30
0.0
 10
164.7456892347955
 20
293.1843039448213
 30
0.0
 10
171.2809640518481
 20
291.9783644082048
 30
0.0
 10
177.8714519139392
 20
291.063623866306
 30
0.0
 10
183.1823559037045
 20
290.5642947155363
 30
0.0
 10
188.5104737406624
 20
290.2970383443918
 30
0.0
 10
192.5113214814642
 20
290.212471680022
 30
0.0
 10
197.8478070129135
 20
290.2569022159161
 30
0.0
 10
203.179067347373
 20
290.5357899615017
 30
0.0
 10
209.8116550595444
 20
291.1717730648124
 30
0.0
 10
215.0867927590407
 20
291.9117939264494
 30
0.0
 10
220.3066989817835
 20
292.8875114801588
 30
0.0
 10
225.4834187099426
 20
294.0220379577178
 30
0.0
 10
231.861641554768
 20
295.7393918256244
 30
0.0
 10
238.0597860535505
 20
297.8663883803672
 30
0.0
 10
244.0685618235821
 20
300.3036529436427
 30
0.0
 10
249.7941792412527
 20
303.0240833839686
 30
0.0
 10
255.0904376724735
 20
306.1504663773428
 30
0.0
 10
258.9522718599983
 20
308.8719065591521
 30
0.0
 10
260.6122240691683
 20
310.34655275927
 30
0.0
 10
261.4476730209671
 20
311.0887377543299
 30
0.0
  0
LINE
  5
1FF
330
1F
100
AcDbEntity
  8
0
  6
Continuous
 62
     7
370
    25
100
AcDbLine
 10
124.5816920978
 20
324.3103273699
 30
0.0
 11
125.6512303931
 21
324.3103273699
 31
0.0
  0
SPLINE
  5
200
330
1F
100
AcDbEntity
  8
0
  6
Continuous
 62
     7
370
    25
100
AcDbSpline
210
0.0
220
0.0
230
1.0
 70
     8
 71
     3
 72
    13
 73
     9
 74
     0
 42
0.000000001
 43
0.00000001
 40
0.0
 40
0.0
 40
0.0
 40
0.0
 40
0.2173762627237097
 40
0.4410272097751911
 40
0.6588343034926092
 40
0.882540078728675
 40
0.9976537306840509
 40
1.0
 40
1.0
 40
1.0
 40
1.0
 10
235.8659257274948
 20
293.2614709271043
 30
0.0
 10
235.787276810836
 20
293.2725756763493
 30
0.0
 10
235.6277087336629
 20
293.2951057194803
 30
0.0
 10
234.3488198634087
 20
293.4550692510175
 30
0.0
 10
232.327514447288
 20
293.6641785673782
 30
0.0
 10
230.0030879363223
 20
293.8507221489328
 30
0.0
 10
228.3243645305376
 20
293.9500595207932
 30
0.0
 10
227.7184985213851
 20
293.9821540716333
 30
0.0
 10
227.7063963097416
 20
293.9827951623051
 30
0.0
  0
SPLINE
  5
201
330
1F
100
AcDbEntity
  8
0
  6
Continuous
 62
     7
370
    25
100
AcDbSpline
210
0.0
220
0.0
230
1.0
 70
     8
 71
     3
 72
    14
 73
    10
 74
     0
 42
0.000000001
 43
0.00000001
 40
0.0
 40
0.0
 40
0.0
 40
0.0
 40
0.0023434407815912
 40
0.166749045803
 40
0.3335844975530764
 40
0.5505505220969212
 40
0.7734087965655049
 40
0.9997532298154707
 40
0.9999999999999999
 40
0.9999999999999999
 40
0.9999999999999999
 40
0.9999999999999999
 10
159.0601814073406
 20
293.9827951623051
 30
0.0
 10
159.0480793058022
 20
293.9821540894885
 30
0.0
 10
158.1869464367357
 20
293.9365381382285
 30
0.0
 10
156.5736388692955
 20
293.8362274940746
 30
0.0
 10
154.3528700544732
 20
293.6543931382531
 30
0.0
 10
152.4498245367331
 20
293.4582584284742
 30
0.0
 10
151.2548236256435
 20
293.3110045387128
 30
0.0
 10
150.7589496323456
 20
293.242617409431
 30
0.0
 10
150.9004792296818
 20
293.2614504169315
 30
0.0
 10
150.9006333631359
 20
293.2614709271043
 30
0.0
  0
LINE
  5
202
330
1F
100
AcDbEntity
  8
0
  6
Continuous
 62
     7
370
    25
100
AcDbLine
 10
196.787507562
 20
346.4277802987
 30
0.0
 11
198.3832812962
 21
346.4277802987
 31
0.0
  0
LINE
  5
203
330
1F
100
AcDbEntity
  8
0
  6
Continuous
 62
     7
370
    25
100
AcDbLine
 10
196.787507562
 20
346.4277802987
 30
0.0
 11
196.7875115202
 21
344.9277791215
 31
0.0
  0
LINE
  5
204
330
1F
100
AcDbEntity
  8
0
  6
Continuous
 62
     7
370
    25
100
AcDbLine
 10
188.3832815197
 20
346.4277802987
 30
0.0
 11
189.9790552539
 21
346.4277802987
 31
0.0
  0
LINE
  5
205
330
1F
100
AcDbEntity
  8
0
  6
Continuous
 62
     7
370
    25
100
AcDbLine
 10
189.9790512958
 20
344.9277791215
 30
0.0
 11
189.9790552539
 21
346.4277802987
 31
0.0
  0
LINE
  5
206
330
1F
100
AcDbEntity
  8
0
  6
Continuous
 62
     7
370
    25
100
AcDbLine
 10
189.9790552539
 20
346.4277802987
 30
0.0
 11
190.1609805041
 21
346.4277802987
 31
0.0
  0
LINE
  5
207
330
1F
100
AcDbEntity
  8
0
  6
Continuous
 62
     7
370
    25
100
AcDbLine
 10
190.1867059619
 20
344.9277791215
 30
0.0
 11
190.1609805041
 21
346.4277802987
 31
0.0
  0
LINE
  5
208
330
1F
100
AcDbEntity
  8
0
  6
Continuous
 62
     7
370
    25
100
AcDbLine
 10
196.6055823118
 20
346.4277802987
 30
0.0
 11
196.579856854
 21
344.9277791215
 31
0.0
  0
LINE
  5
209
330
1F
100
AcDbEntity
  8
0
  6
Continuous
 62
     7
370
    25
100
AcDbLine
 10
196.787507562
 20
346.4277802987
 30
0.0
 11
196.6055823118
 21
346.4277802987
 31
0.0
  0
LINE
  5
20A
330
1F
100
AcDbEntity
  8
0
  6
Continuous
 62
     7
370
    25
100
AcDbLine
 10
190.1609805041
 20
346.4277802987
 30
0.0
 11
196.6055823118
 21
346.4277802987
 31
0.0
  0
SPLINE
  5
20B
330
1F
100
AcDbEntity
  8
0
  6
Continuous
 62
     7
370
    25
100
AcDbSpline
210
0.0
220
0.0
230
1.0
 70
     8
 71
     3
 72
    14
 73
    10
 74
     0
 42
0.000000001
 43
0.00000001
 40
0.0
 40
0.0
 40
0.0
 40
0.0
 40
0.143487156519054
 40
0.2871650546161024
 40
0.4264842466546303
 40
0.5626157569722214
 40
0.6996202510621613
 40
0.8410517664557356
 40
1.0
 40
1.0
 40
1.0
 40
1.0
 10
136.7632349115692
 20
301.9143014235347
 30
0.0
 10
136.7296067894849
 20
301.9291602542879
 30
0.0
 10
136.6623058424925
 20
301.9588976680628
 30
0.0
 10
136.6218295686722
 20
301.9844166778112
 30
0.0
 10
136.6343270979124
 20
301.9912495361085
 30
0.0
 10
136.6987162234367
 20
301.9786967326859
 30
0.0
 10
136.8061073744352
 20
301.9487889963357
 30
0.0
 10
136.9516846582077
 20
301.9029405473096
 30
0.0
 10
137.0637008161146
 20
301.8637197980223
 30
0.0
 10
137.1229750198208
 20
301.8429658396094
 30
0.0
  0
LINE
  5
20C
330
1F
100
AcDbEntity
  8
0
  6
Continuous
 62
     7
370
    25
100
AcDbLine
 10
129.8585658056
 20
300.4277802093
 30
0.0
 11
129.2832841259
 21
300.4277802093
 31
0.0
  0
LINE
  5
20D
330
1F
100
AcDbEntity
  8
0
  6
Continuous
 62
     8
370
    25
100
AcDbLine
 10
141.2835021597
 20
359.0277812464
 30
0.0
 11
145.4832826835
 21
359.0277812464
 31
0.0
  0
LINE
  5
20E
330
1F
100
AcDbEntity
  8
0
  6
Continuous
 62
     8
370
    25
100
AcDbLine
 10
241.2832801324
 20
359.0277812464
 30
0.0
 11
245.4832804483
 21
359.0277812464
 31
0.0
  0
SPLINE
  5
20F
330
1F
100
AcDbEntity
  8
0
  6
Continuous
 62
     8
370
    25
100
AcDbSpline
210
0.0
220
0.0
230
1.0
 70
     8
 71
     3
 72
    13
 73
     9
 74
     0
 42
0.000000001
 43
0.00000001
 40
0.0
 40
0.0
 40
0.0
 40
0.0
 40
0.2283687290214301
 40
0.4474871516849582
 40
0.6726741230198627
 40
0.8299013478579546
 40
0.9893409202668443
 40
0.9999999999999999
 40
0.9999999999999999
 40
0.9999999999999999
 40
0.9999999999999999
 10
150.2752241772495
 20
293.3244898004382
 30
0.0
 10
150.3616094292693
 20
293.3371077645605
 30
0.0
 10
150.5308808112993
 20
293.3618325894056
 30
0.0
 10
151.877906852755
 20
293.5349045907543
 30
0.0
 10
153.7544347066579
 20
293.7337040013865
 30
0.0
 10
155.9793580185843
 20
293.9221706129611
 30
0.0
 10
157.5694942700647
 20
294.0258335973855
 30
0.0
 10
158.4579020114861
 20
294.0747858460212
 30
0.0
 10
158.5135732871376
 20
294.077853394851
 30
0.0
  0
SPLINE
  5
210
330
1F
100
AcDbEntity
  8
0
  6
Continuous
 62
     8
370
    25
100
AcDbSpline
210
0.0
220
0.0
230
1.0
 70
     8
 71
     3
 72
    14
 73
    10
 74
     0
 42
0.000000001
 43
0.00000001
 40
0.0
 40
0.0
 40
0.0
 40
0.0
 40
0.0106576168105165
 40
0.108978681284083
 40
0.3285082935924148
 40
0.554192169595365
 40
0.7737729781912581
 40
0.9995037064440778
 40
0.9999999999999999
 40
0.9999999999999999
 40
0.9999999999999999
 40
0.9999999999999999
 10
228.2530007046543
 20
294.077853394851
 30
0.0
 10
228.3086722174215
 20
294.0747855781675
 30
0.0
 10
228.8779371998585
 20
294.0434158430257
 30
0.0
 10
230.5168921353006
 20
293.9430211936454
 30
0.0
 10
232.8278041882639
 20
293.75389673557
 30
0.0
 10
234.9311297096804
 20
293.5292401785514
 30
0.0
 10
236.1364773207934
 20
293.3756903509896
 30
0.0
 10
236.6349532339707
 20
293.3049040986976
 30
0.0
 10
236.4914560004332
 20
293.3244729476137
 30
0.0
 10
236.4911411982857
 20
293.3245158774703
 30
0.0
  0
LINE
  5
211
330
1F
100
AcDbEntity
  8
0
  6
Continuous
 62
     8
370
    25
100
AcDbLine
 10
136.7649559957
 20
301.9593979252
 30
0.0
 11
136.7632349116
 21
301.9143014235
 31
0.0
  0
LINE
  5
212
330
1F
100
AcDbEntity
  8
0
  6
CENTERX2
 62
     7
370
    18
100
AcDbLine
 10
193.383281408
 20
351.4277797622
 30
0.0
 11
193.383281408
 21
289.9016856773
 31
0.0
  0
DIMENSION
  5
213
330
1F
100
AcDbEntity
  8
COTATION
100
AcDbDimension
  2
_D
 10
306.9650073135
 20
289.9016856773
 30
0.0
 11
306.9650073135
 21
320.6647327198
 31
0.0
 70
   160
  1
<>
 71
     2
 42
-1.0
  3
SLDDIMSTYLE0
100
AcDbAlignedDimension
 13
193.383281408
 23
351.4277797622
 33
0.0
 14
193.383281408
 24
289.9016856773
 34
0.0
 50
90.0
100
AcDbRotatedDimension
  0
DIMENSION
  5
21E
330
1F
100
AcDbEntity
  8
COTATION
100
AcDbDimension
  2
_D_1
 10
275.6373401429
 20
361.6845754266
 30
0.0
 11
193.3832788696
 21
361.6845754266
 31
0.0
 70
   160
  1
<>
 71
     2
 42
-1.0
  3
SLDDIMSTYLE0
100
AcDbAlignedDimension
 13
111.1292175964
 23
351.4277797622
 33
0.0
 14
275.6373401429
 24
351.4277797622
 34
0.0
 50
0.0
100
AcDbRotatedDimension
  0
DIMENSION
  5
228
330
1F
100
AcDbEntity
  8
COTATION
100
AcDbDimension
  2
_D_2
 10
293.3231877154
 20
371.6845767042
 30
0.0
 11
193.3832808114
 21
371.6845754266
 31
0.0
 70
   160
  1
<>
 71
     2
 42
-1.0
  3
SLDDIMSTYLE0
100
AcDbAlignedDimension
 13
93.4433744962
 23
325.627778711
 33
0.0
 14
293.3231883041
 24
325.6277812662
 34
0.0
 50
0.0000007325
100
AcDbRotatedDimension
  0
DIMENSION
  5
232
330
1F
100
AcDbEntity
  8
COTATION
100
AcDbDimension
  2
_D_3
 10
80.3072769504
 20
325.6277798294
 30
0.0
 11
80.3072769504
 21
338.5281196582
 31
0.0
 70
   160
  1
<>
 71
     2
 42
-1.0
  3
SLDDIMSTYLE0
100
AcDbAlignedDimension
 13
111.1292175964
 23
351.4277797622
 33
0.0
 14
129.8326214012
 24
325.6277798294
 34
0.0
 50
90.0
100
AcDbRotatedDimension
  0
LINE
  5
23C
330
1F
100
AcDbEntity
  8
0
  6
Continuous
 62
     7
370
    25
100
AcDbLine
 10
196.0332813301
 20
137.1698475553
 30
0.0
 11
196.0332813301
 21
137.5574491097
 31
0.0
  0
LINE
  5
23D
330
1F
100
AcDbEntity
  8
0
  6
Continuous
 62
     7
370
    25
100
AcDbLine
 10
190.7332814858
 20
137.5574491097
 30
0.0
 11
190.7332814858
 21
137.1698475553
 31
0.0
  0
ARC
  5
23E
330
1F
100
AcDbEntity
  8
0
  6
Continuous
 62
     7
370
    25
100
AcDbCircle
 10
195.763281408
 20
137.1698466599
 30
0.0
 40
0.2700000000000102
100
AcDbArc
 50
300.210030762
 51
0.0
  0
ARC
  5
23F
330
1F
100
AcDbEntity
  8
0
  6
Continuous
 62
     7
370
    25
100
AcDbCircle
 10
191.003281408
 20
137.1698466599
 30
0.0
 40
0.2699999999999818
100
AcDbArc
 50
180.0
 51
239.789969238
  0
ARC
  5
240
330
1F
100
AcDbEntity
  8
0
  6
Continuous
 62
     7
370
    25
100
AcDbCircle
 10
193.383281408
 20
141.2574498696
 30
0.0
 40
5.000000000000016
100
AcDbArc
 50
239.789969238
 51
254.7833221745
  0
ARC
  5
241
330
1F
100
AcDbEntity
  8
0
  6
Continuous
 62
     7
370
    25
100
AcDbCircle
 10
193.383281408
 20
141.2574498696
 30
0.0
 40
5.000000000000026
100
AcDbArc
 50
285.2166778255
 51
300.210030762
  0
LINE
  5
242
330
1F
100
AcDbEntity
  8
0
  6
Continuous
 62
     7
370
    25
100
AcDbLine
 10
196.0332813301
 20
133.1698468996
 30
0.0
 11
196.0332813301
 21
134.2574491275
 31
0.0
  0
LINE
  5
243
330
1F
100
AcDbEntity
  8
0
  6
Continuous
 62
     7
370
    25
100
AcDbLine
 10
190.7332814858
 20
134.2574491275
 30
0.0
 11
190.7332814858
 21
133.1698468996
 31
0.0
  0
ARC
  5
244
330
1F
100
AcDbEntity
  8
0
  6
Continuous
 62
     7
370
    25
100
AcDbCircle
 10
195.763281408
 20
133.1698466599
 30
0.0
 40
0.2700000000000387
100
AcDbArc
 50
300.210030762
 51
0.0
  0
ARC
  5
245
330
1F
100
AcDbEntity
  8
0
  6
Continuous
 62
     7
370
    25
100
AcDbCircle
 10
191.003281408
 20
133.1698466599
 30
0.0
 40
0.2700000000000102
100
AcDbArc
 50
180.0
 51
239.789969238
  0
ARC
  5
246
330
1F
100
AcDbEntity
  8
0
  6
Continuous
 62
     7
370
    25
100
AcDbCircle
 10
193.383281408
 20
137.2574498696
 30
0.0
 40
5.000000000000002
100
AcDbArc
 50
277.2701739416
 51
300.210030762
  0
ARC
  5
247
330
1F
100
AcDbEntity
  8
0
  6
Continuous
 62
     7
370
    25
100
AcDbCircle
 10
193.383281408
 20
137.2574498696
 30
0.0
 40
4.999999999999988
100
AcDbArc
 50
239.789969238
 51
262.7298260584
  0
SPLINE
  5
248
330
1F
100
AcDbEntity
  8
0
  6
Continuous
 62
     7
370
    25
100
AcDbSpline
210
0.0
220
0.0
230
1.0
 70
     8
 71
     3
 72
     9
 73
     5
 74
     0
 42
0.000000001
 43
0.00000001
 40
0.0
 40
0.0
 40
0.0
 40
0.0
 40
0.4975342473587501
 40
1.0
 40
1.0
 40
1.0
 40
1.0
 10
194.1358791641787
 20
135.0665076745559
 30
0.0
 10
194.2452325382152
 20
135.1007196488502
 30
0.0
 10
194.4650231850241
 20
135.1694827028026
 30
0.0
 10
194.6920635654087
 20
135.2372506904868
 30
0.0
 10
194.8061435810186
 20
135.2713017834235
 30
0.0
  0
SPLINE
  5
249
330
1F
100
AcDbEntity
  8
0
  6
Continuous
 62
     7
370
    25
100
AcDbSpline
210
0.0
220
0.0
230
1.0
 70
     8
 71
     3
 72
     9
 73
     5
 74
     0
 42
0.000000001
 43
0.00000001
 40
0.0
 40
0.0
 40
0.0
 40
0.0
 40
0.7292993850487755
 40
1.0
 40
1.0
 40
1.0
 40
1.0
 10
192.0555293886818
 20
135.9052195323516
 30
0.0
 10
192.1804721192143
 20
135.8670393178911
 30
0.0
 10
192.3517909672674
 20
135.8146874096855
 30
0.0
 10
192.5103574013494
 20
135.7598474563005
 30
0.0
 10
192.5532814325661
 20
135.7450022471953
 30
0.0
  0
SPLINE
  5
24A
330
1F
100
AcDbEntity
  8
0
  6
Continuous
 62
     7
370
    25
100
AcDbSpline
210
0.0
220
0.0
230
1.0
 70
     8
 71
     3
 72
     9
 73
     5
 74
     0
 42
0.000000001
 43
0.00000001
 40
0.0
 40
0.0
 40
0.0
 40
0.0
 40
0.7863951962398774
 40
1.0
 40
1.0
 40
1.0
 40
1.0
 10
194.70988522292
 20
135.4414246154834
 30
0.0
 10
194.5760643332241
 20
135.4819418019543
 30
0.0
 10
194.4058943088702
 20
135.533464479947
 30
0.0
 10
194.2471829022257
 20
135.5900457460676
 30
0.0
 10
194.213281383355
 20
135.6021317763139
 30
0.0
  0
SPLINE
  5
24B
330
1F
100
AcDbEntity
  8
0
  6
Continuous
 62
     7
370
    25
100
AcDbSpline
210
0.0
220
0.0
230
1.0
 70
     8
 71
     3
 72
     9
 73
     5
 74
     0
 42
0.000000001
 43
0.00000001
 40
0.0
 40
0.0
 40
0.0
 40
0.0
 40
0.4338371951151156
 40
1.0
 40
1.0
 40
1.0
 40
1.0
 10
192.7394472272962
 20
136.3377369118739
 30
0.0
 10
192.6443145878089
 20
136.3034193378826
 30
0.0
 10
192.4250326992143
 20
136.2243169133377
 30
0.0
 10
192.1898367763738
 20
136.152234209427
 30
0.0
 10
192.056677593001
 20
136.1114236635972
 30
0.0
  0
LINE
  5
24C
330
1F
100
AcDbEntity
  8
0
  6
Continuous
 62
     7
370
    25
100
AcDbLine
 10
194.2132813834
 20
135.5200245155
 30
0.0
 11
194.2132813834
 21
136.340722732
 31
0.0
  0
LINE
  5
24D
330
1F
100
AcDbEntity
  8
0
  6
Continuous
 62
     7
370
    25
100
AcDbLine
 10
194.2132813834
 20
134.2574491275
 30
0.0
 11
194.2132813834
 21
135.0905339343
 31
0.0
  0
LINE
  5
24E
330
1F
100
AcDbEntity
  8
0
  6
Continuous
 62
     7
370
    25
100
AcDbLine
 10
192.5532814326
 20
135.8309726341
 30
0.0
 11
192.5532814326
 21
134.2574491275
 31
0.0
  0
LINE
  5
24F
330
1F
100
AcDbEntity
  8
0
  6
Continuous
 62
     7
370
    25
100
AcDbLine
 10
192.5532814326
 20
136.340722732
 30
0.0
 11
192.5532814326
 21
136.2721308244
 31
0.0
  0
CIRCLE
  5
250
330
1F
100
AcDbEntity
  8
0
  6
Continuous
 62
     7
370
    25
100
AcDbCircle
 10
143.383281408
 20
169.5574498696
 30
0.0
 40
2.100000000000012
  0
ARC
  5
251
330
1F
100
AcDbEntity
  8
0
  6
Continuous
 62
     7
370
    25
100
AcDbCircle
 10
143.383281408
 20
169.5574498696
 30
0.0
 40
4.09999999999998
100
AcDbArc
 50
56.7166104969
 51
123.2833895031
  0
CIRCLE
  5
252
330
1F
100
AcDbEntity
  8
0
  6
Continuous
 62
     7
370
    25
100
AcDbCircle
 10
243.383281408
 20
169.5574498696
 30
0.0
 40
2.100000000000003
  0
ARC
  5
253
330
1F
100
AcDbEntity
  8
0
  6
Continuous
 62
     7
370
    25
100
AcDbCircle
 10
243.383281408
 20
169.5574498696
 30
0.0
 40
4.09999999999998
100
AcDbArc
 50
146.7166104969
 51
213.2833895031
  0
SPLINE
  5
254
330
1F
100
AcDbEntity
  8
0
  6
Continuous
 62
     7
370
    25
100
AcDbSpline
210
0.0
220
0.0
230
1.0
 70
     8
 71
     3
 72
    13
 73
     9
 74
     0
 42
0.000000001
 43
0.00000001
 40
0.0
 40
0.0
 40
0.0
 40
0.0
 40
0.1229827512384834
 40
0.307372416574736
 40
0.4828627519037241
 40
0.6594767251208956
 40
0.8292247985556852
 40
0.9999999999999999
 40
0.9999999999999999
 40
0.9999999999999999
 40
0.9999999999999999
 10
219.6832814347826
 20
172.2121968043853
 30
0.0
 10
219.6832816051645
 20
171.1765489028618
 30
0.0
 10
219.6832820310022
 20
168.5881404064986
 30
0.0
 10
219.6832776841126
 20
164.3222382020149
 30
0.0
 10
219.6832840309035
 20
159.4824224818229
 30
0.0
 10
219.6832747942883
 20
154.6743275701316
 30
0.0
 10
219.6832830789382
 20
149.8522113208578
 30
0.0
 10
219.6832819839354
 20
146.6556539736996
 30
0.0
 10
219.6832814347826
 20
145.0525543762255
 30
0.0
  0
LINE
  5
255
330
1F
100
AcDbEntity
  8
0
  6
Continuous
 62
     7
370
    25
100
AcDbLine
 10
209.6832816583
 20
145.0525543762
 30
0.0
 11
219.6832814348
 21
145.0525543762
 31
0.0
  0
SPLINE
  5
256
330
1F
100
AcDbEntity
  8
0
  6
Continuous
 62
     7
370
    25
100
AcDbSpline
210
0.0
220
0.0
230
1.0
 70
     8
 71
     3
 72
    13
 73
     9
 74
     0
 42
0.000000001
 43
0.00000001
 40
0.0
 40
0.0
 40
0.0
 40
0.0
 40
0.1229782503637857
 40
0.3073683620726123
 40
0.4828596424721779
 40
0.6594746105192495
 40
0.8292237339338778
 40
1.0
 40
1.0
 40
1.0
 40
1.0
 10
209.6832816583
 20
172.2121949417401
 30
0.0
 10
209.6832814879288
 20
171.1765861745643
 30
0.0
 10
209.6832810621079
 20
168.5882149009995
 30
0.0
 10
209.6832854089729
 20
164.3223416090014
 30
0.0
 10
209.6832790621772
 20
159.4825071634565
 30
0.0
 10
209.6832882987952
 20
154.6743857244848
 30
0.0
 10
209.6832800141438
 20
149.8522411165418
 30
0.0
 10
209.683281109147
 20
146.6556639513776
 30
0.0
 10
209.6832816583
 20
145.0525543762255
 30
0.0
  0
SPLINE
  5
257
330
1F
100
AcDbEntity
  8
0
  6
Continuous
 62
     7
370
    25
100
AcDbSpline
210
0.0
220
0.0
230
1.0
 70
     8
 71
     3
 72
    13
 73
     9
 74
     0
 42
0.000000001
 43
0.00000001
 40
0.0
 40
0.0
 40
0.0
 40
0.0
 40
0.177685848552664
 40
0.3565218705975224
 40
0.5296371684665511
 40
0.703830173339292
 40
0.8813920522921603
 40
1.0
 40
1.0
 40
1.0
 40
1.0
 10
177.083281157621
 20
145.0525543762255
 30
0.0
 10
177.0832817145566
 20
146.7205430780923
 30
0.0
 10
177.0832828320328
 20
150.0673174946762
 30
0.0
 10
177.0832744993658
 20
155.0034035879066
 30
0.0
 10
177.0832837245915
 20
159.8443338774526
 30
0.0
 10
177.0832774283132
 20
164.5718530810431
 30
0.0
 10
177.0832817438947
 20
168.7211474482876
 30
0.0
 10
177.0832813252692
 20
171.2144071256897
 30
0.0
 10
177.083281157621
 20
172.2128897083808
 30
0.0
  0
LINE
  5
258
330
1F
100
AcDbEntity
  8
0
  6
Continuous
 62
     7
370
    25
100
AcDbLine
 10
167.0832813811
 20
145.0525543762
 30
0.0
 11
177.0832811576
 21
145.0525543762
 31
0.0
  0
SPLINE
  5
259
330
1F
100
AcDbEntity
  8
0
  6
Continuous
 62
     7
370
    25
100
AcDbSpline
210
0.0
220
0.0
230
1.0
 70
     8
 71
     3
 72
    13
 73
     9
 74
     0
 42
0.000000001
 43
0.00000001
 40
0.0
 40
0.0
 40
0.0
 40
0.0
 40
0.1229782503637857
 40
0.3073683620726123
 40
0.4828596424721779
 40
0.6594746105192495
 40
0.8292237339338778
 40
1.0
 40
1.0
 40
1.0
 40
1.0
 10
167.0832813811384
 20
172.2121949417401
 30
0.0
 10
167.0832812107672
 20
171.1765861745643
 30
0.0
 10
167.0832807849463
 20
168.5882149009995
 30
0.0
 10
167.0832851318113
 20
164.3223416090014
 30
0.0
 10
167.0832787850156
 20
159.4825071634565
 30
0.0
 10
167.0832880216336
 20
154.6743857244848
 30
0.0
 10
167.0832797369822
 20
149.8522411165418
 30
0.0
 10
167.0832808319854
 20
146.6556639513776
 30
0.0
 10
167.0832813811384
 20
145.0525543762255
 30
0.0
  0
LINE
  5
25A
330
1F
100
AcDbEntity
  8
0
  6
Continuous
 62
     7
370
    25
100
AcDbLine
 10
154.8832816166
 20
149.0574500633
 30
0.0
 11
154.8832816166
 21
142.0574498473
 31
0.0
  0
LINE
  5
25B
330
1F
100
AcDbEntity
  8
0
  6
Continuous
 62
     7
370
    25
100
AcDbLine
 10
157.0832816047
 20
142.0574498473
 30
0.0
 11
154.8832816166
 21
142.0574498473
 31
0.0
  0
LINE
  5
25C
330
1F
100
AcDbEntity
  8
0
  6
Continuous
 62
     7
370
    25
100
AcDbLine
 10
157.0832816047
 20
139.9234750418
 30
0.0
 11
157.0832816047
 21
142.0574498473
 31
0.0
  0
LINE
  5
25D
330
1F
100
AcDbEntity
  8
0
  6
Continuous
 62
     7
370
    25
100
AcDbLine
 10
157.5832826179
 20
139.0574502868
 30
0.0
 11
157.0832816047
 21
139.9234750418
 31
0.0
  0
LINE
  5
25E
330
1F
100
AcDbEntity
  8
0
  6
Continuous
 62
     7
370
    25
100
AcDbLine
 10
157.5832826179
 20
135.5574506445
 30
0.0
 11
157.5832826179
 21
139.0574502868
 31
0.0
  0
LINE
  5
25F
330
1F
100
AcDbEntity
  8
0
  6
Continuous
 62
     7
370
    25
100
AcDbLine
 10
159.1832799
 20
135.5574506445
 30
0.0
 11
157.5832826179
 21
135.5574506445
 31
0.0
  0
LINE
  5
260
330
1F
100
AcDbEntity
  8
0
  6
Continuous
 62
     7
370
    25
100
AcDbLine
 10
159.1832799
 20
135.5574506445
 30
0.0
 11
159.1832799
 21
139.0574502868
 31
0.0
  0
LINE
  5
261
330
1F
100
AcDbEntity
  8
0
  6
Continuous
 62
     7
370
    25
100
AcDbLine
 10
159.1832799
 20
139.0574502868
 30
0.0
 11
159.6832809132
 21
139.9234750418
 31
0.0
  0
LINE
  5
262
330
1F
100
AcDbEntity
  8
0
  6
Continuous
 62
     7
370
    25
100
AcDbLine
 10
159.6832809132
 20
142.0574498473
 30
0.0
 11
159.6832809132
 21
139.9234750418
 31
0.0
  0
LINE
  5
263
330
1F
100
AcDbEntity
  8
0
  6
Continuous
 62
     7
370
    25
100
AcDbLine
 10
161.8832809013
 20
142.0574498473
 30
0.0
 11
159.6832809132
 21
142.0574498473
 31
0.0
  0
LINE
  5
264
330
1F
100
AcDbEntity
  8
0
  6
Continuous
 62
     7
370
    25
100
AcDbLine
 10
161.8832809013
 20
149.0574500633
 30
0.0
 11
161.8832809013
 21
142.0574498473
 31
0.0
  0
LINE
  5
265
330
1F
100
AcDbEntity
  8
0
  6
Continuous
 62
     7
370
    25
100
AcDbLine
 10
161.8832809013
 20
149.0574500633
 30
0.0
 11
159.6832809132
 21
149.0574500633
 31
0.0
  0
LINE
  5
266
330
1F
100
AcDbEntity
  8
0
  6
Continuous
 62
     7
370
    25
100
AcDbLine
 10
159.6832809132
 20
149.0574500633
 30
0.0
 11
159.6832809132
 21
151.0574499255
 31
0.0
  0
LINE
  5
267
330
1F
100
AcDbEntity
  8
0
  6
Continuous
 62
     7
370
    25
100
AcDbLine
 10
159.6832809132
 20
151.0574499255
 30
0.0
 11
157.0832816047
 21
151.0574499255
 31
0.0
  0
LINE
  5
268
330
1F
100
AcDbEntity
  8
0
  6
Continuous
 62
     7
370
    25
100
AcDbLine
 10
157.0832816047
 20
151.0574499255
 30
0.0
 11
157.0832816047
 21
149.0574500633
 31
0.0
  0
LINE
  5
269
330
1F
100
AcDbEntity
  8
0
  6
Continuous
 62
     7
370
    25
100
AcDbLine
 10
157.0832816047
 20
149.0574500633
 30
0.0
 11
154.8832816166
 21
149.0574500633
 31
0.0
  0
LINE
  5
26A
330
1F
100
AcDbEntity
  8
0
  6
Continuous
 62
     7
370
    25
100
AcDbLine
 10
227.583282916
 20
135.5574506445
 30
0.0
 11
227.583282916
 21
139.0574502868
 31
0.0
  0
LINE
  5
26B
330
1F
100
AcDbEntity
  8
0
  6
Continuous
 62
     7
370
    25
100
AcDbLine
 10
227.583282916
 20
135.5574506445
 30
0.0
 11
229.183280198
 21
135.5574506445
 31
0.0
  0
LINE
  5
26C
330
1F
100
AcDbEntity
  8
0
  6
Continuous
 62
     7
370
    25
100
AcDbLine
 10
229.183280198
 20
135.5574506445
 30
0.0
 11
229.183280198
 21
139.0574502868
 31
0.0
  0
LINE
  5
26D
330
1F
100
AcDbEntity
  8
0
  6
Continuous
 62
     7
370
    25
100
AcDbLine
 10
229.183280198
 20
139.0574502868
 30
0.0
 11
229.6832812113
 21
139.9234750418
 31
0.0
  0
LINE
  5
26E
330
1F
100
AcDbEntity
  8
0
  6
Continuous
 62
     7
370
    25
100
AcDbLine
 10
229.6832812113
 20
139.9234750418
 30
0.0
 11
229.6832812113
 21
142.0574498473
 31
0.0
  0
LINE
  5
26F
330
1F
100
AcDbEntity
  8
0
  6
Continuous
 62
     7
370
    25
100
AcDbLine
 10
229.6832812113
 20
142.0574498473
 30
0.0
 11
231.8832811993
 21
142.0574498473
 31
0.0
  0
LINE
  5
270
330
1F
100
AcDbEntity
  8
0
  6
Continuous
 62
     7
370
    25
100
AcDbLine
 10
231.8832811993
 20
149.0574500633
 30
0.0
 11
231.8832811993
 21
142.0574498473
 31
0.0
  0
LINE
  5
271
330
1F
100
AcDbEntity
  8
0
  6
Continuous
 62
     7
370
    25
100
AcDbLine
 10
229.6832812113
 20
149.0574500633
 30
0.0
 11
231.8832811993
 21
149.0574500633
 31
0.0
  0
LINE
  5
272
330
1F
100
AcDbEntity
  8
0
  6
Continuous
 62
     7
370
    25
100
AcDbLine
 10
229.6832812113
 20
151.0574499255
 30
0.0
 11
229.6832812113
 21
149.0574500633
 31
0.0
  0
LINE
  5
273
330
1F
100
AcDbEntity
  8
0
  6
Continuous
 62
     7
370
    25
100
AcDbLine
 10
227.0832819027
 20
151.0574499255
 30
0.0
 11
229.6832812113
 21
151.0574499255
 31
0.0
  0
LINE
  5
274
330
1F
100
AcDbEntity
  8
0
  6
Continuous
 62
     7
370
    25
100
AcDbLine
 10
227.0832819027
 20
149.0574500633
 30
0.0
 11
227.0832819027
 21
151.0574499255
 31
0.0
  0
LINE
  5
275
330
1F
100
AcDbEntity
  8
0
  6
Continuous
 62
     7
370
    25
100
AcDbLine
 10
224.8832819146
 20
149.0574500633
 30
0.0
 11
227.0832819027
 21
149.0574500633
 31
0.0
  0
LINE
  5
276
330
1F
100
AcDbEntity
  8
0
  6
Continuous
 62
     7
370
    25
100
AcDbLine
 10
224.8832819146
 20
149.0574500633
 30
0.0
 11
224.8832819146
 21
142.0574498473
 31
0.0
  0
LINE
  5
277
330
1F
100
AcDbEntity
  8
0
  6
Continuous
 62
     7
370
    25
100
AcDbLine
 10
224.8832819146
 20
142.0574498473
 30
0.0
 11
227.0832819027
 21
142.0574498473
 31
0.0
  0
LINE
  5
278
330
1F
100
AcDbEntity
  8
0
  6
Continuous
 62
     7
370
    25
100
AcDbLine
 10
227.0832819027
 20
142.0574498473
 30
0.0
 11
227.0832819027
 21
139.9234750418
 31
0.0
  0
LINE
  5
279
330
1F
100
AcDbEntity
  8
0
  6
Continuous
 62
     7
370
    25
100
AcDbLine
 10
227.583282916
 20
139.0574502868
 30
0.0
 11
227.0832819027
 21
139.9234750418
 31
0.0
  0
LINE
  5
27A
330
1F
100
AcDbEntity
  8
0
  6
Continuous
 62
     7
370
    25
100
AcDbLine
 10
253.5832797271
 20
162.2574499918
 30
0.0
 11
253.5832797271
 21
165.7574496342
 31
0.0
  0
LINE
  5
27B
330
1F
100
AcDbEntity
  8
0
  6
Continuous
 62
     7
370
    25
100
AcDbLine
 10
253.5832797271
 20
162.2574499918
 30
0.0
 11
255.1832807344
 21
162.2574499918
 31
0.0
  0
LINE
  5
27C
330
1F
100
AcDbEntity
  8
0
  6
Continuous
 62
     7
370
    25
100
AcDbLine
 10
255.1832807344
 20
162.2574499918
 30
0.0
 11
255.1832807344
 21
165.7574496342
 31
0.0
  0
LINE
  5
27D
330
1F
100
AcDbEntity
  8
0
  6
Continuous
 62
     7
370
    25
100
AcDbLine
 10
255.1832807344
 20
165.7574496342
 30
0.0
 11
255.6832817477
 21
166.6234753204
 31
0.0
  0
LINE
  5
27E
330
1F
100
AcDbEntity
  8
0
  6
Continuous
 62
     7
370
    25
100
AcDbLine
 10
255.6832817477
 20
166.6234753204
 30
0.0
 11
255.6832817477
 21
168.7574501259
 31
0.0
  0
LINE
  5
27F
330
1F
100
AcDbEntity
  8
0
  6
Continuous
 62
     7
370
    25
100
AcDbLine
 10
255.6832817477
 20
168.7574501259
 30
0.0
 11
257.8832780105
 21
168.7574501259
 31
0.0
  0
LINE
  5
280
330
1F
100
AcDbEntity
  8
0
  6
Continuous
 62
     7
370
    25
100
AcDbLine
 10
257.8832780105
 20
175.7574494107
 30
0.0
 11
257.8832780105
 21
168.7574501259
 31
0.0
  0
LINE
  5
281
330
1F
100
AcDbEntity
  8
0
  6
Continuous
 62
     7
370
    25
100
AcDbLine
 10
255.6832817477
 20
175.7574494107
 30
0.0
 11
257.8832780105
 21
175.7574494107
 31
0.0
  0
LINE
  5
282
330
1F
100
AcDbEntity
  8
0
  6
Continuous
 62
     7
370
    25
100
AcDbLine
 10
255.6832817477
 20
177.7574497385
 30
0.0
 11
255.6832817477
 21
175.7574494107
 31
0.0
  0
LINE
  5
283
330
1F
100
AcDbEntity
  8
0
  6
Continuous
 62
     7
370
    25
100
AcDbLine
 10
253.0832824391
 20
177.7574497385
 30
0.0
 11
255.6832817477
 21
177.7574497385
 31
0.0
  0
LINE
  5
284
330
1F
100
AcDbEntity
  8
0
  6
Continuous
 62
     7
370
    25
100
AcDbLine
 10
253.0832824391
 20
175.7574494107
 30
0.0
 11
253.0832824391
 21
177.7574497385
 31
0.0
  0
LINE
  5
285
330
1F
100
AcDbEntity
  8
0
  6
Continuous
 62
     7
370
    25
100
AcDbLine
 10
250.883282451
 20
175.7574494107
 30
0.0
 11
253.0832824391
 21
175.7574494107
 31
0.0
  0
LINE
  5
286
330
1F
100
AcDbEntity
  8
0
  6
Continuous
 62
     7
370
    25
100
AcDbLine
 10
250.883282451
 20
175.7574494107
 30
0.0
 11
250.883282451
 21
168.7574501259
 31
0.0
  0
LINE
  5
287
330
1F
100
AcDbEntity
  8
0
  6
Continuous
 62
     7
370
    25
100
AcDbLine
 10
250.883282451
 20
168.7574501259
 30
0.0
 11
253.0832824391
 21
168.7574501259
 31
0.0
  0
LINE
  5
288
330
1F
100
AcDbEntity
  8
0
  6
Continuous
 62
     7
370
    25
100
AcDbLine
 10
253.0832824391
 20
168.7574501259
 30
0.0
 11
253.0832824391
 21
166.6234753204
 31
0.0
  0
LINE
  5
289
330
1F
100
AcDbEntity
  8
0
  6
Continuous
 62
     7
370
    25
100
AcDbLine
 10
253.5832797271
 20
165.7574496342
 30
0.0
 11
253.0832824391
 21
166.6234753204
 31
0.0
  0
LINE
  5
28A
330
1F
100
AcDbEntity
  8
0
  6
Continuous
 62
     7
370
    25
100
AcDbLine
 10
133.6832803768
 20
168.7574501259
 30
0.0
 11
133.6832803768
 21
166.6234753204
 31
0.0
  0
LINE
  5
28B
330
1F
100
AcDbEntity
  8
0
  6
Continuous
 62
     7
370
    25
100
AcDbLine
 10
135.8832803649
 20
168.7574501259
 30
0.0
 11
133.6832803768
 21
168.7574501259
 31
0.0
  0
LINE
  5
28C
330
1F
100
AcDbEntity
  8
0
  6
Continuous
 62
     7
370
    25
100
AcDbLine
 10
135.8832803649
 20
175.7574494107
 30
0.0
 11
135.8832803649
 21
168.7574501259
 31
0.0
  0
LINE
  5
28D
330
1F
100
AcDbEntity
  8
0
  6
Continuous
 62
     7
370
    25
100
AcDbLine
 10
135.8832803649
 20
175.7574494107
 30
0.0
 11
133.6832803768
 21
175.7574494107
 31
0.0
  0
LINE
  5
28E
330
1F
100
AcDbEntity
  8
0
  6
Continuous
 62
     7
370
    25
100
AcDbLine
 10
133.6832803768
 20
175.7574494107
 30
0.0
 11
133.6832803768
 21
177.7574497385
 31
0.0
  0
LINE
  5
28F
330
1F
100
AcDbEntity
  8
0
  6
Continuous
 62
     7
370
    25
100
AcDbLine
 10
133.6832803768
 20
177.7574497385
 30
0.0
 11
131.0832810682
 21
177.7574497385
 31
0.0
  0
LINE
  5
290
330
1F
100
AcDbEntity
  8
0
  6
Continuous
 62
     7
370
    25
100
AcDbLine
 10
131.0832810682
 20
177.7574497385
 30
0.0
 11
131.0832810682
 21
175.7574494107
 31
0.0
  0
LINE
  5
291
330
1F
100
AcDbEntity
  8
0
  6
Continuous
 62
     7
370
    25
100
AcDbLine
 10
131.0832810682
 20
175.7574494107
 30
0.0
 11
128.8832848054
 21
175.7574494107
 31
0.0
  0
LINE
  5
292
330
1F
100
AcDbEntity
  8
0
  6
Continuous
 62
     7
370
    25
100
AcDbLine
 10
128.8832848054
 20
175.7574494107
 30
0.0
 11
128.8832848054
 21
168.7574501259
 31
0.0
  0
LINE
  5
293
330
1F
100
AcDbEntity
  8
0
  6
Continuous
 62
     7
370
    25
100
AcDbLine
 10
131.0832810682
 20
168.7574501259
 30
0.0
 11
128.8832848054
 21
168.7574501259
 31
0.0
  0
LINE
  5
294
330
1F
100
AcDbEntity
  8
0
  6
Continuous
 62
     7
370
    25
100
AcDbLine
 10
131.0832810682
 20
166.6234753204
 30
0.0
 11
131.0832810682
 21
168.7574501259
 31
0.0
  0
LINE
  5
295
330
1F
100
AcDbEntity
  8
0
  6
Continuous
 62
     7
370
    25
100
AcDbLine
 10
131.5832820815
 20
165.7574496342
 30
0.0
 11
131.0832810682
 21
166.6234753204
 31
0.0
  0
LINE
  5
296
330
1F
100
AcDbEntity
  8
0
  6
Continuous
 62
     7
370
    25
100
AcDbLine
 10
131.5832820815
 20
162.2574499918
 30
0.0
 11
131.5832820815
 21
165.7574496342
 31
0.0
  0
LINE
  5
297
330
1F
100
AcDbEntity
  8
0
  6
Continuous
 62
     7
370
    25
100
AcDbLine
 10
133.1832830888
 20
162.2574499918
 30
0.0
 11
131.5832820815
 21
162.2574499918
 31
0.0
  0
LINE
  5
298
330
1F
100
AcDbEntity
  8
0
  6
Continuous
 62
     7
370
    25
100
AcDbLine
 10
133.1832830888
 20
162.2574499918
 30
0.0
 11
133.1832830888
 21
165.7574496342
 31
0.0
  0
LINE
  5
299
330
1F
100
AcDbEntity
  8
0
  6
Continuous
 62
     7
370
    25
100
AcDbLine
 10
133.1832830888
 20
165.7574496342
 30
0.0
 11
133.6832803768
 21
166.6234753204
 31
0.0
  0
LINE
  5
29A
330
1F
100
AcDbEntity
  8
0
  6
Continuous
 62
     7
370
    25
100
AcDbLine
 10
112.8228505236
 20
177.009109698
 30
0.0
 11
113.774446128
 21
177.0257263554
 31
0.0
  0
SPLINE
  5
29B
330
1F
100
AcDbEntity
  8
0
  6
Continuous
 62
     7
370
    25
100
AcDbSpline
210
0.0
220
0.0
230
1.0
 70
     8
 71
     3
 72
    10
 73
     6
 74
     0
 42
0.000000001
 43
0.00000001
 40
0.0
 40
0.0
 40
0.0
 40
0.0
 40
0.3927120200066864
 40
0.7967764338566574
 40
1.0
 40
1.0
 40
1.0
 40
1.0
 10
112.8236551863037
 20
162.1057934237529
 30
0.0
 10
112.5045665632684
 20
164.0468191117209
 30
0.0
 10
111.8571652050365
 20
167.9849810392754
 30
0.0
 10
112.0801716155749
 20
173.0252295390447
 30
0.0
 10
112.6366349700916
 20
176.0102117343294
 30
0.0
 10
112.8228505235992
 20
177.0091096980382
 30
0.0
  0
LWPOLYLINE
  5
29C
330
1F
100
AcDbEntity
  8
0
  6
Continuous
 62
     7
370
    25
100
AcDbPolyline
 90
        3
 70
   128
 43
0.0
 10
122.3319222313
 20
161.9397618918
 10
117.2544782144
 20
162.0284238009
 10
112.8236551863
 20
162.1057934238
  0
LINE
  5
29D
330
1F
100
AcDbEntity
  8
0
  6
Continuous
 62
     7
370
    25
100
AcDbLine
 10
141.1332798284
 20
169.5574506296
 30
0.0
 11
141.1332798284
 21
174.660334654
 31
0.0
  0
ARC
  5
29E
330
1F
100
AcDbEntity
  8
0
  6
Continuous
 62
     7
370
    25
100
AcDbCircle
 10
143.383281408
 20
169.5574498696
 30
0.0
 40
2.250000000000028
100
AcDbArc
 50
180.0
 51
0.0
  0
LINE
  5
29F
330
1F
100
AcDbEntity
  8
0
  6
Continuous
 62
     7
370
    25
100
AcDbLine
 10
145.6332814974
 20
169.5574506296
 30
0.0
 11
145.6332814974
 21
174.660334654
 31
0.0
  0
ARC
  5
2A0
330
1F
100
AcDbEntity
  8
0
  6
Continuous
 62
     7
370
    25
100
AcDbCircle
 10
143.383281408
 20
178.5574498696
 30
0.0
 40
4.500000000000014
100
AcDbArc
 50
300.0
 51
240.0
  0
ARC
  5
2A1
330
1F
100
AcDbEntity
  8
0
  6
Continuous
 62
     7
370
    25
100
AcDbCircle
 10
176.083281408
 20
173.5574498696
 30
0.0
 40
2.100000000000023
100
AcDbArc
 50
0.0
 51
90.0
  0
LINE
  5
2A2
330
1F
100
AcDbEntity
  8
0
  6
Continuous
 62
     7
370
    25
100
AcDbLine
 10
168.0832815451
 20
175.6574495805
 30
0.0
 11
176.0832809937
 21
175.6574495805
 31
0.0
  0
ARC
  5
2A3
330
1F
100
AcDbEntity
  8
0
  6
Continuous
 62
     7
370
    25
100
AcDbCircle
 10
168.083281408
 20
173.5574498696
 30
0.0
 40
2.100000000000023
100
AcDbArc
 50
90.0
 51
180.0
  0
LINE
  5
2A4
330
1F
100
AcDbEntity
  8
0
  6
Continuous
 62
     7
370
    25
100
AcDbLine
 10
165.9832813871
 20
144.557450257
 30
0.0
 11
165.9832813871
 21
173.5574494226
 31
0.0
  0
LINE
  5
2A5
330
1F
100
AcDbEntity
  8
0
  6
Continuous
 62
     7
370
    25
100
AcDbLine
 10
178.1832811517
 20
144.557450257
 30
0.0
 11
165.9832813871
 21
144.557450257
 31
0.0
  0
LINE
  5
2A6
330
1F
100
AcDbEntity
  8
0
  6
Continuous
 62
     7
370
    25
100
AcDbLine
 10
178.1832811517
 20
173.5574494226
 30
0.0
 11
178.1832811517
 21
144.557450257
 31
0.0
  0
SPLINE
  5
2A7
330
1F
100
AcDbEntity
  8
0
  6
Continuous
 62
     7
370
    25
100
AcDbSpline
210
0.0
220
0.0
230
1.0
 70
    11
 71
     3
 72
    64
 73
    60
 74
     0
 42
0.000000001
 43
0.00000001
 40
0.0
 40
0.0
 40
0.0
 40
0.0
 40
0.0191179945775814
 40
0.0382386944725603
 40
0.0636022705168114
 40
0.0890571046234012
 40
0.1145160070963551
 40
0.1398851479217154
 40
0.1601321636010121
 40
0.1804397072955648
 40
0.2007276061098837
 40
0.2209477607190597
 40
0.2371864710005455
 40
0.2534506217124696
 40
0.2696669247418466
 40
0.2817725574720031
 40
0.2939024018012584
 40
0.3059887681844466
 40
0.3199438623553689
 40
0.3338851465271429
 40
0.3479157387890787
 40
0.3619460935526019
 40
0.3746252604292011
 40
0.3873140046369359
 40
0.3992657153946429
 40
0.4112631314329166
 40
0.4232349649148948
 40
0.4410404276881872
 40
0.4589140646245464
 40
0.4767543549848804
 40
0.4973626775591298
 40
0.5180422314476776
 40
0.5387427831431751
 40
0.5593798389858112
 40
0.5880933134343556
 40
0.6168706126634027
 40
0.6455825846087218
 40
0.6717137998300573
 40
0.6978976647058249
 40
0.7239904235180028
 40
0.7400171522492444
 40
0.7560693192451261
 40
0.7720730635720259
 40
0.7839363735006646
 40
0.7958235573311561
 40
0.8076682518518578
 40
0.8215156248851713
 40
0.8353492474005086
 40
0.8492626818966383
 40
0.8631757521220573
 40
0.8758660400967218
 40
0.8885656921118531
 40
0.900698952286222
 40
0.9128786458709798
 40
0.9250324969335014
 40
0.9431722181284733
 40
0.9613811668064708
 40
0.9795559265333257
 40
1.0
 40
1.0
 40
1.0
 40
1.0
 10
152.2634972912155
 20
213.9529700500775
 30
0.0
 10
154.8310308381922
 20
214.815754779924
 30
0.0
 10
159.9664612544147
 20
216.5414463291243
 30
0.0
 10
168.7453765089762
 20
218.6041456342567
 30
0.0
 10
178.5354900825696
 20
220.1698871488127
 30
0.0
 10
189.3226829527907
 20
220.9488617150532
 30
0.0
 10
200.1364795993844
 20
220.8345912474282
 30
0.0
 10
210.1696771400278
 20
219.8944237486594
 30
0.0
 10
219.3788189433389
 20
218.3208131382871
 30
0.0
 10
227.7533439682936
 20
216.2608693734441
 30
0.0
 10
235.93912894116
 20
213.5545406788612
 30
0.0
 10
243.3363463624579
 20
210.3862938323665
 30
0.0
 10
249.9307109734751
 20
206.8681862547464
 30
0.0
 10
255.7206795036922
 20
203.0986848971746
 30
0.0
 10
260.6544867649057
 20
199.138400511509
 30
0.0
 10
264.7434850097117
 20
195.115550522887
 30
0.0
 10
268.0480344836527
 20
191.1619833717136
 30
0.0
 10
271.0464250098366
 20
186.6493562042164
 30
0.0
 10
273.5123609788472
 20
181.5278440824495
 30
0.0
 10
275.209199921219
 20
175.8061326022
 30
0.0
 10
275.8101249737168
 20
169.8537140923025
 30
0.0
 10
275.3350084745596
 20
164.0697077933932
 30
0.0
 10
273.8826654531158
 20
158.6578448555529
 30
0.0
 10
271.7613208254979
 20
153.7974781909369
 30
0.0
 10
269.0570806802702
 20
149.3545029694777
 30
0.0
 10
265.9321316794687
 20
145.3285470010568
 30
0.0
 10
261.8491298906424
 20
141.036164915381
 30
0.0
 10
256.6723231444314
 20
136.6797793833319
 30
0.0
 10
250.3538145614363
 20
132.4707528034006
 30
0.0
 10
243.3127981618046
 20
128.7018632370978
 30
0.0
 10
235.59533464946
 20
125.4232053819824
 30
0.0
 10
227.2393177891738
 20
122.7012002044756
 30
0.0
 10
218.6914110196044
 20
120.6486256737641
 30
0.0
 10
208.8952267808566
 20
119.0387165830242
 30
0.0
 10
197.8506687577205
 20
118.1415474187775
 30
0.0
 10
185.6268129170074
 20
118.2945823785445
 30
0.0
 10
173.8344677410638
 20
119.5557299286876
 30
0.0
 10
162.5708059079464
 20
121.8259760581448
 30
0.0
 10
151.9305919504755
 20
125.0648961300042
 30
0.0
 10
143.0165549338405
 20
128.8801530938013
 30
0.0
 10
135.7999692154901
 20
132.8704196472339
 30
0.0
 10
130.1444810154488
 20
136.6799876065755
 30
0.0
 10
125.3506302448061
 20
140.6625606493516
 30
0.0
 10
121.4029703678416
 20
144.6868055563186
 30
0.0
 10
118.2339873914532
 20
148.6183204160269
 30
0.0
 10
115.3616653616755
 20
153.1126711583631
 30
0.0
 10
113.0159765410399
 20
158.2194675669429
 30
0.0
 10
111.4438149985271
 20
163.9278142940418
 30
0.0
 10
110.9603095097714
 20
169.8415483902269
 30
0.0
 10
111.531650434109
 20
175.5840279217645
 30
0.0
 10
113.0645668686008
 20
180.95925119304
 30
0.0
 10
115.2666324439349
 20
185.8149151417721
 30
0.0
 10
118.0601362521848
 20
190.2653328133035
 30
0.0
 10
121.2879842529174
 20
194.3088624820315
 30
0.0
 10
125.4983159192198
 20
198.6157693746861
 30
0.0
 10
130.8253911741851
 20
202.981622273032
 30
0.0
 10
137.3215893717257
 20
207.1754677339306
 30
0.0
 10
144.4635257838511
 20
210.9177808139387
 30
0.0
 10
149.5636100091361
 20
212.9023676460023
 30
0.0
 10
152.2634972912155
 20
213.9529700500775
 30
0.0
  0
LINE
  5
2A8
330
1F
100
AcDbEntity
  8
0
  6
Continuous
 62
     7
370
    25
100
AcDbLine
 10
220.7832814288
 20
144.557450257
 30
0.0
 11
208.5832816643
 21
144.557450257
 31
0.0
  0
LINE
  5
2A9
330
1F
100
AcDbEntity
  8
0
  6
Continuous
 62
     7
370
    25
100
AcDbLine
 10
220.7832814288
 20
144.557450257
 30
0.0
 11
220.7832814288
 21
173.5574494226
 31
0.0
  0
ARC
  5
2AA
330
1F
100
AcDbEntity
  8
0
  6
Continuous
 62
     7
370
    25
100
AcDbCircle
 10
218.683281408
 20
173.5574498696
 30
0.0
 40
2.100000000000023
100
AcDbArc
 50
0.0
 51
90.0
  0
LINE
  5
2AB
330
1F
100
AcDbEntity
  8
0
  6
Continuous
 62
     7
370
    25
100
AcDbLine
 10
218.6832812709
 20
175.6574495805
 30
0.0
 11
210.6832818222
 21
175.6574495805
 31
0.0
  0
ARC
  5
2AC
330
1F
100
AcDbEntity
  8
0
  6
Continuous
 62
     7
370
    25
100
AcDbCircle
 10
210.683281408
 20
173.5574498696
 30
0.0
 40
2.100000000000023
100
AcDbArc
 50
90.0
 51
180.0
  0
LINE
  5
2AD
330
1F
100
AcDbEntity
  8
0
  6
Continuous
 62
     7
370
    25
100
AcDbLine
 10
208.5832816643
 20
173.5574494226
 30
0.0
 11
208.5832816643
 21
144.557450257
 31
0.0
  0
CIRCLE
  5
2AE
330
1F
100
AcDbEntity
  8
0
  6
Continuous
 62
     7
370
    25
100
AcDbCircle
 10
140.383281408
 20
199.5574498696
 30
0.0
 40
2.250000000000028
  0
CIRCLE
  5
2AF
330
1F
100
AcDbEntity
  8
0
  6
Continuous
 62
     7
370
    25
100
AcDbCircle
 10
246.383281408
 20
139.5574498696
 30
0.0
 40
2.25
  0
LINE
  5
2B0
330
1F
100
AcDbEntity
  8
0
  6
Continuous
 62
     7
370
    25
100
AcDbLine
 10
243.383282153
 20
167.3074497951
 30
0.0
 11
238.2803944033
 21
167.3074497951
 31
0.0
  0
ARC
  5
2B1
330
1F
100
AcDbEntity
  8
0
  6
Continuous
 62
     7
370
    25
100
AcDbCircle
 10
243.383281408
 20
169.5574498696
 30
0.0
 40
2.25
100
AcDbArc
 50
270.0
 51
90.0
  0
LINE
  5
2B2
330
1F
100
AcDbEntity
  8
0
  6
Continuous
 62
     7
370
    25
100
AcDbLine
 10
243.383282153
 20
171.8074496014
 30
0.0
 11
238.2803944033
 21
171.8074496014
 31
0.0
  0
ARC
  5
2B3
330
1F
100
AcDbEntity
  8
0
  6
Continuous
 62
     7
370
    25
100
AcDbCircle
 10
234.383281408
 20
169.5574498696
 30
0.0
 40
4.499999999999975
100
AcDbArc
 50
30.0
 51
330.0
  0
ELLIPSE
  5
2B4
330
1F
100
AcDbEntity
  8
0
  6
Continuous
 62
     7
370
    25
100
AcDbEllipse
 10
186.5976595083
 20
136.5572975416
 30
0.0
 11
-0.7193605134734753
 21
0.6950909708918117
 31
0.0
210
0.0
220
0.0
230
1.0
 40
0.9996846462
 41
5.480788165637088
 42
7.068725225065021
  0
LINE
  5
2B5
330
1F
100
AcDbEntity
  8
0
  6
Continuous
 62
     7
370
    25
100
AcDbLine
 10
185.5976486673
 20
136.5401542855
 30
0.0
 11
185.8993413021
 21
119.2589256091
 31
0.0
  0
LINE
  5
2B6
330
1F
100
AcDbEntity
  8
0
  6
Continuous
 62
     7
370
    25
100
AcDbLine
 10
185.8993413021
 20
119.2589256091
 30
0.0
 11
200.8672215138
 21
119.2589256091
 31
0.0
  0
LINE
  5
2B7
330
1F
100
AcDbEntity
  8
0
  6
Continuous
 62
     7
370
    25
100
AcDbLine
 10
201.1689141487
 20
136.5401542855
 30
0.0
 11
200.8672215138
 21
119.2589256091
 31
0.0
  0
ELLIPSE
  5
2B8
330
1F
100
AcDbEntity
  8
0
  6
Continuous
 62
     7
370
    25
100
AcDbEllipse
 10
200.1689033076
 20
136.5572975416
 30
0.0
 11
0.7193605134734469
 21
0.6950909708918402
 31
0.0
210
0.0
220
0.0
230
1.0
 40
0.9996846462
 41
5.497645389294164
 42
7.085582448722048
  0
LINE
  5
2B9
330
1F
100
AcDbEntity
  8
0
  6
Continuous
 62
     7
370
    25
100
AcDbLine
 10
200.1692185272
 20
137.5574491097
 30
0.0
 11
186.5973442887
 21
137.5574491097
 31
0.0
  0
LINE
  5
2BA
330
1F
100
AcDbEntity
  8
0
  6
Continuous
 62
     7
370
    25
100
AcDbLine
 10
185.5976486673
 20
202.574745111
 30
0.0
 11
185.8993413021
 21
219.8559719248
 31
0.0
  0
ELLIPSE
  5
2BB
330
1F
100
AcDbEntity
  8
0
  6
Continuous
 62
     7
370
    25
100
AcDbEllipse
 10
186.5976595083
 20
202.5576021977
 30
0.0
 11
-0.7193605134734753
 21
-0.6950909708918402
 31
0.0
210
0.0
220
0.0
230
1.0
 40
0.9996846462
 41
5.497645389294203
 42
7.085582448722079
  0
LINE
  5
2BC
330
1F
100
AcDbEntity
  8
0
  6
Continuous
 62
     7
370
    25
100
AcDbLine
 10
200.1692185272
 20
201.5574502868
 30
0.0
 11
186.5973442887
 21
201.5574502868
 31
0.0
  0
ELLIPSE
  5
2BD
330
1F
100
AcDbEntity
  8
0
  6
Continuous
 62
     7
370
    25
100
AcDbEllipse
 10
200.1689033076
 20
202.5576021977
 30
0.0
 11
0.7193605134734469
 21
-0.6950909708918402
 31
0.0
210
0.0
220
0.0
230
1.0
 40
0.9996846462
 41
5.480788165637138
 42
7.068725225064993
  0
LINE
  5
2BE
330
1F
100
AcDbEntity
  8
0
  6
Continuous
 62
     7
370
    25
100
AcDbLine
 10
201.1689141487
 20
202.574745111
 30
0.0
 11
200.8672215138
 21
219.8559719248
 31
0.0
  0
LINE
  5
2BF
330
1F
100
AcDbEntity
  8
0
  6
Continuous
 62
     7
370
    25
100
AcDbLine
 10
185.8993413021
 20
219.8559719248
 30
0.0
 11
200.8672215138
 21
219.8559719248
 31
0.0
  0
CIRCLE
  5
2C0
330
1F
100
AcDbEntity
  8
0
  6
Continuous
 62
     7
370
    25
100
AcDbCircle
 10
193.383281408
 20
184.3574498696
 30
0.0
 40
4.5
  0
CIRCLE
  5
2C1
330
1F
100
AcDbEntity
  8
0
  6
Continuous
 62
     7
370
    25
100
AcDbCircle
 10
193.383281408
 20
154.7574498696
 30
0.0
 40
4.5
  0
LWPOLYLINE
  5
2C2
330
1F
100
AcDbEntity
  8
0
  6
Continuous
 62
     7
370
    25
100
AcDbPolyline
 90
        3
 70
   128
 43
0.0
 10
273.9437197429
 20
177.0090910716
 10
265.8148829919
 20
177.1510339452
 10
264.4346405846
 20
177.1751365734
  0
LINE
  5
2C3
330
1F
100
AcDbEntity
  8
0
  6
Continuous
 62
     7
370
    25
100
AcDbLine
 10
242.1832804662
 20
208.2574482186
 30
0.0
 11
241.8832828385
 21
208.2574482186
 31
0.0
  0
LINE
  5
2C4
330
1F
100
AcDbEntity
  8
0
  6
Continuous
 62
     7
370
    25
100
AcDbLine
 10
241.8832828385
 20
176.5574499143
 30
0.0
 11
241.8832828385
 21
208.2574482186
 31
0.0
  0
LINE
  5
2C5
330
1F
100
AcDbEntity
  8
0
  6
Continuous
 62
     7
370
    25
100
AcDbLine
 10
241.8832828385
 20
176.5574499143
 30
0.0
 11
204.1832816881
 21
176.5574499143
 31
0.0
  0
LINE
  5
2C6
330
1F
100
AcDbEntity
  8
0
  6
Continuous
 62
     7
370
    25
100
AcDbLine
 10
204.1832816881
 20
176.5574499143
 30
0.0
 11
204.1832816881
 21
176.2574504239
 31
0.0
  0
LINE
  5
2C7
330
1F
100
AcDbEntity
  8
0
  6
Continuous
 62
     7
370
    25
100
AcDbLine
 10
204.1832816881
 20
176.2574504239
 30
0.0
 11
242.1832804662
 21
176.2574504239
 31
0.0
  0
LINE
  5
2C8
330
1F
100
AcDbEntity
  8
0
  6
Continuous
 62
     7
370
    25
100
AcDbLine
 10
242.1832804662
 20
176.2574504239
 30
0.0
 11
242.1832804662
 21
208.2574482186
 31
0.0
  0
CIRCLE
  5
2C9
330
1F
100
AcDbEntity
  8
0
  6
Continuous
 62
     7
370
    25
100
AcDbCircle
 10
193.383281408
 20
169.5574498696
 30
0.0
 40
8.0
  0
LINE
  5
2CA
330
1F
100
AcDbEntity
  8
0
  6
Continuous
 62
     7
370
    25
100
AcDbLine
 10
272.9921166879
 20
162.0891674532
 30
0.0
 11
273.942900179
 21
162.1057701407
 31
0.0
  0
SPLINE
  5
2CB
330
1F
100
AcDbEntity
  8
0
  6
Continuous
 62
     7
370
    25
100
AcDbSpline
210
0.0
220
0.0
230
1.0
 70
     8
 71
     3
 72
    10
 73
     6
 74
     0
 42
0.000000001
 43
0.00000001
 40
0.0
 40
0.0
 40
0.0
 40
0.0
 40
0.3926947407038966
 40
0.7967868786674175
 40
1.0
 40
1.0
 40
1.0
 40
1.0
 10
273.9437197429024
 20
177.0090910715867
 30
0.0
 10
274.2629566917226
 20
175.0681299151903
 30
0.0
 10
274.910695980387
 20
171.1298740102408
 30
0.0
 10
274.684428775802
 20
166.0898325822469
 30
0.0
 10
274.1288161857646
 20
163.1046540447216
 30
0.0
 10
273.9429001790367
 20
162.1057701406885
 30
0.0
  0
SPLINE
  5
2CC
330
1F
100
AcDbEntity
  8
0
  6
Continuous
 62
     7
370
    25
100
AcDbSpline
210
0.0
220
0.0
230
1.0
 70
     8
 71
     3
 72
    12
 73
     8
 74
     0
 42
0.000000001
 43
0.00000001
 40
0.0
 40
0.0
 40
0.0
 40
0.0
 40
0.0014532977765665
 40
0.2500538544079073
 40
0.4984490079099281
 40
0.7473440594288122
 40
1.0
 40
1.0
 40
1.0
 40
1.0
 10
272.9921166879021
 20
162.0891674531508
 30
0.0
 10
272.9894487129809
 20
162.0785946632576
 30
0.0
 10
272.5303979779837
 20
160.2594445157288
 30
0.0
 10
271.2937593500117
 20
156.7068637399147
 30
0.0
 10
268.6299073217332
 20
151.7666620470106
 30
0.0
 10
265.3288464632711
 20
147.1835863683122
 30
0.0
 10
262.7050304670582
 20
144.4804938472317
 30
0.0
 10
261.3832851034485
 20
143.118812992971
 30
0.0
  0
SPLINE
  5
2CD
330
1F
100
AcDbEntity
  8
0
  6
Continuous
 62
     7
370
    25
100
AcDbSpline
210
0.0
220
0.0
230
1.0
 70
     8
 71
     3
 72
    12
 73
     8
 74
     0
 42
0.000000001
 43
0.00000001
 40
0.0
 40
0.0
 40
0.0
 40
0.0
 40
0.212427946041928
 40
0.4248600066856533
 40
0.6372109659941998
 40
0.8494884948467109
 40
1.0
 40
1.0
 40
1.0
 40
1.0
 10
125.3832777124725
 20
164.9390173254419
 30
0.0
 10
125.3501244111062
 20
164.6016717066831
 30
0.0
 10
125.283817166214
 20
163.9269739349833
 30
0.0
 10
124.7665368295955
 20
163.027779277525
 30
0.0
 10
124.0053180834866
 20
162.3496708860652
 30
0.0
 10
123.1456795390599
 20
161.9829663630759
 30
0.0
 10
122.5705345605021
 20
161.9524304348692
 30
0.0
 10
122.3319222313248
 20
161.9397618917633
 30
0.0
  0
LINE
  5
2CE
330
1F
100
AcDbEntity
  8
0
  6
Continuous
 62
     7
370
    25
100
AcDbLine
 10
261.3832851034
 20
174.1758811397
 30
0.0
 11
261.3832851034
 21
143.118812993
 31
0.0
  0
SPLINE
  5
2CF
330
1F
100
AcDbEntity
  8
0
  6
Continuous
 62
     7
370
    25
100
AcDbSpline
210
0.0
220
0.0
230
1.0
 70
     8
 71
     3
 72
    12
 73
     8
 74
     0
 42
0.000000001
 43
0.00000001
 40
0.0
 40
0.0
 40
0.0
 40
0.0
 40
0.2124277689852371
 40
0.4248600178924918
 40
0.6372108631708154
 40
0.8494884831444676
 40
1.0
 40
1.0
 40
1.0
 40
1.0
 10
261.3832851034485
 20
174.1758811397362
 30
0.0
 10
261.4164385225409
 20
174.5132263850303
 30
0.0
 10
261.4827460599032
 20
175.1879239899442
 30
0.0
 10
262.0000253377684
 20
176.0871191688922
 30
0.0
 10
262.7612453348096
 20
176.765226309637
 30
0.0
 10
263.6208830538584
 20
177.1319323020113
 30
0.0
 10
264.1960282247157
 20
177.1624680907685
 30
0.0
 10
264.4346405845963
 20
177.1751365734149
 30
0.0
  0
LINE
  5
2D0
330
1F
100
AcDbEntity
  8
0
  6
Continuous
 62
     7
370
    25
100
AcDbLine
 10
125.3832777125
 20
164.9390173254
 30
0.0
 11
125.3832777125
 21
195.9960873349
 31
0.0
  0
SPLINE
  5
2D1
330
1F
100
AcDbEntity
  8
0
  6
Continuous
 62
     7
370
    25
100
AcDbSpline
210
0.0
220
0.0
230
1.0
 70
     8
 71
     3
 72
    13
 73
     9
 74
     0
 42
0.000000001
 43
0.00000001
 40
0.0
 40
0.0
 40
0.0
 40
0.0
 40
0.0014532409878863
 40
0.1723085499408625
 40
0.3432237840809119
 40
0.5051114791657989
 40
0.6670383711303449
 40
1.0
 40
1.0
 40
1.0
 40
1.0
 10
113.774446128019
 20
177.0257263554145
 30
0.0
 10
113.7771140856443
 20
177.0363010308085
 30
0.0
 10
114.0934497199594
 20
178.2901240363727
 30
0.0
 10
114.8776165413461
 20
180.7507610291479
 30
0.0
 10
116.4207661097404
 20
184.2092838093196
 30
0.0
 10
118.2737513048533
 20
187.4313743122985
 30
0.0
 10
121.0802474187583
 20
191.495664472791
 30
0.0
 10
123.652597375961
 20
194.1860156361394
 30
0.0
 10
125.3832777124725
 20
195.9960873348523
 30
0.0
  0
SPLINE
  5
2D2
330
1F
100
AcDbEntity
  8
0
  6
Continuous
 62
     7
370
    25
100
AcDbSpline
210
0.0
220
0.0
230
1.0
 70
     8
 71
     3
 72
    65
 73
    61
 74
     0
 42
0.000000001
 43
0.00000001
 40
0.0
 40
0.0
 40
0.0
 40
0.0
 40
0.0217167966481883
 40
0.0434964289508906
 40
0.0652625577341317
 40
0.0869608925256296
 40
0.1055883490878887
 40
0.1242444123766848
 40
0.1428501590894593
 40
0.1573918366223571
 40
0.1719625392735718
 40
0.1864797015497213
 40
0.2023997564655203
 40
0.2183021503765888
 40
0.2289913950940441
 40
0.2397231975113323
 40
0.2504070109513855
 40
0.2643458487081741
 40
0.2782929290548989
 40
0.2899888882268201
 40
0.3017288011311535
 40
0.3134415730378866
 40
0.3300482186433905
 40
0.3467184593902901
 40
0.3633555686629125
 40
0.3823492240352485
 40
0.4014083150918573
 40
0.4204882888238611
 40
0.4395105206494972
 40
0.4648158172867081
 40
0.4902122415484297
 40
0.5156127291968124
 40
0.540923585669247
 40
0.5613391936247634
 40
0.5818166540734117
 40
0.6022746334358227
 40
0.622663577500493
 40
0.6394729136617175
 40
0.6563100587573184
 40
0.6730958363387086
 40
0.6857119697776087
 40
0.6983544623459581
 40
0.7109516302808875
 40
0.7258721728131782
 40
0.740779482252004
 40
0.7557687413616182
 40
0.7707582563412739
 40
0.7844786305255804
 40
0.7982088029653178
 40
0.8108946241008672
 40
0.8236287233548901
 40
0.836334868896383
 40
0.8548525816036331
 40
0.873440932988813
 40
0.8919935498062065
 40
0.9132158695313358
 40
0.934513278683065
 40
0.9558317080326938
 40
0.9770827959661332
 40
1.0
 40
1.0
 40
1.0
 40
1.0
 10
188.3832815197192
 20
114.5987178308774
 30
0.0
 10
185.2135075473945
 20
114.7806314463256
 30
0.0
 10
178.8647881385811
 20
115.1449850283812
 30
0.0
 10
169.419639999216
 20
116.5582952567508
 30
0.0
 10
160.1069016831763
 20
118.6398286853598
 30
0.0
 10
151.433636006709
 20
121.3461523252028
 30
0.0
 10
143.433796246395
 20
124.5788450828747
 30
0.0
 10
136.1393276288646
 20
128.2773236648005
 30
0.0
 10
129.7336623320014
 20
132.338050929898
 30
0.0
 10
124.2303582353844
 20
136.636212795159
 30
0.0
 10
119.6035979417392
 20
141.0397912565492
 30
0.0
 10
115.3596451990978
 20
146.0853963946235
 30
0.0
 10
111.7297688401987
 20
151.8313138188386
 30
0.0
 10
109.2649369937716
 20
157.5702172960899
 30
0.0
 10
107.9169943017417
 20
162.8699342118215
 30
0.0
 10
107.3402551100727
 20
167.5389349573912
 30
0.0
 10
107.373482787585
 20
172.7206073527599
 30
0.0
 10
108.2997394232444
 20
178.3091918364876
 30
0.0
 10
110.1489602757485
 20
183.8152085187735
 30
0.0
 10
112.6099549138072
 20
188.7074291589154
 30
0.0
 10
115.4280868049316
 20
193.0137967068376
 30
0.0
 10
119.1247136607557
 20
197.5648282088147
 30
0.0
 10
123.8309689079668
 20
202.1808980203751
 30
0.0
 10
129.5890017263767
 20
206.6800030068566
 30
0.0
 10
136.0531183065023
 20
210.778157078974
 30
0.0
 10
143.1767125369208
 20
214.4269971600927
 30
0.0
 10
150.9185692512936
 20
217.5782850859256
 30
0.0
 10
158.8873831887248
 20
220.1104335209073
 30
0.0
 10
167.9039242695435
 20
222.2768563423805
 30
0.0
 10
177.9790132510646
 20
223.8848027978661
 30
0.0
 10
189.0833796301233
 20
224.7008657340463
 30
0.0
 10
200.2177197693763
 20
224.5921495373025
 30
0.0
 10
210.5799474856363
 20
223.6304650312245
 30
0.0
 10
220.1247885892844
 20
222.0037997392623
 30
0.0
 10
228.8389546337692
 20
219.8585281118304
 30
0.0
 10
237.3553167068635
 20
217.0366298261501
 30
0.0
 10
245.108084206021
 20
213.707028603609
 30
0.0
 10
252.0747364491046
 20
209.9702365072552
 30
0.0
 10
258.2428913945743
 20
205.9166645744581
 30
0.0
 10
263.4969196225963
 20
201.6449155115495
 30
0.0
 10
267.8465709471006
 20
197.293061459912
 30
0.0
 10
271.3595034504159
 20
193.0064056999972
 30
0.0
 10
274.5648316748556
 20
188.07398357873
 30
0.0
 10
277.2002493335564
 20
182.4342043215586
 30
0.0
 10
278.9918010928113
 20
176.0994599712257
 30
0.0
 10
279.5802044651934
 20
169.5287606964871
 30
0.0
 10
278.9974417779446
 20
163.1324278596713
 30
0.0
 10
277.3388918004181
 20
157.1283291437144
 30
0.0
 10
274.9412575672865
 20
151.7526456076975
 30
0.0
 10
271.9176758262063
 20
146.8789116460169
 30
0.0
 10
268.4566259355046
 20
142.4990179919632
 30
0.0
 10
263.9785894102418
 20
137.880102812834
 30
0.0
 10
258.3469915778418
 20
133.2371098111874
 30
0.0
 10
251.5200331007488
 20
128.7892563328572
 30
0.0
 10
243.946414150344
 20
124.8418119091713
 30
0.0
 10
235.6786519126826
 20
121.4471676271129
 30
0.0
 10
226.7616616059944
 20
118.6657061018912
 30
0.0
 10
217.6474062310166
 20
116.621012381478
 30
0.0
 10
208.1748820980637
 20
115.1729481820348
 30
0.0
 10
201.7282086913949
 20
114.7947836471203
 30
0.0
 10
198.3832812962018
 20
114.5985688192654
 30
0.0
  0
LINE
  5
2D3
330
1F
100
AcDbEntity
  8
0
  6
Continuous
 62
     7
370
    25
100
AcDbLine
 10
198.3832812962
 20
114.5985688193
 30
0.0
 11
198.3832812962
 21
115.7540719135
 31
0.0
  0
LINE
  5
2D4
330
1F
100
AcDbEntity
  8
0
  6
Continuous
 62
     7
370
    25
100
AcDbLine
 10
198.3832812962
 20
115.7540719135
 30
0.0
 11
188.3832815197
 21
115.7542283757
 31
0.0
  0
LINE
  5
2D5
330
1F
100
AcDbEntity
  8
0
  6
Continuous
 62
     7
370
    25
100
AcDbLine
 10
188.3832815197
 20
115.7542283757
 30
0.0
 11
188.3832815197
 21
114.5987178309
 31
0.0
  0
SPLINE
  5
2D6
330
1F
100
AcDbEntity
  8
0
  6
Continuous
 62
     7
370
    25
100
AcDbSpline
210
0.0
220
0.0
230
1.0
 70
     8
 71
     3
 72
    12
 73
     8
 74
     0
 42
0.000000001
 43
0.00000001
 40
0.0
 40
0.0
 40
0.0
 40
0.0
 40
0.2131539166152147
 40
0.4263057967005154
 40
0.6394738694309431
 40
0.8526723753772405
 40
1.0
 40
1.0
 40
1.0
 40
1.0
 10
219.6832814347826
 20
145.0525543762255
 30
0.0
 10
219.6833780537374
 20
144.996385318836
 30
0.0
 10
219.683571290724
 20
144.8840477407113
 30
0.0
 10
219.6850836350116
 20
144.7347724299901
 30
0.0
 10
219.687305532675
 20
144.6225269597414
 30
0.0
 10
219.6897964072319
 20
144.562691098974
 30
0.0
 10
219.6914509954486
 20
144.5578129486797
 30
0.0
 10
219.6921271365963
 20
144.5558195112158
 30
0.0
  0
SPLINE
  5
2D7
330
1F
100
AcDbEntity
  8
0
  6
Continuous
 62
     7
370
    25
100
AcDbSpline
210
0.0
220
0.0
230
1.0
 70
     8
 71
     3
 72
    12
 73
     8
 74
     0
 42
0.000000001
 43
0.00000001
 40
0.0
 40
0.0
 40
0.0
 40
0.0
 40
0.2132334917824183
 40
0.4264687860629072
 40
0.6396909426812726
 40
0.8528812998837971
 40
0.9999999999999999
 40
0.9999999999999999
 40
0.9999999999999999
 40
0.9999999999999999
 10
209.6744359564863
 20
144.5558195112158
 30
0.0
 10
209.6754187583183
 20
144.560366094593
 30
0.0
 10
209.67738437029
 20
144.5694592997803
 30
0.0
 10
209.6800207814466
 20
144.6530558654867
 30
0.0
 10
209.6820272289523
 20
144.7779612904008
 30
0.0
 10
209.6831190257691
 20
144.9192054069088
 30
0.0
 10
209.6832345061957
 20
145.0138924647706
 30
0.0
 10
209.6832816583
 20
145.0525543762255
 30
0.0
  0
SPLINE
  5
2D8
330
1F
100
AcDbEntity
  8
0
  6
Continuous
 62
     7
370
    25
100
AcDbSpline
210
0.0
220
0.0
230
1.0
 70
     8
 71
     3
 72
    12
 73
     8
 74
     0
 42
0.000000001
 43
0.00000001
 40
0.0
 40
0.0
 40
0.0
 40
0.0
 40
0.2131539263798495
 40
0.4263057891725389
 40
0.6394738647001436
 40
0.8526723734440174
 40
1.0
 40
1.0
 40
1.0
 40
1.0
 10
177.083281157621
 20
145.0525543762255
 30
0.0
 10
177.0833787747804
 20
144.9963853207585
 30
0.0
 10
177.0835740081542
 20
144.8840477536087
 30
0.0
 10
177.0850825550471
 20
144.7347724207715
 30
0.0
 10
177.087305472294
 20
144.6225269612784
 30
0.0
 10
177.0897960948982
 20
144.5626910987246
 30
0.0
 10
177.0914507080837
 20
144.5578129486074
 30
0.0
 10
177.0921268594347
 20
144.5558195112158
 30
0.0
  0
SPLINE
  5
2D9
330
1F
100
AcDbEntity
  8
0
  6
Continuous
 62
     7
370
    25
100
AcDbSpline
210
0.0
220
0.0
230
1.0
 70
     8
 71
     3
 72
    12
 73
     8
 74
     0
 42
0.000000001
 43
0.00000001
 40
0.0
 40
0.0
 40
0.0
 40
0.0
 40
0.2132334850465622
 40
0.4264688089901769
 40
0.6396909588730442
 40
0.8528813093410752
 40
1.0
 40
1.0
 40
1.0
 40
1.0
 10
167.0744356793247
 20
144.5558195112158
 30
0.0
 10
167.075418265067
 20
144.5603660964842
 30
0.0
 10
167.0773834450253
 20
144.5694593062301
 30
0.0
 10
167.0800230976191
 20
144.653055854296
 30
0.0
 10
167.0820284015687
 20
144.7779612919456
 30
0.0
 10
167.0831213941448
 20
144.9192054040039
 30
0.0
 10
167.0832349960563
 20
145.0138924644594
 30
0.0
 10
167.0832813811384
 20
145.0525543762255
 30
0.0
  0
LINE
  5
2DA
330
1F
100
AcDbEntity
  8
0
  6
Continuous
 62
     7
370
    25
100
AcDbLine
 10
265.1250560862
 20
218.8477221055
 30
0.0
 11
265.0311862213
 21
218.7298539204
 31
0.0
  0
LINE
  5
2DB
330
1F
100
AcDbEntity
  8
0
  6
Continuous
 62
     7
370
    25
100
AcDbLine
 10
272.8112538439
 20
212.3020182473
 30
0.0
 11
265.0311862213
 21
218.7298539204
 31
0.0
  0
LINE
  5
2DC
330
1F
100
AcDbEntity
  8
0
  6
Continuous
 62
     7
370
    25
100
AcDbLine
 10
272.8112538439
 20
212.3020182473
 30
0.0
 11
272.9090948683
 21
212.4162319226
 31
0.0
  0
SPLINE
  5
2DD
330
1F
100
AcDbEntity
  8
0
  6
Continuous
 62
     7
370
    25
100
AcDbSpline
210
0.0
220
0.0
230
1.0
 70
     8
 71
     3
 72
    14
 73
    10
 74
     0
 42
0.000000001
 43
0.00000001
 40
0.0
 40
0.0
 40
0.0
 40
0.0
 40
0.1589030010342234
 40
0.3387468061151393
 40
0.5230900182038395
 40
0.6406737096570713
 40
0.7582772587178269
 40
0.8791300536416667
 40
1.0
 40
1.0
 40
1.0
 40
1.0
 10
293.2128061634384
 20
171.5574490947533
 30
0.0
 10
293.0069458097264
 20
174.0315996255937
 30
0.0
 10
292.5680960908929
 20
179.3059530658397
 30
0.0
 10
290.3246645634152
 20
187.2036713800888
 30
0.0
 10
287.2411798621443
 20
194.0804414276808
 30
0.0
 10
283.8618991976006
 20
199.6944810791919
 30
0.0
 10
280.5972980346637
 20
204.1926170096366
 30
0.0
 10
276.9638151750704
 20
208.4705358011869
 30
0.0
 10
274.260732236304
 20
211.1009376687553
 30
0.0
 10
272.9090948683105
 20
212.4162319226075
 30
0.0
  0
SPLINE
  5
2DE
330
1F
100
AcDbEntity
  8
0
  6
Continuous
 62
     7
370
    25
100
AcDbSpline
210
0.0
220
0.0
230
1.0
 70
     8
 71
     3
 72
    10
 73
     6
 74
     0
 42
0.000000001
 43
0.00000001
 40
0.0
 40
0.0
 40
0.0
 40
0.0
 40
0.4200255042813039
 40
0.70993546806834
 40
1.0
 40
1.0
 40
1.0
 40
1.0
 10
293.2128061634384
 20
171.5574490947533
 30
0.0
 10
293.2296596112999
 20
170.9974959046633
 30
0.0
 10
293.2581456443482
 20
170.051051876739
 30
0.0
 10
293.2508963929246
 20
168.7171744434277
 30
0.0
 10
293.2255349619353
 20
167.9440936931764
 30
0.0
 10
293.212850866922
 20
167.5574503017474
 30
0.0
  0
SPLINE
  5
2DF
330
1F
100
AcDbEntity
  8
0
  6
Continuous
 62
     7
370
    25
100
AcDbSpline
210
0.0
220
0.0
230
1.0
 70
     8
 71
     3
 72
    16
 73
    12
 74
     0
 42
0.000000001
 43
0.00000001
 40
0.0
 40
0.0
 40
0.0
 40
0.0
 40
0.1134799217936804
 40
0.2269466297254156
 40
0.3430968234769571
 40
0.4592284564470028
 40
0.5558424585382545
 40
0.6524468505731504
 40
0.7517175639900323
 40
0.850979622566129
 40
1.0
 40
1.0
 40
1.0
 40
1.0
 10
272.9095568043076
 20
126.6981273068
 30
0.0
 10
274.1804134444441
 20
127.9317150133268
 30
0.0
 10
276.7219787432599
 20
130.3987467846034
 30
0.0
 10
280.2214549663292
 20
134.4583034181545
 30
0.0
 10
283.4398519733367
 20
138.7929562828378
 30
0.0
 10
286.1431504866985
 20
143.1625999557603
 30
0.0
 10
288.3382755018624
 20
147.4654366584728
 30
0.0
 10
290.0928150227494
 20
151.6838652415106
 30
0.0
 10
291.4912854570841
 20
156.0748005564933
 30
0.0
 10
292.7242292221368
 20
161.3680290038227
 30
0.0
 10
293.0295832694721
 20
165.2359209847259
 30
0.0
 10
293.2128583175026
 20
167.5574493704248
 30
0.0
  0
LINE
  5
2E0
330
1F
100
AcDbEntity
  8
0
  6
Continuous
 62
     7
370
    25
100
AcDbLine
 10
272.9095568043
 20
126.6981273068
 30
0.0
 11
272.8597347719
 21
126.7562846763
 31
0.0
  0
LINE
  5
2E1
330
1F
100
AcDbEntity
  8
0
  6
Continuous
 62
     7
370
    25
100
AcDbLine
 10
265.0776852948
 20
120.3266683144
 30
0.0
 11
272.8597347719
 21
126.7562846763
 31
0.0
  0
LINE
  5
2E2
330
1F
100
AcDbEntity
  8
0
  6
Continuous
 62
     7
370
    25
100
AcDbLine
 10
265.0776852948
 20
120.3266683144
 30
0.0
 11
265.1254956704
 21
120.2666278107
 31
0.0
  0
SPLINE
  5
2E3
330
1F
100
AcDbEntity
  8
0
  6
Continuous
 62
     7
370
    25
100
AcDbSpline
210
0.0
220
0.0
230
1.0
 70
     8
 71
     3
 72
    21
 73
    17
 74
     0
 42
0.000000001
 43
0.00000001
 40
0.0
 40
0.0
 40
0.0
 40
0.0
 40
0.056621292834669
 40
0.1187273208712309
 40
0.1810522163256088
 40
0.2434305026220393
 40
0.3056096054224362
 40
0.3907590669468795
 40
0.4761056816470585
 40
0.561272437622517
 40
0.6379310217769663
 40
0.714901061886829
 40
0.7918028446739491
 40
0.868367973451832
 40
0.9341951589227061
 40
1.0
 40
1.0
 40
1.0
 40
1.0
 10
121.6415067297302
 20
120.2671791536618
 30
0.0
 10
124.0067203991552
 20
118.6332364249738
 30
0.0
 10
128.9662589084366
 20
115.2070758249216
 30
0.0
 10
137.097020704772
 20
110.8893892379069
 30
0.0
 10
145.8033047482669
 20
107.1233214426594
 30
0.0
 10
154.7962991918501
 20
104.0839410417582
 30
0.0
 10
165.111038809692
 20
101.4388264310937
 30
0.0
 10
176.7733088394978
 20
99.48666273654919
 30
0.0
 10
189.7294174715919
 20
98.55261267868102
 30
0.0
 10
202.2857502002705
 20
98.80503048842914
 30
0.0
 10
214.3448986045414
 20
100.1140226214264
 30
0.0
 10
225.8364416368563
 20
102.3698723665151
 30
0.0
 10
237.0800713003885
 20
105.6426314514
 30
0.0
 10
247.4185974108086
 20
109.7933464509615
 30
0.0
 10
256.8515617064592
 20
114.6034692204554
 30
0.0
 10
262.3678298092908
 20
118.3791219182655
 30
0.0
 10
265.125495670446
 20
120.2666278106976
 30
0.0
  0
LINE
  5
2E4
330
1F
100
AcDbEntity
  8
0
  6
Continuous
 62
     7
370
    25
100
AcDbLine
 10
121.6415067297
 20
120.2671791537
 30
0.0
 11
121.6889892799
 21
120.3267986996
 31
0.0
  0
LINE
  5
2E5
330
1F
100
AcDbEntity
  8
0
  6
Continuous
 62
     7
370
    25
100
AcDbLine
 10
113.9069472534
 20
126.7564299626
 30
0.0
 11
121.6889892799
 21
120.3267986996
 31
0.0
  0
LINE
  5
2E6
330
1F
100
AcDbEntity
  8
0
  6
Continuous
 62
     7
370
    25
100
AcDbLine
 10
113.9069472534
 20
126.7564299626
 30
0.0
 11
113.8574679476
 21
126.6986656112
 31
0.0
  0
SPLINE
  5
2E7
330
1F
100
AcDbEntity
  8
0
  6
Continuous
 62
     7
370
    25
100
AcDbSpline
210
0.0
220
0.0
230
1.0
 70
     8
 71
     3
 72
    15
 73
    11
 74
     0
 42
0.000000001
 43
0.00000001
 40
0.0
 40
0.0
 40
0.0
 40
0.0
 40
0.0647842940537824
 40
0.1871016273438077
 40
0.3098112335150535
 40
0.4321967382765076
 40
0.5592249058495352
 40
0.6865819756731943
 40
0.8137048031647293
 40
1.0
 40
1.0
 40
1.0
 40
1.0
 10
93.5537566524826
 20
167.5574503017474
 30
0.0
 10
93.61212361346948
 20
166.5482919158235
 30
0.0
 10
93.78069152862936
 20
163.6337710583877
 30
0.0
 10
94.56468961439607
 20
158.8510823644858
 30
0.0
 10
96.07282554088609
 20
153.3124383223004
 30
0.0
 10
98.18587876662355
 20
147.8941962911797
 30
0.0
 10
100.8813647597556
 20
142.6594690670013
 30
0.0
 10
104.1125329858808
 20
137.6539770440768
 30
0.0
 10
108.318901788623
 20
132.1976017164583
 30
0.0
 10
111.7926671196991
 20
128.7486921879363
 30
0.0
 10
113.8574679476105
 20
126.6986656112481
 30
0.0
  0
SPLINE
  5
2E8
330
1F
100
AcDbEntity
  8
0
  6
Continuous
 62
     7
370
    25
100
AcDbSpline
210
0.0
220
0.0
230
1.0
 70
     8
 71
     3
 72
    10
 73
     6
 74
     0
 42
0.000000001
 43
0.00000001
 40
0.0
 40
0.0
 40
0.0
 40
0.0
 40
0.4200755913651415
 40
0.7099606320970157
 40
1.0
 40
1.0
 40
1.0
 40
1.0
 10
93.55371194899902
 20
171.5574490947533
 30
0.0
 10
93.53685912596274
 20
170.9974288204232
 30
0.0
 10
93.50837653582562
 20
170.0509507195211
 30
0.0
 10
93.51567485109886
 20
168.7170730453571
 30
0.0
 10
93.54106046684842
 20
167.944059786686
 30
0.0
 10
93.5537566524826
 20
167.5574503017474
 30
0.0
  0
SPLINE
  5
2E9
330
1F
100
AcDbEntity
  8
0
  6
Continuous
 62
     7
370
    25
100
AcDbSpline
210
0.0
220
0.0
230
1.0
 70
     8
 71
     3
 72
    15
 73
    11
 74
     0
 42
0.000000001
 43
0.00000001
 40
0.0
 40
0.0
 40
0.0
 40
0.0
 40
0.1616650900737804
 40
0.3250756682298544
 40
0.4265318738972518
 40
0.5279766977300443
 40
0.6321517958731672
 40
0.7363144136371195
 40
0.8672122432865258
 40
1.0
 40
1.0
 40
1.0
 40
1.0
 10
113.8570060116135
 20
212.4167720897008
 30
0.0
 10
112.0601456354354
 20
210.6443057802694
 30
0.0
 10
108.4470242915804
 20
207.0802359511533
 30
0.0
 10
104.3465660476468
 20
201.8136101862036
 30
0.0
 10
101.2437827443706
 20
197.0109347381895
 30
0.0
 10
98.96308438974111
 20
192.7923871325242
 30
0.0
 10
97.01768500408657
 20
188.3614704829734
 30
0.0
 10
95.32968825660608
 20
183.3413409306085
 30
0.0
 10
94.02060431190692
 20
177.7324140454477
 30
0.0
 10
93.7100846045126
 20
173.6255824457239
 30
0.0
 10
93.55371194899902
 20
171.5574490947533
 30
0.0
  0
LINE
  5
2EA
330
1F
100
AcDbEntity
  8
0
  6
Continuous
 62
     7
370
    25
100
AcDbLine
 10
113.8570060116
 20
212.4167720897
 30
0.0
 11
113.9068280441
 21
212.3586165829
 31
0.0
  0
LINE
  5
2EB
330
1F
100
AcDbEntity
  8
0
  6
Continuous
 62
     7
370
    25
100
AcDbLine
 10
121.6888775212
 20
218.7882292194
 30
0.0
 11
113.9068280441
 21
212.3586165829
 31
0.0
  0
LINE
  5
2EC
330
1F
100
AcDbEntity
  8
0
  6
Continuous
 62
     7
370
    25
100
AcDbLine
 10
121.6410671455
 20
218.8482734484
 30
0.0
 11
121.6888775212
 21
218.7882292194
 31
0.0
  0
SPLINE
  5
2ED
330
1F
100
AcDbEntity
  8
0
  6
Continuous
 62
     7
370
    25
100
AcDbSpline
210
0.0
220
0.0
230
1.0
 70
     8
 71
     3
 72
    21
 73
    17
 74
     0
 42
0.000000001
 43
0.00000001
 40
0.0
 40
0.0
 40
0.0
 40
0.0
 40
0.0695244037718162
 40
0.1390761494737521
 40
0.2078384726560883
 40
0.2768449167560449
 40
0.3458977098146094
 40
0.4147234580401015
 40
0.4950548859801655
 40
0.5691076888491207
 40
0.6434186755842387
 40
0.7176937837355698
 40
0.7916974804531072
 40
0.8611125850378676
 40
0.9306645314984802
 40
0.9999999999999999
 40
0.9999999999999999
 40
0.9999999999999999
 40
0.9999999999999999
 10
265.1250560861908
 20
218.8477221054841
 30
0.0
 10
262.2077083291013
 20
220.8369071744706
 30
0.0
 10
256.3718655067229
 20
224.8160596011968
 30
0.0
 10
246.9114610202087
 20
229.5385086071156
 30
0.0
 10
237.1237911759572
 20
233.4173966949383
 30
0.0
 10
227.0511001778113
 20
236.408610797239
 30
0.0
 10
216.770145845001
 20
238.5777581937344
 30
0.0
 10
205.7822146677928
 20
240.0176096368471
 30
0.0
 10
194.4557218962717
 20
240.5700017485447
 30
0.0
 10
182.8473195128888
 20
240.1671451661703
 30
0.0
 10
171.6135160354862
 20
238.8656530011701
 30
0.0
 10
160.5293455512439
 20
236.6347959072546
 30
0.0
 10
149.91364045589
 20
233.5244699504248
 30
0.0
 10
139.8585248099484
 20
229.5412492591879
 30
0.0
 10
130.3779111881511
 20
224.8064755904676
 30
0.0
 10
124.5503207531814
 20
220.8322760233419
 30
0.0
 10
121.641067145475
 20
218.8482734484483
 30
0.0
  0
SPLINE
  5
2EE
330
1F
100
AcDbEntity
  8
0
  6
Continuous
 62
     7
370
    25
100
AcDbSpline
210
0.0
220
0.0
230
1.0
 70
    11
 71
     3
 72
    65
 73
    61
 74
     0
 42
0.000000001
 43
0.00000001
 40
0.0
 40
0.0
 40
0.0
 40
0.0
 40
0.0243080125717157
 40
0.0487108965506425
 40
0.0730928334239004
 40
0.0973721564772525
 40
0.1160086605569433
 40
0.1346763672121438
 40
0.1532883800718436
 40
0.1671490000139485
 40
0.1810372510691197
 40
0.1948760597261474
 40
0.2105664558756637
 40
0.2262399231301561
 40
0.2367694580621869
 40
0.247340935477426
 40
0.2578662566723191
 40
0.2716721279025876
 40
0.2854865077304033
 40
0.2973381268842675
 40
0.3092343763153652
 40
0.3211032881758963
 40
0.3379305664791772
 40
0.3548220346674431
 40
0.3716798616171885
 40
0.3906087348636265
 40
0.4096032063398826
 40
0.4286171682783043
 40
0.4475726901338724
 40
0.4719085772483153
 40
0.4963321884853121
 40
0.5207571246730208
 40
0.5450948242343505
 40
0.5643590988784475
 40
0.5836814457980118
 40
0.602985675569641
 40
0.6222251709661436
 40
0.6385598117300811
 40
0.6549226600592063
 40
0.671234098114559
 40
0.6834669798329194
 40
0.6957259458314753
 40
0.7079411792500168
 40
0.7226245565846887
 40
0.7372958068036326
 40
0.7520372134356206
 40
0.7667799570630779
 40
0.7804390240674507
 40
0.7941076418841075
 40
0.8069898137886091
 40
0.8199209507994158
 40
0.8328237525997776
 40
0.8515998464121591
 40
0.8704473259676326
 40
0.8892576295998764
 40
0.9100915931812472
 40
0.9309984294309033
 40
0.9519233084614102
 40
0.9727819569793404
 40
1.0
 40
1.0
 40
1.0
 40
1.0
 10
193.3289880121546
 20
226.2302267474938
 30
0.0
 10
189.6243263554503
 20
226.1418497811818
 30
0.0
 10
182.2005441691256
 20
225.9647509233142
 30
0.0
 10
171.1371576440016
 20
224.5234585534416
 30
0.0
 10
160.2422934401601
 20
222.1781887805712
 30
0.0
 10
150.4536677067892
 20
219.0643576440041
 30
0.0
 10
141.7973455892185
 20
215.4172857347299
 30
0.0
 10
134.2604974359723
 20
211.4183078472794
 30
0.0
 10
127.7654656709859
 20
207.0852020636325
 30
0.0
 10
122.3076192177894
 20
202.5862411885626
 30
0.0
 10
117.823855273037
 20
198.0931889034318
 30
0.0
 10
113.6808772296487
 20
192.9164792413577
 30
0.0
 10
110.1322927055345
 20
186.9840102082657
 30
0.0
 10
107.7522383354195
 20
181.024196194379
 30
0.0
 10
106.5106647780445
 20
175.5456457745454
 30
0.0
 10
106.0420972763616
 20
170.7368198079823
 30
0.0
 10
106.2081301563114
 20
165.4063552230951
 30
0.0
 10
107.2942676824022
 20
159.6677543988022
 30
0.0
 10
109.3334162467428
 20
153.9846939914112
 30
0.0
 10
112.0083813810508
 20
148.9094506076008
 30
0.0
 10
115.0714698198861
 20
144.4172386884917
 30
0.0
 10
119.0664788659534
 20
139.6835401908996
 30
0.0
 10
124.1275398325125
 20
134.8995949214421
 30
0.0
 10
130.296763979356
 20
130.2591969204957
 30
0.0
 10
137.1622711332895
 20
126.0803177128128
 30
0.0
 10
144.6691736280291
 20
122.4048291795196
 30
0.0
 10
152.7712861514896
 20
119.276963812792
 30
0.0
 10
161.0983759604698
 20
116.8002940221611
 30
0.0
 10
170.3775565051965
 20
114.7621879293827
 30
0.0
 10
180.6090605568002
 20
113.3367416045567
 30
0.0
 10
191.7562677290149
 20
112.7348502596134
 30
0.0
 10
202.9150605019141
 20
113.0634968507844
 30
0.0
 10
213.226155349164
 20
114.2359247706637
 30
0.0
 10
222.6476977862782
 20
116.0506383191556
 30
0.0
 10
231.1735830568132
 20
118.3434611358111
 30
0.0
 10
239.4913934796535
 20
121.2959317421371
 30
0.0
 10
247.1142266120321
 20
124.7596800473031
 30
0.0
 10
254.0134897416018
 20
128.6542610599506
 30
0.0
 10
260.166182105977
 20
132.9052699636155
 30
0.0
 10
265.3775500502237
 20
137.3616665706277
 30
0.0
 10
269.6617897135554
 20
141.878860802861
 30
0.0
 10
273.0960544443367
 20
146.3059522977632
 30
0.0
 10
276.2191571125202
 20
151.4053307896098
 30
0.0
 10
278.7527678844742
 20
157.2388693419054
 30
0.0
 10
280.4071916171298
 20
163.7861609281082
 30
0.0
 10
280.8270870790739
 20
170.5385442045676
 30
0.0
 10
280.0623767407957
 20
177.1039350149171
 30
0.0
 10
278.2115824419585
 20
183.2691873415476
 30
0.0
 10
275.5947037682013
 20
188.8317552042142
 30
0.0
 10
272.3178459524449
 20
193.894231031077
 30
0.0
 10
268.5661474281898
 20
198.4608395710841
 30
0.0
 10
263.7364398505813
 20
203.257282831196
 30
0.0
 10
257.6901722339729
 20
208.0552450049188
 30
0.0
 10
250.3860666648701
 20
212.6206159102934
 30
0.0
 10
242.3931706356236
 20
216.5900592367347
 30
0.0
 10
233.7811989432093
 20
219.9332988868493
 30
0.0
 10
224.604683525338
 20
222.6126497026566
 30
0.0
 10
215.2408299397057
 20
224.5340064766449
 30
0.0
 10
204.8058044352822
 20
225.9319935463681
 30
0.0
 10
197.4777041869768
 20
226.1224194201164
 30
0.0
 10
193.3289880121546
 20
226.2302267474938
 30
0.0
  0
ELLIPSE
  5
2EF
330
1F
100
AcDbEntity
  8
0
  6
Continuous
 62
     7
370
    25
100
AcDbEllipse
 10
200.3280781774
 20
219.3811563723
 30
0.0
 11
1.000157787112357
 21
0.0
 31
0.0
210
0.0
220
0.0
230
1.0
 40
0.0174496531
 41
0.991910929602012
 42
1.570796326794897
  0
ELLIPSE
  5
2F0
330
1F
100
AcDbEntity
  8
0
  6
Continuous
 62
     7
370
    25
100
AcDbEllipse
 10
186.4384846385
 20
219.3811563723
 30
0.0
 11
1.000157787112357
 21
0.0
 31
0.0
210
0.0
220
0.0
230
1.0
 40
0.0174496531
 41
1.570796326794897
 42
2.149681723987782
  0
ELLIPSE
  5
2F1
330
1F
100
AcDbEntity
  8
0
  6
Continuous
 62
     7
370
    25
100
AcDbEllipse
 10
186.4384846385
 20
119.7337433669
 30
0.0
 11
1.000157787112357
 21
0.0
 31
0.0
210
0.0
220
0.0
230
1.0
 40
0.0174496531
 41
4.133503583192043
 42
4.71238898038469
  0
ELLIPSE
  5
2F2
330
1F
100
AcDbEntity
  8
0
  6
Continuous
 62
     7
370
    25
100
AcDbEllipse
 10
200.3280781774
 20
119.7337433669
 30
0.0
 11
1.000157787112357
 21
0.0
 31
0.0
210
0.0
220
0.0
230
1.0
 40
0.0174496531
 41
4.71238898038469
 42
5.291274377577809
  0
LINE
  5
2F3
330
1F
100
AcDbEntity
  8
0
  6
Continuous
 62
     7
370
    25
100
AcDbLine
 10
186.4384844062
 20
219.3986105842
 30
0.0
 11
200.3280784097
 21
219.3986105842
 31
0.0
  0
LINE
  5
2F4
330
1F
100
AcDbEntity
  8
0
  6
Continuous
 62
     7
370
    25
100
AcDbLine
 10
200.3280784097
 20
119.7162906749
 30
0.0
 11
186.4384844062
 21
119.7162906749
 31
0.0
  0
LINE
  5
2F5
330
1F
100
AcDbEntity
  8
0
  6
Continuous
 62
     7
370
    25
100
AcDbLine
 10
196.2949848362
 20
217.3764857573
 30
0.0
 11
200.9105079901
 21
217.3764857573
 31
0.0
  0
LINE
  5
2F6
330
1F
100
AcDbEntity
  8
0
  6
Continuous
 62
     7
370
    25
100
AcDbLine
 10
196.87540113
 20
206.2437425477
 30
0.0
 11
201.1048615073
 21
206.2437425477
 31
0.0
  0
LINE
  5
2F7
330
1F
100
AcDbEntity
  8
0
  6
Continuous
 62
     7
370
    25
100
AcDbLine
 10
196.87540113
 20
206.2437425477
 30
0.0
 11
196.8726197352
 21
215.4547500534
 31
0.0
  0
SPLINE
  5
2F8
330
1F
100
AcDbEntity
  8
0
  6
Continuous
 62
     7
370
    25
100
AcDbSpline
210
0.0
220
0.0
230
1.0
 70
     8
 71
     3
 72
     9
 73
     5
 74
     0
 42
0.000000001
 43
0.00000001
 40
0.0
 40
0.0
 40
0.0
 40
0.0
 40
0.8205722919206817
 40
1.0
 40
1.0
 40
1.0
 40
1.0
 10
196.8726197351597
 20
215.4547500533868
 30
0.0
 10
196.8106796072571
 20
215.9999970289247
 30
0.0
 10
196.7351955475192
 20
216.6644686189436
 30
0.0
 10
196.361954603382
 20
217.2681657624912
 30
0.0
 10
196.294984836214
 20
217.3764857573319
 30
0.0
  0
LINE
  5
2F9
330
1F
100
AcDbEntity
  8
0
  6
Continuous
 62
     7
370
    25
100
AcDbLine
 10
185.8560548258
 20
217.3764857573
 30
0.0
 11
190.4715779797
 21
217.3764857573
 31
0.0
  0
SPLINE
  5
2FA
330
1F
100
AcDbEntity
  8
0
  6
Continuous
 62
     7
370
    25
100
AcDbSpline
210
0.0
220
0.0
230
1.0
 70
     8
 71
     3
 72
     9
 73
     5
 74
     0
 42
0.000000001
 43
0.00000001
 40
0.0
 40
0.0
 40
0.0
 40
0.0
 40
0.1794277080793184
 40
1.0
 40
1.0
 40
1.0
 40
1.0
 10
190.471577979707
 20
217.3764857573319
 30
0.0
 10
190.4046082125391
 20
217.2681657624912
 30
0.0
 10
190.0313672684018
 20
216.6644686189436
 30
0.0
 10
189.9558832086639
 20
215.9999970289247
 30
0.0
 10
189.8939430807613
 20
215.4547500533868
 30
0.0
  0
LINE
  5
2FB
330
1F
100
AcDbEntity
  8
0
  6
Continuous
 62
     7
370
    25
100
AcDbLine
 10
189.8939430808
 20
215.4547500534
 30
0.0
 11
189.8911616859
 21
206.2437425477
 31
0.0
  0
LINE
  5
2FC
330
1F
100
AcDbEntity
  8
0
  6
Continuous
 62
     7
370
    25
100
AcDbLine
 10
185.6617013086
 20
206.2437425477
 30
0.0
 11
189.8911616859
 21
206.2437425477
 31
0.0
  0
LINE
  5
2FD
330
1F
100
AcDbEntity
  8
0
  6
Continuous
 62
     7
370
    25
100
AcDbLine
 10
189.8911616859
 20
206.2437425477
 30
0.0
 11
189.9729739503
 21
201.5574502868
 31
0.0
  0
LINE
  5
2FE
330
1F
100
AcDbEntity
  8
0
  6
Continuous
 62
     7
370
    25
100
AcDbLine
 10
196.87540113
 20
206.2437425477
 30
0.0
 11
196.7935888656
 21
201.5574502868
 31
0.0
  0
LINE
  5
2FF
330
1F
100
AcDbEntity
  8
0
  6
Continuous
 62
     7
370
    25
100
AcDbLine
 10
196.787507562
 20
132.8711587114
 30
0.0
 11
201.1048615073
 21
132.8711587114
 31
0.0
  0
LINE
  5
300
330
1F
100
AcDbEntity
  8
0
  6
Continuous
 62
     7
370
    25
100
AcDbLine
 10
196.787507562
 20
132.8711587114
 30
0.0
 11
196.7056955305
 21
137.5574491097
 31
0.0
  0
LINE
  5
301
330
1F
100
AcDbEntity
  8
0
  6
Continuous
 62
     7
370
    25
100
AcDbLine
 10
189.9790552539
 20
132.8711587114
 30
0.0
 11
190.0608672854
 21
137.5574491097
 31
0.0
  0
LINE
  5
302
330
1F
100
AcDbEntity
  8
0
  6
Continuous
 62
     7
370
    25
100
AcDbLine
 10
185.6617013086
 20
132.8711587114
 30
0.0
 11
189.9790552539
 21
132.8711587114
 31
0.0
  0
LINE
  5
303
330
1F
100
AcDbEntity
  8
0
  6
Continuous
 62
     7
370
    25
100
AcDbLine
 10
120.5503990036
 20
162.015544541
 30
0.0
 11
120.5833007675
 21
161.9702962337
 31
0.0
  0
LINE
  5
304
330
1F
100
AcDbEntity
  8
0
  6
Continuous
 62
     7
370
    25
100
AcDbLine
 10
120.6878547651
 20
161.9684708414
 30
0.0
 11
120.5503990036
 21
162.015544541
 31
0.0
  0
LINE
  5
305
330
1F
100
AcDbEntity
  8
0
  6
Continuous
 62
     7
370
    25
100
AcDbLine
 10
189.9790308067
 20
123.6617363168
 30
0.0
 11
189.9790552539
 21
132.8711587114
 31
0.0
  0
LINE
  5
306
330
1F
100
AcDbEntity
  8
0
  6
Continuous
 62
     7
370
    25
100
AcDbLine
 10
196.787507562
 20
132.8711587114
 30
0.0
 11
196.7875320093
 21
123.6617363168
 31
0.0
  0
ELLIPSE
  5
307
330
1F
100
AcDbEntity
  8
0
  6
Continuous
 62
     7
370
    25
100
AcDbEllipse
 10
193.383281408
 20
123.6617278998
 30
0.0
 11
0.0
 21
3.404769274656516
 31
0.0
210
0.0
220
0.0
230
1.0
 40
0.9998476487
 41
1.570793667493848
 42
2.171095145899756
  0
LINE
  5
308
330
1F
100
AcDbEntity
  8
0
  6
Continuous
 62
     7
370
    25
100
AcDbLine
 10
185.8560548258
 20
121.7384117765
 30
0.0
 11
190.5742067006
 21
121.7384117765
 31
0.0
  0
LINE
  5
309
330
1F
100
AcDbEntity
  8
0
  6
Continuous
 62
     7
370
    25
100
AcDbLine
 10
196.1923561153
 20
121.7384117765
 30
0.0
 11
200.9105079901
 21
121.7384117765
 31
0.0
  0
ELLIPSE
  5
30A
330
1F
100
AcDbEntity
  8
0
  6
Continuous
 62
     7
370
    25
100
AcDbEllipse
 10
193.383281408
 20
123.6617278998
 30
0.0
 11
0.0
 21
3.404769274656516
 31
0.0
210
0.0
220
0.0
230
1.0
 40
0.9998476487
 41
4.112090161279843
 42
4.712391639685752
  0
LINE
  5
30B
330
1F
100
AcDbEntity
  8
0
  6
Continuous
 62
     7
370
    25
100
AcDbLine
 10
167.0832832438
 20
166.5574501378
 30
0.0
 11
165.9832813871
 21
166.5574501378
 31
0.0
  0
LINE
  5
30C
330
1F
100
AcDbEntity
  8
0
  6
Continuous
 62
     7
370
    25
100
AcDbLine
 10
173.383281855
 20
175.6574495805
 30
0.0
 11
173.383281855
 21
171.6161727084
 31
0.0
  0
LINE
  5
30D
330
1F
100
AcDbEntity
  8
0
  6
Continuous
 62
     7
370
    25
100
AcDbLine
 10
173.6832813454
 20
171.6161727084
 30
0.0
 11
173.6832813454
 21
175.6574495805
 31
0.0
  0
LINE
  5
30E
330
1F
100
AcDbEntity
  8
0
  6
Continuous
 62
     7
370
    25
100
AcDbLine
 10
165.9832813871
 20
166.2574497161
 30
0.0
 11
167.0832832438
 21
166.2574497161
 31
0.0
  0
LINE
  5
30F
330
1F
100
AcDbEntity
  8
0
  6
Continuous
 62
     7
370
    25
100
AcDbLine
 10
253.6832814199
 20
172.2574497683
 30
0.0
 11
253.3832800669
 21
172.2574497683
 31
0.0
  0
LINE
  5
310
330
1F
100
AcDbEntity
  8
0
  6
Continuous
 62
     7
370
    25
100
AcDbLine
 10
253.6832814199
 20
162.2574499918
 30
0.0
 11
253.6832814199
 21
172.2574497683
 31
0.0
  0
LINE
  5
311
330
1F
100
AcDbEntity
  8
0
  6
Continuous
 62
     7
370
    25
100
AcDbLine
 10
227.0832819027
 20
140.257450111
 30
0.0
 11
229.6832812113
 21
140.257450111
 31
0.0
  0
LINE
  5
312
330
1F
100
AcDbEntity
  8
0
  6
Continuous
 62
     7
370
    25
100
AcDbLine
 10
244.2449417991
 20
140.257450111
 30
0.0
 11
248.5216234905
 21
140.257450111
 31
0.0
  0
LINE
  5
313
330
1F
100
AcDbEntity
  8
0
  6
Continuous
 62
     7
370
    25
100
AcDbLine
 10
248.3988453728
 20
140.5574496014
 30
0.0
 11
244.3677161914
 21
140.5574496014
 31
0.0
  0
LINE
  5
314
330
1F
100
AcDbEntity
  8
0
  6
Continuous
 62
     7
370
    25
100
AcDbLine
 10
229.6832812113
 20
140.5574496014
 30
0.0
 11
227.0832819027
 21
140.5574496014
 31
0.0
  0
LINE
  5
315
330
1F
100
AcDbEntity
  8
0
  6
Continuous
 62
     7
370
    25
100
AcDbLine
 10
253.3832800669
 20
172.2574497683
 30
0.0
 11
253.3832800669
 21
166.1038597224
 31
0.0
  0
SPLINE
  5
316
330
1F
100
AcDbEntity
  8
0
  6
Continuous
 62
     7
370
    25
100
AcDbSpline
210
0.0
220
0.0
230
1.0
 70
     8
 71
     3
 72
    13
 73
     9
 74
     0
 42
0.000000001
 43
0.00000001
 40
0.0
 40
0.0
 40
0.0
 40
0.0
 40
0.1734615497160707
 40
0.3469137627711062
 40
0.5201330082133004
 40
0.6934877813406032
 40
0.8670466944516177
 40
1.0
 40
1.0
 40
1.0
 40
1.0
 10
190.471577979707
 20
217.3764857573319
 30
0.0
 10
190.7269565192188
 20
217.3818245436413
 30
0.0
 10
191.2376998523555
 20
217.3925018288971
 30
0.0
 10
192.3333543064104
 20
217.4017333107354
 30
0.0
 10
193.5250858714703
 20
217.4045239934246
 30
0.0
 10
194.7018053085341
 20
217.4001027365612
 30
0.0
 10
195.6680390034515
 20
217.3902022552779
 30
0.0
 10
196.1053123448035
 20
217.3806354656526
 30
0.0
 10
196.294984836214
 20
217.3764857573319
 30
0.0
  0
LINE
  5
317
330
1F
100
AcDbEntity
  8
0
  6
Continuous
 62
     7
370
    25
100
AcDbLine
 10
200.907348944
 20
217.5574529095
 30
0.0
 11
185.859213872
 21
217.5574529095
 31
0.0
  0
LINE
  5
318
330
1F
100
AcDbEntity
  8
0
  6
Continuous
 62
     7
370
    25
100
AcDbLine
 10
124.6600349528
 20
163.0059958545
 30
0.0
 11
120.5875774008
 21
164.2512626124
 31
0.0
  0
LINE
  5
319
330
1F
100
AcDbEntity
  8
0
  6
Continuous
 62
     7
370
    25
100
AcDbLine
 10
120.5875774008
 20
164.2512626124
 30
0.0
 11
120.5875774008
 21
190.6099136097
 31
0.0
  0
LINE
  5
31A
330
1F
100
AcDbEntity
  8
0
  6
Continuous
 62
     7
370
    25
100
AcDbLine
 10
266.1789854151
 20
177.1446767373
 30
0.0
 11
266.1789854151
 21
148.5884560382
 31
0.0
  0
LINE
  5
31B
330
1F
100
AcDbEntity
  8
0
  6
Continuous
 62
     7
370
    25
100
AcDbLine
 10
124.6279229504
 20
162.977414496
 30
0.0
 11
120.5503990036
 21
164.2242300434
 31
0.0
  0
LINE
  5
31C
330
1F
100
AcDbEntity
  8
0
  6
Continuous
 62
     7
370
    25
100
AcDbLine
 10
120.5503990036
 20
164.2242300434
 30
0.0
 11
120.5503990036
 21
162.015544541
 31
0.0
  0
LINE
  5
31D
330
1F
100
AcDbEntity
  8
0
  6
Continuous
 62
     7
370
    25
100
AcDbLine
 10
120.5875774008
 20
164.2512626124
 30
0.0
 11
120.5503990036
 21
164.2242300434
 31
0.0
  0
ELLIPSE
  5
31E
330
1F
100
AcDbEntity
  8
0
  6
Continuous
 62
     7
370
    25
100
AcDbEllipse
 10
193.383281408
 20
121.7730016389
 30
0.0
 11
3.43773695461104
 21
0.0
 31
0.0
210
0.0
220
0.0
230
1.0
 40
0.0174550657
 41
3.755976052985822
 42
5.668801907784614
  0
LINE
  5
31F
330
1F
100
AcDbEntity
  8
0
  6
Continuous
 62
     7
370
    25
100
AcDbLine
 10
200.907348944
 20
121.5574483497
 30
0.0
 11
185.859213872
 21
121.5574483497
 31
0.0
  0
LINE
  5
320
330
1F
100
AcDbEntity
  8
0
  6
Continuous
 62
     7
370
    25
100
AcDbLine
 10
120.3832824808
 20
183.0923597438
 30
0.0
 11
120.3832824808
 21
184.321413107
 31
0.0
  0
LINE
  5
321
330
1F
100
AcDbEntity
  8
0
  6
Continuous
 62
     7
370
    25
100
AcDbLine
 10
120.3832824808
 20
190.3757157845
 30
0.0
 11
120.3832824808
 21
184.321413107
 31
0.0
  0
LINE
  5
322
330
1F
100
AcDbEntity
  8
0
  6
Continuous
 62
     7
370
    25
100
AcDbLine
 10
120.3832824808
 20
161.9737886933
 30
0.0
 11
120.3832824808
 21
170.0225400848
 31
0.0
  0
LINE
  5
323
330
1F
100
AcDbEntity
  8
0
  6
Continuous
 62
     7
370
    25
100
AcDbLine
 10
120.3832824808
 20
170.0225400848
 30
0.0
 11
120.4616774899
 21
170.1009350939
 31
0.0
  0
LINE
  5
324
330
1F
100
AcDbEntity
  8
0
  6
Continuous
 62
     7
370
    25
100
AcDbLine
 10
120.4616774899
 20
183.0139647348
 30
0.0
 11
120.4616774899
 21
170.1009350939
 31
0.0
  0
LINE
  5
325
330
1F
100
AcDbEntity
  8
0
  6
Continuous
 62
     7
370
    25
100
AcDbLine
 10
120.4616774899
 20
183.0139647348
 30
0.0
 11
120.3832824808
 21
183.0923597438
 31
0.0
  0
LINE
  5
326
330
1F
100
AcDbEntity
  8
0
  6
Continuous
 62
     7
370
    25
100
AcDbLine
 10
266.3832803351
 20
154.7934858238
 30
0.0
 11
266.3832803351
 21
177.1411097718
 31
0.0
  0
LINE
  5
327
330
1F
100
AcDbEntity
  8
0
  6
Continuous
 62
     7
370
    25
100
AcDbLine
 10
266.3832803351
 20
154.7934858238
 30
0.0
 11
266.3832803351
 21
148.8706044031
 31
0.0
  0
LINE
  5
328
330
1F
100
AcDbEntity
  8
0
  6
Continuous
 62
     7
370
    25
100
AcDbLine
 10
119.9617509824
 20
170.0923594756
 30
0.0
 11
119.9617509824
 21
183.022540353
 31
0.0
  0
ELLIPSE
  5
329
330
1F
100
AcDbEntity
  8
0
  6
Continuous
 62
     7
370
    25
100
AcDbEllipse
 10
119.9617530361
 20
183.0138122073
 30
0.0
 11
0.5000000000000142
 21
0.0
 31
0.0
210
0.0
220
0.0
230
1.0
 40
0.0174550649
 41
0.01745329252181
 42
1.570796326794897
  0
ELLIPSE
  5
32A
330
1F
100
AcDbEntity
  8
0
  6
Continuous
 62
     7
370
    25
100
AcDbEllipse
 10
119.9617530361
 20
170.1010875319
 30
0.0
 11
0.5000000000000142
 21
0.0
 31
0.0
210
0.0
220
0.0
230
1.0
 40
0.0174550649
 41
4.71238898038469
 42
6.265732014658579
  0
ELLIPSE
  5
32B
330
1F
100
AcDbEntity
  8
0
  6
Continuous
 62
     7
370
    25
100
AcDbEllipse
 10
116.386848585
 20
183.0661774021
 30
0.0
 11
0.5
 21
0.0
 31
0.0
210
0.0
220
0.0
230
1.0
 40
0.0174550649
 41
3.15904594611235
 42
4.71238898038469
  0
LINE
  5
32C
330
1F
100
AcDbEntity
  8
0
  6
Continuous
 62
     7
370
    25
100
AcDbLine
 10
116.3868506533
 20
183.0574500484
 30
0.0
 11
119.8570256215
 21
183.0574500484
 31
0.0
  0
ELLIPSE
  5
32D
330
1F
100
AcDbEntity
  8
0
  6
Continuous
 62
     7
370
    25
100
AcDbEllipse
 10
119.8570226465
 20
183.0661774021
 30
0.0
 11
0.5
 21
0.0
 31
0.0
210
0.0
220
0.0
230
1.0
 40
0.0174550649
 41
4.71238898038469
 42
6.265732014658636
  0
LINE
  5
32E
330
1F
100
AcDbEntity
  8
0
  6
Continuous
 62
     7
370
    25
100
AcDbLine
 10
120.3569446784
 20
183.0660256667
 30
0.0
 11
120.3832824808
 21
183.0923597438
 31
0.0
  0
LINE
  5
32F
330
1F
100
AcDbEntity
  8
0
  6
Continuous
 62
     7
370
    25
100
AcDbLine
 10
115.9664814454
 20
183.022540353
 30
0.0
 11
119.9617509824
 21
183.022540353
 31
0.0
  0
LINE
  5
330
330
1F
100
AcDbEntity
  8
0
  6
Continuous
 62
     7
370
    25
100
AcDbLine
 10
113.8781358582
 20
170.0523032917
 30
0.0
 11
113.9096145612
 21
170.0837838573
 31
0.0
  0
ELLIPSE
  5
331
330
1F
100
AcDbEntity
  8
0
  6
Continuous
 62
     7
370
    25
100
AcDbEllipse
 10
114.4095401694
 20
170.083632467
 30
0.0
 11
0.5
 21
0.0
 31
0.0
210
0.0
220
0.0
230
1.0
 40
0.0174550649
 41
1.570796326794897
 42
3.124139361071235
  0
LINE
  5
332
330
1F
100
AcDbEntity
  8
0
  6
Continuous
 62
     7
370
    25
100
AcDbLine
 10
114.4095410687
 20
170.0923594756
 30
0.0
 11
119.9617509824
 21
170.0923594756
 31
0.0
  0
LINE
  5
333
330
1F
100
AcDbEntity
  8
0
  6
Continuous
 62
     7
370
    25
100
AcDbLine
 10
120.3569446784
 20
170.0488741619
 30
0.0
 11
120.3832824808
 21
170.0225400848
 31
0.0
  0
ELLIPSE
  5
334
330
1F
100
AcDbEntity
  8
0
  6
Continuous
 62
     7
370
    25
100
AcDbEllipse
 10
119.8570226465
 20
170.0487223371
 30
0.0
 11
0.5
 21
0.0
 31
0.0
210
0.0
220
0.0
230
1.0
 40
0.0174550649
 41
0.0174532925184971
 42
1.570796326794897
  0
LINE
  5
335
330
1F
100
AcDbEntity
  8
0
  6
Continuous
 62
     7
370
    25
100
AcDbLine
 10
116.3868506533
 20
170.0574497802
 30
0.0
 11
119.8570256215
 21
170.0574497802
 31
0.0
  0
ELLIPSE
  5
336
330
1F
100
AcDbEntity
  8
0
  6
Continuous
 62
     7
370
    25
100
AcDbEllipse
 10
116.386848585
 20
170.0487223371
 30
0.0
 11
0.5
 21
0.0
 31
0.0
210
0.0
220
0.0
230
1.0
 40
0.0174550649
 41
1.570796326794897
 42
3.124139361071292
  0
LINE
  5
337
330
1F
100
AcDbEntity
  8
0
  6
Continuous
 62
     7
370
    25
100
AcDbLine
 10
115.8832808119
 20
170.045230828
 30
0.0
 11
115.8869241458
 21
170.0488741619
 31
0.0
  0
LINE
  5
338
330
1F
100
AcDbEntity
  8
0
  6
Continuous
 62
     7
370
    25
100
AcDbLine
 10
115.5832831842
 20
170.0399949325
 30
0.0
 11
115.8832808119
 21
170.045230828
 31
0.0
  0
LINE
  5
339
330
1F
100
AcDbEntity
  8
0
  6
Continuous
 62
     7
370
    25
100
AcDbLine
 10
115.5832831842
 20
170.0399949325
 30
0.0
 11
114.7903849465
 21
170.0399949325
 31
0.0
  0
ELLIPSE
  5
33A
330
1F
100
AcDbEntity
  8
0
  6
Continuous
 62
     7
370
    25
100
AcDbEllipse
 10
114.7903881891
 20
170.0487223371
 30
0.0
 11
0.5
 21
0.0
 31
0.0
210
0.0
220
0.0
230
1.0
 40
0.0174550649
 41
3.926990816986472
 42
4.71238898038469
  0
LINE
  5
33B
330
1F
100
AcDbEntity
  8
0
  6
Continuous
 62
     7
370
    25
100
AcDbLine
 10
113.8781358582
 20
170.0523032917
 30
0.0
 11
114.4368325454
 21
170.0425504817
 31
0.0
  0
LINE
  5
33C
330
1F
100
AcDbEntity
  8
0
  6
Continuous
 62
     7
370
    25
100
AcDbLine
 10
113.8781358582
 20
172.0697584672
 30
0.0
 11
113.8781358582
 21
170.0523032917
 31
0.0
  0
LINE
  5
33D
330
1F
100
AcDbEntity
  8
0
  6
Continuous
 62
     7
370
    25
100
AcDbLine
 10
113.8781358582
 20
172.0697584672
 30
0.0
 11
113.8832842094
 21
172.0749049557
 31
0.0
  0
LINE
  5
33E
330
1F
100
AcDbEntity
  8
0
  6
Continuous
 62
     7
370
    25
100
AcDbLine
 10
113.8832842094
 20
172.0749049557
 30
0.0
 11
113.8832842094
 21
177.3757471813
 31
0.0
  0
SPLINE
  5
33F
330
1F
100
AcDbEntity
  8
0
  6
Continuous
 62
     7
370
    25
100
AcDbSpline
210
0.0
220
0.0
230
1.0
 70
     8
 71
     3
 72
    13
 73
     9
 74
     0
 42
0.000000001
 43
0.00000001
 40
0.0
 40
0.0
 40
0.0
 40
0.0
 40
0.1907444221977245
 40
0.3789128608633234
 40
0.5551922165214038
 40
0.7312954542393718
 40
0.8911749050224599
 40
1.0
 40
1.0
 40
1.0
 40
1.0
 10
192.0482924302004
 20
181.4767497701455
 30
0.0
 10
192.3984308610538
 20
181.395155601625
 30
0.0
 10
193.0939791397622
 20
181.2330691853216
 30
0.0
 10
194.1369451984554
 20
181.4624121880383
 30
0.0
 10
195.0149141637687
 20
181.991449814472
 30
0.0
 10
195.6169932746168
 20
182.7589876191764
 30
0.0
 10
195.888775653205
 20
183.5662298433365
 30
0.0
 10
195.8750162905452
 20
184.069349752966
 30
0.0
 10
195.8694437612675
 20
184.2731128556538
 30
0.0
  0
SPLINE
  5
340
330
1F
100
AcDbEntity
  8
0
  6
Continuous
 62
     7
370
    25
100
AcDbSpline
210
0.0
220
0.0
230
1.0
 70
     8
 71
     3
 72
    31
 73
    27
 74
     0
 42
0.000000001
 43
0.00000001
 40
0.0
 40
0.0
 40
0.0
 40
0.0
 40
0.0061397698682823
 40
0.0497037354870496
 40
0.0940020798279116
 40
0.1388111385232954
 40
0.1831187135389337
 40
0.2266794258503615
 40
0.2712125617758221
 40
0.3159861098631992
 40
0.3599927517062093
 40
0.4037434607800771
 40
0.4484404604108403
 40
0.4931053159932295
 40
0.5367939574664733
 40
0.5808774611734129
 40
0.62566596835235
 40
0.6701500972362404
 40
0.7136940767157851
 40
0.7580627196099448
 40
0.8028694568324485
 40
0.8471024616004962
 40
0.8906954485101822
 40
0.9352797657245118
 40
0.9800312078622951
 40
1.0
 40
1.0
 40
1.0
 40
1.0
 10
195.8694437612675
 20
184.2731128556538
 30
0.0
 10
195.8683992731276
 20
184.2489772231666
 30
0.0
 10
195.8599437506344
 20
184.0535902430852
 30
0.0
 10
195.7970043764453
 20
183.68571734572
 30
0.0
 10
195.6045747588256
 20
183.1966216675301
 30
0.0
 10
195.3114324004431
 20
182.7563538620255
 30
0.0
 10
194.9345409900671
 20
182.3896108977349
 30
0.0
 10
194.4906172758261
 20
182.1095494807519
 30
0.0
 10
193.9965121096917
 20
181.9272892009379
 30
0.0
 10
193.4733411852073
 20
181.8529437760587
 30
0.0
 10
192.9492736170325
 20
181.8896170524346
 30
0.0
 10
192.4444396016789
 20
182.033972567005
 30
0.0
 10
191.9785926342569
 20
182.2817100330907
 30
0.0
 10
191.5756113655771
 20
182.6219056377645
 30
0.0
 10
191.2538701794217
 20
183.0367695985655
 30
0.0
 10
191.0248574140221
 20
183.5096989979719
 30
0.0
 10
190.8993472673832
 20
184.0231800447458
 30
0.0
 10
190.8848297791522
 20
184.5494294132815
 30
0.0
 10
190.9796736921463
 20
185.0656534938149
 30
0.0
 10
191.1800238047039
 20
185.552053440285
 30
0.0
 10
191.4797679810908
 20
185.9878023466034
 30
0.0
 10
191.862064986339
 20
186.3483204244668
 30
0.0
 10
192.310284627441
 20
186.6229597998577
 30
0.0
 10
192.8069571600654
 20
186.7928106107698
 30
0.0
 10
193.2379950827543
 20
186.8622589194345
 30
0.0
 10
193.4915954317639
 20
186.8334550554685
 30
0.0
 10
193.5698413267627
 20
186.8245679063607
 30
0.0
  0
ARC
  5
341
330
1F
100
AcDbEntity
  8
0
  6
Continuous
 62
     7
370
    25
100
AcDbCircle
 10
193.383281408
 20
184.3574498696
 30
0.0
 40
3.175000000000026
100
AcDbArc
 50
200.13579933
 51
245.1358002996
  0
CIRCLE
  5
342
330
1F
100
AcDbEntity
  8
0
  6
Continuous
 62
     7
370
    25
100
AcDbCircle
 10
193.383281408
 20
184.3574498696
 30
0.0
 40
4.090220917481751
  0
SPLINE
  5
343
330
1F
100
AcDbEntity
  8
0
  6
Continuous
 62
     7
370
    25
100
AcDbSpline
210
0.0
220
0.0
230
1.0
 70
     8
 71
     3
 72
    12
 73
     8
 74
     0
 42
0.000000001
 43
0.00000001
 40
0.0
 40
0.0
 40
0.0
 40
0.0
 40
0.1645668191337964
 40
0.379232242504173
 40
0.5938985839363122
 40
0.8085645129962564
 40
1.0
 40
1.0
 40
1.0
 40
1.0
 10
195.8694437612675
 20
184.2731128556538
 30
0.0
 10
195.8604236279853
 20
184.4874411736274
 30
0.0
 10
195.8396373881449
 20
184.9813451640251
 30
0.0
 10
195.5261886022259
 20
185.7086348585694
 30
0.0
 10
194.9620334846803
 20
186.3384281973828
 30
0.0
 10
194.2424122973034
 20
186.7488595184844
 30
0.0
 10
193.7158420188663
 20
186.8132554584987
 30
0.0
 10
193.4676177238825
 20
186.8436115903664
 30
0.0
  0
SPLINE
  5
344
330
1F
100
AcDbEntity
  8
0
  6
Continuous
 62
     7
370
    25
100
AcDbSpline
210
0.0
220
0.0
230
1.0
 70
     8
 71
     3
 72
    13
 73
     9
 74
     0
 42
0.000000001
 43
0.00000001
 40
0.0
 40
0.0
 40
0.0
 40
0.0
 40
0.1538025923954553
 40
0.3076425645112144
 40
0.463029945238416
 40
0.6336498353777068
 40
0.8042633215891822
 40
1.0
 40
1.0
 40
1.0
 40
1.0
 10
193.4676177238825
 20
186.8436115903664
 30
0.0
 10
193.1807708794666
 20
186.8655193521768
 30
0.0
 10
192.6070074762391
 20
186.9093402001941
 30
0.0
 10
191.78005085097
 20
186.6048024171726
 30
0.0
 10
191.062585717447
 20
186.0613323251698
 30
0.0
 10
190.5384270230458
 20
185.286400364077
 30
0.0
 10
190.257930471709
 20
184.3059767901921
 30
0.0
 10
190.3520516425779
 20
183.6271548884409
 30
0.0
 10
190.4023395013891
 20
183.2644681556035
 30
0.0
  0
CIRCLE
  5
345
330
1F
100
AcDbEntity
  8
0
  6
Continuous
 62
     7
370
    25
100
AcDbCircle
 10
193.383281408
 20
184.3574498696
 30
0.0
 40
4.315992716880743
  0
SPLINE
  5
346
330
1F
100
AcDbEntity
  8
0
  6
Continuous
 62
     7
370
    25
100
AcDbSpline
210
0.0
220
0.0
230
1.0
 70
     8
 71
     3
 72
    14
 73
    10
 74
     0
 42
0.000000001
 43
0.00000001
 40
0.0
 40
0.0
 40
0.0
 40
0.0
 40
0.0085864970171837
 40
0.0639850447970562
 40
0.2161897640459557
 40
0.3827177009220569
 40
0.5514820967185775
 40
0.7758796104230935
 40
1.0
 40
1.0
 40
1.0
 40
1.0
 10
266.3510565739952
 20
176.454972766142
 30
0.0
 10
266.3617189202233
 20
176.4522060697296
 30
0.0
 10
266.4411728232157
 20
176.4315891413675
 30
0.0
 10
266.7540421673914
 20
176.3420364551052
 30
0.0
 10
267.512099090461
 20
176.0606571512204
 30
0.0
 10
268.7367608652542
 20
175.320911546447
 30
0.0
 10
270.0506806284633
 20
174.0075253047413
 30
0.0
 10
271.1184489399349
 20
172.1171318908547
 30
0.0
 10
271.265526016611
 20
170.577026286178
 30
0.0
 10
271.3390191179596
 20
169.8074492735673
 30
0.0
  0
LINE
  5
347
330
1F
100
AcDbEntity
  8
0
  6
Continuous
 62
     7
370
    25
100
AcDbLine
 10
271.339019118
 20
169.8074492736
 30
0.0
 11
270.8885644657
 21
169.8074492736
 31
0.0
  0
SPLINE
  5
348
330
1F
100
AcDbEntity
  8
0
  6
Continuous
 62
     7
370
    25
100
AcDbSpline
210
0.0
220
0.0
230
1.0
 70
     8
 71
     3
 72
    14
 73
    10
 74
     0
 42
0.000000001
 43
0.00000001
 40
0.0
 40
0.0
 40
0.0
 40
0.0
 40
0.1942649011803574
 40
0.3853596763592823
 40
0.5258549724889607
 40
0.663203332517345
 40
0.7898163259185379
 40
0.9228524043058188
 40
1.0
 40
1.0
 40
1.0
 40
1.0
 10
270.8885644656502
 20
169.8074492735673
 30
0.0
 10
270.8274345833773
 20
170.5199362370901
 30
0.0
 10
270.7061723712875
 20
171.9332833934991
 30
0.0
 10
269.8139024578001
 20
173.6902469253441
 30
0.0
 10
268.6966136724896
 20
174.9232828168196
 30
0.0
 10
267.6508819894973
 20
175.6161765440987
 30
0.0
 10
266.8402236043378
 20
175.9441811861856
 30
0.0
 10
266.4364573704598
 20
176.038731950201
 30
0.0
 10
266.3975582117213
 20
176.0340987832575
 30
0.0
 10
266.3832803350769
 20
176.0323981864262
 30
0.0
  0
SPLINE
  5
349
330
1F
100
AcDbEntity
  8
0
  6
Continuous
 62
     7
370
    25
100
AcDbSpline
210
0.0
220
0.0
230
1.0
 70
     8
 71
     3
 72
    14
 73
    10
 74
     0
 42
0.000000001
 43
0.00000001
 40
0.0
 40
0.0
 40
0.0
 40
0.0
 40
0.1713377717079192
 40
0.353823369537264
 40
0.4790211273657517
 40
0.5987389107431893
 40
0.7265564747732506
 40
0.8620904789705833
 40
1.0
 40
1.0
 40
1.0
 40
1.0
 10
266.3832803350769
 20
173.4203680528212
 30
0.0
 10
266.4242491255769
 20
173.4340988198852
 30
0.0
 10
266.5088522773286
 20
173.4624537250557
 30
0.0
 10
267.1298900436442
 20
173.4679570006568
 30
0.0
 10
267.9094680505083
 20
173.2421141908831
 30
0.0
 10
268.6784586557056
 20
172.7799554930182
 30
0.0
 10
269.3771508458266
 20
172.0078785164151
 30
0.0
 10
269.8791741480181
 20
170.973790124988
 30
0.0
 10
269.9438816976297
 20
170.1984747190828
 30
0.0
 10
269.9765165430389
 20
169.8074492735673
 30
0.0
  0
LINE
  5
34A
330
1F
100
AcDbEntity
  8
0
  6
Continuous
 62
     7
370
    25
100
AcDbLine
 10
266.3832803351
 20
173.4203680528
 30
0.0
 11
266.3832803351
 21
176.0323981864
 31
0.0
  0
LINE
  5
34B
330
1F
100
AcDbEntity
  8
0
  6
Continuous
 62
     7
370
    25
100
AcDbLine
 10
270.8885644657
 20
169.3074501229
 30
0.0
 11
270.8885644657
 21
169.8074492736
 31
0.0
  0
SPLINE
  5
34C
330
1F
100
AcDbEntity
  8
0
  6
Continuous
 62
     7
370
    25
100
AcDbSpline
210
0.0
220
0.0
230
1.0
 70
     8
 71
     3
 72
    14
 73
    10
 74
     0
 42
0.000000001
 43
0.00000001
 40
0.0
 40
0.0
 40
0.0
 40
0.0
 40
0.0771475984701411
 40
0.2101836816443868
 40
0.336796679601426
 40
0.474145084324417
 40
0.6146403855094612
 40
0.8057350918295144
 40
1.0
 40
1.0
 40
1.0
 40
1.0
 10
266.3832803350769
 20
163.0825012100745
 30
0.0
 10
266.3975582127045
 20
163.0808006109406
 30
0.0
 10
266.4364573741216
 20
163.0761674377239
 30
0.0
 10
266.8402235772105
 20
163.1707182738471
 30
0.0
 10
267.6508821686656
 20
163.4987226557431
 30
0.0
 10
268.6966134849351
 20
164.1916176822602
 30
0.0
 10
269.8139022419015
 20
165.42465313228
 30
0.0
 10
270.7061725414855
 20
167.1816162337845
 30
0.0
 10
270.827434632433
 20
168.5949631436641
 30
0.0
 10
270.8885644656502
 20
169.3074501229335
 30
0.0
  0
LINE
  5
34D
330
1F
100
AcDbEntity
  8
0
  6
Continuous
 62
     7
370
    25
100
AcDbLine
 10
266.3832803351
 20
163.0825012101
 30
0.0
 11
266.3832803351
 21
165.694532275
 31
0.0
  0
SPLINE
  5
34E
330
1F
100
AcDbEntity
  8
0
  6
Continuous
 62
     7
370
    25
100
AcDbSpline
210
0.0
220
0.0
230
1.0
 70
     8
 71
     3
 72
    14
 73
    10
 74
     0
 42
0.000000001
 43
0.00000001
 40
0.0
 40
0.0
 40
0.0
 40
0.0
 40
0.1379095245436521
 40
0.2734435321946869
 40
0.4012610227039565
 40
0.5209788577402057
 40
0.6461766187590053
 40
0.8286622212384813
 40
1.0
 40
1.0
 40
1.0
 40
1.0
 10
269.9765165430389
 20
169.3074501229335
 30
0.0
 10
269.9438816796165
 20
168.9164247029217
 30
0.0
 10
269.8791740942885
 20
168.1411093475848
 30
0.0
 10
269.3771511475034
 20
167.1070207868278
 30
0.0
 10
268.678458163712
 20
166.3349450913048
 30
0.0
 10
267.9094682853046
 20
165.872784912059
 30
0.0
 10
267.1298899832008
 20
165.6469425727005
 30
0.0
 10
266.5088522898583
 20
165.6524453666327
 30
0.0
 10
266.4242491298882
 20
165.6808011045649
 30
0.0
 10
266.3832803350769
 20
165.6945322750021
 30
0.0
  0
LINE
  5
34F
330
1F
100
AcDbEntity
  8
0
  6
Continuous
 62
     7
370
    25
100
AcDbLine
 10
269.976516543
 20
169.8074492736
 30
0.0
 11
269.976516543
 21
169.3074501229
 31
0.0
  0
LINE
  5
350
330
1F
100
AcDbEntity
  8
0
  6
Continuous
 62
     7
370
    25
100
AcDbLine
 10
271.339019118
 20
169.3074501229
 30
0.0
 11
270.8885644657
 21
169.3074501229
 31
0.0
  0
SPLINE
  5
351
330
1F
100
AcDbEntity
  8
0
  6
Continuous
 62
     7
370
    25
100
AcDbSpline
210
0.0
220
0.0
230
1.0
 70
     8
 71
     3
 72
    14
 73
    10
 74
     0
 42
0.000000001
 43
0.00000001
 40
0.0
 40
0.0
 40
0.0
 40
0.0
 40
0.2241204921388917
 40
0.448517860162181
 40
0.6172822657592039
 40
0.7838102123059313
 40
0.9360149403936778
 40
0.9914135024841805
 40
1.0
 40
1.0
 40
1.0
 40
1.0
 10
271.3390191179596
 20
169.3074501229335
 30
0.0
 10
271.2655261695762
 20
168.537872735533
 30
0.0
 10
271.1184494804644
 20
166.9977672336579
 30
0.0
 10
270.0506800863748
 20
165.1073746917534
 30
0.0
 10
268.7367608988365
 20
163.7939888899196
 30
0.0
 10
267.5120991035436
 20
163.0542427194075
 30
0.0
 10
266.7540420885981
 20
162.772865010453
 30
0.0
 10
266.4411728388488
 20
162.6833102258506
 30
0.0
 10
266.3617189204431
 20
162.6626933228835
 30
0.0
 10
266.3510565739952
 20
162.6599266303588
 30
0.0
  0
LINE
  5
352
330
1F
100
AcDbEntity
  8
0
  6
Continuous
 62
     7
370
    25
100
AcDbLine
 10
269.976516543
 20
169.8074492736
 30
0.0
 11
269.3359156233
 21
169.8074492736
 31
0.0
  0
SPLINE
  5
353
330
1F
100
AcDbEntity
  8
0
  6
Continuous
 62
     7
370
    25
100
AcDbSpline
210
0.0
220
0.0
230
1.0
 70
     8
 71
     3
 72
    14
 73
    10
 74
     0
 42
0.000000001
 43
0.00000001
 40
0.0
 40
0.0
 40
0.0
 40
0.0
 40
0.1672323091625088
 40
0.3354108662436129
 40
0.5015131513880613
 40
0.6661759303942193
 40
0.8469221662343119
 40
0.9824063753025388
 40
1.0
 40
1.0
 40
1.0
 40
1.0
 10
269.3359156233154
 20
169.8074492735673
 30
0.0
 10
269.3043076333958
 20
170.1470641887849
 30
0.0
 10
269.2409128065693
 20
170.8282156569003
 30
0.0
 10
268.7511396682287
 20
171.7305965219507
 30
0.0
 10
268.0784015556096
 20
172.393778912063
 30
0.0
 10
267.3506675609445
 20
172.7830667590935
 30
0.0
 10
266.7745009185613
 20
172.9293238237651
 30
0.0
 10
266.4714867815799
 20
172.9566087684227
 30
0.0
 10
266.3565412985739
 20
172.9600818010093
 30
0.0
 10
266.3433303219162
 20
172.9604809654761
 30
0.0
  0
SPLINE
  5
354
330
1F
100
AcDbEntity
  8
0
  6
Continuous
 62
     7
370
    25
100
AcDbSpline
210
0.0
220
0.0
230
1.0
 70
     8
 71
     3
 72
    14
 73
    10
 74
     0
 42
0.000000001
 43
0.00000001
 40
0.0
 40
0.0
 40
0.0
 40
0.0
 40
0.0175936238547252
 40
0.1530778410293683
 40
0.3338240876840364
 40
0.498486936025396
 40
0.6645891314070775
 40
0.8327678322381995
 40
1.0
 40
1.0
 40
1.0
 40
1.0
 10
266.3433303219162
 20
166.1544193623472
 30
0.0
 10
266.3565412987574
 20
166.1548181963243
 30
0.0
 10
266.4714867943206
 20
166.1582883537318
 30
0.0
 10
266.774500879792
 20
166.1855769618408
 30
0.0
 10
267.3506677869802
 20
166.331831929259
 30
0.0
 10
268.0784010780512
 20
166.7211218461429
 30
0.0
 10
268.7511402347331
 20
167.384302849077
 30
0.0
 10
269.2409124314693
 20
168.286684292208
 30
0.0
 10
269.3043075265795
 20
168.9678355847766
 30
0.0
 10
269.3359156233154
 20
169.3074501229335
 30
0.0
  0
LINE
  5
355
330
1F
100
AcDbEntity
  8
0
  6
Continuous
 62
     7
370
    25
100
AcDbLine
 10
269.976516543
 20
169.3074501229
 30
0.0
 11
269.3359156233
 21
169.3074501229
 31
0.0
  0
LINE
  5
356
330
1F
100
AcDbEntity
  8
0
  6
Continuous
 62
     7
370
    25
100
AcDbLine
 10
266.3832803351
 20
155.2328228129
 30
0.0
 11
266.3832803351
 21
159.546115726
 31
0.0
  0
LINE
  5
357
330
1F
100
AcDbEntity
  8
0
  6
Continuous
 62
     7
370
    25
100
AcDbLine
 10
266.3832803351
 20
165.694532275
 30
0.0
 11
266.3832803351
 21
173.4203680528
 31
0.0
  0
LINE
  5
358
330
1F
100
AcDbEntity
  8
0
  6
Continuous
 62
     7
370
    25
100
AcDbLine
 10
120.3832824808
 20
161.9737886933
 30
0.0
 11
120.3832824808
 21
167.0751295162
 31
0.0
  0
ARC
  5
359
330
1F
100
AcDbEntity
  8
0
  6
Continuous
 62
     7
370
    25
100
AcDbCircle
 10
264.327031408
 20
169.8074498696
 30
0.0
 40
7.047370151092139
100
AcDbArc
 50
0.0
 51
74.143976218
  0
LINE
  5
35A
330
1F
100
AcDbEntity
  8
0
  6
Continuous
 62
     7
370
    25
100
AcDbLine
 10
271.3744019252
 20
169.8074492736
 30
0.0
 11
271.339019118
 21
169.8074492736
 31
0.0
  0
ARC
  5
35B
330
1F
100
AcDbEntity
  8
0
  6
Continuous
 62
     7
370
    25
100
AcDbCircle
 10
264.327031408
 20
169.3074498696
 30
0.0
 40
7.047370151092139
100
AcDbArc
 50
285.856023782
 51
0.0
  0
LINE
  5
35C
330
1F
100
AcDbEntity
  8
0
  6
Continuous
 62
     7
370
    25
100
AcDbLine
 10
271.339019118
 20
169.3074501229
 30
0.0
 11
271.3744019252
 21
169.3074501229
 31
0.0
  0
LINE
  5
35D
330
1F
100
AcDbEntity
  8
0
  6
Continuous
 62
     7
370
    25
100
AcDbLine
 10
269.3359156233
 20
169.3074501229
 30
0.0
 11
269.3359156233
 21
169.8074492736
 31
0.0
  0
LINE
  5
35E
330
1F
100
AcDbEntity
  8
0
  6
Continuous
 62
     7
370
    25
100
AcDbLine
 10
271.339019118
 20
169.8074492736
 30
0.0
 11
271.339019118
 21
169.3074501229
 31
0.0
  0
LINE
  5
35F
330
1F
100
AcDbEntity
  8
0
  6
Continuous
 62
     7
370
    25
100
AcDbLine
 10
271.3744019252
 20
169.3074501229
 30
0.0
 11
271.3744019252
 21
169.8074492736
 31
0.0
  0
LWPOLYLINE
  5
360
330
1F
100
AcDbEntity
  8
0
  6
Continuous
 62
     7
370
    25
100
AcDbPolyline
 90
        5
 70
   128
 43
0.0
 10
194.6893784311
 20
136.4452562405
 10
194.6921134927
 20
136.4397856517
 10
194.6940678731
 20
136.4358778221
 10
194.6952407575
 20
136.4335308893
 10
194.6956317966
 20
136.4327485783
  0
ARC
  5
361
330
1F
100
AcDbEntity
  8
0
  6
Continuous
 62
     7
370
    25
100
AcDbCircle
 10
193.383281408
 20
141.2574498696
 30
0.0
 40
4.986291206899184
100
AcDbArc
 50
275.9860273204
 51
285.1850615281
  0
LINE
  5
362
330
1F
100
AcDbEntity
  8
0
  6
Continuous
 62
     7
370
    25
100
AcDbLine
 10
193.7532814023
 20
136.3268218113
 30
0.0
 11
193.7532814023
 21
136.2983475549
 31
0.0
  0
ARC
  5
363
330
1F
100
AcDbEntity
  8
0
  6
Continuous
 62
     7
370
    25
100
AcDbCircle
 10
193.383281408
 20
141.9118592074
 30
0.0
 40
5.479110146214855
100
AcDbArc
 50
266.1279143984
 51
273.8720856016
  0
LINE
  5
364
330
1F
100
AcDbEntity
  8
0
  6
Continuous
 62
     7
370
    25
100
AcDbLine
 10
193.0132814137
 20
136.3790075404
 30
0.0
 11
193.0132814137
 21
136.4452562405
 31
0.0
  0
ARC
  5
365
330
1F
100
AcDbEntity
  8
0
  6
Continuous
 62
     7
370
    25
100
AcDbCircle
 10
192.9382814101
 20
138.7762996757
 30
0.0
 40
2.479086870918789
100
AcDbArc
 50
268.2663619066
 51
271.7336380934
  0
ARC
  5
366
330
1F
100
AcDbEntity
  8
0
  6
Continuous
 62
     7
370
    25
100
AcDbCircle
 10
193.383281408
 20
141.2574498696
 30
0.0
 40
4.986291206899185
100
AcDbArc
 50
254.8149384719
 51
262.2122986354
  0
LINE
  5
367
330
1F
100
AcDbEntity
  8
0
  6
Continuous
 62
     7
370
    25
100
AcDbLine
 10
192.0709310193
 20
136.4327485783
 30
0.0
 11
192.0771843848
 21
136.4452562405
 31
0.0
  0
LINE
  5
368
330
1F
100
AcDbEntity
  8
0
  6
Continuous
 62
     7
370
    25
100
AcDbLine
 10
196.0332813301
 20
134.2574491275
 30
0.0
 11
190.7332814858
 21
134.2574491275
 31
0.0
  0
ARC
  5
369
330
1F
100
AcDbEntity
  8
0
  6
Continuous
 62
     7
370
    25
100
AcDbCircle
 10
194.2060050765
 20
135.7403634839
 30
0.0
 40
3.307614847178745
100
AcDbArc
 50
265.0158307508
 51
274.9841692492
  0
ARC
  5
36A
330
1F
100
AcDbEntity
  8
0
  6
Continuous
 62
     7
370
    25
100
AcDbCircle
 10
193.0675108196
 20
134.4060994027
 30
0.0
 40
2.137598123014432
100
AcDbArc
 50
279.5856486905
 51
293.463814591
  0
ARC
  5
36B
330
1F
100
AcDbEntity
  8
0
  6
Continuous
 62
     7
370
    25
100
AcDbCircle
 10
193.3179740822
 20
137.2013429749
 30
0.0
 40
4.904130847322172
100
AcDbArc
 50
268.7674083468
 51
271.2325916532
  0
ARC
  5
36C
330
1F
100
AcDbEntity
  8
0
  6
Continuous
 62
     7
370
    25
100
AcDbCircle
 10
193.6314968225
 20
135.3818474537
 30
0.0
 40
3.111840318025138
100
AcDbArc
 50
250.6796222111
 51
262.2614919733
  0
ARC
  5
36D
330
1F
100
AcDbEntity
  8
0
  6
Continuous
 62
     7
370
    25
100
AcDbCircle
 10
192.3688775546
 20
134.6105109313
 30
0.0
 40
2.177762804271056
100
AcDbArc
 50
263.8563716008
 51
276.1436283993
  0
ARC
  5
36E
330
1F
100
AcDbEntity
  8
0
  6
Continuous
 62
     7
370
    25
100
AcDbCircle
 10
193.1653638836
 20
135.3818501428
 30
0.0
 40
3.111843049935106
100
AcDbArc
 50
250.6796283905
 51
262.2614895212
  0
ARC
  5
36F
330
1F
100
AcDbEntity
  8
0
  6
Continuous
 62
     7
370
    25
100
AcDbCircle
 10
192.7573541448
 20
132.3512543635
 30
0.0
 40
0.0540402705869902
100
AcDbArc
 50
258.247823707
 51
281.7521762931
  0
ARC
  5
370
330
1F
100
AcDbEntity
  8
0
  6
Continuous
 62
     7
370
    25
100
AcDbCircle
 10
193.4485887337
 20
137.2013429749
 30
0.0
 40
4.904130847322172
100
AcDbArc
 50
268.7674083468
 51
271.2325916532
  0
ARC
  5
371
330
1F
100
AcDbEntity
  8
0
  6
Continuous
 62
     7
370
    25
100
AcDbCircle
 10
193.1394555695
 20
135.3592975043
 30
0.0
 40
3.08890494576611
100
AcDbArc
 50
277.7141496166
 51
286.1414667404
  0
ARC
  5
372
330
1F
100
AcDbEntity
  8
0
  6
Continuous
 62
     7
370
    25
100
AcDbCircle
 10
194.0092086711
 20
132.3512543635
 30
0.0
 40
0.0540402705869902
100
AcDbArc
 50
258.247823707
 51
281.7521762931
  0
ARC
  5
373
330
1F
100
AcDbEntity
  8
0
  6
Continuous
 62
     7
370
    25
100
AcDbCircle
 10
193.6422450752
 20
134.4061000506
 30
0.0
 40
2.137598779321187
100
AcDbArc
 50
279.5856485653
 51
293.4638115022
  0
LINE
  5
374
330
1F
100
AcDbEntity
  8
0
  6
Continuous
 62
     7
370
    25
100
AcDbLine
 10
194.3281465188
 20
135.1498852594
 30
0.0
 11
193.906106751
 21
134.9703597946
 31
0.0
  0
SPLINE
  5
375
330
1F
100
AcDbEntity
  8
0
  6
Continuous
 62
     7
370
    25
100
AcDbSpline
210
0.0
220
0.0
230
1.0
 70
     8
 71
     3
 72
    16
 73
    12
 74
     0
 42
0.000000001
 43
0.00000001
 40
0.0
 40
0.0
 40
0.0
 40
0.0
 40
0.0525652144327099
 40
0.1706565850611978
 40
0.288747879060677
 40
0.4100537553117207
 40
0.5263932256883634
 40
0.6466080705601348
 40
0.7668225804871187
 40
0.8831619043017257
 40
1.0
 40
1.0
 40
1.0
 40
1.0
 10
194.7762065661036
 20
136.6101469023038
 30
0.0
 10
194.7550140533715
 20
136.5972552229566
 30
0.0
 10
194.6862111027747
 20
136.5554014990284
 30
0.0
 10
194.344387643171
 20
136.4898177016312
 30
0.0
 10
193.8228577752278
 20
136.4090296011792
 30
0.0
 10
193.2243779929278
 20
136.3179453156201
 30
0.0
 10
192.6500168186891
 20
136.2422625439283
 30
0.0
 10
192.1865935446676
 20
136.1548524364891
 30
0.0
 10
191.9112440833708
 20
136.0676347255535
 30
0.0
 10
191.8435646501731
 20
135.9923469905967
 30
0.0
 10
191.987815263832
 20
135.9341755934535
 30
0.0
 10
192.0600948483579
 20
135.9050276799012
 30
0.0
  0
SPLINE
  5
376
330
1F
100
AcDbEntity
  8
0
  6
Continuous
 62
     7
370
    25
100
AcDbSpline
210
0.0
220
0.0
230
1.0
 70
     8
 71
     3
 72
    11
 73
     7
 74
     0
 42
0.000000001
 43
0.00000001
 40
0.0
 40
0.0
 40
0.0
 40
0.0
 40
0.1524152109972043
 40
0.4296072283651666
 40
0.7186334038623371
 40
1.0
 40
1.0
 40
1.0
 40
1.0
 10
194.6767498134531
 20
135.4445184690762
 30
0.0
 10
194.7314114406205
 20
135.4289563694954
 30
0.0
 10
194.8854841869803
 20
135.3850920437189
 30
0.0
 10
194.9056528459097
 20
135.322003030652
 30
0.0
 10
194.7455375967035
 20
135.2307145618476
 30
0.0
 10
194.4660257265512
 20
135.1765860701474
 30
0.0
 10
194.3281465187565
 20
135.1498852593709
 30
0.0
  0
SPLINE
  5
377
330
1F
100
AcDbEntity
  8
0
  6
Continuous
 62
     7
370
    25
100
AcDbSpline
210
0.0
220
0.0
230
1.0
 70
     8
 71
     3
 72
    14
 73
    10
 74
     0
 42
0.000000001
 43
0.00000001
 40
0.0
 40
0.0
 40
0.0
 40
0.0
 40
0.036578728793223
 40
0.2031723226523593
 40
0.3746941775115984
 40
0.5386126887580621
 40
0.708457091367653
 40
0.8783016583504047
 40
1.0
 40
1.0
 40
1.0
 40
1.0
 10
193.9512844524242
 20
136.3283380044509
 30
0.0
 10
193.9367367298593
 20
136.3223330102071
 30
0.0
 10
193.8559330857651
 20
136.2889789635171
 30
0.0
 10
193.6196041623303
 20
136.2295567119724
 30
0.0
 10
193.2980175487181
 20
136.1385725972862
 30
0.0
 10
192.9757066283356
 20
136.0626164081576
 30
0.0
 10
192.7244415605736
 20
135.9752247189147
 30
0.0
 10
192.5714193012257
 20
135.8958905749262
 30
0.0
 10
192.5668442478772
 20
135.8500907781
 30
0.0
 10
192.5649344898656
 20
135.8309726340581
 30
0.0
  0
SPLINE
  5
378
330
1F
100
AcDbEntity
  8
0
  6
Continuous
 62
     7
370
    25
100
AcDbSpline
210
0.0
220
0.0
230
1.0
 70
     8
 71
     3
 72
     9
 73
     5
 74
     0
 42
0.000000001
 43
0.00000001
 40
0.0
 40
0.0
 40
0.0
 40
0.0
 40
0.153287002187205
 40
0.9999999999999999
 40
0.9999999999999999
 40
0.9999999999999999
 40
0.9999999999999999
 10
194.1289731162496
 20
135.0678133888055
 30
0.0
 10
194.1237831559041
 20
135.0626023536252
 30
0.0
 10
194.089925357973
 20
135.0286070695771
 30
0.0
 10
193.9903870934124
 20
134.9970660152561
 30
0.0
 10
193.9061067510292
 20
134.9703597945977
 30
0.0
  0
LINE
  5
379
330
1F
100
AcDbEntity
  8
0
  6
Continuous
 62
     7
370
    25
100
AcDbLine
 10
193.906106751
 20
135.3294107241
 30
0.0
 11
194.3281465188
 21
135.1498852594
 31
0.0
  0
SPLINE
  5
37A
330
1F
100
AcDbEntity
  8
0
  6
Continuous
 62
     7
370
    25
100
AcDbSpline
210
0.0
220
0.0
230
1.0
 70
     8
 71
     3
 72
    10
 73
     6
 74
     0
 42
0.000000001
 43
0.00000001
 40
0.0
 40
0.0
 40
0.0
 40
0.0
 40
0.4380158896755548
 40
0.888988266296167
 40
1.0
 40
1.0
 40
1.0
 40
1.0
 10
193.9061067510292
 20
135.3294107241441
 30
0.0
 10
193.9802984846289
 20
135.3560867331136
 30
0.0
 10
194.1308765394001
 20
135.4102278259928
 30
0.0
 10
194.222311877564
 20
135.4797110888201
 30
0.0
 10
194.205040110738
 20
135.5133747517128
 30
0.0
 10
194.2016283260554
 20
135.5200245154906
 30
0.0
  0
LINE
  5
37B
330
1F
100
AcDbEntity
  8
0
  6
Continuous
 62
     7
370
    25
100
AcDbLine
 10
193.906106751
 20
135.3294107241
 30
0.0
 11
193.906106751
 21
134.9703597946
 31
0.0
  0
LINE
  5
37C
330
1F
100
AcDbEntity
  8
0
  6
Continuous
 62
     7
370
    25
100
AcDbLine
 10
193.9982018062
 20
132.4394012911
 30
0.0
 11
193.9982018062
 21
132.2983468993
 31
0.0
  0
LINE
  5
37D
330
1F
100
AcDbEntity
  8
0
  6
Continuous
 62
     7
370
    25
100
AcDbLine
 10
192.7463472798
 20
132.2983468993
 30
0.0
 11
192.7463472798
 21
132.398611225
 31
0.0
  0
LINE
  5
37E
330
1F
100
AcDbEntity
  8
0
  6
Continuous
 62
     7
370
    25
100
AcDbLine
 10
192.7683610097
 20
132.3921627475
 30
0.0
 11
192.7683610097
 21
132.2983468993
 31
0.0
  0
LINE
  5
37F
330
1F
100
AcDbEntity
  8
0
  6
Continuous
 62
     7
370
    25
100
AcDbLine
 10
193.5540820973
 20
132.3244947119
 30
0.0
 11
193.5540820973
 21
132.2983468993
 31
0.0
  0
LINE
  5
380
330
1F
100
AcDbEntity
  8
0
  6
Continuous
 62
     8
370
    25
100
AcDbLine
 10
200.3280784097
 20
219.3986105842
 30
0.0
 11
200.319951689
 21
219.8559719248
 31
0.0
  0
LINE
  5
381
330
1F
100
AcDbEntity
  8
0
  6
Continuous
 62
     8
370
    25
100
AcDbLine
 10
186.446611127
 20
219.8559719248
 30
0.0
 11
186.4384844062
 21
219.3986105842
 31
0.0
  0
LINE
  5
382
330
1F
100
AcDbEntity
  8
0
  6
Continuous
 62
     8
370
    25
100
AcDbLine
 10
186.4384844062
 20
119.7162906749
 30
0.0
 11
186.446611127
 21
119.2589256091
 31
0.0
  0
LINE
  5
383
330
1F
100
AcDbEntity
  8
0
  6
Continuous
 62
     8
370
    25
100
AcDbLine
 10
200.319951689
 20
119.2589256091
 30
0.0
 11
200.3280784097
 21
119.7162906749
 31
0.0
  0
LINE
  5
384
330
1F
100
AcDbEntity
  8
0
  6
Continuous
 62
     8
370
    25
100
AcDbLine
 10
189.8939430808
 20
215.4547500534
 30
0.0
 11
190.1364832279
 21
201.5574502868
 31
0.0
  0
LINE
  5
385
330
1F
100
AcDbEntity
  8
0
  6
Continuous
 62
     8
370
    25
100
AcDbLine
 10
196.8726197352
 20
215.4547500534
 30
0.0
 11
196.630079588
 21
201.5574502868
 31
0.0
  0
LINE
  5
386
330
1F
100
AcDbEntity
  8
0
  6
Continuous
 62
     8
370
    25
100
AcDbLine
 10
190.2215444111
 20
137.5574491097
 30
0.0
 11
189.9790308067
 21
123.6617363168
 31
0.0
  0
LINE
  5
387
330
1F
100
AcDbEntity
  8
0
  6
Continuous
 62
     8
370
    25
100
AcDbLine
 10
196.5450184048
 20
137.5574491097
 30
0.0
 11
196.7875320093
 21
123.6617363168
 31
0.0
  0
LINE
  5
388
330
1F
100
AcDbEntity
  8
0
  6
Continuous
 62
     8
370
    25
100
AcDbLine
 10
113.9096145612
 20
170.0837838573
 30
0.0
 11
113.9096145612
 21
177.4588863475
 31
0.0
  0
LINE
  5
389
330
1F
100
AcDbEntity
  8
0
  6
Continuous
 62
     8
370
    25
100
AcDbLine
 10
114.4095410687
 20
179.0371260716
 30
0.0
 11
114.4095410687
 21
170.0923594756
 31
0.0
  0
LINE
  5
38A
330
1F
100
AcDbEntity
  8
0
  6
Continuous
 62
     8
370
    25
100
AcDbLine
 10
200.8776378912
 20
219.2592996282
 30
0.0
 11
185.8889249247
 21
219.2592996282
 31
0.0
  0
LINE
  5
38B
330
1F
100
AcDbEntity
  8
0
  6
Continuous
 62
     8
370
    25
100
AcDbLine
 10
200.9037889634
 20
217.7613603992
 30
0.0
 11
185.8627738525
 21
217.7613603992
 31
0.0
  0
LINE
  5
38C
330
1F
100
AcDbEntity
  8
0
  6
Continuous
 62
     8
370
    25
100
AcDbLine
 10
200.8776378912
 20
119.8555979056
 30
0.0
 11
185.8889249247
 21
119.8555979056
 31
0.0
  0
LINE
  5
38D
330
1F
100
AcDbEntity
  8
0
  6
Continuous
 62
     8
370
    25
100
AcDbLine
 10
200.9037889634
 20
121.3535408599
 30
0.0
 11
185.8627738525
 21
121.3535408599
 31
0.0
  0
LINE
  5
38E
330
1F
100
AcDbEntity
  8
0
  6
Continuous
 62
     8
370
    25
100
AcDbLine
 10
196.0332813301
 20
137.1698475553
 30
0.0
 11
190.7332814858
 21
137.1698475553
 31
0.0
  0
LINE
  5
38F
330
1F
100
AcDbEntity
  8
0
  6
Continuous
 62
     8
370
    25
100
AcDbLine
 10
195.8991375846
 20
136.9365158601
 30
0.0
 11
190.8674252313
 21
136.9365158601
 31
0.0
  0
LINE
  5
390
330
1F
100
AcDbEntity
  8
0
  6
Continuous
 62
     8
370
    25
100
AcDbLine
 10
196.0332813301
 20
133.1698468996
 30
0.0
 11
190.7332814858
 21
133.1698468996
 31
0.0
  0
LINE
  5
391
330
1F
100
AcDbEntity
  8
0
  6
Continuous
 62
     8
370
    25
100
AcDbLine
 10
195.8991375846
 20
132.9365170671
 30
0.0
 11
190.8674252313
 21
132.9365170671
 31
0.0
  0
LINE
  5
392
330
1F
100
AcDbEntity
  8
0
  6
Continuous
 62
     7
370
    18
100
AcDbLine
 10
193.3824382403
 20
220.8559719752
 30
0.0
 11
193.3824382403
 21
118.2589258999
 31
0.0
  0
LINE
  5
393
330
1F
100
AcDbEntity
  8
0
  6
CENTERX2
 62
     7
370
    18
100
AcDbLine
 10
193.3824382403
 20
240.410483593
 30
0.0
 11
193.3824382403
 21
98.7044161565
 31
0.0
  0
DIMENSION
  5
394
330
1F
100
AcDbEntity
  8
COTATION
100
AcDbDimension
  2
_D_4
 10
306.9650073135
 20
118.2589258999
 30
0.0
 11
306.9650073135
 21
169.5574489376
 31
0.0
 70
   160
  1
<>
 71
     2
 42
-1.0
  3
SLDDIMSTYLE0
100
AcDbAlignedDimension
 13
193.3824382403
 23
220.8559719752
 33
0.0
 14
193.3824382403
 24
118.2589258999
 34
0.0
 50
90.0
100
AcDbRotatedDimension
  0
DIMENSION
  5
39E
330
1F
100
AcDbEntity
  8
COTATION
100
AcDbDimension
  2
_D_5
 10
316.9658504812
 20
98.7044161565
 30
0.0
 11
316.9658504812
 21
169.5574498748
 31
0.0
 70
   160
  1
<>
 71
     2
 42
-1.0
  3
SLDDIMSTYLE0
100
AcDbAlignedDimension
 13
193.3824382403
 23
240.410483593
 33
0.0
 14
193.3824382403
 24
98.7044161565
 34
0.0
 50
90.0
100
AcDbRotatedDimension
  0
DIMENSION
  5
3A8
330
1F
100
AcDbEntity
  8
COTATION
100
AcDbDimension
  2
_D_6
 10
243.383281408
 20
74.6990651091
 30
0.0
 11
193.383281408
 21
74.6990651091
 31
0.0
 70
   160
  1
<>
 71
     2
 42
-1.0
  3
SLDDIMSTYLE0
100
AcDbAlignedDimension
 13
143.383281408
 23
164.8074498696
 33
0.0
 14
243.383281408
 24
164.8074498696
 34
0.0
100
AcDbRotatedDimension
  0
DIMENSION
  5
3B2
330
1F
100
AcDbEntity
  8
COTATION
100
AcDbDimension
  2
_D_7
 10
143.383281408
 20
169.5574498696
 30
0.0
 11
73.6917211052
 21
109.021445428
 31
0.0
 70
   164
  1
<>
 71
     1
 42
-1.0
  3
SLDDIMSTYLE1
100
AcDbRadialDimension
 15
141.797427098
 25
167.9613401906
 35
0.0
 40
0.0
  0
DIMENSION
  5
3BC
330
1F
100
AcDbEntity
  8
COTATION
100
AcDbDimension
  2
_D_8
 10
143.383281408
 20
178.5574498696
 30
0.0
 11
74.8739429128
 21
244.173454343
 31
0.0
 70
   164
  1
<>
 71
     1
 42
-1.0
  3
SLDDIMSTYLE1
100
AcDbRadialDimension
 15
140.2115727761
 25
181.7496692159
 35
0.0
 40
0.0
  0
DIMENSION
  5
3C5
330
1F
100
AcDbEntity
  8
COTATION
100
AcDbDimension
  2
_D_9
 10
140.383281408
 20
252.8223455521
 30
0.0
 11
193.383281408
 21
252.8223455521
 31
0.0
 70
   160
  1
<>
 71
     2
 42
-1.0
  3
SLDDIMSTYLE0
100
AcDbAlignedDimension
 13
246.383281408
 23
144.3074498696
 33
0.0
 14
140.383281408
 24
204.3074498696
 34
0.0
100
AcDbRotatedDimension
  0
DIMENSION
  5
3CF
330
1F
100
AcDbEntity
  8
COTATION
100
AcDbDimension
  2
_D_10
 10
80.3072769504
 20
139.5574498696
 30
0.0
 11
80.3072769504
 21
169.5574498696
 31
0.0
 70
   160
  1
<>
 71
     2
 42
-1.0
  3
SLDDIMSTYLE0
100
AcDbAlignedDimension
 13
135.633281408
 23
199.5574498696
 33
0.0
 14
241.633281408
 24
139.5574498696
 34
0.0
 50
90.0
100
AcDbRotatedDimension
  0
DIMENSION
  5
3D9
330
1F
100
AcDbEntity
  8
COTATION
100
AcDbDimension
  2
_D_11
 10
138.7983118925
 20
201.1544381711
 30
0.0
 11
80.567608022
 21
255.3867899915
 31
0.0
 70
   163
  1
<>
 71
     1
 42
-1.0
  3
SLDDIMSTYLE2
100
AcDbDiametricDimension
 15
141.9682509234
 25
197.9604615681
 35
0.0
 40
0.0
  0
DIMENSION
  5
3E6
330
1F
100
AcDbEntity
  8
COTATION
100
AcDbDimension
  2
_D_12
 10
80.3072769504
 20
119.2589258895
 30
0.0
 11
80.3072769504
 21
128.4081878795
 31
0.0
 70
   160
  1
<>
 71
     2
 42
-1.0
  3
SLDDIMSTYLE0
100
AcDbAlignedDimension
 13
186.597344239
 23
137.5574498696
 33
0.0
 14
185.8993412783
 24
119.2589258895
 34
0.0
 50
90.0
100
AcDbRotatedDimension
  0
DIMENSION
  5
3F0
330
1F
100
AcDbEntity
  8
COTATION
100
AcDbDimension
  2
_D_13
 10
201.1689140816
 20
84.6990651091
 30
0.0
 11
193.383281408
 21
84.6990651091
 31
0.0
 70
   160
  1
<>
 71
     2
 42
-1.0
  3
SLDDIMSTYLE3
100
AcDbAlignedDimension
 13
185.5976487343
 23
136.5401550374
 33
0.0
 14
201.1689140816
 24
136.5401550374
 34
0.0
100
AcDbRotatedDimension
  0
DIMENSION
  5
3FD
330
1F
100
AcDbEntity
  8
COTATION
100
AcDbDimension
  2
_D_14
 10
70.3072769504
 20
201.5574498696
 30
0.0
 11
70.3072769504
 21
169.5574498696
 31
0.0
 70
   160
  1
<>
 71
     2
 42
-1.0
  3
SLDDIMSTYLE0
100
AcDbAlignedDimension
 13
186.597344239
 23
137.5574498696
 33
0.0
 14
186.597344239
 24
201.5574498696
 34
0.0
 50
90.0
100
AcDbRotatedDimension
  0
INSERT
  5
412
330
1F
100
AcDbEntity
  8
0
  6
Continuous
 62
     7
370
     0
100
AcDbBlockReference
  2
SW_CENTERMARKSYMBOL_0
 10
143.383281408
 20
169.5574498696
 30
0.0
  0
INSERT
  5
41E
330
1F
100
AcDbEntity
  8
0
  6
Continuous
 62
     7
370
     0
100
AcDbBlockReference
  2
SW_CENTERMARKSYMBOL_1
 10
243.383281408
 20
169.5574498696
 30
0.0
  0
INSERT
  5
42A
330
1F
100
AcDbEntity
  8
0
  6
Continuous
 62
     7
370
     0
100
AcDbBlockReference
  2
SW_CENTERMARKSYMBOL_2
 10
140.383281408
 20
199.5574498696
 30
0.0
  0
INSERT
  5
436
330
1F
100
AcDbEntity
  8
0
  6
Continuous
 62
     7
370
     0
100
AcDbBlockReference
  2
SW_CENTERMARKSYMBOL_3
 10
246.383281408
 20
139.5574498696
 30
0.0
  0
ENDSEC
  0
SECTION
  2
OBJECTS
  0
DICTIONARY
  5
C
330
0
100
AcDbDictionary
281
     1
  3
ACAD_GROUP
350
D
  3
ACAD_LAYOUT
350
1A
  3
ACAD_MLINESTYLE
350
17
  3
ACAD_PLOTSETTINGS
350
19
  3
ACAD_PLOTSTYLENAME
350
E
  3
ACAD_SCALELIST
350
47
  0
DICTIONARY
  5
D
102
{ACAD_REACTORS
330
C
102
}
330
C
100
AcDbDictionary
281
     1
  0
DICTIONARY
  5
1A
102
{ACAD_REACTORS
330
C
102
}
330
C
100
AcDbDictionary
281
     1
  3
Layout1
350
1E
  3
Layout2
350
26
  3
Model
350
22
  0
DICTIONARY
  5
17
102
{ACAD_REACTORS
330
C
102
}
330
C
100
AcDbDictionary
281
     1
  3
Standard
350
18
  0
DICTIONARY
  5
19
102
{ACAD_REACTORS
330
C
102
}
330
C
100
AcDbDictionary
281
     1
  0
ACDBDICTIONARYWDFLT
  5
E
102
{ACAD_REACTORS
330
C
102
}
330
C
100
AcDbDictionary
281
     1
  3
Normal
350
F
100
AcDbDictionaryWithDefault
340
F
  0
DICTIONARY
  5
47
102
{ACAD_REACTORS
330
C
102
}
330
C
100
AcDbDictionary
281
     1
  3
A0
350
48
  3
A1
350
49
  3
A2
350
4A
  3
A3
350
4B
  3
A4
350
4C
  3
A5
350
4D
  3
A6
350
4E
  3
A7
350
4F
  3
A8
350
50
  3
A9
350
51
  3
B0
350
52
  3
B1
350
53
  3
B2
350
54
  3
B3
350
55
  3
B4
350
56
  3
B5
350
57
  3
B6
350
58
  3
B7
350
59
  3
B8
350
5A
  3
B9
350
5B
  3
C0
350
5C
  3
C1
350
5D
  3
C2
350
5E
  3
C3
350
5F
  3
C4
350
60
  3
C5
350
61
  3
C6
350
62
  3
C7
350
63
  3
C8
350
64
  3
C9
350
65
  3
D0
350
66
  3
D1
350
67
  3
D2
350
68
  0
LAYOUT
  5
1E
102
{ACAD_REACTORS
330
1A
102
}
330
1A
100
AcDbPlotSettings
  1

  2
none_device
  4

  6

 40
0.0
 41
0.0
 42
0.0
 43
0.0
 44
0.0
 45
0.0
 46
0.0
 47
0.0
 48
0.0
 49
0.0
140
0.0
141
0.0
142
1.0
143
1.0
 70
   688
 72
     1
 73
     0
 74
     5
  7

 75
    16
147
1.0
148
0.0
149
0.0
100
AcDbLayout
  1
Layout1
 70
     1
 71
     1
 10
0.0
 20
0.0
 11
420.0
 21
297.0
 12
0.0
 22
0.0
 32
0.0
 14
1.0000000000E+20
 24
1.0000000000E+20
 34
1.0000000000E+20
 15
-1.0000000000E+20
 25
-1.0000000000E+20
 35
-1.0000000000E+20
146
0.0
 13
0.0
 23
0.0
 33
0.0
 16
1.0
 26
0.0
 36
0.0
 17
0.0
 27
1.0
 37
0.0
 76
     0
330
1B
  0
LAYOUT
  5
26
102
{ACAD_REACTORS
330
1A
102
}
330
1A
100
AcDbPlotSettings
  1

  2
none_device
  4

  6

 40
0.0
 41
0.0
 42
0.0
 43
0.0
 44
0.0
 45
0.0
 46
0.0
 47
0.0
 48
0.0
 49
0.0
140
0.0
141
0.0
142
1.0
143
1.0
 70
   688
 72
     1
 73
     0
 74
     5
  7

 75
    16
147
1.0
148
0.0
149
0.0
100
AcDbLayout
  1
Layout2
 70
     1
 71
     2
 10
0.0
 20
0.0
 11
0.0
 21
0.0
 12
0.0
 22
0.0
 32
0.0
 14
0.0
 24
0.0
 34
0.0
 15
0.0
 25
0.0
 35
0.0
146
0.0
 13
0.0
 23
0.0
 33
0.0
 16
1.0
 26
0.0
 36
0.0
 17
0.0
 27
1.0
 37
0.0
 76
     0
330
23
  0
LAYOUT
  5
22
102
{ACAD_REACTORS
330
1A
102
}
330
1A
100
AcDbPlotSettings
  1

  2
none_device
  4
Letter_(8.50_x_11.00_Inches)
  6

 40
6.35
 41
6.35
 42
6.35000508
 43
6.35000508
 44
215.9
 45
279.4
 46
0.0
 47
0.0
 48
0.0
 49
0.0
140
0.0
141
0.0
142
1.0
143
1.0
 70
  1712
 72
     1
 73
     0
 74
     0
  7

 75
     0
147
1.0
148
0.0
149
0.0
100
AcDbLayout
  1
Model
 70
     1
 71
     0
 10
0.0
 20
0.0
 11
594.0
 21
420.0
 12
0.0
 22
0.0
 32
0.0
 14
0.0
 24
0.0
 34
0.0
 15
594.0
 25
420.0
 35
0.0
146
0.0
 13
0.0
 23
0.0
 33
0.0
 16
1.0
 26
0.0
 36
0.0
 17
0.0
 27
1.0
 37
0.0
 76
     0
330
1F
331
29
  0
MLINESTYLE
  5
18
102
{ACAD_REACTORS
330
17
102
}
330
17
100
AcDbMlineStyle
  2
Standard
 70
     0
  3

 62
   256
 51
90.0
 52
90.0
 71
     2
 49
0.5
 62
   256
  6
BYLAYER
 49
-0.5
 62
   256
  6
BYLAYER
  0
ACDBPLACEHOLDER
  5
F
102
{ACAD_REACTORS
330
E
102
}
330
E
  0
SCALE
  5
48
102
{ACAD_REACTORS
330
47
102
}
330
47
100
AcDbScale
 70
     0
300
1:1
140
1.0
141
1.0
290
     1
  0
SCALE
  5
49
102
{ACAD_REACTORS
330
47
102
}
330
47
100
AcDbScale
 70
     0
300
1:2
140
1.0
141
2.0
290
     0
  0
SCALE
  5
4A
102
{ACAD_REACTORS
330
47
102
}
330
47
100
AcDbScale
 70
     0
300
1:4
140
1.0
141
4.0
290
     0
  0
SCALE
  5
4B
102
{ACAD_REACTORS
330
47
102
}
330
47
100
AcDbScale
 70
     0
300
1:5
140
1.0
141
5.0
290
     0
  0
SCALE
  5
4C
102
{ACAD_REACTORS
330
47
102
}
330
47
100
AcDbScale
 70
     0
300
1:8
140
1.0
141
8.0
290
     0
  0
SCALE
  5
4D
102
{ACAD_REACTORS
330
47
102
}
330
47
100
AcDbScale
 70
     0
300
1:10
140
1.0
141
10.0
290
     0
  0
SCALE
  5
4E
102
{ACAD_REACTORS
330
47
102
}
330
47
100
AcDbScale
 70
     0
300
1:16
140
1.0
141
16.0
290
     0
  0
SCALE
  5
4F
102
{ACAD_REACTORS
330
47
102
}
330
47
100
AcDbScale
 70
     0
300
1:20
140
1.0
141
20.0
290
     0
  0
SCALE
  5
50
102
{ACAD_REACTORS
330
47
102
}
330
47
100
AcDbScale
 70
     0
300
1:30
140
1.0
141
30.0
290
     0
  0
SCALE
  5
51
102
{ACAD_REACTORS
330
47
102
}
330
47
100
AcDbScale
 70
     0
300
1:40
140
1.0
141
40.0
290
     0
  0
SCALE
  5
52
102
{ACAD_REACTORS
330
47
102
}
330
47
100
AcDbScale
 70
     0
300
1:50
140
1.0
141
50.0
290
     0
  0
SCALE
  5
53
102
{ACAD_REACTORS
330
47
102
}
330
47
100
AcDbScale
 70
     0
300
1:100
140
1.0
141
100.0
290
     0
  0
SCALE
  5
54
102
{ACAD_REACTORS
330
47
102
}
330
47
100
AcDbScale
 70
     0
300
2:1
140
2.0
141
1.0
290
     0
  0
SCALE
  5
55
102
{ACAD_REACTORS
330
47
102
}
330
47
100
AcDbScale
 70
     0
300
4:1
140
4.0
141
1.0
290
     0
  0
SCALE
  5
56
102
{ACAD_REACTORS
330
47
102
}
330
47
100
AcDbScale
 70
     0
300
8:1
140
8.0
141
1.0
290
     0
  0
SCALE
  5
57
102
{ACAD_REACTORS
330
47
102
}
330
47
100
AcDbScale
 70
     0
300
10:1
140
10.0
141
1.0
290
     0
  0
SCALE
  5
58
102
{ACAD_REACTORS
330
47
102
}
330
47
100
AcDbScale
 70
     0
300
100:1
140
100.0
141
1.0
290
     0
  0
SCALE
  5
59
102
{ACAD_REACTORS
330
47
102
}
330
47
100
AcDbScale
 70
     0
300
1/128" = 1'-0"
140
0.0078125
141
12.0
290
     0
  0
SCALE
  5
5A
102
{ACAD_REACTORS
330
47
102
}
330
47
100
AcDbScale
 70
     0
300
1/64" = 1'-0"
140
0.015625
141
12.0
290
     0
  0
SCALE
  5
5B
102
{ACAD_REACTORS
330
47
102
}
330
47
100
AcDbScale
 70
     0
300
1/32" = 1'-0"
140
0.03125
141
12.0
290
     0
  0
SCALE
  5
5C
102
{ACAD_REACTORS
330
47
102
}
330
47
100
AcDbScale
 70
     0
300
1/16" = 1'-0"
140
0.0625
141
12.0
290
     0
  0
SCALE
  5
5D
102
{ACAD_REACTORS
330
47
102
}
330
47
100
AcDbScale
 70
     0
300
3/32" = 1'-0"
140
0.09375
141
12.0
290
     0
  0
SCALE
  5
5E
102
{ACAD_REACTORS
330
47
102
}
330
47
100
AcDbScale
 70
     0
300
1/8" = 1'-0"
140
0.125
141
12.0
290
     0
  0
SCALE
  5
5F
102
{ACAD_REACTORS
330
47
102
}
330
47
100
AcDbScale
 70
     0
300
3/16" = 1'-0"
140
0.1875
141
12.0
290
     0
  0
SCALE
  5
60
102
{ACAD_REACTORS
330
47
102
}
330
47
100
AcDbScale
 70
     0
300
1/4" = 1'-0"
140
0.25
141
12.0
290
     0
  0
SCALE
  5
61
102
{ACAD_REACTORS
330
47
102
}
330
47
100
AcDbScale
 70
     0
300
3/8" = 1'-0"
140
0.375
141
12.0
290
     0
  0
SCALE
  5
62
102
{ACAD_REACTORS
330
47
102
}
330
47
100
AcDbScale
 70
     0
300
1/2" = 1'-0"
140
0.5
141
12.0
290
     0
  0
SCALE
  5
63
102
{ACAD_REACTORS
330
47
102
}
330
47
100
AcDbScale
 70
     0
300
3/4" = 1'-0"
140
0.75
141
12.0
290
     0
  0
SCALE
  5
64
102
{ACAD_REACTORS
330
47
102
}
330
47
100
AcDbScale
 70
     0
300
1" = 1'-0"
140
1.0
141
12.0
290
     0
  0
SCALE
  5
65
102
{ACAD_REACTORS
330
47
102
}
330
47
100
AcDbScale
 70
     0
300
1-1/2" = 1'-0"
140
1.5
141
12.0
290
     0
  0
SCALE
  5
66
102
{ACAD_REACTORS
330
47
102
}
330
47
100
AcDbScale
 70
     0
300
3" = 1'-0"
140
3.0
141
12.0
290
     0
  0
SCALE
  5
67
102
{ACAD_REACTORS
330
47
102
}
330
47
100
AcDbScale
 70
     0
300
6" = 1'-0"
140
6.0
141
12.0
290
     0
  0
SCALE
  5
68
102
{ACAD_REACTORS
330
47
102
}
330
47
100
AcDbScale
 70
     0
300
1'-0" = 1'-0"
140
12.0
141
12.0
290
     0
  0
ENDSEC
  0
EOF
