  0
SECTION
  2
HEADER
  9
$ACADVER
  1
AC1027
  9
$ACADMAINTVER
 70
   105
  9
$DWGCODEPAGE
  3
ANSI_1252
  9
$REQUIREDVERSIONS
160
                 0
  9
$INSBASE
 10
0.0
 20
0.0
 30
0.0
  9
$EXTMIN
 10
0.0
 20
0.0
 30
0.0
  9
$EXTMAX
 10
420.0
 20
297.0
 30
0.0
  9
$LIMMIN
 10
0.0
 20
0.0
  9
$LIMMAX
 10
420.0
 20
297.0
  9
$ORTHOMODE
 70
     0
  9
$REGENMODE
 70
     1
  9
$FILLMODE
 70
     1
  9
$QTEXTMODE
 70
     0
  9
$MIRRTEXT
 70
     1
  9
$LTSCALE
 40
1.0
  9
$ATTMODE
 70
     1
  9
$TEXTSIZE
 40
3.5
  9
$TRACEWID
 40
1.0
  9
$TEXTSTYLE
  7
Standard
  9
$CLAYER
  8
0
  9
$CELTYPE
  6
ByLayer
  9
$CECOLOR
 62
   256
  9
$CELTSCALE
 40
1.0
  9
$DISPSILH
 70
     0
  9
$DIMSCALE
 40
1.0
  9
$DIMASZ
 40
3.81
  9
$DIMEXO
 40
0.0
  9
$DIMDLI
 40
3.75
  9
$DIMRND
 40
0.0
  9
$DIMDLE
 40
0.0
  9
$DIMEXE
 40
1.0
  9
$DIMTP
 40
0.0
  9
$DIMTM
 40
0.0
  9
$DIMTXT
 40
3.2
  9
$DIMCEN
 40
2.5
  9
$DIMTSZ
 40
0.0
  9
$DIMTOL
 70
     0
  9
$DIMLIM
 70
     0
  9
$DIMTIH
 70
     1
  9
$DIMTOH
 70
     1
  9
$DIMSE1
 70
     0
  9
$DIMSE2
 70
     0
  9
$DIMTAD
 70
     1
  9
$DIMZIN
 70
     0
  9
$DIMBLK
  1

  9
$DIMASO
 70
     1
  9
$DIMSHO
 70
     1
  9
$DIMPOST
  1

  9
$DIMAPOST
  1

  9
$DIMALT
 70
     0
  9
$DIMALTD
 70
     3
  9
$DIMALTF
 40
0.0393700787
  9
$DIMLFAC
 40
1.0
  9
$DIMTOFL
 70
     1
  9
$DIMTVP
 40
0.0
  9
$DIMTIX
 70
     0
  9
$DIMSOXD
 70
     0
  9
$DIMSAH
 70
     0
  9
$DIMBLK1
  1

  9
$DIMBLK2
  1

  9
$DIMSTYLE
  2
ISO-25
  9
$DIMCLRD
 70
     0
  9
$DIMCLRE
 70
     0
  9
$DIMCLRT
 70
     0
  9
$DIMTFAC
 40
1.0
  9
$DIMGAP
 40
1.524
  9
$DIMJUST
 70
     0
  9
$DIMSD1
 70
     0
  9
$DIMSD2
 70
     0
  9
$DIMTOLJ
 70
     0
  9
$DIMTZIN
 70
     0
  9
$DIMALTZ
 70
     0
  9
$DIMALTTZ
 70
     0
  9
$DIMUPT
 70
     0
  9
$DIMDEC
 70
     2
  9
$DIMTDEC
 70
     2
  9
$DIMALTU
 70
     2
  9
$DIMALTTD
 70
     3
  9
$DIMTXSTY
  7
Standard
  9
$DIMAUNIT
 70
     0
  9
$DIMADEC
 70
     2
  9
$DIMALTRND
 40
0.0
  9
$DIMAZIN
 70
     0
  9
$DIMDSEP
 70
    44
  9
$DIMATFIT
 70
     3
  9
$DIMFRAC
 70
     0
  9
$DIMLDRBLK
  1

  9
$DIMLUNIT
 70
     2
  9
$DIMLWD
 70
    -2
  9
$DIMLWE
 70
    -2
  9
$DIMTMOVE
 70
     0
  9
$DIMFXL
 40
1.0
  9
$DIMFXLON
 70
     0
  9
$DIMJOGANG
 40
0.7853981634
  9
$DIMTFILL
 70
     0
  9
$DIMTFILLCLR
 70
     0
  9
$DIMARCSYM
 70
     0
  9
$DIMLTYPE
  6

  9
$DIMLTEX1
  6

  9
$DIMLTEX2
  6

  9
$DIMTXTDIRECTION
 70
     0
  9
$LUNITS
 70
     2
  9
$LUPREC
 70
     5
  9
$SKETCHINC
 40
1.0
  9
$FILLETRAD
 40
10.0
  9
$AUNITS
 70
     0
  9
$AUPREC
 70
     0
  9
$MENU
  1
.
  9
$ELEVATION
 40
0.0
  9
$PELEVATION
 40
0.0
  9
$THICKNESS
 40
0.0
  9
$LIMCHECK
 70
     0
  9
$CHAMFERA
 40
0.0
  9
$CHAMFERB
 40
0.0
  9
$CHAMFERC
 40
0.0
  9
$CHAMFERD
 40
0.0
  9
$SKPOLY
 70
     0
  9
$TDCREATE
 40
2459144.578885544
  9
$TDUCREATE
 40
2459144.495552211
  9
$TDUPDATE
 40
2459144.57889118
  9
$TDUUPDATE
 40
2459144.495557847
  9
$TDINDWG
 40
0.0000000116
  9
$TDUSRTIMER
 40
0.0000000116
  9
$USRTIMER
 70
     1
  9
$ANGBASE
 50
0.0
  9
$ANGDIR
 70
     0
  9
$PDMODE
 70
     0
  9
$PDSIZE
 40
-1.0
  9
$PLINEWID
 40
0.0
  9
$SPLFRAME
 70
     0
  9
$SPLINETYPE
 70
     6
  9
$SPLINESEGS
 70
     8
  9
$HANDSEED
  5
36A
  9
$SURFTAB1
 70
     6
  9
$SURFTAB2
 70
     6
  9
$SURFTYPE
 70
     6
  9
$SURFU
 70
     6
  9
$SURFV
 70
     6
  9
$UCSBASE
  2

  9
$UCSNAME
  2

  9
$UCSORG
 10
0.0
 20
0.0
 30
0.0
  9
$UCSXDIR
 10
1.0
 20
0.0
 30
0.0
  9
$UCSYDIR
 10
0.0
 20
1.0
 30
0.0
  9
$UCSORTHOREF
  2

  9
$UCSORTHOVIEW
 70
     0
  9
$UCSORGTOP
 10
0.0
 20
0.0
 30
0.0
  9
$UCSORGBOTTOM
 10
0.0
 20
0.0
 30
0.0
  9
$UCSORGLEFT
 10
0.0
 20
0.0
 30
0.0
  9
$UCSORGRIGHT
 10
0.0
 20
0.0
 30
0.0
  9
$UCSORGFRONT
 10
0.0
 20
0.0
 30
0.0
  9
$UCSORGBACK
 10
0.0
 20
0.0
 30
0.0
  9
$PUCSBASE
  2

  9
$PUCSNAME
  2

  9
$PUCSORG
 10
0.0
 20
0.0
 30
0.0
  9
$PUCSXDIR
 10
1.0
 20
0.0
 30
0.0
  9
$PUCSYDIR
 10
0.0
 20
1.0
 30
0.0
  9
$PUCSORTHOREF
  2

  9
$PUCSORTHOVIEW
 70
     0
  9
$PUCSORGTOP
 10
0.0
 20
0.0
 30
0.0
  9
$PUCSORGBOTTOM
 10
0.0
 20
0.0
 30
0.0
  9
$PUCSORGLEFT
 10
0.0
 20
0.0
 30
0.0
  9
$PUCSORGRIGHT
 10
0.0
 20
0.0
 30
0.0
  9
$PUCSORGFRONT
 10
0.0
 20
0.0
 30
0.0
  9
$PUCSORGBACK
 10
0.0
 20
0.0
 30
0.0
  9
$USERI1
 70
     0
  9
$USERI2
 70
     0
  9
$USERI3
 70
     0
  9
$USERI4
 70
     0
  9
$USERI5
 70
     0
  9
$USERR1
 40
0.0
  9
$USERR2
 40
0.0
  9
$USERR3
 40
0.0
  9
$USERR4
 40
0.0
  9
$USERR5
 40
0.0
  9
$WORLDVIEW
 70
     1
  9
$SHADEDGE
 70
     3
  9
$SHADEDIF
 70
    70
  9
$TILEMODE
 70
     1
  9
$MAXACTVP
 70
    64
  9
$PINSBASE
 10
0.0
 20
0.0
 30
0.0
  9
$PLIMCHECK
 70
     0
  9
$PEXTMIN
 10
1.0000000000E+20
 20
1.0000000000E+20
 30
1.0000000000E+20
  9
$PEXTMAX
 10
-1.0000000000E+20
 20
-1.0000000000E+20
 30
-1.0000000000E+20
  9
$PLIMMIN
 10
0.0
 20
0.0
  9
$PLIMMAX
 10
420.0
 20
297.0
  9
$UNITMODE
 70
     0
  9
$VISRETAIN
 70
     1
  9
$PLINEGEN
 70
     0
  9
$PSLTSCALE
 70
     1
  9
$TREEDEPTH
 70
  3020
  9
$CMLSTYLE
  2
Standard
  9
$CMLJUST
 70
     0
  9
$CMLSCALE
 40
20.0
  9
$PROXYGRAPHICS
 70
     1
  9
$MEASUREMENT
 70
     1
  9
$CELWEIGHT
370
    -1
  9
$ENDCAPS
280
     0
  9
$JOINSTYLE
280
     0
  9
$LWDISPLAY
290
     1
  9
$INSUNITS
 70
     4
  9
$HYPERLINKBASE
  1

  9
$STYLESHEET
  1

  9
$XEDIT
290
     1
  9
$CEPSNTYPE
380
     0
  9
$PSTYLEMODE
290
     1
  9
$FINGERPRINTGUID
  2
{ace333bb-c1a0-43f3-92f9-7f57134618af}
  9
$VERSIONGUID
  2
{FAEB1C32-E019-11D5-929B-00C0DF256EC4}
  9
$EXTNAMES
290
     1
  9
$PSVPSCALE
 40
0.0
  9
$OLESTARTUP
290
     0
  9
$SORTENTS
280
   127
  9
$INDEXCTL
280
     0
  9
$HIDETEXT
280
     1
  9
$XCLIPFRAME
280
     2
  9
$HALOGAP
280
     0
  9
$OBSCOLOR
 70
   257
  9
$OBSLTYPE
280
     0
  9
$INTERSECTIONDISPLAY
280
     0
  9
$INTERSECTIONCOLOR
 70
   257
  9
$DIMASSOC
280
     2
  9
$PROJECTNAME
  1

  9
$CAMERADISPLAY
290
     0
  9
$LENSLENGTH
 40
50.0
  9
$CAMERAHEIGHT
 40
0.0
  9
$STEPSPERSEC
 40
2.0
  9
$STEPSIZE
 40
6.0
  9
$3DDWFPREC
 40
2.0
  9
$PSOLWIDTH
 40
5.0
  9
$PSOLHEIGHT
 40
80.0
  9
$LOFTANG1
 40
1.5707963268
  9
$LOFTANG2
 40
1.5707963268
  9
$LOFTMAG1
 40
0.0
  9
$LOFTMAG2
 40
0.0
  9
$LOFTPARAM
 70
     7
  9
$LOFTNORMALS
280
     1
  9
$LATITUDE
 40
37.795
  9
$LONGITUDE
 40
-122.394
  9
$NORTHDIRECTION
 40
0.0
  9
$TIMEZONE
 70
 -8000
  9
$LIGHTGLYPHDISPLAY
280
     1
  9
$TILEMODELIGHTSYNCH
280
     1
  9
$CMATERIAL
347
44
  9
$SOLIDHIST
280
     0
  9
$SHOWHIST
280
     1
  9
$DWFFRAME
280
     2
  9
$DGNFRAME
280
     2
  9
$REALWORLDSCALE
290
     1
  9
$INTERFERECOLOR
 62
   256
  9
$CSHADOW
280
     0
  9
$SHADOWPLANELOCATION
 40
0.0
  0
ENDSEC
  0
SECTION
  2
CLASSES
  0
CLASS
  1
ACDBDICTIONARYWDFLT
  2
AcDbDictionaryWithDefault
  3
ObjectDBX Classes
 90
        0
 91
        3
280
     0
281
     0
  0
CLASS
  1
VISUALSTYLE
  2
AcDbVisualStyle
  3
ObjectDBX Classes
 90
     4095
 91
        3
280
     0
281
     0
  0
CLASS
  1
MATERIAL
  2
AcDbMaterial
  3
ObjectDBX Classes
 90
     1153
 91
        3
280
     0
281
     0
  0
CLASS
  1
SCALE
  2
AcDbScale
  3
ObjectDBX Classes
 90
     1153
 91
        3
280
     0
281
     0
  0
CLASS
  1
TABLESTYLE
  2
AcDbTableStyle
  3
ObjectDBX Classes
 90
     4095
 91
        3
280
     0
281
     0
  0
CLASS
  1
MLEADERSTYLE
  2
AcDbMLeaderStyle
  3
ACDB_MLEADERSTYLE_CLASS
 90
     4095
 91
        3
280
     0
281
     0
  0
CLASS
  1
SUN
  2
AcDbSun
  3
SCENEOE
 90
     1153
 91
        3
280
     0
281
     0
  0
CLASS
  1
DICTIONARYVAR
  2
AcDbDictionaryVar
  3
ObjectDBX Classes
 90
        0
 91
        3
280
     0
281
     0
  0
CLASS
  1
CELLSTYLEMAP
  2
AcDbCellStyleMap
  3
ObjectDBX Classes
 90
     1152
 91
        3
280
     0
281
     0
  0
ENDSEC
  0
SECTION
  2
TABLES
  0
TABLE
  2
VPORT
  5
8
330
0
100
AcDbSymbolTable
 70
     1
  0
VPORT
  5
29
330
8
100
AcDbSymbolTableRecord
100
AcDbViewportTableRecord
  2
*Active
 70
     0
 10
0.0
 20
0.0
 11
1.0
 21
1.0
 12
210.0
 22
148.5
 13
0.0
 23
0.0
 14
10.0
 24
10.0
 15
10.0
 25
10.0
 16
0.0
 26
0.0
 36
1.0
 17
0.0
 27
0.0
 37
0.0
 40
297.0
 41
1.4141414141
 42
50.0
 43
0.0
 44
0.0
 50
0.0
 51
0.0
 71
     0
 72
  2000
 73
     1
 74
     3
 75
     0
 76
     0
 77
     0
 78
     0
281
     0
 65
     1
110
0.0
120
0.0
130
0.0
111
1.0
121
0.0
131
0.0
112
0.0
122
1.0
132
0.0
 79
     0
146
0.0
348
2F
 60
     3
 61
     5
292
     1
282
     1
141
0.0
142
0.0
 63
   250
361
6D
  0
ENDTAB
  0
TABLE
  2
LTYPE
  5
5
330
0
100
AcDbSymbolTable
 70
     6
  0
LTYPE
  5
14
330
5
100
AcDbSymbolTableRecord
100
AcDbLinetypeTableRecord
  2
ByBlock
 70
     0
  3

 72
    65
 73
     0
 40
0.0
  0
LTYPE
  5
15
330
5
100
AcDbSymbolTableRecord
100
AcDbLinetypeTableRecord
  2
ByLayer
 70
     0
  3

 72
    65
 73
     0
 40
0.0
  0
LTYPE
  5
16
330
5
100
AcDbSymbolTableRecord
100
AcDbLinetypeTableRecord
  2
Continuous
 70
     0
  3
Solid line
 72
    65
 73
     0
 40
0.0
  0
LTYPE
  5
6E
330
5
100
AcDbSymbolTableRecord
100
AcDbLinetypeTableRecord
  2
HIDDEN
 70
     0
  3
Hidden __ __ __ __ __ __ __ __ __ __ __ __ __ __
 72
    65
 73
     2
 40
1.905
 49
1.27
 74
     0
 49
-0.635
 74
     0
  0
LTYPE
  5
6F
330
5
100
AcDbSymbolTableRecord
100
AcDbLinetypeTableRecord
  2
PHANTOM
 70
     0
  3
Phantom ______  __  __  ______  __  __  ______
 72
    65
 73
     6
 40
12.7
 49
6.35
 74
     0
 49
-1.27
 74
     0
 49
1.27
 74
     0
 49
-1.27
 74
     0
 49
1.27
 74
     0
 49
-1.27
 74
     0
  0
LTYPE
  5
70
330
5
100
AcDbSymbolTableRecord
100
AcDbLinetypeTableRecord
  2
CENTER
 70
     0
  3
Center ____ _ ____ _ ____ _ ____ _ ____ _ ____
 72
    65
 73
     4
 40
10.16
 49
6.35
 74
     0
 49
-1.27
 74
     0
 49
1.27
 74
     0
 49
-1.27
 74
     0
  0
LTYPE
  5
71
330
5
100
AcDbSymbolTableRecord
100
AcDbLinetypeTableRecord
  2
CENTERX2
 70
     0
  3
Center (2x) ________  __  ________  __  _____
 72
    65
 73
     4
 40
20.32
 49
12.7
 74
     0
 49
-2.54
 74
     0
 49
2.54
 74
     0
 49
-2.54
 74
     0
  0
LTYPE
  5
72
330
5
100
AcDbSymbolTableRecord
100
AcDbLinetypeTableRecord
  2
DOT2
 70
     0
  3
Dot (.5x) ........................................
 72
    65
 73
     2
 40
0.635
 49
0.0
 74
     0
 49
-0.635
 74
     0
  0
ENDTAB
  0
TABLE
  2
LAYER
  5
2
330
0
100
AcDbSymbolTable
 70
    10
  0
LAYER
  5
10
330
2
100
AcDbSymbolTableRecord
100
AcDbLayerTableRecord
  2
0
 70
     0
 62
     7
  6
Continuous
370
    -3
390
F
347
46
348
0
  0
LAYER
  5
73
330
2
100
AcDbSymbolTableRecord
100
AcDbLayerTableRecord
  2
SLD-0
 70
     0
 62
     7
  6
Continuous
370
    -3
390
F
347
46
348
0
  0
LAYER
  5
74
330
2
100
AcDbSymbolTableRecord
100
AcDbLayerTableRecord
  2
PV
 70
     0
 62
     7
  6
Continuous
370
    -3
390
F
347
46
348
0
  0
LAYER
  5
75
330
2
100
AcDbSymbolTableRecord
100
AcDbLayerTableRecord
  2
COTATION
 70
     0
 62
     1
  6
Continuous
370
    -3
390
F
347
46
348
0
  0
LAYER
  5
76
330
2
100
AcDbSymbolTableRecord
100
AcDbLayerTableRecord
  2
NOTES
 70
     0
 62
     5
  6
Continuous
370
    -3
390
F
347
46
348
0
  0
LAYER
  5
77
330
2
100
AcDbSymbolTableRecord
100
AcDbLayerTableRecord
  2
COTATION2
 70
     0
 62
    96
  6
Continuous
370
    -3
390
F
347
46
348
0
  0
LAYER
  5
78
330
2
100
AcDbSymbolTableRecord
100
AcDbLayerTableRecord
  2
COTATION3
 70
     0
 62
    30
  6
Continuous
370
    -3
390
F
347
46
348
0
  0
LAYER
  5
79
330
2
100
AcDbSymbolTableRecord
100
AcDbLayerTableRecord
  2
LOGO1
 70
     0
 62
   156
  6
Continuous
370
    -3
390
F
347
46
348
0
  0
LAYER
  5
7A
330
2
100
AcDbSymbolTableRecord
100
AcDbLayerTableRecord
  2
LOGO2
 70
     0
 62
   161
  6
Continuous
370
    -3
390
F
347
46
348
0
  0
LAYER
  5
7B
330
2
100
AcDbSymbolTableRecord
100
AcDbLayerTableRecord
  2
NOTE
 70
     0
 62
     5
  6
Continuous
370
    -3
390
F
347
46
348
0
  0
ENDTAB
  0
TABLE
  2
STYLE
  5
3
330
0
100
AcDbSymbolTable
 70
     8
  0
STYLE
  5
11
330
3
100
AcDbSymbolTableRecord
100
AcDbTextStyleTableRecord
  2
Standard
 70
     0
 40
0.0
 41
1.0
 50
0.0
 71
     0
 42
3.5
  3
txt
  4

  0
STYLE
  5
12C
330
3
100
AcDbSymbolTableRecord
100
AcDbTextStyleTableRecord
  2
SLDTEXTSTYLE0
 70
     0
 40
0.0
 41
0.75
 50
0.0
 71
     0
 42
3.5
  3
TXT
  4

  0
STYLE
  5
153
330
3
100
AcDbSymbolTableRecord
100
AcDbTextStyleTableRecord
  2
SLDTEXTSTYLE1
 70
     0
 40
0.0
 41
0.6818181818
 50
0.0
 71
     0
 42
3.5
  3
TXT
  4

  0
STYLE
  5
155
330
3
100
AcDbSymbolTableRecord
100
AcDbTextStyleTableRecord
  2
SLDTEXTSTYLE2
 70
     0
 40
0.0
 41
0.7
 50
0.0
 71
     0
 42
3.5
  3
TXT
  4

  0
STYLE
  5
157
330
3
100
AcDbSymbolTableRecord
100
AcDbTextStyleTableRecord
  2
SLDTEXTSTYLE3
 70
     0
 40
0.0
 41
0.6824324324
 50
0.0
 71
     0
 42
3.5
  3
TXT
  4

  0
STYLE
  5
163
330
3
100
AcDbSymbolTableRecord
100
AcDbTextStyleTableRecord
  2
SLDTEXTSTYLE4
 70
     0
 40
0.0
 41
0.6785714286
 50
0.0
 71
     0
 42
3.5
  3
TXT
  4

  0
STYLE
  5
16C
330
3
100
AcDbSymbolTableRecord
100
AcDbTextStyleTableRecord
  2
SLDTEXTSTYLE5
 70
     0
 40
0.0
 41
0.6875
 50
0.0
 71
     0
 42
3.5
  3
TXT
  4

  0
STYLE
  5
1EE
330
3
100
AcDbSymbolTableRecord
100
AcDbTextStyleTableRecord
  2
SLDTEXTSTYLE6
 70
     0
 40
0.0
 41
0.6904761905
 50
0.0
 71
     0
 42
3.5
  3
TXT
  4

  0
ENDTAB
  0
TABLE
  2
VIEW
  5
6
330
0
100
AcDbSymbolTable
 70
     0
  0
ENDTAB
  0
TABLE
  2
UCS
  5
7
330
0
100
AcDbSymbolTable
 70
     0
  0
ENDTAB
  0
TABLE
  2
APPID
  5
9
330
0
100
AcDbSymbolTable
 70
     1
  0
APPID
  5
12
330
9
100
AcDbSymbolTableRecord
100
AcDbRegAppTableRecord
  2
ACAD
 70
     0
  0
ENDTAB
  0
TABLE
  2
DIMSTYLE
  5
A
330
0
100
AcDbSymbolTable
 70
     5
100
AcDbDimStyleTable
  0
DIMSTYLE
105
27
330
A
100
AcDbSymbolTableRecord
100
AcDbDimStyleTableRecord
  2
ISO-25
 70
     0
 41
2.5
 42
0.625
 43
3.75
 44
1.25
 73
     0
 74
     0
 77
     1
 78
     8
140
2.5
141
2.5
143
0.0393700787
147
0.625
171
     3
172
     1
178
     0
271
     2
272
     2
274
     3
278
    44
283
     0
284
     8
340
11
  0
DIMSTYLE
105
19E
102
{ACAD_REACTORS
330
19D
330
1A8
330
1DE
330
263
330
288
330
295
330
2AD
330
2BA
102
}
330
A
100
AcDbSymbolTableRecord
100
AcDbDimStyleTableRecord
  2
SLDDIMSTYLE0
 70
     0
 41
3.81
 44
0.0
 45
0.000000001
 73
     0
 74
     0
 77
     1
 78
    12
 79
     3
140
3.2
147
0.8
173
     1
178
     0
271
     2
272
     2
276
     2
284
    12
340
12C
  0
DIMSTYLE
105
1F3
330
A
100
AcDbSymbolTableRecord
100
AcDbDimStyleTableRecord
  2
SLDDIMSTYLE1
 70
     0
 41
3.81
 44
0.0
 45
0.000000001
146
3.81
147
0.0
173
     1
178
     0
271
     0
272
     0
276
     2
340
11
  0
DIMSTYLE
105
222
102
{ACAD_REACTORS
330
221
330
22E
330
23A
330
247
330
26F
330
27B
330
2A1
102
}
330
A
100
AcDbSymbolTableRecord
100
AcDbDimStyleTableRecord
  2
SLDDIMSTYLE2
 70
     0
 41
3.81
 44
0.0
 45
0.000000001
 73
     0
 74
     0
 77
     1
 78
    12
 79
     3
140
3.2
147
0.8
173
     1
178
     0
271
     1
272
     2
276
     2
284
    12
340
12C
  0
DIMSTYLE
105
255
102
{ACAD_REACTORS
330
254
102
}
330
A
100
AcDbSymbolTableRecord
100
AcDbDimStyleTableRecord
  2
SLDDIMSTYLE3
 70
     0
 41
3.81
 44
0.0
 45
0.000000001
 78
    12
 79
     3
140
3.2
141
0.0
147
0.8
172
     1
173
     1
178
     0
271
     1
272
     2
276
     2
284
    12
340
12C
  0
ENDTAB
  0
TABLE
  2
BLOCK_RECORD
  5
1
330
0
100
AcDbSymbolTable
 70
    28
  0
BLOCK_RECORD
  5
1F
330
1
100
AcDbSymbolTableRecord
100
AcDbBlockTableRecord
  2
*Model_Space
340
22
 70
     0
280
     1
281
     0
  0
BLOCK_RECORD
  5
1B
330
1
100
AcDbSymbolTableRecord
100
AcDbBlockTableRecord
  2
*Paper_Space
340
1E
 70
     0
280
     1
281
     0
  0
BLOCK_RECORD
  5
23
330
1
100
AcDbSymbolTableRecord
100
AcDbBlockTableRecord
  2
*Paper_Space0
340
26
 70
     0
280
     1
281
     0
  0
BLOCK_RECORD
  5
7C
330
1
100
AcDbSymbolTableRecord
100
AcDbBlockTableRecord
  2
Bloc2
340
0
102
{BLKREFS
331
12B
102
}
 70
     0
280
     1
281
     0
  0
BLOCK_RECORD
  5
15B
330
1
100
AcDbSymbolTableRecord
100
AcDbBlockTableRecord
  2
SW_NOTE_0
340
0
102
{BLKREFS
331
161
102
}
 70
     0
280
     1
281
     0
  0
BLOCK_RECORD
  5
19F
330
1
100
AcDbSymbolTableRecord
100
AcDbBlockTableRecord
  2
_D
340
0
 70
     0
280
     1
281
     0
  0
BLOCK_RECORD
  5
1A9
330
1
100
AcDbSymbolTableRecord
100
AcDbBlockTableRecord
  2
_D_1
340
0
 70
     0
280
     1
281
     0
  0
BLOCK_RECORD
  5
1DF
330
1
100
AcDbSymbolTableRecord
100
AcDbBlockTableRecord
  2
_D_2
340
0
 70
     0
280
     1
281
     0
  0
BLOCK_RECORD
  5
1E8
330
1
100
AcDbSymbolTableRecord
100
AcDbBlockTableRecord
  2
SW_NOTE_0_1
340
0
102
{BLKREFS
331
1F2
102
}
 70
     0
280
     1
281
     0
  0
BLOCK_RECORD
  5
223
330
1
100
AcDbSymbolTableRecord
100
AcDbBlockTableRecord
  2
_D_3
340
0
 70
     0
280
     1
281
     0
  0
BLOCK_RECORD
  5
22F
330
1
100
AcDbSymbolTableRecord
100
AcDbBlockTableRecord
  2
_D_4
340
0
 70
     0
280
     1
281
     0
  0
BLOCK_RECORD
  5
23B
330
1
100
AcDbSymbolTableRecord
100
AcDbBlockTableRecord
  2
_D_5
340
0
 70
     0
280
     1
281
     0
  0
BLOCK_RECORD
  5
248
330
1
100
AcDbSymbolTableRecord
100
AcDbBlockTableRecord
  2
_D_6
340
0
 70
     0
280
     1
281
     0
  0
BLOCK_RECORD
  5
256
330
1
100
AcDbSymbolTableRecord
100
AcDbBlockTableRecord
  2
_D_7
340
0
 70
     0
280
     1
281
     0
  0
BLOCK_RECORD
  5
264
330
1
100
AcDbSymbolTableRecord
100
AcDbBlockTableRecord
  2
_D_8
340
0
 70
     0
280
     1
281
     0
  0
BLOCK_RECORD
  5
270
330
1
100
AcDbSymbolTableRecord
100
AcDbBlockTableRecord
  2
_D_9
340
0
 70
     0
280
     1
281
     0
  0
BLOCK_RECORD
  5
27C
330
1
100
AcDbSymbolTableRecord
100
AcDbBlockTableRecord
  2
_D_10
340
0
 70
     0
280
     1
281
     0
  0
BLOCK_RECORD
  5
289
330
1
100
AcDbSymbolTableRecord
100
AcDbBlockTableRecord
  2
_D_11
340
0
 70
     0
280
     1
281
     0
  0
BLOCK_RECORD
  5
296
330
1
100
AcDbSymbolTableRecord
100
AcDbBlockTableRecord
  2
_D_12
340
0
 70
     0
280
     1
281
     0
  0
BLOCK_RECORD
  5
2A2
330
1
100
AcDbSymbolTableRecord
100
AcDbBlockTableRecord
  2
_D_13
340
0
 70
     0
280
     1
281
     0
  0
BLOCK_RECORD
  5
2AE
330
1
100
AcDbSymbolTableRecord
100
AcDbBlockTableRecord
  2
_D_14
340
0
 70
     0
280
     1
281
     0
  0
BLOCK_RECORD
  5
2BB
330
1
100
AcDbSymbolTableRecord
100
AcDbBlockTableRecord
  2
_D_15
340
0
 70
     0
280
     1
281
     0
  0
BLOCK_RECORD
  5
2C7
330
1
100
AcDbSymbolTableRecord
100
AcDbBlockTableRecord
  2
SW_CENTERMARKSYMBOL_0
340
0
102
{BLKREFS
331
2D2
102
}
 70
     0
280
     1
281
     0
  0
BLOCK_RECORD
  5
2D3
330
1
100
AcDbSymbolTableRecord
100
AcDbBlockTableRecord
  2
SW_CENTERMARKSYMBOL_1
340
0
102
{BLKREFS
331
2DE
102
}
 70
     0
280
     1
281
     0
  0
BLOCK_RECORD
  5
2DF
330
1
100
AcDbSymbolTableRecord
100
AcDbBlockTableRecord
  2
SW_CENTERMARKSYMBOL_2
340
0
102
{BLKREFS
331
2EA
102
}
 70
     0
280
     1
281
     0
  0
BLOCK_RECORD
  5
2EB
330
1
100
AcDbSymbolTableRecord
100
AcDbBlockTableRecord
  2
SW_CENTERMARKSYMBOL_3
340
0
102
{BLKREFS
331
2F6
102
}
 70
     0
280
     1
281
     0
  0
BLOCK_RECORD
  5
2F7
330
1
100
AcDbSymbolTableRecord
100
AcDbBlockTableRecord
  2
SW_CENTERMARKSYMBOL_4
340
0
102
{BLKREFS
331
302
102
}
 70
     0
280
     1
281
     0
  0
BLOCK_RECORD
  5
303
330
1
100
AcDbSymbolTableRecord
100
AcDbBlockTableRecord
  2
SW_CENTERMARKSYMBOL_5
340
0
102
{BLKREFS
331
30E
102
}
 70
     0
280
     1
281
     0
  0
BLOCK_RECORD
  5
30F
330
1
100
AcDbSymbolTableRecord
100
AcDbBlockTableRecord
  2
SW_CENTERMARKSYMBOL_6
340
0
102
{BLKREFS
331
31A
102
}
 70
     0
280
     1
281
     0
  0
BLOCK_RECORD
  5
31B
330
1
100
AcDbSymbolTableRecord
100
AcDbBlockTableRecord
  2
SW_CENTERMARKSYMBOL_7
340
0
102
{BLKREFS
331
326
102
}
 70
     0
280
     1
281
     0
  0
ENDTAB
  0
ENDSEC
  0
SECTION
  2
BLOCKS
  0
BLOCK
  5
20
330
1F
100
AcDbEntity
  8
0
100
AcDbBlockBegin
  2
*Model_Space
 70
     0
 10
0.0
 20
0.0
 30
0.0
  3
*Model_Space
  1

  0
ENDBLK
  5
21
330
1F
100
AcDbEntity
  8
0
100
AcDbBlockEnd
  0
BLOCK
  5
1C
330
1B
100
AcDbEntity
 67
     1
  8
0
100
AcDbBlockBegin
  2
*Paper_Space
 70
     0
 10
0.0
 20
0.0
 30
0.0
  3
*Paper_Space
  1

  0
ENDBLK
  5
1D
330
1B
100
AcDbEntity
 67
     1
  8
0
100
AcDbBlockEnd
  0
BLOCK
  5
24
330
23
100
AcDbEntity
  8
0
100
AcDbBlockBegin
  2
*Paper_Space0
 70
     0
 10
0.0
 20
0.0
 30
0.0
  3
*Paper_Space0
  1

  0
ENDBLK
  5
25
330
23
100
AcDbEntity
  8
0
100
AcDbBlockEnd
  0
BLOCK
  5
7D
330
7C
100
AcDbEntity
  8
0
100
AcDbBlockBegin
  2
Bloc2
 70
     0
 10
0.0
 20
0.0
 30
0.0
  3
Bloc2
  1

  0
CIRCLE
  5
7F
330
7C
100
AcDbEntity
  8
PV
  6
Continuous
100
AcDbCircle
 10
8.0102707617
 20
1.7
 30
0.0
 40
0.6400000000000101
  0
CIRCLE
  5
80
330
7C
100
AcDbEntity
  8
PV
  6
Continuous
100
AcDbCircle
 10
8.0102707617
 20
1.7
 30
0.0
 40
1.199999999999928
  0
LINE
  5
81
330
7C
100
AcDbEntity
  8
PV
  6
CENTER
100
AcDbLine
 10
8.0102707617
 20
0.0
 30
0.0
 11
8.0102707617
 21
3.4
 31
0.0
  0
LINE
  5
82
330
7C
100
AcDbEntity
  8
PV
  6
Continuous
100
AcDbLine
 10
4.0102707617
 20
2.9
 30
0.0
 11
4.0102707617
 21
0.5
 31
0.0
  0
LINE
  5
83
330
7C
100
AcDbEntity
  8
PV
  6
Continuous
100
AcDbLine
 10
0.8102707617
 20
1.06
 30
0.0
 11
4.0102707617
 21
0.5
 31
0.0
  0
LINE
  5
84
330
7C
100
AcDbEntity
  8
PV
  6
Continuous
100
AcDbLine
 10
0.8102707617
 20
2.339999
 30
0.0
 11
0.8102707617
 21
1.06
 31
0.0
  0
LINE
  5
85
330
7C
100
AcDbEntity
  8
PV
  6
CENTER
100
AcDbLine
 10
9.7436336225
 20
1.7471354655
 30
0.0
 11
0.0
 21
1.7000647717
 31
0.0
  0
LINE
  5
86
330
7C
100
AcDbEntity
  8
PV
  6
Continuous
100
AcDbLine
 10
0.8102707617
 20
2.339999
 30
0.0
 11
4.0102707617
 21
2.9
 31
0.0
  0
ENDBLK
  5
7E
330
7C
100
AcDbEntity
  8
0
100
AcDbBlockEnd
  0
BLOCK
  5
15C
330
15B
100
AcDbEntity
  8
0
100
AcDbBlockBegin
  2
SW_NOTE_0
 70
     0
 10
0.0
 20
0.0
 30
0.0
  3
SW_NOTE_0
  1

  0
MTEXT
  5
15E
330
15B
100
AcDbEntity
  8
SLD-0
 62
     0
100
AcDbMText
 10
0.0
 20
3.4106583948
 30
0.0
 40
2.6458333333
 41
0.0
 46
0.0
 71
     1
 72
     1
  1
A
  7
SLDTEXTSTYLE2
 73
     1
 44
1.0
  0
MTEXT
  5
15F
330
15B
100
AcDbEntity
  8
SLD-0
 62
     0
100
AcDbMText
 10
2.9447143897
 20
3.4106583948
 30
0.0
 40
2.6458333333
 41
0.0
 46
0.0
 71
     1
 72
     1
  1
HALMA
  7
SLDTEXTSTYLE2
 73
     1
 44
1.0
  0
MTEXT
  5
160
330
15B
100
AcDbEntity
  8
SLD-0
 62
     0
100
AcDbMText
 10
15.2233410627
 20
3.4106583948
 30
0.0
 40
2.6458333333
 41
0.0
 46
0.0
 71
     1
 72
     1
  1
COMPANY
  7
SLDTEXTSTYLE2
 73
     1
 44
1.0
  0
ENDBLK
  5
15D
330
15B
100
AcDbEntity
  8
0
100
AcDbBlockEnd
  0
BLOCK
  5
1A0
330
19F
100
AcDbEntity
  8
0
100
AcDbBlockBegin
  2
_D
 70
     0
 10
0.0
 20
0.0
 30
0.0
  3
_D
  1

  0
SOLID
  5
1A2
330
19F
100
AcDbEntity
  8
COTATION
100
AcDbTrace
 10
30.5568440281
 20
247.0392560452
 30
0.0
 11
29.9853440281
 21
243.2292560452
 31
0.0
 12
31.1283440281
 22
243.2292560452
 32
0.0
 13
31.1283440281
 23
243.2292560452
 33
0.0
  0
SOLID
  5
1A3
330
19F
100
AcDbEntity
  8
COTATION
100
AcDbTrace
 10
30.5568440281
 20
167.0392560452
 30
0.0
 11
31.1283440281
 21
170.8492560452
 31
0.0
 12
29.9853440281
 22
170.8492560452
 32
0.0
 13
29.9853440281
 23
170.8492560452
 33
0.0
  0
LINE
  5
1A4
330
19F
100
AcDbEntity
  8
COTATION
100
AcDbLine
 10
67.0211128319
 20
247.0392560452
 30
0.0
 11
29.5568440281
 21
247.0392560452
 31
0.0
  0
LINE
  5
1A5
330
19F
100
AcDbEntity
  8
COTATION
100
AcDbLine
 10
102.0211128319
 20
167.0392560452
 30
0.0
 11
29.5568440281
 21
167.0392560452
 31
0.0
  0
LINE
  5
1A6
330
19F
100
AcDbEntity
  8
COTATION
100
AcDbLine
 10
30.5568440281
 20
247.0392560452
 30
0.0
 11
30.5568440281
 21
167.0392560452
 31
0.0
  0
MTEXT
  5
1A7
330
19F
100
AcDbEntity
  8
COTATION
100
AcDbMText
 10
26.4318274354
 20
204.6748114988
 30
0.0
 40
3.2
 41
0.0
 46
0.0
 71
     1
 72
     1
  1
80
  7
SLDTEXTSTYLE0
 11
-1.059690869644414E-14
 21
1.0
 31
0.0
 73
     1
 44
1.0
  0
ENDBLK
  5
1A1
330
19F
100
AcDbEntity
  8
0
100
AcDbBlockEnd
  0
BLOCK
  5
1AA
330
1A9
100
AcDbEntity
  8
0
100
AcDbBlockBegin
  2
_D_1
 70
     0
 10
0.0
 20
0.0
 30
0.0
  3
_D_1
  1

  0
SOLID
  5
1AC
330
1A9
100
AcDbEntity
  8
COTATION
100
AcDbTrace
 10
57.0211128319
 20
144.1617706796
 30
0.0
 11
60.8311128319
 21
143.5902706796
 31
0.0
 12
60.8311128319
 22
144.7332706796
 32
0.0
 13
60.8311128319
 23
144.7332706796
 33
0.0
  0
SOLID
  5
1AD
330
1A9
100
AcDbEntity
  8
COTATION
100
AcDbTrace
 10
137.0211128319
 20
144.1617706796
 30
0.0
 11
133.2111128319
 21
144.7332706796
 31
0.0
 12
133.2111128319
 22
143.5902706796
 32
0.0
 13
133.2111128319
 23
143.5902706796
 33
0.0
  0
LINE
  5
1AE
330
1A9
100
AcDbEntity
  8
COTATION
100
AcDbLine
 10
57.0211128319
 20
177.0392560452
 30
0.0
 11
57.0211128319
 21
143.1617706796
 31
0.0
  0
LINE
  5
1AF
330
1A9
100
AcDbEntity
  8
COTATION
100
AcDbLine
 10
137.0211128319
 20
177.0392560452
 30
0.0
 11
137.0211128319
 21
143.1617706796
 31
0.0
  0
LINE
  5
1B0
330
1A9
100
AcDbEntity
  8
COTATION
100
AcDbLine
 10
57.0211128319
 20
144.1617706796
 30
0.0
 11
137.0211128319
 21
144.1617706796
 31
0.0
  0
MTEXT
  5
1B1
330
1A9
100
AcDbEntity
  8
COTATION
100
AcDbMText
 10
94.6566682855
 20
148.2867872723
 30
0.0
 40
3.2
 41
0.0
 46
0.0
 71
     1
 72
     1
  1
80
  7
SLDTEXTSTYLE0
 73
     1
 44
1.0
  0
ENDBLK
  5
1AB
330
1A9
100
AcDbEntity
  8
0
100
AcDbBlockEnd
  0
BLOCK
  5
1E0
330
1DF
100
AcDbEntity
  8
0
100
AcDbBlockBegin
  2
_D_2
 70
     0
 10
0.0
 20
0.0
 30
0.0
  3
_D_2
  1

  0
SOLID
  5
1E2
330
1DF
100
AcDbEntity
  8
COTATION
100
AcDbTrace
 10
186.7516004672
 20
137.0392310452
 30
0.0
 11
190.5616004672
 21
136.4677310452
 31
0.0
 12
190.5616004672
 22
137.6107310452
 32
0.0
 13
190.5616004672
 23
137.6107310452
 33
0.0
  0
SOLID
  5
1E3
330
1DF
100
AcDbEntity
  8
COTATION
100
AcDbTrace
 10
217.7516004672
 20
137.0392310452
 30
0.0
 11
213.9416004672
 21
137.6107310452
 31
0.0
 12
213.9416004672
 22
136.4677310452
 32
0.0
 13
213.9416004672
 23
136.4677310452
 33
0.0
  0
LINE
  5
1E4
330
1DF
100
AcDbEntity
  8
COTATION
100
AcDbLine
 10
186.7516004672
 20
177.0392560452
 30
0.0
 11
186.7516004672
 21
136.0392310452
 31
0.0
  0
LINE
  5
1E5
330
1DF
100
AcDbEntity
  8
COTATION
100
AcDbLine
 10
217.7516004672
 20
177.0392560452
 30
0.0
 11
217.7516004672
 21
136.0392310452
 31
0.0
  0
LINE
  5
1E6
330
1DF
100
AcDbEntity
  8
COTATION
100
AcDbLine
 10
186.7516004672
 20
137.0392310452
 30
0.0
 11
217.7516004672
 21
137.0392310452
 31
0.0
  0
MTEXT
  5
1E7
330
1DF
100
AcDbEntity
  8
COTATION
100
AcDbMText
 10
199.8871559208
 20
141.1642476378
 30
0.0
 40
3.2
 41
0.0
 46
0.0
 71
     1
 72
     1
  1
31
  7
SLDTEXTSTYLE0
 73
     1
 44
1.0
  0
ENDBLK
  5
1E1
330
1DF
100
AcDbEntity
  8
0
100
AcDbBlockEnd
  0
BLOCK
  5
1E9
330
1E8
100
AcDbEntity
  8
0
100
AcDbBlockBegin
  2
SW_NOTE_0_1
 70
     0
 10
0.0
 20
0.0
 30
0.0
  3
SW_NOTE_0_1
  1

  0
LINE
  5
1EB
330
1E8
100
AcDbEntity
  8
NOTES
 62
     0
100
AcDbLine
 10
62.3671573194
 20
0.0
 30
0.0
 11
0.0
 21
0.0
 31
0.0
  0
MTEXT
  5
1EC
330
1E8
100
AcDbEntity
  8
NOTES
 62
     0
100
AcDbMText
 10
0.4910385629
 20
15.7917955761
 30
0.0
 40
3.5
 41
0.0
 46
0.0
 71
     1
 72
     1
  1
SCREWS DIN 7981 N°6 X 1/2"
  7
SLDTEXTSTYLE0
 73
     1
 44
1.0
  0
MTEXT
  5
1ED
330
1E8
100
AcDbEntity
  8
NOTES
 62
     0
100
AcDbMText
 10
0.4910385629
 20
10.192756435
 30
0.0
 40
3.5
 41
0.0
 46
0.0
 71
     1
 72
     1
  1
Drill
  7
SLDTEXTSTYLE0
 73
     1
 44
1.0
  0
MTEXT
  5
1EF
330
1E8
100
AcDbEntity
  8
NOTES
 62
     0
100
AcDbMText
 10
9.4597885778
 20
10.1278035298
 30
0.0
 40
3.4395833333
 41
0.0
 46
0.0
 71
     1
 72
     1
  1
ø 2,8 to 3,2 in Steel
  7
SLDTEXTSTYLE6
 73
     1
 44
1.0
  0
MTEXT
  5
1F0
330
1E8
100
AcDbEntity
  8
NOTES
 62
     0
100
AcDbMText
 10
0.4910385629
 20
4.5937172939
 30
0.0
 40
3.5
 41
0.0
 46
0.0
 71
     1
 72
     1
  1
Drill
  7
SLDTEXTSTYLE0
 73
     1
 44
1.0
  0
MTEXT
  5
1F1
330
1E8
100
AcDbEntity
  8
NOTES
 62
     0
100
AcDbMText
 10
9.4597885778
 20
4.5287643887
 30
0.0
 40
3.4395833333
 41
0.0
 46
0.0
 71
     1
 72
     1
  1
ø 2,6 to 2,9 in Aluninium
  7
SLDTEXTSTYLE2
 73
     1
 44
1.0
  0
ENDBLK
  5
1EA
330
1E8
100
AcDbEntity
  8
0
100
AcDbBlockEnd
  0
BLOCK
  5
224
330
223
100
AcDbEntity
  8
0
100
AcDbBlockBegin
  2
_D_3
 70
     0
 10
0.0
 20
0.0
 30
0.0
  3
_D_3
  1

  0
SOLID
  5
226
330
223
100
AcDbEntity
  8
COTATION
100
AcDbTrace
 10
255.4184093479
 20
230.3737798243
 30
0.0
 11
254.8469093479
 21
226.5637798243
 31
0.0
 12
255.9899093479
 22
226.5637798243
 32
0.0
 13
255.9899093479
 23
226.5637798243
 33
0.0
  0
SOLID
  5
227
330
223
100
AcDbEntity
  8
COTATION
100
AcDbTrace
 10
255.4184093479
 20
183.704732266
 30
0.0
 11
255.9899093479
 21
187.514732266
 31
0.0
 12
254.8469093479
 22
187.514732266
 32
0.0
 13
254.8469093479
 23
187.514732266
 33
0.0
  0
LINE
  5
228
330
223
100
AcDbEntity
  8
COTATION
100
AcDbLine
 10
341.9310912878
 20
230.3737798243
 30
0.0
 11
254.4184093479
 21
230.3737798243
 31
0.0
  0
LINE
  5
229
330
223
100
AcDbEntity
  8
COTATION
100
AcDbLine
 10
341.9310912878
 20
183.704732266
 30
0.0
 11
254.4184093479
 21
183.704732266
 31
0.0
  0
LINE
  5
22A
330
223
100
AcDbEntity
  8
COTATION
100
AcDbLine
 10
255.4184093479
 20
230.3737798243
 30
0.0
 11
255.4184093479
 21
183.704732266
 31
0.0
  0
MTEXT
  5
22B
330
223
100
AcDbEntity
  8
COTATION
100
AcDbMText
 10
251.2933927552
 20
200.3148113615
 30
0.0
 40
3.2
 41
0.0
 46
0.0
 71
     1
 72
     1
  1
=
  7
SLDTEXTSTYLE0
 11
-7.044195017643634E-15
 21
1.0
 31
0.0
 73
     1
 44
1.0
  0
MTEXT
  5
22C
330
223
100
AcDbEntity
  8
COTATION
100
AcDbMText
 10
251.2933927552
 20
202.901478089
 30
0.0
 40
3.2
 41
0.0
 46
0.0
 71
     1
 72
     1
  1
46,7
  7
SLDTEXTSTYLE0
 11
-7.044195017643634E-15
 21
1.0
 31
0.0
 73
     1
 44
1.0
  0
MTEXT
  5
22D
330
223
100
AcDbEntity
  8
COTATION
100
AcDbMText
 10
251.2933927552
 20
211.1770342342
 30
0.0
 40
3.2
 41
0.0
 46
0.0
 71
     1
 72
     1
  1
=
  7
SLDTEXTSTYLE0
 11
-7.044195017643634E-15
 21
1.0
 31
0.0
 73
     1
 44
1.0
  0
ENDBLK
  5
225
330
223
100
AcDbEntity
  8
0
100
AcDbBlockEnd
  0
BLOCK
  5
230
330
22F
100
AcDbEntity
  8
0
100
AcDbBlockBegin
  2
_D_4
 70
     0
 10
0.0
 20
0.0
 30
0.0
  3
_D_4
  1

  0
SOLID
  5
232
330
22F
100
AcDbEntity
  8
COTATION
100
AcDbTrace
 10
299.7271335997
 20
140.0521259961
 30
0.0
 11
303.5371335997
 21
139.4806259961
 31
0.0
 12
303.5371335997
 22
140.6236259961
 32
0.0
 13
303.5371335997
 23
140.6236259961
 33
0.0
  0
SOLID
  5
233
330
22F
100
AcDbEntity
  8
COTATION
100
AcDbTrace
 10
346.396181158
 20
140.0521259961
 30
0.0
 11
342.586181158
 21
140.6236259961
 31
0.0
 12
342.586181158
 22
139.4806259961
 32
0.0
 13
342.586181158
 23
139.4806259961
 33
0.0
  0
LINE
  5
234
330
22F
100
AcDbEntity
  8
COTATION
100
AcDbLine
 10
299.7271335997
 20
225.9086899542
 30
0.0
 11
299.7271335997
 21
139.0521259961
 31
0.0
  0
LINE
  5
235
330
22F
100
AcDbEntity
  8
COTATION
100
AcDbLine
 10
346.396181158
 20
225.9086899542
 30
0.0
 11
346.396181158
 21
139.0521259961
 31
0.0
  0
LINE
  5
236
330
22F
100
AcDbEntity
  8
COTATION
100
AcDbLine
 10
299.7271335997
 20
140.0521259961
 30
0.0
 11
346.396181158
 21
140.0521259961
 31
0.0
  0
MTEXT
  5
237
330
22F
100
AcDbEntity
  8
COTATION
100
AcDbMText
 10
316.3372126952
 20
144.1771425887
 30
0.0
 40
3.2
 41
0.0
 46
0.0
 71
     1
 72
     1
  1
=
  7
SLDTEXTSTYLE0
 73
     1
 44
1.0
  0
MTEXT
  5
238
330
22F
100
AcDbEntity
  8
COTATION
100
AcDbMText
 10
318.9238794226
 20
144.1771425887
 30
0.0
 40
3.2
 41
0.0
 46
0.0
 71
     1
 72
     1
  1
46,7
  7
SLDTEXTSTYLE0
 73
     1
 44
1.0
  0
MTEXT
  5
239
330
22F
100
AcDbEntity
  8
COTATION
100
AcDbMText
 10
327.1994355679
 20
144.1771425887
 30
0.0
 40
3.2
 41
0.0
 46
0.0
 71
     1
 72
     1
  1
=
  7
SLDTEXTSTYLE0
 73
     1
 44
1.0
  0
ENDBLK
  5
231
330
22F
100
AcDbEntity
  8
0
100
AcDbBlockEnd
  0
BLOCK
  5
23C
330
23B
100
AcDbEntity
  8
0
100
AcDbBlockBegin
  2
_D_5
 70
     0
 10
0.0
 20
0.0
 30
0.0
  3
_D_5
  1

  0
ARC
  5
23E
330
23B
100
AcDbEntity
  8
COTATION
100
AcDbCircle
 10
252.878409332
 20
150.9026326123
 30
0.0
 40
5.679612698335301
100
AcDbArc
 50
243.4349488229
 51
296.5650511771
  0
ARC
  5
23F
330
23B
100
AcDbEntity
  8
COTATION
100
AcDbCircle
 10
252.878409332
 20
149.0181879956
 30
0.0
 40
5.679612698335275
100
AcDbArc
 50
63.4349488229
 51
116.5650511771
  0
SOLID
  5
240
330
23B
100
AcDbEntity
  8
COTATION
100
AcDbTrace
 10
255.4184093479
 20
183.704732266
 30
0.0
 11
254.8469093479
 21
179.894732266
 31
0.0
 12
255.9899093479
 22
179.894732266
 32
0.0
 13
255.9899093479
 23
179.894732266
 33
0.0
  0
SOLID
  5
241
330
23B
100
AcDbEntity
  8
COTATION
100
AcDbTrace
 10
255.4184093479
 20
167.0392560452
 30
0.0
 11
255.9899093479
 21
170.8492560452
 31
0.0
 12
254.8469093479
 22
170.8492560452
 32
0.0
 13
254.8469093479
 23
170.8492560452
 33
0.0
  0
LINE
  5
242
330
23B
100
AcDbEntity
  8
COTATION
100
AcDbLine
 10
341.9310912878
 20
183.704732266
 30
0.0
 11
254.4184093479
 21
183.704732266
 31
0.0
  0
LINE
  5
243
330
23B
100
AcDbEntity
  8
COTATION
100
AcDbLine
 10
328.0616573788
 20
167.0392560452
 30
0.0
 11
254.4184093479
 21
167.0392560452
 31
0.0
  0
LINE
  5
244
330
23B
100
AcDbEntity
  8
COTATION
100
AcDbLine
 10
255.4184093479
 20
183.704732266
 30
0.0
 11
255.4184093479
 21
167.0392560452
 31
0.0
  0
LINE
  5
245
330
23B
100
AcDbEntity
  8
COTATION
100
AcDbLine
 10
255.4184093479
 20
167.0392560452
 30
0.0
 11
255.4184093479
 21
145.223019924
 31
0.0
  0
MTEXT
  5
246
330
23B
100
AcDbEntity
  8
COTATION
100
AcDbMText
 10
251.2933927552
 20
145.8226325806
 30
0.0
 40
3.2
 41
0.0
 46
0.0
 71
     1
 72
     1
  1
16,7
  7
SLDTEXTSTYLE0
 11
-3.491481338843133E-15
 21
1.0
 31
0.0
 73
     1
 44
1.0
  0
ENDBLK
  5
23D
330
23B
100
AcDbEntity
  8
0
100
AcDbBlockEnd
  0
BLOCK
  5
249
330
248
100
AcDbEntity
  8
0
100
AcDbBlockBegin
  2
_D_6
 70
     0
 10
0.0
 20
0.0
 30
0.0
  3
_D_6
  1

  0
ARC
  5
24B
330
248
100
AcDbEntity
  8
COTATION
100
AcDbCircle
 10
374.0039048618
 20
142.5921260119
 30
0.0
 40
5.679612698335301
100
AcDbArc
 50
153.4349488229
 51
206.5650511771
  0
ARC
  5
24C
330
248
100
AcDbEntity
  8
COTATION
100
AcDbCircle
 10
372.1194602451
 20
142.5921260119
 30
0.0
 40
5.679612698335251
100
AcDbArc
 50
333.4349488229
 51
26.5650511771
  0
SOLID
  5
24D
330
248
100
AcDbEntity
  8
COTATION
100
AcDbTrace
 10
363.0616573788
 20
140.0521259961
 30
0.0
 11
359.2516573788
 21
140.6236259961
 31
0.0
 12
359.2516573788
 22
139.4806259961
 32
0.0
 13
359.2516573788
 23
139.4806259961
 33
0.0
  0
SOLID
  5
24E
330
248
100
AcDbEntity
  8
COTATION
100
AcDbTrace
 10
346.396181158
 20
140.0521259961
 30
0.0
 11
350.206181158
 21
139.4806259961
 31
0.0
 12
350.206181158
 22
140.6236259961
 32
0.0
 13
350.206181158
 23
140.6236259961
 33
0.0
  0
LINE
  5
24F
330
248
100
AcDbEntity
  8
COTATION
100
AcDbLine
 10
363.0616573788
 20
177.0392560452
 30
0.0
 11
363.0616573788
 21
139.0521259961
 31
0.0
  0
LINE
  5
250
330
248
100
AcDbEntity
  8
COTATION
100
AcDbLine
 10
346.396181158
 20
183.704732266
 30
0.0
 11
346.396181158
 21
139.0521259961
 31
0.0
  0
LINE
  5
251
330
248
100
AcDbEntity
  8
COTATION
100
AcDbLine
 10
363.0616573788
 20
140.0521259961
 30
0.0
 11
377.7990725841
 21
140.0521259961
 31
0.0
  0
LINE
  5
252
330
248
100
AcDbEntity
  8
COTATION
100
AcDbLine
 10
363.0616573788
 20
140.0521259961
 30
0.0
 11
346.396181158
 21
140.0521259961
 31
0.0
  0
MTEXT
  5
253
330
248
100
AcDbEntity
  8
COTATION
100
AcDbMText
 10
368.9239048301
 20
144.1771425887
 30
0.0
 40
3.2
 41
0.0
 46
0.0
 71
     1
 72
     1
  1
16,7
  7
SLDTEXTSTYLE0
 73
     1
 44
1.0
  0
ENDBLK
  5
24A
330
248
100
AcDbEntity
  8
0
100
AcDbBlockEnd
  0
BLOCK
  5
257
330
256
100
AcDbEntity
  8
0
100
AcDbBlockBegin
  2
_D_7
 70
     0
 10
0.0
 20
0.0
 30
0.0
  3
_D_7
  1

  0
SOLID
  5
259
330
256
100
AcDbEntity
  8
COTATION
100
AcDbTrace
 10
314.6209892915
 20
236.4117256651
 30
0.0
 11
317.9274438498
 21
234.4343358441
 31
0.0
 12
318.3620907849
 22
235.4914692518
 32
0.0
 13
318.3620907849
 23
235.4914692518
 33
0.0
  0
SOLID
  5
25A
330
256
100
AcDbEntity
  8
COTATION
100
AcDbTrace
 10
309.136307649
 20
238.6667864253
 30
0.0
 11
305.8298530907
 21
240.6441762462
 31
0.0
 12
305.3952061556
 22
239.5870428385
 32
0.0
 13
305.3952061556
 23
239.5870428385
 33
0.0
  0
LINE
  5
25B
330
256
100
AcDbEntity
  8
COTATION
100
AcDbLine
 10
314.6209892915
 20
236.4117256651
 30
0.0
 11
318.1355185561
 21
234.9667052333
 31
0.0
  0
LINE
  5
25C
330
256
100
AcDbEntity
  8
COTATION
100
AcDbLine
 10
309.136307649
 20
238.6667864253
 30
0.0
 11
272.1992431972
 21
253.8536887964
 31
0.0
  0
LINE
  5
25D
330
256
100
AcDbEntity
  8
COTATION
100
AcDbLine
 10
314.6209892915
 20
236.4117256651
 30
0.0
 11
309.136307649
 21
238.6667864253
 31
0.0
  0
LINE
  5
25E
330
256
100
AcDbEntity
  8
COTATION
100
AcDbLine
 10
272.1992431972
 20
253.8536887964
 30
0.0
 11
240.2250754986
 21
253.8536887964
 31
0.0
  0
MTEXT
  5
25F
330
256
100
AcDbEntity
  8
COTATION
100
AcDbMText
 10
247.8431865912
 20
263.1075951993
 30
0.0
 40
3.2
 41
0.0
 46
0.0
 71
     1
 72
     1
  1
4x
  7
SLDTEXTSTYLE0
 73
     1
 44
1.0
  0
MTEXT
  5
260
330
256
100
AcDbEntity
  8
COTATION
100
AcDbMText
 10
252.2565203126
 20
263.0587062939
 30
0.0
 40
3.2
 41
0.0
 46
0.0
 71
     1
 72
     1
  1
%%c
  7
SLDTEXTSTYLE0
 73
     1
 44
1.0
  0
MTEXT
  5
261
330
256
100
AcDbEntity
  8
COTATION
100
AcDbMText
 10
257.0825202729
 20
263.1075951993
 30
0.0
 40
3.2
 41
0.0
 46
0.0
 71
     1
 72
     1
  1
5,9
  7
SLDTEXTSTYLE0
 73
     1
 44
1.0
  0
MTEXT
  5
262
330
256
100
AcDbEntity
  8
COTATION
100
AcDbMText
 10
240.2250754986
 20
257.9787058547
 30
0.0
 40
3.2
 41
0.0
 46
0.0
 71
     1
 72
     1
  1
for cable entry
  7
SLDTEXTSTYLE0
 73
     1
 44
1.0
  0
ENDBLK
  5
258
330
256
100
AcDbEntity
  8
0
100
AcDbBlockEnd
  0
BLOCK
  5
265
330
264
100
AcDbEntity
  8
0
100
AcDbBlockBegin
  2
_D_8
 70
     0
 10
0.0
 20
0.0
 30
0.0
  3
_D_8
  1

  0
SOLID
  5
267
330
264
100
AcDbEntity
  8
COTATION
100
AcDbTrace
 10
389.750094781
 20
237.5392560452
 30
0.0
 11
389.178594781
 21
233.7292560452
 31
0.0
 12
390.321594781
 22
233.7292560452
 32
0.0
 13
390.321594781
 23
233.7292560452
 33
0.0
  0
SOLID
  5
268
330
264
100
AcDbEntity
  8
COTATION
100
AcDbTrace
 10
389.750094781
 20
176.5392560452
 30
0.0
 11
390.321594781
 21
180.3492560452
 31
0.0
 12
389.178594781
 22
180.3492560452
 32
0.0
 13
389.178594781
 23
180.3492560452
 33
0.0
  0
LINE
  5
269
330
264
100
AcDbEntity
  8
COTATION
100
AcDbLine
 10
317.3437383404
 20
237.5392560452
 30
0.0
 11
390.750094781
 21
237.5392560452
 31
0.0
  0
LINE
  5
26A
330
264
100
AcDbEntity
  8
COTATION
100
AcDbLine
 10
339.7097561576
 20
176.5392560452
 30
0.0
 11
390.750094781
 21
176.5392560452
 31
0.0
  0
LINE
  5
26B
330
264
100
AcDbEntity
  8
COTATION
100
AcDbLine
 10
389.750094781
 20
237.5392560452
 30
0.0
 11
389.750094781
 21
176.5392560452
 31
0.0
  0
MTEXT
  5
26C
330
264
100
AcDbEntity
  8
COTATION
100
AcDbMText
 10
385.6250781884
 20
202.0881450042
 30
0.0
 40
3.2
 41
0.0
 46
0.0
 71
     1
 72
     1
  1
=
  7
SLDTEXTSTYLE0
 11
-7.044195017643634E-15
 21
1.0
 31
0.0
 73
     1
 44
1.0
  0
MTEXT
  5
26D
330
264
100
AcDbEntity
  8
COTATION
100
AcDbMText
 10
385.6250781884
 20
204.6748117316
 30
0.0
 40
3.2
 41
0.0
 46
0.0
 71
     1
 72
     1
  1
61
  7
SLDTEXTSTYLE0
 11
-7.044195017643634E-15
 21
1.0
 31
0.0
 73
     1
 44
1.0
  0
MTEXT
  5
26E
330
264
100
AcDbEntity
  8
COTATION
100
AcDbMText
 10
385.6250781884
 20
209.4037005916
 30
0.0
 40
3.2
 41
0.0
 46
0.0
 71
     1
 72
     1
  1
=
  7
SLDTEXTSTYLE0
 11
-7.044195017643634E-15
 21
1.0
 31
0.0
 73
     1
 44
1.0
  0
ENDBLK
  5
266
330
264
100
AcDbEntity
  8
0
100
AcDbBlockEnd
  0
BLOCK
  5
271
330
270
100
AcDbEntity
  8
0
100
AcDbBlockBegin
  2
_D_9
 70
     0
 10
0.0
 20
0.0
 30
0.0
  3
_D_9
  1

  0
SOLID
  5
273
330
270
100
AcDbEntity
  8
COTATION
100
AcDbTrace
 10
311.8786484702
 20
149.9604101293
 30
0.0
 11
315.6886484702
 21
149.3889101293
 31
0.0
 12
315.6886484702
 22
150.5319101293
 32
0.0
 13
315.6886484702
 23
150.5319101293
 33
0.0
  0
SOLID
  5
274
330
270
100
AcDbEntity
  8
COTATION
100
AcDbTrace
 10
334.2446662874
 20
149.9604101293
 30
0.0
 11
330.4346662874
 21
150.5319101293
 31
0.0
 12
330.4346662874
 22
149.3889101293
 32
0.0
 13
330.4346662874
 23
149.3889101293
 33
0.0
  0
LINE
  5
275
330
270
100
AcDbEntity
  8
COTATION
100
AcDbLine
 10
311.8786484702
 20
232.074166175
 30
0.0
 11
311.8786484702
 21
148.9604101293
 31
0.0
  0
LINE
  5
276
330
270
100
AcDbEntity
  8
COTATION
100
AcDbLine
 10
334.2446662874
 20
171.074166175
 30
0.0
 11
334.2446662874
 21
148.9604101293
 31
0.0
  0
LINE
  5
277
330
270
100
AcDbEntity
  8
COTATION
100
AcDbLine
 10
311.8786484702
 20
149.9604101293
 30
0.0
 11
334.2446662874
 21
149.9604101293
 31
0.0
  0
MTEXT
  5
278
330
270
100
AcDbEntity
  8
COTATION
100
AcDbMText
 10
316.3372126952
 20
154.0854267219
 30
0.0
 40
3.2
 41
0.0
 46
0.0
 71
     1
 72
     1
  1
=
  7
SLDTEXTSTYLE0
 73
     1
 44
1.0
  0
MTEXT
  5
279
330
270
100
AcDbEntity
  8
COTATION
100
AcDbMText
 10
318.9238794226
 20
154.0854267219
 30
0.0
 40
3.2
 41
0.0
 46
0.0
 71
     1
 72
     1
  1
22,4
  7
SLDTEXTSTYLE0
 73
     1
 44
1.0
  0
MTEXT
  5
27A
330
270
100
AcDbEntity
  8
COTATION
100
AcDbMText
 10
327.1994355679
 20
154.0854267219
 30
0.0
 40
3.2
 41
0.0
 46
0.0
 71
     1
 72
     1
  1
=
  7
SLDTEXTSTYLE0
 73
     1
 44
1.0
  0
ENDBLK
  5
272
330
270
100
AcDbEntity
  8
0
100
AcDbBlockEnd
  0
BLOCK
  5
27D
330
27C
100
AcDbEntity
  8
0
100
AcDbBlockBegin
  2
_D_10
 70
     0
 10
0.0
 20
0.0
 30
0.0
  3
_D_10
  1

  0
ARC
  5
27F
330
27C
100
AcDbEntity
  8
COTATION
100
AcDbCircle
 10
374.0039048618
 20
152.5004101452
 30
0.0
 40
5.679612698335251
100
AcDbArc
 50
153.4349488229
 51
206.5650511771
  0
ARC
  5
280
330
27C
100
AcDbEntity
  8
COTATION
100
AcDbCircle
 10
372.1194602451
 20
152.5004101452
 30
0.0
 40
5.679612698335301
100
AcDbArc
 50
333.4349488229
 51
26.5650511771
  0
SOLID
  5
281
330
27C
100
AcDbEntity
  8
COTATION
100
AcDbTrace
 10
334.2446662874
 20
149.9604101293
 30
0.0
 11
338.0546662874
 21
149.3889101293
 31
0.0
 12
338.0546662874
 22
150.5319101293
 32
0.0
 13
338.0546662874
 23
150.5319101293
 33
0.0
  0
SOLID
  5
282
330
27C
100
AcDbEntity
  8
COTATION
100
AcDbTrace
 10
363.0616573788
 20
149.9604101293
 30
0.0
 11
359.2516573788
 21
150.5319101293
 31
0.0
 12
359.2516573788
 22
149.3889101293
 32
0.0
 13
359.2516573788
 23
149.3889101293
 33
0.0
  0
LINE
  5
283
330
27C
100
AcDbEntity
  8
COTATION
100
AcDbLine
 10
334.2446662874
 20
171.074166175
 30
0.0
 11
334.2446662874
 21
148.9604101293
 31
0.0
  0
LINE
  5
284
330
27C
100
AcDbEntity
  8
COTATION
100
AcDbLine
 10
363.0616573788
 20
177.0392560452
 30
0.0
 11
363.0616573788
 21
148.9604101293
 31
0.0
  0
LINE
  5
285
330
27C
100
AcDbEntity
  8
COTATION
100
AcDbLine
 10
334.2446662874
 20
149.9604101293
 30
0.0
 11
363.0616573788
 21
149.9604101293
 31
0.0
  0
LINE
  5
286
330
27C
100
AcDbEntity
  8
COTATION
100
AcDbLine
 10
363.0616573788
 20
149.9604101293
 30
0.0
 11
377.7990725841
 21
149.9604101293
 31
0.0
  0
MTEXT
  5
287
330
27C
100
AcDbEntity
  8
COTATION
100
AcDbMText
 10
368.9239048301
 20
154.0854267219
 30
0.0
 40
3.2
 41
0.0
 46
0.0
 71
     1
 72
     1
  1
28,8
  7
SLDTEXTSTYLE0
 73
     1
 44
1.0
  0
ENDBLK
  5
27E
330
27C
100
AcDbEntity
  8
0
100
AcDbBlockEnd
  0
BLOCK
  5
28A
330
289
100
AcDbEntity
  8
0
100
AcDbBlockBegin
  2
_D_11
 70
     0
 10
0.0
 20
0.0
 30
0.0
  3
_D_11
  1

  0
ARC
  5
28C
330
289
100
AcDbEntity
  8
COTATION
100
AcDbCircle
 10
387.2100947652
 20
162.5905186788
 30
0.0
 40
5.679612698335301
100
AcDbArc
 50
243.4349488229
 51
296.5650511771
  0
ARC
  5
28D
330
289
100
AcDbEntity
  8
COTATION
100
AcDbCircle
 10
387.2100947652
 20
158.3416299813
 30
0.0
 40
5.679612698335275
100
AcDbArc
 50
63.4349488229
 51
116.5650511771
  0
SOLID
  5
28E
330
289
100
AcDbEntity
  8
COTATION
100
AcDbTrace
 10
389.750094781
 20
176.5392560452
 30
0.0
 11
389.178594781
 21
172.7292560452
 31
0.0
 12
390.321594781
 22
172.7292560452
 32
0.0
 13
390.321594781
 23
172.7292560452
 33
0.0
  0
SOLID
  5
28F
330
289
100
AcDbEntity
  8
COTATION
100
AcDbTrace
 10
389.750094781
 20
167.0392560452
 30
0.0
 11
390.321594781
 21
170.8492560452
 31
0.0
 12
389.178594781
 22
170.8492560452
 32
0.0
 13
389.178594781
 23
170.8492560452
 33
0.0
  0
LINE
  5
290
330
289
100
AcDbEntity
  8
COTATION
100
AcDbLine
 10
339.7097561576
 20
176.5392560452
 30
0.0
 11
390.750094781
 21
176.5392560452
 31
0.0
  0
LINE
  5
291
330
289
100
AcDbEntity
  8
COTATION
100
AcDbLine
 10
353.0616573788
 20
167.0392560452
 30
0.0
 11
390.750094781
 21
167.0392560452
 31
0.0
  0
LINE
  5
292
330
289
100
AcDbEntity
  8
COTATION
100
AcDbLine
 10
389.750094781
 20
176.5392560452
 30
0.0
 11
389.750094781
 21
167.0392560452
 31
0.0
  0
LINE
  5
293
330
289
100
AcDbEntity
  8
COTATION
100
AcDbLine
 10
389.750094781
 20
167.0392560452
 30
0.0
 11
389.750094781
 21
156.9109059905
 31
0.0
  0
MTEXT
  5
294
330
289
100
AcDbEntity
  8
COTATION
100
AcDbMText
 10
385.6250781884
 20
157.510518647
 30
0.0
 40
3.2
 41
0.0
 46
0.0
 71
     1
 72
     1
  1
9,5
  7
SLDTEXTSTYLE0
 11
-3.491481338843133E-15
 21
1.0
 31
0.0
 73
     1
 44
1.0
  0
ENDBLK
  5
28B
330
289
100
AcDbEntity
  8
0
100
AcDbBlockEnd
  0
BLOCK
  5
297
330
296
100
AcDbEntity
  8
0
100
AcDbBlockBegin
  2
_D_12
 70
     0
 10
0.0
 20
0.0
 30
0.0
  3
_D_12
  1

  0
SOLID
  5
299
330
296
100
AcDbEntity
  8
COTATION
100
AcDbTrace
 10
292.5616573788
 20
128.8721904998
 30
0.0
 11
296.3716573788
 21
128.3006904998
 31
0.0
 12
296.3716573788
 22
129.4436904998
 32
0.0
 13
296.3716573788
 23
129.4436904998
 33
0.0
  0
SOLID
  5
29A
330
296
100
AcDbEntity
  8
COTATION
100
AcDbTrace
 10
353.5616573788
 20
128.8721904998
 30
0.0
 11
349.7516573788
 21
129.4436904998
 31
0.0
 12
349.7516573788
 22
128.3006904998
 32
0.0
 13
349.7516573788
 23
128.3006904998
 33
0.0
  0
LINE
  5
29B
330
296
100
AcDbEntity
  8
COTATION
100
AcDbLine
 10
292.5616573788
 20
190.3911572664
 30
0.0
 11
292.5616573788
 21
127.8721904998
 31
0.0
  0
LINE
  5
29C
330
296
100
AcDbEntity
  8
COTATION
100
AcDbLine
 10
353.5616573788
 20
212.7571750836
 30
0.0
 11
353.5616573788
 21
127.8721904998
 31
0.0
  0
LINE
  5
29D
330
296
100
AcDbEntity
  8
COTATION
100
AcDbLine
 10
292.5616573788
 20
128.8721904998
 30
0.0
 11
353.5616573788
 21
128.8721904998
 31
0.0
  0
MTEXT
  5
29E
330
296
100
AcDbEntity
  8
COTATION
100
AcDbMText
 10
318.1105463378
 20
132.9972070925
 30
0.0
 40
3.2
 41
0.0
 46
0.0
 71
     1
 72
     1
  1
=
  7
SLDTEXTSTYLE0
 73
     1
 44
1.0
  0
MTEXT
  5
29F
330
296
100
AcDbEntity
  8
COTATION
100
AcDbMText
 10
320.6972130653
 20
132.9972070925
 30
0.0
 40
3.2
 41
0.0
 46
0.0
 71
     1
 72
     1
  1
61
  7
SLDTEXTSTYLE0
 73
     1
 44
1.0
  0
MTEXT
  5
2A0
330
296
100
AcDbEntity
  8
COTATION
100
AcDbMText
 10
325.4261019252
 20
132.9972070925
 30
0.0
 40
3.2
 41
0.0
 46
0.0
 71
     1
 72
     1
  1
=
  7
SLDTEXTSTYLE0
 73
     1
 44
1.0
  0
ENDBLK
  5
298
330
296
100
AcDbEntity
  8
0
100
AcDbBlockEnd
  0
BLOCK
  5
2A3
330
2A2
100
AcDbEntity
  8
0
100
AcDbBlockBegin
  2
_D_13
 70
     0
 10
0.0
 20
0.0
 30
0.0
  3
_D_13
  1

  0
SOLID
  5
2A5
330
2A2
100
AcDbEntity
  8
COTATION
100
AcDbTrace
 10
267.0977577838
 20
218.2222649538
 30
0.0
 11
266.5262577838
 21
214.4122649538
 31
0.0
 12
267.6692577838
 22
214.4122649538
 32
0.0
 13
267.6692577838
 23
214.4122649538
 33
0.0
  0
SOLID
  5
2A6
330
2A2
100
AcDbEntity
  8
COTATION
100
AcDbTrace
 10
267.0977577838
 20
195.8562471366
 30
0.0
 11
267.6692577838
 21
199.6662471366
 31
0.0
 12
266.5262577838
 22
199.6662471366
 32
0.0
 13
266.5262577838
 23
199.6662471366
 33
0.0
  0
LINE
  5
2A7
330
2A2
100
AcDbEntity
  8
COTATION
100
AcDbLine
 10
348.0965675087
 20
218.2222649538
 30
0.0
 11
266.0977577838
 21
218.2222649538
 31
0.0
  0
LINE
  5
2A8
330
2A2
100
AcDbEntity
  8
COTATION
100
AcDbLine
 10
287.0965675087
 20
195.8562471366
 30
0.0
 11
266.0977577838
 21
195.8562471366
 31
0.0
  0
LINE
  5
2A9
330
2A2
100
AcDbEntity
  8
COTATION
100
AcDbLine
 10
267.0977577838
 20
218.2222649538
 30
0.0
 11
267.0977577838
 21
195.8562471366
 31
0.0
  0
MTEXT
  5
2AA
330
2A2
100
AcDbEntity
  8
COTATION
100
AcDbMText
 10
262.9727411911
 20
200.3148113615
 30
0.0
 40
3.2
 41
0.0
 46
0.0
 71
     1
 72
     1
  1
=
  7
SLDTEXTSTYLE0
 11
-7.044195017643634E-15
 21
1.0
 31
0.0
 73
     1
 44
1.0
  0
MTEXT
  5
2AB
330
2A2
100
AcDbEntity
  8
COTATION
100
AcDbMText
 10
262.9727411911
 20
202.901478089
 30
0.0
 40
3.2
 41
0.0
 46
0.0
 71
     1
 72
     1
  1
22,4
  7
SLDTEXTSTYLE0
 11
-7.044195017643634E-15
 21
1.0
 31
0.0
 73
     1
 44
1.0
  0
MTEXT
  5
2AC
330
2A2
100
AcDbEntity
  8
COTATION
100
AcDbMText
 10
262.9727411911
 20
211.1770342342
 30
0.0
 40
3.2
 41
0.0
 46
0.0
 71
     1
 72
     1
  1
=
  7
SLDTEXTSTYLE0
 11
-7.044195017643634E-15
 21
1.0
 31
0.0
 73
     1
 44
1.0
  0
ENDBLK
  5
2A4
330
2A2
100
AcDbEntity
  8
0
100
AcDbBlockEnd
  0
BLOCK
  5
2AF
330
2AE
100
AcDbEntity
  8
0
100
AcDbBlockBegin
  2
_D_14
 70
     0
 10
0.0
 20
0.0
 30
0.0
  3
_D_14
  1

  0
ARC
  5
2B1
330
2AE
100
AcDbEntity
  8
COTATION
100
AcDbCircle
 10
264.5577577679
 20
149.7204103391
 30
0.0
 40
5.679612698335301
100
AcDbArc
 50
243.4349488229
 51
296.5650511771
  0
ARC
  5
2B2
330
2AE
100
AcDbEntity
  8
COTATION
100
AcDbCircle
 10
264.5577577679
 20
150.2004102688
 30
0.0
 40
5.679612698335275
100
AcDbArc
 50
63.4349488229
 51
116.5650511771
  0
SOLID
  5
2B3
330
2AE
100
AcDbEntity
  8
COTATION
100
AcDbTrace
 10
267.0977577838
 20
195.8562471366
 30
0.0
 11
266.5262577838
 21
192.0462471366
 31
0.0
 12
267.6692577838
 22
192.0462471366
 32
0.0
 13
267.6692577838
 23
192.0462471366
 33
0.0
  0
SOLID
  5
2B4
330
2AE
100
AcDbEntity
  8
COTATION
100
AcDbTrace
 10
267.0977577838
 20
167.0392560452
 30
0.0
 11
267.6692577838
 21
170.8492560452
 31
0.0
 12
266.5262577838
 22
170.8492560452
 32
0.0
 13
266.5262577838
 23
170.8492560452
 33
0.0
  0
LINE
  5
2B5
330
2AE
100
AcDbEntity
  8
COTATION
100
AcDbLine
 10
287.0965675087
 20
195.8562471366
 30
0.0
 11
266.0977577838
 21
195.8562471366
 31
0.0
  0
LINE
  5
2B6
330
2AE
100
AcDbEntity
  8
COTATION
100
AcDbLine
 10
293.0616573788
 20
167.0392560452
 30
0.0
 11
266.0977577838
 21
167.0392560452
 31
0.0
  0
LINE
  5
2B7
330
2AE
100
AcDbEntity
  8
COTATION
100
AcDbLine
 10
267.0977577838
 20
195.8562471366
 30
0.0
 11
267.0977577838
 21
167.0392560452
 31
0.0
  0
LINE
  5
2B8
330
2AE
100
AcDbEntity
  8
COTATION
100
AcDbLine
 10
267.0977577838
 20
167.0392560452
 30
0.0
 11
267.0977577838
 21
144.0407976508
 31
0.0
  0
MTEXT
  5
2B9
330
2AE
100
AcDbEntity
  8
COTATION
100
AcDbMText
 10
262.9727411911
 20
144.6404103074
 30
0.0
 40
3.2
 41
0.0
 46
0.0
 71
     1
 72
     1
  1
28,82
  7
SLDTEXTSTYLE0
 11
-3.491481338843133E-15
 21
1.0
 31
0.0
 73
     1
 44
1.0
  0
ENDBLK
  5
2B0
330
2AE
100
AcDbEntity
  8
0
100
AcDbBlockEnd
  0
BLOCK
  5
2BC
330
2BB
100
AcDbEntity
  8
0
100
AcDbBlockBegin
  2
_D_15
 70
     0
 10
0.0
 20
0.0
 30
0.0
  3
_D_15
  1

  0
ARC
  5
2BE
330
2BB
100
AcDbEntity
  8
COTATION
100
AcDbCircle
 10
376.8530409668
 20
131.4121905157
 30
0.0
 40
5.679612698335251
100
AcDbArc
 50
153.4349488229
 51
206.5650511771
  0
ARC
  5
2BF
330
2BB
100
AcDbEntity
  8
COTATION
100
AcDbCircle
 10
372.6041522694
 20
131.4121905157
 30
0.0
 40
5.679612698335301
100
AcDbArc
 50
333.4349488229
 51
26.5650511771
  0
SOLID
  5
2C0
330
2BB
100
AcDbEntity
  8
COTATION
100
AcDbTrace
 10
353.5616573788
 20
128.8721904998
 30
0.0
 11
357.3716573788
 21
128.3006904998
 31
0.0
 12
357.3716573788
 22
129.4436904998
 32
0.0
 13
357.3716573788
 23
129.4436904998
 33
0.0
  0
SOLID
  5
2C1
330
2BB
100
AcDbEntity
  8
COTATION
100
AcDbTrace
 10
363.0616573788
 20
128.8721904998
 30
0.0
 11
359.2516573788
 21
129.4436904998
 31
0.0
 12
359.2516573788
 22
128.3006904998
 32
0.0
 13
359.2516573788
 23
128.3006904998
 33
0.0
  0
LINE
  5
2C2
330
2BB
100
AcDbEntity
  8
COTATION
100
AcDbLine
 10
353.5616573788
 20
212.7571750836
 30
0.0
 11
353.5616573788
 21
127.8721904998
 31
0.0
  0
LINE
  5
2C3
330
2BB
100
AcDbEntity
  8
COTATION
100
AcDbLine
 10
363.0616573788
 20
177.0392560452
 30
0.0
 11
363.0616573788
 21
127.8721904998
 31
0.0
  0
LINE
  5
2C4
330
2BB
100
AcDbEntity
  8
COTATION
100
AcDbLine
 10
353.5616573788
 20
128.8721904998
 30
0.0
 11
363.0616573788
 21
128.8721904998
 31
0.0
  0
LINE
  5
2C5
330
2BB
100
AcDbEntity
  8
COTATION
100
AcDbLine
 10
363.0616573788
 20
128.8721904998
 30
0.0
 11
378.283765074
 21
128.8721904998
 31
0.0
  0
MTEXT
  5
2C6
330
2BB
100
AcDbEntity
  8
COTATION
100
AcDbMText
 10
371.7730409351
 20
132.9972070925
 30
0.0
 40
3.2
 41
0.0
 46
0.0
 71
     1
 72
     1
  1
9,5
  7
SLDTEXTSTYLE0
 73
     1
 44
1.0
  0
ENDBLK
  5
2BD
330
2BB
100
AcDbEntity
  8
0
100
AcDbBlockEnd
  0
BLOCK
  5
2C8
330
2C7
100
AcDbEntity
  8
0
100
AcDbBlockBegin
  2
SW_CENTERMARKSYMBOL_0
 70
     0
 10
0.0
 20
0.0
 30
0.0
  3
SW_CENTERMARKSYMBOL_0
  1

  0
LINE
  5
2CA
330
2C7
100
AcDbEntity
  8
COTATION
 62
     0
100
AcDbLine
 10
0.0
 20
0.0
 30
0.0
 11
0.0
 21
2.5
 31
0.0
  0
LINE
  5
2CB
330
2C7
100
AcDbEntity
  8
COTATION
 62
     0
100
AcDbLine
 10
0.0
 20
0.0
 30
0.0
 11
-2.5
 21
0.0
 31
0.0
  0
LINE
  5
2CC
330
2C7
100
AcDbEntity
  8
COTATION
 62
     0
100
AcDbLine
 10
0.0
 20
0.0
 30
0.0
 11
0.0
 21
-2.5
 31
0.0
  0
LINE
  5
2CD
330
2C7
100
AcDbEntity
  8
COTATION
 62
     0
100
AcDbLine
 10
0.0
 20
0.0
 30
0.0
 11
2.5
 21
0.0
 31
0.0
  0
LINE
  5
2CE
330
2C7
100
AcDbEntity
  8
COTATION
 62
     0
100
AcDbLine
 10
0.0
 20
2.5
 30
0.0
 11
0.0
 21
4.4650898701
 31
0.0
  0
LINE
  5
2CF
330
2C7
100
AcDbEntity
  8
COTATION
 62
     0
100
AcDbLine
 10
-2.5
 20
0.0
 30
0.0
 11
-4.4650898701
 21
0.0
 31
0.0
  0
LINE
  5
2D0
330
2C7
100
AcDbEntity
  8
COTATION
 62
     0
100
AcDbLine
 10
0.0
 20
-2.5
 30
0.0
 11
0.0
 21
-4.4650898701
 31
0.0
  0
LINE
  5
2D1
330
2C7
100
AcDbEntity
  8
COTATION
 62
     0
100
AcDbLine
 10
2.5
 20
0.0
 30
0.0
 11
4.4650898701
 21
0.0
 31
0.0
  0
ENDBLK
  5
2C9
330
2C7
100
AcDbEntity
  8
0
100
AcDbBlockEnd
  0
BLOCK
  5
2D4
330
2D3
100
AcDbEntity
  8
0
100
AcDbBlockBegin
  2
SW_CENTERMARKSYMBOL_1
 70
     0
 10
0.0
 20
0.0
 30
0.0
  3
SW_CENTERMARKSYMBOL_1
  1

  0
LINE
  5
2D6
330
2D3
100
AcDbEntity
  8
COTATION
 62
     0
100
AcDbLine
 10
0.0
 20
0.0
 30
0.0
 11
0.0
 21
2.5
 31
0.0
  0
LINE
  5
2D7
330
2D3
100
AcDbEntity
  8
COTATION
 62
     0
100
AcDbLine
 10
0.0
 20
0.0
 30
0.0
 11
-2.5
 21
0.0
 31
0.0
  0
LINE
  5
2D8
330
2D3
100
AcDbEntity
  8
COTATION
 62
     0
100
AcDbLine
 10
0.0
 20
0.0
 30
0.0
 11
0.0
 21
-2.5
 31
0.0
  0
LINE
  5
2D9
330
2D3
100
AcDbEntity
  8
COTATION
 62
     0
100
AcDbLine
 10
0.0
 20
0.0
 30
0.0
 11
2.5
 21
0.0
 31
0.0
  0
LINE
  5
2DA
330
2D3
100
AcDbEntity
  8
COTATION
 62
     0
100
AcDbLine
 10
0.0
 20
2.5
 30
0.0
 11
0.0
 21
4.4650898701
 31
0.0
  0
LINE
  5
2DB
330
2D3
100
AcDbEntity
  8
COTATION
 62
     0
100
AcDbLine
 10
-2.5
 20
0.0
 30
0.0
 11
-4.4650898701
 21
0.0
 31
0.0
  0
LINE
  5
2DC
330
2D3
100
AcDbEntity
  8
COTATION
 62
     0
100
AcDbLine
 10
0.0
 20
-2.5
 30
0.0
 11
0.0
 21
-4.4650898701
 31
0.0
  0
LINE
  5
2DD
330
2D3
100
AcDbEntity
  8
COTATION
 62
     0
100
AcDbLine
 10
2.5
 20
0.0
 30
0.0
 11
4.4650898701
 21
0.0
 31
0.0
  0
ENDBLK
  5
2D5
330
2D3
100
AcDbEntity
  8
0
100
AcDbBlockEnd
  0
BLOCK
  5
2E0
330
2DF
100
AcDbEntity
  8
0
100
AcDbBlockBegin
  2
SW_CENTERMARKSYMBOL_2
 70
     0
 10
0.0
 20
0.0
 30
0.0
  3
SW_CENTERMARKSYMBOL_2
  1

  0
LINE
  5
2E2
330
2DF
100
AcDbEntity
  8
COTATION
 62
     0
100
AcDbLine
 10
0.0
 20
0.0
 30
0.0
 11
0.0
 21
2.5
 31
0.0
  0
LINE
  5
2E3
330
2DF
100
AcDbEntity
  8
COTATION
 62
     0
100
AcDbLine
 10
0.0
 20
0.0
 30
0.0
 11
-2.5
 21
0.0
 31
0.0
  0
LINE
  5
2E4
330
2DF
100
AcDbEntity
  8
COTATION
 62
     0
100
AcDbLine
 10
0.0
 20
0.0
 30
0.0
 11
0.0
 21
-2.5
 31
0.0
  0
LINE
  5
2E5
330
2DF
100
AcDbEntity
  8
COTATION
 62
     0
100
AcDbLine
 10
0.0
 20
0.0
 30
0.0
 11
2.5
 21
0.0
 31
0.0
  0
LINE
  5
2E6
330
2DF
100
AcDbEntity
  8
COTATION
 62
     0
100
AcDbLine
 10
0.0
 20
2.5
 30
0.0
 11
0.0
 21
4.4650898701
 31
0.0
  0
LINE
  5
2E7
330
2DF
100
AcDbEntity
  8
COTATION
 62
     0
100
AcDbLine
 10
-2.5
 20
0.0
 30
0.0
 11
-4.4650898701
 21
0.0
 31
0.0
  0
LINE
  5
2E8
330
2DF
100
AcDbEntity
  8
COTATION
 62
     0
100
AcDbLine
 10
0.0
 20
-2.5
 30
0.0
 11
0.0
 21
-4.4650898701
 31
0.0
  0
LINE
  5
2E9
330
2DF
100
AcDbEntity
  8
COTATION
 62
     0
100
AcDbLine
 10
2.5
 20
0.0
 30
0.0
 11
4.4650898701
 21
0.0
 31
0.0
  0
ENDBLK
  5
2E1
330
2DF
100
AcDbEntity
  8
0
100
AcDbBlockEnd
  0
BLOCK
  5
2EC
330
2EB
100
AcDbEntity
  8
0
100
AcDbBlockBegin
  2
SW_CENTERMARKSYMBOL_3
 70
     0
 10
0.0
 20
0.0
 30
0.0
  3
SW_CENTERMARKSYMBOL_3
  1

  0
LINE
  5
2EE
330
2EB
100
AcDbEntity
  8
COTATION
 62
     0
100
AcDbLine
 10
0.0
 20
0.0
 30
0.0
 11
0.0
 21
2.5
 31
0.0
  0
LINE
  5
2EF
330
2EB
100
AcDbEntity
  8
COTATION
 62
     0
100
AcDbLine
 10
0.0
 20
0.0
 30
0.0
 11
-2.5
 21
0.0
 31
0.0
  0
LINE
  5
2F0
330
2EB
100
AcDbEntity
  8
COTATION
 62
     0
100
AcDbLine
 10
0.0
 20
0.0
 30
0.0
 11
0.0
 21
-2.5
 31
0.0
  0
LINE
  5
2F1
330
2EB
100
AcDbEntity
  8
COTATION
 62
     0
100
AcDbLine
 10
0.0
 20
0.0
 30
0.0
 11
2.5
 21
0.0
 31
0.0
  0
LINE
  5
2F2
330
2EB
100
AcDbEntity
  8
COTATION
 62
     0
100
AcDbLine
 10
0.0
 20
2.5
 30
0.0
 11
0.0
 21
4.4650898701
 31
0.0
  0
LINE
  5
2F3
330
2EB
100
AcDbEntity
  8
COTATION
 62
     0
100
AcDbLine
 10
-2.5
 20
0.0
 30
0.0
 11
-4.4650898701
 21
0.0
 31
0.0
  0
LINE
  5
2F4
330
2EB
100
AcDbEntity
  8
COTATION
 62
     0
100
AcDbLine
 10
0.0
 20
-2.5
 30
0.0
 11
0.0
 21
-4.4650898701
 31
0.0
  0
LINE
  5
2F5
330
2EB
100
AcDbEntity
  8
COTATION
 62
     0
100
AcDbLine
 10
2.5
 20
0.0
 30
0.0
 11
4.4650898701
 21
0.0
 31
0.0
  0
ENDBLK
  5
2ED
330
2EB
100
AcDbEntity
  8
0
100
AcDbBlockEnd
  0
BLOCK
  5
2F8
330
2F7
100
AcDbEntity
  8
0
100
AcDbBlockBegin
  2
SW_CENTERMARKSYMBOL_4
 70
     0
 10
0.0
 20
0.0
 30
0.0
  3
SW_CENTERMARKSYMBOL_4
  1

  0
LINE
  5
2FA
330
2F7
100
AcDbEntity
  8
COTATION
 62
     0
100
AcDbLine
 10
0.0
 20
0.0
 30
0.0
 11
0.0
 21
2.5
 31
0.0
  0
LINE
  5
2FB
330
2F7
100
AcDbEntity
  8
COTATION
 62
     0
100
AcDbLine
 10
0.0
 20
0.0
 30
0.0
 11
-2.5
 21
0.0
 31
0.0
  0
LINE
  5
2FC
330
2F7
100
AcDbEntity
  8
COTATION
 62
     0
100
AcDbLine
 10
0.0
 20
0.0
 30
0.0
 11
0.0
 21
-2.5
 31
0.0
  0
LINE
  5
2FD
330
2F7
100
AcDbEntity
  8
COTATION
 62
     0
100
AcDbLine
 10
0.0
 20
0.0
 30
0.0
 11
2.5
 21
0.0
 31
0.0
  0
LINE
  5
2FE
330
2F7
100
AcDbEntity
  8
COTATION
 62
     0
100
AcDbLine
 10
0.0
 20
5.0
 30
0.0
 11
0.0
 21
5.4650898701
 31
0.0
  0
LINE
  5
2FF
330
2F7
100
AcDbEntity
  8
COTATION
 62
     0
100
AcDbLine
 10
-5.0
 20
0.0
 30
0.0
 11
-5.4650898701
 21
0.0
 31
0.0
  0
LINE
  5
300
330
2F7
100
AcDbEntity
  8
COTATION
 62
     0
100
AcDbLine
 10
0.0
 20
-5.0
 30
0.0
 11
0.0
 21
-5.4650898701
 31
0.0
  0
LINE
  5
301
330
2F7
100
AcDbEntity
  8
COTATION
 62
     0
100
AcDbLine
 10
5.0
 20
0.0
 30
0.0
 11
5.4650898701
 21
0.0
 31
0.0
  0
ENDBLK
  5
2F9
330
2F7
100
AcDbEntity
  8
0
100
AcDbBlockEnd
  0
BLOCK
  5
304
330
303
100
AcDbEntity
  8
0
100
AcDbBlockBegin
  2
SW_CENTERMARKSYMBOL_5
 70
     0
 10
0.0
 20
0.0
 30
0.0
  3
SW_CENTERMARKSYMBOL_5
  1

  0
LINE
  5
306
330
303
100
AcDbEntity
  8
COTATION
 62
     0
100
AcDbLine
 10
0.0
 20
0.0
 30
0.0
 11
0.0
 21
2.5
 31
0.0
  0
LINE
  5
307
330
303
100
AcDbEntity
  8
COTATION
 62
     0
100
AcDbLine
 10
0.0
 20
0.0
 30
0.0
 11
-2.5
 21
0.0
 31
0.0
  0
LINE
  5
308
330
303
100
AcDbEntity
  8
COTATION
 62
     0
100
AcDbLine
 10
0.0
 20
0.0
 30
0.0
 11
0.0
 21
-2.5
 31
0.0
  0
LINE
  5
309
330
303
100
AcDbEntity
  8
COTATION
 62
     0
100
AcDbLine
 10
0.0
 20
0.0
 30
0.0
 11
2.5
 21
0.0
 31
0.0
  0
LINE
  5
30A
330
303
100
AcDbEntity
  8
COTATION
 62
     0
100
AcDbLine
 10
0.0
 20
5.0
 30
0.0
 11
0.0
 21
5.4650898701
 31
0.0
  0
LINE
  5
30B
330
303
100
AcDbEntity
  8
COTATION
 62
     0
100
AcDbLine
 10
-5.0
 20
0.0
 30
0.0
 11
-5.4650898701
 21
0.0
 31
0.0
  0
LINE
  5
30C
330
303
100
AcDbEntity
  8
COTATION
 62
     0
100
AcDbLine
 10
0.0
 20
-5.0
 30
0.0
 11
0.0
 21
-5.4650898701
 31
0.0
  0
LINE
  5
30D
330
303
100
AcDbEntity
  8
COTATION
 62
     0
100
AcDbLine
 10
5.0
 20
0.0
 30
0.0
 11
5.4650898701
 21
0.0
 31
0.0
  0
ENDBLK
  5
305
330
303
100
AcDbEntity
  8
0
100
AcDbBlockEnd
  0
BLOCK
  5
310
330
30F
100
AcDbEntity
  8
0
100
AcDbBlockBegin
  2
SW_CENTERMARKSYMBOL_6
 70
     0
 10
0.0
 20
0.0
 30
0.0
  3
SW_CENTERMARKSYMBOL_6
  1

  0
LINE
  5
312
330
30F
100
AcDbEntity
  8
COTATION
 62
     0
100
AcDbLine
 10
0.0
 20
0.0
 30
0.0
 11
0.0
 21
2.5
 31
0.0
  0
LINE
  5
313
330
30F
100
AcDbEntity
  8
COTATION
 62
     0
100
AcDbLine
 10
0.0
 20
0.0
 30
0.0
 11
-2.5
 21
0.0
 31
0.0
  0
LINE
  5
314
330
30F
100
AcDbEntity
  8
COTATION
 62
     0
100
AcDbLine
 10
0.0
 20
0.0
 30
0.0
 11
0.0
 21
-2.5
 31
0.0
  0
LINE
  5
315
330
30F
100
AcDbEntity
  8
COTATION
 62
     0
100
AcDbLine
 10
0.0
 20
0.0
 30
0.0
 11
2.5
 21
0.0
 31
0.0
  0
LINE
  5
316
330
30F
100
AcDbEntity
  8
COTATION
 62
     0
100
AcDbLine
 10
0.0
 20
5.0
 30
0.0
 11
0.0
 21
5.4650898701
 31
0.0
  0
LINE
  5
317
330
30F
100
AcDbEntity
  8
COTATION
 62
     0
100
AcDbLine
 10
-5.0
 20
0.0
 30
0.0
 11
-5.4650898701
 21
0.0
 31
0.0
  0
LINE
  5
318
330
30F
100
AcDbEntity
  8
COTATION
 62
     0
100
AcDbLine
 10
0.0
 20
-5.0
 30
0.0
 11
0.0
 21
-5.4650898701
 31
0.0
  0
LINE
  5
319
330
30F
100
AcDbEntity
  8
COTATION
 62
     0
100
AcDbLine
 10
5.0
 20
0.0
 30
0.0
 11
5.4650898701
 21
0.0
 31
0.0
  0
ENDBLK
  5
311
330
30F
100
AcDbEntity
  8
0
100
AcDbBlockEnd
  0
BLOCK
  5
31C
330
31B
100
AcDbEntity
  8
0
100
AcDbBlockBegin
  2
SW_CENTERMARKSYMBOL_7
 70
     0
 10
0.0
 20
0.0
 30
0.0
  3
SW_CENTERMARKSYMBOL_7
  1

  0
LINE
  5
31E
330
31B
100
AcDbEntity
  8
COTATION
 62
     0
100
AcDbLine
 10
0.0
 20
0.0
 30
0.0
 11
0.0
 21
2.5
 31
0.0
  0
LINE
  5
31F
330
31B
100
AcDbEntity
  8
COTATION
 62
     0
100
AcDbLine
 10
0.0
 20
0.0
 30
0.0
 11
-2.5
 21
0.0
 31
0.0
  0
LINE
  5
320
330
31B
100
AcDbEntity
  8
COTATION
 62
     0
100
AcDbLine
 10
0.0
 20
0.0
 30
0.0
 11
0.0
 21
-2.5
 31
0.0
  0
LINE
  5
321
330
31B
100
AcDbEntity
  8
COTATION
 62
     0
100
AcDbLine
 10
0.0
 20
0.0
 30
0.0
 11
2.5
 21
0.0
 31
0.0
  0
LINE
  5
322
330
31B
100
AcDbEntity
  8
COTATION
 62
     0
100
AcDbLine
 10
0.0
 20
5.0
 30
0.0
 11
0.0
 21
5.4650898701
 31
0.0
  0
LINE
  5
323
330
31B
100
AcDbEntity
  8
COTATION
 62
     0
100
AcDbLine
 10
-5.0
 20
0.0
 30
0.0
 11
-5.4650898701
 21
0.0
 31
0.0
  0
LINE
  5
324
330
31B
100
AcDbEntity
  8
COTATION
 62
     0
100
AcDbLine
 10
0.0
 20
-5.0
 30
0.0
 11
0.0
 21
-5.4650898701
 31
0.0
  0
LINE
  5
325
330
31B
100
AcDbEntity
  8
COTATION
 62
     0
100
AcDbLine
 10
5.0
 20
0.0
 30
0.0
 11
5.4650898701
 21
0.0
 31
0.0
  0
ENDBLK
  5
31D
330
31B
100
AcDbEntity
  8
0
100
AcDbBlockEnd
  0
ENDSEC
  0
SECTION
  2
ENTITIES
  0
HATCH
  5
87
330
1F
100
AcDbEntity
  8
LOGO2
100
AcDbHatch
 10
0.0
 20
0.0
 30
0.0
210
0.0
220
0.0
230
1.0
  2
SOLID
 70
     1
 71
     0
 91
        1
 92
        0
 93
       11
 72
     4
 94
        3
 73
     1
 74
     0
 95
        8
 96
        4
 40
0.8333333333333333
 40
0.8333333333333333
 40
0.8333333333333333
 40
0.8333333333333333
 40
1.0
 40
1.0
 40
1.0
 40
1.0
 10
235.0450001491992
 20
25.36676174775082
 42
1.0
 10
234.6700100503477
 20
25.21917758939735
 42
1.0
 10
234.2398912386482
 20
25.11581125280738
 42
1.0
 10
233.7529209418242
 20
25.05482511421925
 42
1.0
 97
        0
 72
     4
 94
        3
 73
     1
 74
     0
 95
        8
 96
        4
 40
0.6666666666666666
 40
0.6666666666666666
 40
0.6666666666666666
 40
0.6666666666666666
 40
0.8332189192420315
 40
0.8332189192420315
 40
0.8332189192420315
 40
0.8332189192420315
 10
233.7529209418242
 20
25.05482511421925
 42
1.0
 10
233.51614498276
 20
25.02532854539741
 42
1.0
 10
233.2594122935026
 20
25.00328707693507
 42
1.0
 10
232.9839836403293
 20
24.98847147860004
 42
1.0
 97
        0
 72
     3
 10
242.5029842637128
 20
28.06784336711859
 11
-9.281964393266756
 21
-5.518954020724276
 40
0.4790317882064746
 50
347.1910077409
 51
475.4587400700618
 73
     1
 72
     1
 10
247.1444352925257
 20
24.95995778752663
 11
238.8288971773038
 21
24.95995778752663
 72
     2
 10
238.8288971773038
 20
26.10847263852661
 40
1.148514850999982
 50
90.0
 51
180.0
 73
     0
 72
     1
 10
237.6803823263038
 20
26.10847263852661
 11
237.6803823263038
 21
31.0378392828109
 72
     3
 10
242.5029842637128
 20
28.06784336711859
 11
-9.281964393266756
 21
-5.518954020724276
 40
0.4790317882064746
 50
297.6379401018559
 51
311.7284851151875
 73
     1
 72
     4
 94
        3
 73
     1
 74
     0
 95
        8
 96
        4
 40
0.4001113005305121
 40
0.4001113005305121
 40
0.4001113005305121
 40
0.4001113005305121
 40
0.6000000000000001
 40
0.6000000000000001
 40
0.6000000000000001
 40
0.6000000000000001
 10
236.4251473259389
 20
29.98840803535614
 42
1.0
 10
236.7550053393821
 20
29.58931726629197
 42
1.0
 10
236.9445550664821
 20
29.11014929751472
 42
1.0
 10
236.9916179701591
 20
28.55078946917817
 42
1.0
 97
        0
 72
     1
 10
236.991617970159
 20
28.55078946917817
 11
237.003103118669
 21
28.26710630098111
 72
     4
 94
        3
 73
     1
 74
     0
 95
        8
 96
        4
 40
0.1666666666666667
 40
0.1666666666666667
 40
0.1666666666666667
 40
0.1666666666666667
 40
0.3333333333333333
 40
0.3333333333333333
 40
0.3333333333333333
 40
0.3333333333333333
 10
237.0031031186691
 20
28.26710630098112
 42
1.0
 10
237.0031031186691
 20
27.61911422204694
 42
1.0
 10
236.8265763860703
 20
27.03555382625383
 42
1.0
 10
236.4736377723581
 20
26.51653996508696
 42
1.0
 97
        0
 72
     4
 94
        3
 73
     1
 74
     0
 95
        8
 96
        4
 40
0.0
 40
0.0
 40
0.0
 40
0.0
 40
0.1666666666666667
 40
0.1666666666666667
 40
0.1666666666666667
 40
0.1666666666666667
 10
236.4736377723581
 20
26.51653996508696
 42
1.0
 10
236.1195506437948
 20
25.99695184649453
 42
1.0
 10
235.6441803469659
 20
25.61415184665622
 42
1.0
 10
235.0450001491992
 20
25.36676174775082
 42
1.0
 97
        0
 97
        0
 75
     0
 76
     1
 98
        1
 10
0.0
 20
0.0
  0
HATCH
  5
88
330
1F
100
AcDbEntity
  8
LOGO2
100
AcDbHatch
 10
0.0
 20
0.0
 30
0.0
210
0.0
220
0.0
230
1.0
  2
SOLID
 70
     1
 71
     0
 91
        1
 92
        0
 93
        8
 72
     1
 10
245.0481050939054
 20
26.81411292846658
 11
248.6213740979563
 21
35.13696347359809
 72
     3
 10
242.5029842637128
 20
28.06784336711859
 11
-9.281964393266756
 21
-5.518954020724276
 40
0.4790317882064746
 50
198.3882528627379
 51
265.9349358139634
 73
     1
 72
     1
 10
240.1765714035215
 20
32.69940263933059
 11
240.1785169787139
 21
31.95579144793781
 72
     1
 10
240.1785169787139
 20
31.95579144793781
 11
241.8801731907169
 21
31.95487392757013
 72
     2
 10
241.8796397487091
 20
30.96553904381194
 40
0.9893350275721516
 50
270.0308934549906
 51
450.0000000000008
 73
     0
 72
     1
 10
241.8796397487091
 20
29.97620401623979
 11
240.1785169771504
 21
29.97620401623979
 72
     1
 10
240.1785169771504
 20
29.97620401623979
 11
240.1785169771504
 21
26.81411292846658
 72
     1
 10
240.1785169771504
 20
26.81411292846658
 11
245.0481050939054
 21
26.81411292846658
 97
        0
 75
     0
 76
     1
 98
        1
 10
0.0
 20
0.0
  0
HATCH
  5
89
330
1F
100
AcDbEntity
  8
LOGO2
100
AcDbHatch
 10
0.0
 20
0.0
 30
0.0
210
0.0
220
0.0
230
1.0
  2
SOLID
 70
     1
 71
     0
 91
        1
 92
        0
 93
       16
 72
     2
 10
250.5407050931486
 20
34.05964095199965
 40
0.5676534651067738
 50
0.0
 51
41.75773980553433
 73
     1
 72
     3
 10
242.5029842637128
 20
28.06784336711859
 11
-9.281964393266756
 21
-5.518954020724276
 40
0.4790317882064746
 50
186.2383696561383
 51
187.9643607356612
 73
     1
 72
     2
 10
250.5407050931486
 20
34.05964095199965
 40
0.5676534651067738
 50
76.67331802843833
 51
180.0
 73
     1
 72
     1
 10
249.9730516280419
 20
34.05964095199965
 11
249.9730516280419
 21
29.43537560741832
 72
     1
 10
249.9730516280419
 20
29.43537560741832
 11
249.4453090540074
 21
29.43537560741832
 72
     2
 10
249.4453090540074
 20
29.09082115211836
 40
0.3445544552999752
 50
90.0
 51
180.0
 73
     1
 72
     1
 10
249.1007545987074
 20
29.09082115211836
 11
249.1007545987074
 21
27.94471818230543
 72
     1
 10
249.1007545987074
 20
27.94471818230543
 11
248.4048694504865
 21
27.94471818230543
 72
     2
 10
248.4048694504865
 20
27.60016372700547
 40
0.3445544552999891
 50
90.0
 51
180.0
 73
     1
 72
     1
 10
248.0603149951865
 20
27.60016372700547
 11
248.0603149951865
 21
26.45291224234153
 72
     1
 10
248.0603149951865
 20
26.45291224234153
 11
247.5113248964085
 21
26.45291224234153
 72
     2
 10
247.5113248964085
 20
26.10835778704157
 40
0.3445544552999891
 50
90.0
 51
180.0
 73
     1
 72
     1
 10
247.1667704411085
 20
26.10835778704157
 11
247.1667704411085
 21
24.97679326844081
 72
     3
 10
242.5029842637128
 20
28.06784336711859
 11
-9.281964393266756
 21
-5.518954020724276
 40
0.4790317882064746
 50
115.7292479518694
 51
158.0895097581669
 73
     1
 72
     1
 10
251.3115242204637
 20
29.43537560741832
 11
251.1083585582554
 21
29.43537560741832
 72
     1
 10
251.1083585582554
 20
29.43537560741832
 11
251.1083585582554
 21
34.05964095199965
 97
        0
 75
     0
 76
     1
 98
        1
 10
0.0
 20
0.0
  0
HATCH
  5
8A
330
1F
100
AcDbEntity
  8
LOGO1
 62
   156
420
    16512
100
AcDbHatch
 10
0.0
 20
0.0
 30
0.0
210
0.0
220
0.0
230
1.0
  2
SOLID
 70
     1
 71
     0
 91
        1
 92
        0
 93
       36
 72
     2
 10
227.9438893796201
 20
35.45713849118987
 40
1.148514851000024
 50
90.03360903891995
 51
180.0115505332992
 73
     1
 72
     1
 10
226.7953745519582
 20
35.45690695652792
 11
226.7963665401149
 21
30.53620481586539
 72
     2
 10
228.0462954212562
 20
30.53645679507716
 40
1.24992890654019
 50
180.0115505333007
 51
360.0000000000008
 73
     1
 72
     1
 10
229.2962243277964
 20
30.53645679507716
 11
229.2962243277964
 21
34.74725679329332
 72
     1
 10
229.2962243277964
 20
34.74725679329332
 11
231.3009565864243
 21
34.74725679329332
 72
     4
 94
        3
 73
     1
 74
     0
 95
        8
 96
        4
 40
0.4772727272727271
 40
0.4772727272727271
 40
0.4772727272727271
 40
0.4772727272727271
 40
0.4999999999999998
 40
0.4999999999999998
 40
0.4999999999999998
 40
0.4999999999999998
 10
231.3009565864243
 20
34.74725679329332
 42
1.0
 10
232.2047229226762
 20
34.74725679329338
 42
1.0
 10
232.8777526253621
 20
34.71831421904814
 42
1.0
 10
233.3183229222058
 20
34.52352610031856
 42
1.0
 97
        0
 72
     4
 94
        3
 73
     1
 74
     0
 95
        8
 96
        4
 40
0.4999999999999998
 40
0.4999999999999998
 40
0.4999999999999998
 40
0.4999999999999998
 40
0.5227272727272726
 40
0.5227272727272726
 40
0.5227272727272726
 40
0.5227272727272726
 10
233.3183229222058
 20
34.52352610031856
 42
1.0
 10
233.7592377735047
 20
34.32850827861872
 42
1.0
 10
233.9799823278669
 20
33.93606075403205
 42
1.0
 10
233.9799823278669
 20
33.34434590279683
 42
1.0
 97
        0
 72
     4
 94
        3
 73
     1
 74
     0
 95
        8
 96
        4
 40
0.5227272727272726
 40
0.5227272727272726
 40
0.5227272727272726
 40
0.5227272727272726
 40
0.5454545454545453
 40
0.5454545454545453
 40
0.5454545454545453
 40
0.5454545454545453
 10
233.9799823278669
 20
33.34434590279683
 42
1.0
 10
233.9799823278669
 20
33.06720926925055
 42
1.0
 10
233.90888925859
 20
32.81660332876235
 42
1.0
 10
233.7698041101339
 20
32.59241322984712
 42
1.0
 97
        0
 72
     4
 94
        3
 73
     1
 74
     0
 95
        8
 96
        4
 40
0.5454545454545453
 40
0.5454545454545453
 40
0.5454545454545453
 40
0.5454545454545453
 40
0.568181818181818
 40
0.568181818181818
 40
0.568181818181818
 40
0.568181818181818
 10
233.7698041101339
 20
32.59241322984712
 42
1.0
 10
233.5910951993183
 20
32.27737560621785
 42
1.0
 10
233.3319902489327
 20
32.06455580432754
 42
1.0
 10
232.9962793579854
 20
31.95326471526566
 42
1.0
 97
        0
 72
     4
 94
        3
 73
     1
 74
     0
 95
        8
 96
        4
 40
0.568181818181818
 40
0.568181818181818
 40
0.568181818181818
 40
0.568181818181818
 40
0.5909090909090907
 40
0.5909090909090907
 40
0.5909090909090907
 40
0.5909090909090907
 10
232.9962793579854
 20
31.95326471526566
 42
1.0
 10
232.9344892590016
 20
31.93270629943273
 42
1.0
 10
232.8681051006138
 20
31.91421521033167
 42
1.0
 10
232.7968971798518
 20
31.89710233905174
 42
1.0
 97
        0
 72
     1
 10
232.7968971798518
 20
31.89710233905174
 11
232.7968971798518
 21
31.89113006182653
 72
     4
 94
        3
 73
     1
 74
     0
 95
        8
 96
        4
 40
0.6136363636363634
 40
0.6136363636363634
 40
0.6136363636363634
 40
0.6136363636363634
 40
0.6363636363636361
 40
0.6363636363636361
 40
0.6363636363636361
 40
0.6363636363636361
 10
232.7968971798518
 20
31.89113006182653
 42
1.0
 10
232.4165090612006
 20
31.76938748762054
 42
1.0
 10
232.1383387642884
 20
31.40990233925756
 42
1.0
 10
232.1383387642884
 20
30.97920927013254
 42
1.0
 97
        0
 72
     4
 94
        3
 73
     1
 74
     0
 95
        8
 96
        4
 40
0.6363636363636361
 40
0.6363636363636361
 40
0.6363636363636361
 40
0.6363636363636361
 40
0.6590909090909088
 40
0.6590909090909088
 40
0.6590909090909088
 40
0.6590909090909088
 10
232.1383387642884
 20
30.97920927013254
 42
1.0
 10
232.1383387642884
 20
30.54863105249261
 42
1.0
 10
232.4165090612006
 20
30.18857164670413
 42
1.0
 10
232.7968971798518
 20
30.06625481507264
 42
1.0
 97
        0
 72
     4
 94
        2
 73
     1
 74
     0
 95
        6
 96
        3
 40
0.6590909090909088
 40
0.6590909090909088
 40
0.6590909090909088
 40
0.6818181818181815
 40
0.6818181818181815
 40
0.6818181818181815
 10
232.7968971798518
 20
30.06625481507264
 42
1.0
 10
232.8342239125093
 20
30.05385085468182
 42
1.0
 10
232.8891229223871
 20
30.03742709231255
 42
1.0
 97
        0
 72
     4
 94
        3
 73
     1
 74
     0
 95
        8
 96
        4
 40
0.6818181818181815
 40
0.6818181818181815
 40
0.6818181818181815
 40
0.6818181818181815
 40
0.7045454545454543
 40
0.7045454545454543
 40
0.7045454545454543
 40
0.7045454545454543
 10
232.8891229223871
 20
30.03742709231255
 42
1.0
 10
233.2649169816343
 20
29.97242115174592
 42
1.0
 10
233.5771981696212
 20
29.86825085476025
 42
1.0
 10
233.8197645061524
 20
29.72066669640672
 42
1.0
 97
        0
 72
     4
 94
        3
 73
     1
 74
     0
 95
        8
 96
        4
 40
0.7045454545454543
 40
0.7045454545454543
 40
0.7045454545454543
 40
0.7045454545454543
 40
0.727272727272727
 40
0.727272727272727
 40
0.727272727272727
 40
0.727272727272727
 10
233.8197645061524
 20
29.72066669640672
 42
1.0
 10
234.2551664861665
 20
29.45616372622145
 42
1.0
 10
234.4725803474608
 20
29.14985481545973
 42
1.0
 10
234.4725803474608
 20
28.56319342956898
 42
1.0
 97
        0
 72
     4
 94
        3
 73
     1
 74
     0
 95
        8
 96
        4
 40
0.727272727272727
 40
0.727272727272727
 40
0.727272727272727
 40
0.727272727272727
 40
0.7499999999999997
 40
0.7499999999999997
 40
0.7499999999999997
 40
0.7499999999999997
 10
234.4725803474608
 20
28.56319342956898
 42
1.0
 10
234.4725803474608
 20
27.41525283599444
 42
1.0
 10
233.6329011398946
 20
26.84191422237525
 42
1.0
 10
231.9545763881284
 20
26.84191422237525
 42
1.0
 97
        0
 72
     1
 10
231.9545763881284
 20
26.84191422237525
 11
226.7826991625903
 21
26.84191422237525
 72
     1
 10
226.7826991625903
 20
26.84191422237525
 11
226.7826991625903
 21
26.11088451971377
 72
     2
 10
227.9312140135902
 20
26.11088451971377
 40
1.14851485100001
 50
180.0
 51
270.0351459458573
 73
     1
 72
     1
 10
227.9319185268822
 20
24.96236988479239
 11
232.0507070811571
 21
24.96489640138594
 72
     4
 94
        3
 73
     1
 74
     0
 95
        8
 96
        4
 40
0.954545454545454
 40
0.954545454545454
 40
0.954545454545454
 40
0.954545454545454
 40
0.9772727272727267
 40
0.9772727272727267
 40
0.9772727272727267
 40
0.9772727272727267
 10
232.0507070811571
 20
24.96489640138594
 42
1.0
 10
232.3830872790365
 20
24.96489640138594
 42
1.0
 10
232.6935308432618
 20
24.97305085682805
 42
1.0
 10
232.9834159916542
 20
24.98844095583141
 42
1.0
 97
        0
 72
     4
 94
        3
 73
     1
 74
     0
 95
        8
 96
        4
 40
0.6666666666666666
 40
0.6666666666666666
 40
0.6666666666666666
 40
0.6666666666666666
 40
0.8333333333333333
 40
0.8333333333333333
 40
0.8333333333333333
 40
0.8333333333333333
 10
232.9834159916542
 20
24.98844095583141
 42
1.0
 10
233.2590595558942
 20
25.00325679740934
 42
1.0
 10
233.5159823280629
 20
25.02530828254856
 42
1.0
 10
233.7529209418242
 20
25.05482511421925
 42
1.0
 97
        0
 72
     4
 94
        3
 73
     1
 74
     0
 95
        8
 96
        4
 40
0.8333333333333333
 40
0.8333333333333333
 40
0.8333333333333333
 40
0.8333333333333333
 40
1.0
 40
1.0
 40
1.0
 40
1.0
 10
233.7529209418242
 20
25.05482511421925
 42
1.0
 10
234.2398912386482
 20
25.11581125280738
 42
1.0
 10
234.6700100503477
 20
25.21917758939735
 42
1.0
 10
235.0450001491992
 20
25.36676174775082
 42
1.0
 97
        0
 72
     4
 94
        3
 73
     1
 74
     0
 95
        8
 96
        4
 40
0.0
 40
0.0
 40
0.0
 40
0.0
 40
0.1666666666666667
 40
0.1666666666666667
 40
0.1666666666666667
 40
0.1666666666666667
 10
235.0450001491992
 20
25.36676174775082
 42
1.0
 10
235.6441803469659
 20
25.61415184665622
 42
1.0
 10
236.1195506437948
 20
25.99695184649453
 42
1.0
 10
236.4736377723581
 20
26.51653996508696
 42
1.0
 97
        0
 72
     4
 94
        3
 73
     1
 74
     0
 95
        8
 96
        4
 40
0.1666666666666667
 40
0.1666666666666667
 40
0.1666666666666667
 40
0.1666666666666667
 40
0.3333333333333333
 40
0.3333333333333333
 40
0.3333333333333333
 40
0.3333333333333333
 10
236.4736377723581
 20
26.51653996508696
 42
1.0
 10
236.8265763860703
 20
27.03555382625383
 42
1.0
 10
237.0031031186691
 20
27.61911422204694
 42
1.0
 10
237.0031031186691
 20
28.26710630098112
 42
1.0
 97
        0
 72
     1
 10
237.0031031186691
 20
28.26710630098112
 11
236.9916179701591
 21
28.55078946917817
 72
     4
 94
        3
 73
     1
 74
     0
 95
        8
 96
        4
 40
0.4
 40
0.4
 40
0.4
 40
0.4
 40
0.6000000000000001
 40
0.6000000000000001
 40
0.6000000000000001
 40
0.6000000000000001
 10
236.9916179701591
 20
28.55078946917817
 42
1.0
 10
236.9445288612681
 20
29.11046075607043
 42
1.0
 10
236.7547942078829
 20
29.58985085487786
 42
1.0
 10
236.4245961882204
 20
29.98907461708545
 42
1.0
 97
        0
 72
     4
 94
        3
 73
     1
 74
     0
 95
        8
 96
        4
 40
0.0
 40
0.0
 40
0.0
 40
0.0
 40
0.0227272727272727
 40
0.0227272727272727
 40
0.0227272727272727
 40
0.0227272727272727
 10
236.4245961882204
 20
29.98907461708545
 42
1.0
 10
236.0200892576982
 20
30.47811224064123
 42
1.0
 10
235.4043704460771
 20
30.84781917117813
 42
1.0
 10
234.573879357319
 20
31.09647263641963
 42
1.0
 97
        0
 72
     4
 94
        3
 73
     1
 74
     0
 95
        8
 96
        4
 40
0.0227272727272727
 40
0.0227272727272727
 40
0.0227272727272727
 40
0.0227272727272727
 40
0.0454545454545455
 40
0.0454545454545455
 40
0.0454545454545455
 40
0.0454545454545455
 10
234.573879357319
 20
31.09647263641963
 42
1.0
 10
235.8069249013526
 20
31.63615976490453
 42
1.0
 10
236.4232179703992
 20
32.48893204177206
 42
1.0
 10
236.4232179703992
 20
33.65421520959666
 42
1.0
 97
        0
 72
     4
 94
        3
 73
     1
 74
     0
 95
        8
 96
        4
 40
0.0454545454545455
 40
0.0454545454545455
 40
0.0454545454545455
 40
0.0454545454545455
 40
0.0681818181818182
 40
0.0681818181818182
 40
0.0681818181818182
 40
0.0681818181818182
 10
236.4232179703992
 20
33.65421520959666
 42
1.0
 10
236.4232179703992
 20
33.99279738767147
 42
1.0
 10
236.3648734159684
 20
34.31495580337695
 42
1.0
 10
236.2465763863154
 20
34.61954194186212
 42
1.0
 97
        0
 72
     4
 94
        3
 73
     1
 74
     0
 95
        8
 96
        4
 40
0.0681818181818182
 40
0.0681818181818182
 40
0.0681818181818182
 40
0.0681818181818182
 40
0.0909090909090909
 40
0.0909090909090909
 40
0.0909090909090909
 40
0.0909090909090909
 10
236.2465763863154
 20
34.61954194186212
 42
1.0
 10
236.1285090596326
 20
34.92378352589204
 42
1.0
 10
235.9582991587144
 20
35.20137956537878
 42
1.0
 10
235.7334199508886
 20
35.45393798111363
 42
1.0
 97
        0
 72
     4
 94
        3
 73
     1
 74
     0
 95
        8
 96
        4
 40
0.0909090909090909
 40
0.0909090909090909
 40
0.0909090909090909
 40
0.0909090909090909
 40
0.1136363636363637
 40
0.1136363636363637
 40
0.1136363636363637
 40
0.1136363636363637
 10
235.7334199508886
 20
35.45393798111363
 42
1.0
 10
235.5090001490032
 20
35.70488847605713
 42
1.0
 10
235.251503119409
 20
35.91299936705833
 42
1.0
 10
234.9608140106209
 20
36.07700728778113
 42
1.0
 97
        0
 72
     4
 94
        3
 73
     1
 74
     0
 95
        8
 96
        4
 40
0.1136363636363637
 40
0.1136363636363637
 40
0.1136363636363637
 40
0.1136363636363637
 40
0.1363636363636364
 40
0.1363636363636364
 40
0.1363636363636364
 40
0.1363636363636364
 10
234.9608140106209
 20
36.07700728778113
 42
1.0
 10
234.6189011394782
 20
36.27110629760016
 42
1.0
 10
234.2340338129081
 20
36.40295580249492
 42
1.0
 10
233.8026516348725
 20
36.4711775846443
 42
1.0
 97
        0
 72
     4
 94
        3
 73
     1
 74
     0
 95
        8
 96
        4
 40
0.1363636363636364
 40
0.1363636363636364
 40
0.1363636363636364
 40
0.1363636363636364
 40
0.1590909090909091
 40
0.1590909090909091
 40
0.1590909090909091
 40
0.1590909090909091
 10
233.8026516348725
 20
36.4711775846443
 42
1.0
 10
233.3731070805985
 20
36.53928451530864
 42
1.0
 10
232.86374074418
 20
36.60819540636867
 42
1.0
 10
232.2771942097743
 20
36.60819540636867
 42
1.0
 97
        0
 72
     1
 10
232.2771942097743
 20
36.60819540636867
 11
227.9432156741842
 21
36.60565314459602
 97
        0
 75
     0
 76
     1
 98
        1
 10
0.0
 20
0.0
  0
HATCH
  5
8B
330
1F
100
AcDbEntity
  8
LOGO1
 62
   156
420
    16512
100
AcDbHatch
 10
0.0
 20
0.0
 30
0.0
210
0.0
220
0.0
230
1.0
  2
SOLID
 70
     1
 71
     0
 91
        1
 92
        0
 93
       44
 72
     2
 10
238.8288971773038
 20
26.10847263852661
 40
1.148514850999982
 50
90.0
 51
180.0
 73
     0
 72
     1
 10
237.6803823263038
 20
26.10847263852661
 11
237.6803823263038
 21
35.46094885489814
 72
     2
 10
238.8288971773038
 20
35.46094885489814
 40
1.14851485099999
 50
180.0
 51
270.0123096399428
 73
     0
 72
     1
 10
238.8291439285356
 20
36.60946367939167
 11
244.7287909547445
 21
36.60819617710089
 72
     2
 10
244.72858826086
 20
35.66474827826771
 40
0.9434479206069416
 50
270.0123096399413
 51
450.0000000000008
 73
     0
 72
     1
 10
244.72858826086
 20
34.72130035766074
 11
240.1712813351526
 21
34.72130035766074
 72
     1
 10
240.1712813351526
 20
34.72130035766074
 11
240.1785169787139
 21
31.95579144793781
 72
     1
 10
240.1785169787139
 20
31.95579144793781
 11
241.8801731907169
 21
31.95487392757012
 72
     2
 10
241.8796397487091
 20
30.96553904381194
 40
0.9893350275721516
 50
270.0308934549906
 51
450.0000000000008
 73
     0
 72
     1
 10
241.8796397487091
 20
29.97620401623979
 11
240.1785169771504
 21
29.97620401623979
 72
     1
 10
240.1785169771504
 20
29.97620401623979
 11
240.1785169771504
 21
26.81411292846658
 72
     1
 10
240.1785169771504
 20
26.81411292846658
 11
245.0481050939053
 21
26.81411292846658
 72
     1
 10
245.0481050939053
 20
26.81411292846658
 11
248.667764498317
 21
35.24501589520228
 72
     4
 94
        3
 73
     1
 74
     0
 95
        8
 96
        4
 40
0.2692307692307693
 40
0.2692307692307693
 40
0.2692307692307693
 40
0.2692307692307693
 40
0.3076923076923077
 40
0.3076923076923077
 40
0.3076923076923077
 40
0.3076923076923077
 10
248.667764498317
 20
35.24501589520228
 42
1.0
 10
248.7922635081654
 20
35.54340005349209
 42
1.0
 10
248.9267545972175
 20
35.79067530091239
 42
1.0
 10
249.0696298446818
 20
35.98741589488868
 42
1.0
 97
        0
 72
     4
 94
        3
 73
     1
 74
     0
 95
        8
 96
        4
 40
0.2307692307692308
 40
0.2307692307692308
 40
0.2307692307692308
 40
0.2307692307692308
 40
0.2692307692307693
 40
0.2692307692307693
 40
0.2692307692307693
 40
0.2692307692307693
 10
249.0696298446818
 20
35.98741589488868
 42
1.0
 10
249.2118159832356
 20
36.18369708292457
 42
1.0
 10
249.3984496465231
 20
36.34448916206462
 42
1.0
 10
249.6311387553358
 20
36.46680599369611
 42
1.0
 97
        0
 72
     4
 94
        3
 73
     1
 74
     0
 95
        8
 96
        4
 40
0.1923076923076923
 40
0.1923076923076923
 40
0.1923076923076923
 40
0.1923076923076923
 40
0.2307692307692308
 40
0.2307692307692308
 40
0.2307692307692308
 40
0.2307692307692308
 10
249.6311387553358
 20
36.46680599369611
 42
1.0
 10
249.8639427156334
 20
36.58820401344681
 42
1.0
 10
250.1499229135325
 20
36.64919015203488
 42
1.0
 10
250.4906872698242
 20
36.64919015203488
 42
1.0
 97
        0
 72
     4
 94
        3
 73
     1
 74
     0
 95
        8
 96
        4
 40
0.1538461538461539
 40
0.1538461538461539
 40
0.1538461538461539
 40
0.1538461538461539
 40
0.1923076923076923
 40
0.1923076923076923
 40
0.1923076923076923
 40
0.1923076923076923
 10
250.4906872698242
 20
36.64919015203488
 42
1.0
 10
250.8366199429454
 20
36.64919015203488
 42
1.0
 10
251.1258159824272
 20
36.58820401344681
 42
1.0
 10
251.3580456852993
 20
36.46680599369611
 42
1.0
 97
        0
 72
     4
 94
        3
 73
     1
 74
     0
 95
        8
 96
        4
 40
0.1153846153846154
 40
0.1153846153846154
 40
0.1153846153846154
 40
0.1153846153846154
 40
0.1538461538461539
 40
0.1538461538461539
 40
0.1538461538461539
 40
0.1538461538461539
 10
251.3580456852993
 20
36.46680599369611
 42
1.0
 10
251.5907347941119
 20
36.34448916206462
 42
1.0
 10
251.7775981603696
 20
36.18771688490313
 42
1.0
 10
251.9210476652596
 20
35.9959149047861
 42
1.0
 97
        0
 72
     4
 94
        3
 73
     1
 74
     0
 95
        8
 96
        4
 40
0.0769230769230769
 40
0.0769230769230769
 40
0.0769230769230769
 40
0.0769230769230769
 40
0.1153846153846154
 40
0.1153846153846154
 40
0.1153846153846154
 40
0.1153846153846154
 10
251.9210476652596
 20
35.9959149047861
 42
1.0
 10
252.0630041008432
 20
35.80342381575852
 42
1.0
 10
252.1831387542578
 20
35.59760995445932
 42
1.0
 10
252.2806476651076
 20
35.376750548612
 42
1.0
 97
        0
 72
     1
 10
252.2806476651076
 20
35.376750548612
 11
256.1593939542088
 21
26.57037716940946
 72
     2
 10
255.1083145599884
 20
26.10743174064628
 40
1.148514850999989
 50
336.2290216667355
 51
450.0000000000008
 73
     0
 72
     1
 10
255.1083145599884
 20
24.9589168896463
 11
253.9144100422186
 21
24.9589168896463
 72
     1
 10
253.9144100422186
 20
24.9589168896463
 11
253.9144100422186
 21
26.10835778704157
 72
     2
 10
253.5698555869186
 20
26.10835778704157
 40
0.3445544552999891
 50
0.0
 51
90.0
 73
     1
 72
     1
 10
253.5698555869186
 20
26.45291224234153
 11
253.0212100425959
 21
26.45291224234153
 72
     1
 10
253.0212100425959
 20
26.45291224234153
 11
253.0212100425959
 21
27.60016372700547
 72
     2
 10
252.6766555872959
 20
27.60016372700547
 40
0.3445544552999891
 50
0.0
 51
90.0
 73
     1
 72
     1
 10
252.6766555872959
 20
27.94471818230543
 11
251.9806555875899
 21
27.94471818230543
 72
     1
 10
251.9806555875899
 20
27.94471818230543
 11
251.9806555875899
 21
29.09082115211836
 72
     2
 10
251.6361011322898
 20
29.09082115211836
 40
0.3445544552999891
 50
0.0
 51
90.0
 73
     1
 72
     1
 10
251.6361011322898
 20
29.43537560741832
 11
251.1083585582554
 21
29.43537560741832
 72
     1
 10
251.1083585582554
 20
29.43537560741832
 11
251.1083585582554
 21
34.05964095199965
 72
     2
 10
250.5407050931486
 20
34.05964095199965
 40
0.5676534651067738
 50
0.0
 51
180.0
 73
     1
 72
     1
 10
249.9730516280419
 20
34.05964095199965
 11
249.9730516280419
 21
29.43537560741832
 72
     1
 10
249.9730516280419
 20
29.43537560741832
 11
249.4453090540074
 21
29.43537560741834
 72
     2
 10
249.4453090540074
 20
29.09082115211836
 40
0.3445544552999752
 50
90.0
 51
180.0
 73
     1
 72
     1
 10
249.1007545987074
 20
29.09082115211836
 11
249.1007545987074
 21
27.94471818230543
 72
     1
 10
249.1007545987074
 20
27.94471818230543
 11
248.4048694504865
 21
27.94471818230545
 72
     2
 10
248.4048694504865
 20
27.60016372700547
 40
0.3445544552999891
 50
90.0
 51
180.0
 73
     1
 72
     1
 10
248.0603149951865
 20
27.60016372700547
 11
248.0603149951865
 21
26.45291224234153
 72
     1
 10
248.0603149951865
 20
26.45291224234153
 11
247.5113248964085
 21
26.45291224234156
 72
     2
 10
247.5113248964085
 20
26.10835778704157
 40
0.3445544552999891
 50
90.0
 51
180.0
 73
     1
 72
     1
 10
247.1667704411085
 20
26.10835778704157
 11
247.1667704411085
 21
24.95995778752663
 72
     1
 10
247.1667704411085
 20
24.95995778752663
 11
238.8288971773038
 21
24.95995778752663
 97
        0
 75
     0
 76
     1
 98
        1
 10
0.0
 20
0.0
  0
LINE
  5
8C
330
1F
100
AcDbEntity
  8
SLD-0
 62
     9
420
 12632256
370
    18
100
AcDbLine
 10
324.5519474197
 20
22.2906533893
 30
0.0
 11
324.5519474197
 21
12.25
 31
0.0
  0
LINE
  5
8D
330
1F
100
AcDbEntity
  8
LOGO1
100
AcDbLine
 10
227.9432156742
 20
36.6056531446
 30
0.0
 11
232.2771942098
 21
36.6081954064
 31
0.0
  0
LINE
  5
8E
330
1F
100
AcDbEntity
  8
LOGO1
100
AcDbLine
 10
248.6677644983
 20
35.2450158952
 30
0.0
 11
245.0481050939
 21
26.8141129285
 31
0.0
  0
LINE
  5
8F
330
1F
100
AcDbEntity
  8
LOGO1
100
AcDbLine
 10
226.795374552
 20
35.4569069565
 30
0.0
 11
226.7963665401
 21
30.5362048159
 31
0.0
  0
LINE
  5
90
330
1F
100
AcDbEntity
  8
LOGO1
100
AcDbLine
 10
229.2962243278
 20
34.7472567933
 30
0.0
 11
229.2962243278
 21
30.5364567951
 31
0.0
  0
LINE
  5
91
330
1F
100
AcDbEntity
  8
LOGO1
100
AcDbLine
 10
231.3009565864
 20
34.7472567933
 30
0.0
 11
229.2962243278
 21
34.7472567933
 31
0.0
  0
LINE
  5
92
330
1F
100
AcDbEntity
  8
LOGO1
100
AcDbLine
 10
231.9545763881
 20
26.8419142224
 30
0.0
 11
226.7826991626
 21
26.8419142224
 31
0.0
  0
LINE
  5
93
330
1F
100
AcDbEntity
  8
LOGO1
100
AcDbLine
 10
226.7826991626
 20
26.1108845197
 30
0.0
 11
226.7826991626
 21
26.8419142224
 31
0.0
  0
LINE
  5
94
330
1F
100
AcDbEntity
  8
LOGO1
 62
   238
420
  3866666
100
AcDbLine
 10
232.7968971799
 20
31.8971023391
 30
0.0
 11
232.7968971799
 21
31.8911300618
 31
0.0
  0
LINE
  5
95
330
1F
100
AcDbEntity
  8
LOGO1
 62
   238
420
  3866666
100
AcDbLine
 10
227.9319185269
 20
24.9623698848
 30
0.0
 11
232.0507070812
 21
24.9648964014
 31
0.0
  0
LINE
  5
96
330
1F
100
AcDbEntity
  8
LOGO1
100
AcDbLine
 10
236.9916179702
 20
28.5507894692
 30
0.0
 11
237.0031031187
 21
28.267106301
 31
0.0
  0
LINE
  5
97
330
1F
100
AcDbEntity
  8
LOGO1
 62
   238
420
  3866666
100
AcDbLine
 10
240.1785169787
 20
31.9557914479
 30
0.0
 11
240.1712813352
 21
34.7213003577
 31
0.0
  0
LINE
  5
98
330
1F
100
AcDbEntity
  8
LOGO1
 62
   238
420
  3866666
100
AcDbLine
 10
240.1712813352
 20
34.7213003577
 30
0.0
 11
244.7285882609
 21
34.7213003577
 31
0.0
  0
LINE
  5
99
330
1F
100
AcDbEntity
  8
LOGO1
100
AcDbLine
 10
251.1083585583
 20
29.4353756074
 30
0.0
 11
251.6361011323
 21
29.4353756074
 31
0.0
  0
LINE
  5
9A
330
1F
100
AcDbEntity
  8
LOGO1
 62
   238
420
  3866666
100
AcDbLine
 10
244.7287909547
 20
36.6081961771
 30
0.0
 11
238.8291439285
 21
36.6094636794
 31
0.0
  0
LINE
  5
9B
330
1F
100
AcDbEntity
  8
LOGO1
100
AcDbLine
 10
237.6803823263
 20
26.1084726385
 30
0.0
 11
237.6803823263
 21
35.4609488549
 31
0.0
  0
LINE
  5
9C
330
1F
100
AcDbEntity
  8
LOGO1
 62
   238
420
  3866666
100
AcDbLine
 10
256.1593939542
 20
26.5703771694
 30
0.0
 11
252.2806476651
 21
35.3767505486
 31
0.0
  0
LINE
  5
9D
330
1F
100
AcDbEntity
  8
LOGO1
 62
   238
420
  3866666
100
AcDbLine
 10
251.9806555876
 20
29.0908211521
 30
0.0
 11
251.9806555876
 21
27.9447181823
 31
0.0
  0
LINE
  5
9E
330
1F
100
AcDbEntity
  8
LOGO1
 62
   238
420
  3866666
100
AcDbLine
 10
251.9806555876
 20
27.9447181823
 30
0.0
 11
252.6766555873
 21
27.9447181823
 31
0.0
  0
LINE
  5
9F
330
1F
100
AcDbEntity
  8
LOGO1
 62
   238
420
  3866666
100
AcDbLine
 10
253.0212100426
 20
27.600163727
 30
0.0
 11
253.0212100426
 21
26.4529122423
 31
0.0
  0
LINE
  5
A0
330
1F
100
AcDbEntity
  8
LOGO1
 62
   238
420
  3866666
100
AcDbLine
 10
253.0212100426
 20
26.4529122423
 30
0.0
 11
253.5698555869
 21
26.4529122423
 31
0.0
  0
LINE
  5
A1
330
1F
100
AcDbEntity
  8
LOGO1
 62
   238
420
  3866666
100
AcDbLine
 10
253.9144100422
 20
26.108357787
 30
0.0
 11
253.9144100422
 21
24.9589168896
 31
0.0
  0
LINE
  5
A2
330
1F
100
AcDbEntity
  8
LOGO1
 62
   238
420
  3866666
100
AcDbLine
 10
253.9144100422
 20
24.9589168896
 30
0.0
 11
255.10831456
 21
24.9589168896
 31
0.0
  0
LINE
  5
A3
330
1F
100
AcDbEntity
  8
LOGO1
100
AcDbLine
 10
240.1785169787
 20
31.9557914479
 30
0.0
 11
241.8801731907
 21
31.9548739276
 31
0.0
  0
LINE
  5
A4
330
1F
100
AcDbEntity
  8
PV
  6
Continuous
100
AcDbLine
 10
409.0
 20
12.25
 30
0.0
 11
409.0
 21
284.75
 31
0.0
  0
LINE
  5
A5
330
1F
100
AcDbEntity
  8
PV
  6
Continuous
100
AcDbLine
 10
11.0
 20
12.25
 30
0.0
 11
409.0
 21
12.25
 31
0.0
  0
LINE
  5
A6
330
1F
100
AcDbEntity
  8
LOGO1
100
AcDbLine
 10
240.1785169772
 20
26.8141129285
 30
0.0
 11
245.0481050939
 21
26.8141129285
 31
0.0
  0
LINE
  5
A7
330
1F
100
AcDbEntity
  8
PV
  6
Continuous
100
AcDbLine
 10
5.0
 20
6.25
 30
0.0
 11
11.0
 21
6.25
 31
0.0
  0
LINE
  5
A8
330
1F
100
AcDbEntity
  8
PV
  6
Continuous
100
AcDbLine
 10
5.0
 20
290.75
 30
0.0
 11
11.0
 21
290.75
 31
0.0
  0
LINE
  5
A9
330
1F
100
AcDbEntity
  8
PV
  6
Continuous
100
AcDbLine
 10
5.0
 20
290.75
 30
0.0
 11
5.0
 21
284.75
 31
0.0
  0
LINE
  5
AA
330
1F
100
AcDbEntity
  8
PV
  6
Continuous
100
AcDbLine
 10
415.0
 20
290.75
 30
0.0
 11
415.0
 21
284.75
 31
0.0
  0
LINE
  5
AB
330
1F
100
AcDbEntity
  8
PV
  6
Continuous
100
AcDbLine
 10
209.0
 20
14.45
 30
0.0
 11
209.0
 21
6.25
 31
0.0
  0
LINE
  5
AC
330
1F
100
AcDbEntity
  8
PV
  6
Continuous
100
AcDbLine
 10
207.124356
 20
13.25
 30
0.0
 11
210.875644
 21
13.25
 31
0.0
  0
LINE
  5
AD
330
1F
100
AcDbEntity
  8
PV
  6
Continuous
100
AcDbLine
 10
209.0
 20
6.25
 30
0.0
 11
210.875644
 21
13.25
 31
0.0
  0
LINE
  5
AE
330
1F
100
AcDbEntity
  8
PV
  6
Continuous
100
AcDbLine
 10
209.0
 20
6.25
 30
0.0
 11
207.124356
 21
13.25
 31
0.0
  0
LINE
  5
AF
330
1F
100
AcDbEntity
  8
PV
  6
Continuous
100
AcDbLine
 10
309.5
 20
12.25
 30
0.0
 11
309.5
 21
6.25
 31
0.0
  0
LINE
  5
B0
330
1F
100
AcDbEntity
  8
PV
  6
Continuous
100
AcDbLine
 10
209.0
 20
12.25
 30
0.0
 11
209.0
 21
6.25
 31
0.0
  0
LINE
  5
B1
330
1F
100
AcDbEntity
  8
PV
  6
Continuous
100
AcDbLine
 10
259.75
 20
12.25
 30
0.0
 11
259.75
 21
6.25
 31
0.0
  0
LINE
  5
B2
330
1F
100
AcDbEntity
  8
PV
  6
Continuous
100
AcDbLine
 10
160.25
 20
12.25
 30
0.0
 11
160.25
 21
6.25
 31
0.0
  0
LINE
  5
B3
330
1F
100
AcDbEntity
  8
PV
  6
Continuous
100
AcDbLine
 10
110.5
 20
12.25
 30
0.0
 11
110.5
 21
6.25
 31
0.0
  0
LINE
  5
B4
330
1F
100
AcDbEntity
  8
PV
  6
Continuous
100
AcDbLine
 10
5.0
 20
12.25
 30
0.0
 11
5.0
 21
6.25
 31
0.0
  0
LINE
  5
B5
330
1F
100
AcDbEntity
  8
PV
  6
Continuous
100
AcDbLine
 10
5.0
 20
80.375
 30
0.0
 11
11.0
 21
80.375
 31
0.0
  0
LINE
  5
B6
330
1F
100
AcDbEntity
  8
PV
  6
Continuous
100
AcDbLine
 10
5.0
 20
148.5
 30
0.0
 11
11.0
 21
148.5
 31
0.0
  0
LINE
  5
B7
330
1F
100
AcDbEntity
  8
PV
  6
Continuous
100
AcDbLine
 10
5.0
 20
216.625
 30
0.0
 11
11.0
 21
216.625
 31
0.0
  0
LINE
  5
B8
330
1F
100
AcDbEntity
  8
PV
  6
Continuous
100
AcDbLine
 10
11.0
 20
284.75
 30
0.0
 11
409.0
 21
284.75
 31
0.0
  0
LINE
  5
B9
330
1F
100
AcDbEntity
  8
PV
  6
Continuous
100
AcDbLine
 10
11.0
 20
284.75
 30
0.0
 11
11.0
 21
12.25
 31
0.0
  0
LINE
  5
BA
330
1F
100
AcDbEntity
  8
PV
  6
Continuous
100
AcDbLine
 10
12.0
 20
153.625644
 30
0.0
 11
12.0
 21
149.874356
 31
0.0
  0
LINE
  5
BB
330
1F
100
AcDbEntity
  8
PV
  6
Continuous
100
AcDbLine
 10
5.0
 20
151.75
 30
0.0
 11
12.0
 21
149.874356
 31
0.0
  0
LINE
  5
BC
330
1F
100
AcDbEntity
  8
PV
  6
Continuous
100
AcDbLine
 10
13.2
 20
151.75
 30
0.0
 11
5.0
 21
151.75
 31
0.0
  0
LINE
  5
BD
330
1F
100
AcDbEntity
  8
PV
  6
Continuous
100
AcDbLine
 10
5.0
 20
151.75
 30
0.0
 11
12.0
 21
153.625644
 31
0.0
  0
LINE
  5
BE
330
1F
100
AcDbEntity
  8
PV
  6
Continuous
100
AcDbLine
 10
60.75
 20
290.75
 30
0.0
 11
60.75
 21
284.75
 31
0.0
  0
LINE
  5
BF
330
1F
100
AcDbEntity
  8
PV
  6
Continuous
100
AcDbLine
 10
5.0
 20
151.75
 30
0.0
 11
11.0
 21
151.75
 31
0.0
  0
LINE
  5
C0
330
1F
100
AcDbEntity
  8
PV
  6
Continuous
100
AcDbLine
 10
110.5
 20
290.75
 30
0.0
 11
110.5
 21
284.75
 31
0.0
  0
LINE
  5
C1
330
1F
100
AcDbEntity
  8
PV
  6
Continuous
100
AcDbLine
 10
60.75
 20
12.25
 30
0.0
 11
60.75
 21
6.25
 31
0.0
  0
LINE
  5
C2
330
1F
100
AcDbEntity
  8
PV
  6
Continuous
100
AcDbLine
 10
359.25
 20
12.25
 30
0.0
 11
359.25
 21
6.25
 31
0.0
  0
LINE
  5
C3
330
1F
100
AcDbEntity
  8
PV
  6
Continuous
100
AcDbLine
 10
409.0
 20
290.75
 30
0.0
 11
415.0
 21
290.75
 31
0.0
  0
LINE
  5
C4
330
1F
100
AcDbEntity
  8
PV
  6
Continuous
100
AcDbLine
 10
409.0
 20
6.25
 30
0.0
 11
415.0
 21
6.25
 31
0.0
  0
LINE
  5
C5
330
1F
100
AcDbEntity
  8
PV
  6
Continuous
100
AcDbLine
 10
5.0
 20
12.25
 30
0.0
 11
5.0
 21
6.25
 31
0.0
  0
LINE
  5
C6
330
1F
100
AcDbEntity
  8
PV
  6
Continuous
100
AcDbLine
 10
415.0
 20
12.25
 30
0.0
 11
415.0
 21
6.25
 31
0.0
  0
LINE
  5
C7
330
1F
100
AcDbEntity
  8
LOGO1
100
AcDbLine
 10
240.1785169772
 20
29.9762040162
 30
0.0
 11
241.8796397487
 21
29.9762040162
 31
0.0
  0
LINE
  5
C8
330
1F
100
AcDbEntity
  8
LOGO1
100
AcDbLine
 10
240.1785169772
 20
26.8141129285
 30
0.0
 11
240.1785169772
 21
29.9762040162
 31
0.0
  0
LINE
  5
C9
330
1F
100
AcDbEntity
  8
SLD-0
100
AcDbLine
 10
373.7475582566
 20
18.2906533893
 30
0.0
 11
409.0
 21
18.2906533893
 31
0.0
  0
LINE
  5
CA
330
1F
100
AcDbEntity
  8
LOGO1
100
AcDbLine
 10
251.1083585583
 20
29.4353756074
 30
0.0
 11
251.1083585583
 21
34.059640952
 31
0.0
  0
LINE
  5
CB
330
1F
100
AcDbEntity
  8
LOGO1
100
AcDbLine
 10
249.973051628
 20
29.4353756074
 30
0.0
 11
249.973051628
 21
34.059640952
 31
0.0
  0
LINE
  5
CC
330
1F
100
AcDbEntity
  8
LOGO1
100
AcDbLine
 10
249.1007545987
 20
27.9447181823
 30
0.0
 11
249.1007545987
 21
29.0908211521
 31
0.0
  0
LINE
  5
CD
330
1F
100
AcDbEntity
  8
LOGO1
100
AcDbLine
 10
248.0603149952
 20
26.4529122423
 30
0.0
 11
248.0603149952
 21
27.600163727
 31
0.0
  0
LINE
  5
CE
330
1F
100
AcDbEntity
  8
SLD-0
 62
     9
420
 12632256
100
AcDbLine
 10
353.7475582566
 20
12.25
 30
0.0
 11
353.7475582566
 21
22.2906533893
 31
0.0
  0
LINE
  5
CF
330
1F
100
AcDbEntity
  8
SLD-0
 62
     9
420
 12632256
100
AcDbLine
 10
339.1519474197
 20
22.2906533893
 30
0.0
 11
339.1519474197
 21
12.25
 31
0.0
  0
LINE
  5
D0
330
1F
100
AcDbEntity
  8
0
  6
Continuous
 62
     9
420
 12632256
370
    18
100
AcDbLine
 10
221.0
 20
76.2906533893
 30
0.0
 11
409.0
 21
76.2906533893
 31
0.0
  0
LINE
  5
D1
330
1F
100
AcDbEntity
  8
SLD-0
100
AcDbLine
 10
373.7475582566
 20
30.2906533893
 30
0.0
 11
409.0
 21
30.2906533893
 31
0.0
  0
LINE
  5
D2
330
1F
100
AcDbEntity
  8
PV
  6
Continuous
100
AcDbLine
 10
409.0
 20
216.625
 30
0.0
 11
415.0
 21
216.625
 31
0.0
  0
LINE
  5
D3
330
1F
100
AcDbEntity
  8
PV
  6
Continuous
100
AcDbLine
 10
409.0
 20
148.5
 30
0.0
 11
415.0
 21
148.5
 31
0.0
  0
LINE
  5
D4
330
1F
100
AcDbEntity
  8
PV
 62
     9
420
 12632256
100
AcDbLine
 10
221.0
 20
71.2906533893
 30
0.0
 11
221.0
 21
76.2906533893
 31
0.0
  0
LINE
  5
D5
330
1F
100
AcDbEntity
  8
PV
  6
Continuous
100
AcDbLine
 10
160.25
 20
290.75
 30
0.0
 11
160.25
 21
284.75
 31
0.0
  0
LINE
  5
D6
330
1F
100
AcDbEntity
  8
PV
  6
Continuous
100
AcDbLine
 10
210.0
 20
284.75
 30
0.0
 11
210.0
 21
290.75
 31
0.0
  0
LINE
  5
D7
330
1F
100
AcDbEntity
  8
PV
  6
Continuous
100
AcDbLine
 10
259.75
 20
290.75
 30
0.0
 11
259.75
 21
284.75
 31
0.0
  0
LINE
  5
D8
330
1F
100
AcDbEntity
  8
PV
  6
Continuous
100
AcDbLine
 10
309.5
 20
290.75
 30
0.0
 11
309.5
 21
284.75
 31
0.0
  0
LINE
  5
D9
330
1F
100
AcDbEntity
  8
PV
  6
Continuous
100
AcDbLine
 10
359.25
 20
290.75
 30
0.0
 11
359.25
 21
284.75
 31
0.0
  0
LINE
  5
DA
330
1F
100
AcDbEntity
  8
LOGO1
100
AcDbLine
 10
247.1667704411
 20
24.9599577875
 30
0.0
 11
247.1667704411
 21
26.108357787
 31
0.0
  0
LINE
  5
DB
330
1F
100
AcDbEntity
  8
SLD-0
 62
     9
420
 12632256
100
AcDbLine
 10
373.7475582566
 20
26.2906533893
 30
0.0
 11
409.0
 21
26.2906533893
 31
0.0
  0
LINE
  5
DC
330
1F
100
AcDbEntity
  8
SLD-0
 62
     9
420
 12632256
100
AcDbLine
 10
353.7475582566
 20
18.8952249746
 30
0.0
 11
261.7475582566
 21
18.8952249746
 31
0.0
  0
LINE
  5
DD
330
1F
100
AcDbEntity
  8
PV
370
    18
100
AcDbLine
 10
261.7475582566
 20
22.2906533893
 30
0.0
 11
373.7475582566
 21
22.2906533893
 31
0.0
  0
LINE
  5
DE
330
1F
100
AcDbEntity
  8
COTATION3
100
AcDbLine
 10
387.001503807
 20
-3.7078428037
 30
0.0
 11
387.5011356673
 21
-3.7078428037
 31
0.0
  0
LINE
  5
DF
330
1F
100
AcDbEntity
  8
PV
100
AcDbLine
 10
373.7475582566
 20
12.25
 30
0.0
 11
373.7475582566
 21
38.2906533893
 31
0.0
  0
LINE
  5
E0
330
1F
100
AcDbEntity
  8
PV
370
    25
100
AcDbLine
 10
261.7475582566
 20
12.25
 30
0.0
 11
261.7475582566
 21
38.2906533893
 31
0.0
  0
LINE
  5
E1
330
1F
100
AcDbEntity
  8
PV
 62
     9
420
 12632256
100
AcDbLine
 10
261.7475582566
 20
26.2906533893
 30
0.0
 11
373.7475582566
 21
26.2906533893
 31
0.0
  0
LINE
  5
E2
330
1F
100
AcDbEntity
  8
PV
 62
     9
420
 12632256
100
AcDbLine
 10
261.7475582566
 20
30.2906533893
 30
0.0
 11
373.7475582566
 21
30.2906533893
 31
0.0
  0
LINE
  5
E3
330
1F
100
AcDbEntity
  8
PV
 62
     9
420
 12632256
100
AcDbLine
 10
388.7056031756
 20
18.2906533893
 30
0.0
 11
388.7056031756
 21
30.2906533893
 31
0.0
  0
LINE
  5
E4
330
1F
100
AcDbEntity
  8
PV
 62
     9
420
 12632256
100
AcDbLine
 10
261.7475582566
 20
34.2906533893
 30
0.0
 11
409.0
 21
34.2906533893
 31
0.0
  0
LINE
  5
E5
330
1F
100
AcDbEntity
  8
PV
 62
     9
420
 12632256
100
AcDbLine
 10
315.9891629148
 20
26.2906533893
 30
0.0
 11
315.9891629148
 21
22.2906533893
 31
0.0
  0
LINE
  5
E6
330
1F
100
AcDbEntity
  8
PV
370
    25
100
AcDbLine
 10
221.0
 20
38.2906533893
 30
0.0
 11
409.0
 21
38.2906533893
 31
0.0
  0
LINE
  5
E7
330
1F
100
AcDbEntity
  8
PV
 62
     9
420
 12632256
100
AcDbLine
 10
221.0
 20
42.2906533893
 30
0.0
 11
409.0
 21
42.2906533893
 31
0.0
  0
LINE
  5
E8
330
1F
100
AcDbEntity
  8
PV
 62
     9
420
 12632256
100
AcDbLine
 10
221.0
 20
46.2906533893
 30
0.0
 11
409.0
 21
46.2906533893
 31
0.0
  0
LINE
  5
E9
330
1F
100
AcDbEntity
  8
PV
 62
     9
420
 12632256
100
AcDbLine
 10
221.0
 20
50.2906533893
 30
0.0
 11
409.0
 21
50.2906533893
 31
0.0
  0
LINE
  5
EA
330
1F
100
AcDbEntity
  8
PV
 62
     9
420
 12632256
100
AcDbLine
 10
221.0
 20
54.2906533893
 30
0.0
 11
409.0
 21
54.2906533893
 31
0.0
  0
LINE
  5
EB
330
1F
100
AcDbEntity
  8
PV
 62
     9
420
 12632256
100
AcDbLine
 10
221.0
 20
58.2906533893
 30
0.0
 11
409.0
 21
58.2906533893
 31
0.0
  0
LINE
  5
EC
330
1F
100
AcDbEntity
  8
PV
 62
     9
420
 12632256
100
AcDbLine
 10
221.0
 20
62.2906533893
 30
0.0
 11
409.0
 21
62.2906533893
 31
0.0
  0
LINE
  5
ED
330
1F
100
AcDbEntity
  8
PV
370
    25
100
AcDbLine
 10
221.0
 20
71.2906533893
 30
0.0
 11
221.0
 21
12.2704007736
 31
0.0
  0
LINE
  5
EE
330
1F
100
AcDbEntity
  8
PV
370
    25
100
AcDbLine
 10
221.0
 20
66.7906533893
 30
0.0
 11
409.0
 21
66.7906533893
 31
0.0
  0
LINE
  5
EF
330
1F
100
AcDbEntity
  8
PV
370
    25
100
AcDbLine
 10
221.0
 20
71.2906533893
 30
0.0
 11
409.0
 21
71.2906533893
 31
0.0
  0
LINE
  5
F0
330
1F
100
AcDbEntity
  8
PV
 62
     9
420
 12632256
100
AcDbLine
 10
237.6477507152
 20
62.2906533893
 30
0.0
 11
237.6477507152
 21
38.2906533893
 31
0.0
  0
LINE
  5
F1
330
1F
100
AcDbEntity
  8
PV
 62
     9
420
 12632256
100
AcDbLine
 10
247.6106668885
 20
62.2906533893
 30
0.0
 11
247.6106668885
 21
38.2906533893
 31
0.0
  0
LINE
  5
F2
330
1F
100
AcDbEntity
  8
PV
 62
     9
420
 12632256
100
AcDbLine
 10
397.6555514975
 20
62.2906533893
 30
0.0
 11
397.6555514975
 21
38.2906533893
 31
0.0
  0
LINE
  5
F3
330
1F
100
AcDbEntity
  8
PV
 62
     9
420
 12632256
100
AcDbLine
 10
386.6555514975
 20
62.2906533893
 30
0.0
 11
386.6555514975
 21
38.2906533893
 31
0.0
  0
LINE
  5
F4
330
1F
100
AcDbEntity
  8
LOGO1
100
AcDbLine
 10
238.8288971773
 20
24.9599577875
 30
0.0
 11
247.1667704411
 21
24.9599577875
 31
0.0
  0
LINE
  5
F5
330
1F
100
AcDbEntity
  8
LOGO1
100
AcDbLine
 10
249.445309054
 20
29.4353756074
 30
0.0
 11
249.973051628
 21
29.4353756074
 31
0.0
  0
LINE
  5
F6
330
1F
100
AcDbEntity
  8
LOGO1
100
AcDbLine
 10
248.4048694505
 20
27.9447181823
 30
0.0
 11
249.1007545987
 21
27.9447181823
 31
0.0
  0
LINE
  5
F7
330
1F
100
AcDbEntity
  8
LOGO1
100
AcDbLine
 10
247.5113248964
 20
26.4529122423
 30
0.0
 11
248.0603149952
 21
26.4529122423
 31
0.0
  0
LINE
  5
F8
330
1F
100
AcDbEntity
  8
LOGO1
 62
   151
420
  8437759
100
AcDbLine
 10
251.2549090532
 20
29.3393597659
 30
0.0
 11
251.3103823205
 21
29.4353756074
 31
0.0
  0
LINE
  5
F9
330
1F
100
AcDbEntity
  8
COTATION3
100
AcDbLine
 10
387.5011356673
 20
-3.7078428037
 30
0.0
 11
387.001503807
 21
-3.7078428037
 31
0.0
  0
ARC
  5
FA
330
1F
100
AcDbEntity
  8
LOGO1
100
AcDbCircle
 10
228.0462954213
 20
30.5364567951
 30
0.0
 40
1.249928906540212
100
AcDbArc
 50
180.0115505333
 51
0.0
  0
ARC
  5
FB
330
1F
100
AcDbEntity
  8
LOGO1
100
AcDbCircle
 10
253.5698555869
 20
26.108357787
 30
0.0
 40
0.3445544553000275
100
AcDbArc
 50
0.0
 51
90.0
  0
ARC
  5
FC
330
1F
100
AcDbEntity
  8
LOGO1
100
AcDbCircle
 10
252.6766555873
 20
27.600163727
 30
0.0
 40
0.3445544553000275
100
AcDbArc
 50
0.0
 51
90.0
  0
ARC
  5
FD
330
1F
100
AcDbEntity
  8
LOGO1
100
AcDbCircle
 10
251.6361011323
 20
29.0908211521
 30
0.0
 40
0.3445544553000275
100
AcDbArc
 50
0.0
 51
90.0
  0
ARC
  5
FE
330
1F
100
AcDbEntity
  8
LOGO1
100
AcDbCircle
 10
249.445309054
 20
29.0908211521
 30
0.0
 40
0.3445544552999991
100
AcDbArc
 50
90.0
 51
180.0
  0
ARC
  5
FF
330
1F
100
AcDbEntity
  8
LOGO1
100
AcDbCircle
 10
248.4048694505
 20
27.600163727
 30
0.0
 40
0.3445544552999991
100
AcDbArc
 50
90.0
 51
180.0
  0
ARC
  5
100
330
1F
100
AcDbEntity
  8
LOGO1
100
AcDbCircle
 10
247.5113248964
 20
26.108357787
 30
0.0
 40
0.3445544552999991
100
AcDbArc
 50
90.0
 51
180.0
  0
ARC
  5
101
330
1F
100
AcDbEntity
  8
LOGO1
100
AcDbCircle
 10
250.5407050931
 20
34.059640952
 30
0.0
 40
0.5676534651067868
100
AcDbArc
 50
0.0
 51
180.0
  0
ARC
  5
102
330
1F
100
AcDbEntity
  8
LOGO1
100
AcDbCircle
 10
244.7285882609
 20
35.6647482783
 30
0.0
 40
0.9434479206069639
100
AcDbArc
 50
270.0
 51
89.9876903601
  0
ARC
  5
103
330
1F
100
AcDbEntity
  8
LOGO1
100
AcDbCircle
 10
241.8796397487
 20
30.9655390438
 30
0.0
 40
0.9893350275721563
100
AcDbArc
 50
270.0
 51
89.969106545
  0
ARC
  5
104
330
1F
100
AcDbEntity
  8
LOGO1
100
AcDbCircle
 10
227.9438893796
 20
35.4571384912
 30
0.0
 40
1.148514851000051
100
AcDbArc
 50
90.0336090389
 51
180.0115505333
  0
ARC
  5
105
330
1F
100
AcDbEntity
  8
LOGO1
100
AcDbCircle
 10
227.9312140136
 20
26.1108845197
 30
0.0
 40
1.148514851000007
100
AcDbArc
 50
180.0
 51
270.0351459459
  0
ARC
  5
106
330
1F
100
AcDbEntity
  8
LOGO1
100
AcDbCircle
 10
238.8288971773
 20
35.4609488549
 30
0.0
 40
1.148514851000004
100
AcDbArc
 50
89.9876903601
 51
180.0
  0
ARC
  5
107
330
1F
100
AcDbEntity
  8
LOGO1
100
AcDbCircle
 10
238.8288971773
 20
26.1084726385
 30
0.0
 40
1.148514850999987
100
AcDbArc
 50
180.0
 51
270.0
  0
ARC
  5
108
330
1F
100
AcDbEntity
  8
LOGO1
100
AcDbCircle
 10
255.10831456
 20
26.1074317406
 30
0.0
 40
1.148514850999991
100
AcDbArc
 50
270.0
 51
23.7709783333
  0
SPLINE
  5
109
330
1F
100
AcDbEntity
  8
LOGO1
 62
   238
420
  3866666
100
AcDbSpline
210
0.0
220
0.0
230
1.0
 70
     8
 71
     3
 72
     8
 73
     4
 74
     0
 42
0.000000001
 43
0.00000001
 40
0.0
 40
0.0
 40
0.0
 40
0.0
 40
0.0227272727272727
 40
0.0227272727272727
 40
0.0227272727272727
 40
0.0227272727272727
 10
236.4245961882204
 20
29.98907461708545
 30
0.0
 10
236.0200892576982
 20
30.47811224064123
 30
0.0
 10
235.4043704460771
 20
30.84781917117813
 30
0.0
 10
234.573879357319
 20
31.09647263641963
 30
0.0
  0
SPLINE
  5
10A
330
1F
100
AcDbEntity
  8
LOGO1
 62
   238
420
  3866666
100
AcDbSpline
210
0.0
220
0.0
230
1.0
 70
     8
 71
     3
 72
     8
 73
     4
 74
     0
 42
0.000000001
 43
0.00000001
 40
0.0227272727272727
 40
0.0227272727272727
 40
0.0227272727272727
 40
0.0227272727272727
 40
0.0454545454545455
 40
0.0454545454545455
 40
0.0454545454545455
 40
0.0454545454545455
 10
234.573879357319
 20
31.09647263641963
 30
0.0
 10
235.8069249013526
 20
31.63615976490453
 30
0.0
 10
236.4232179703992
 20
32.48893204177206
 30
0.0
 10
236.4232179703992
 20
33.65421520959666
 30
0.0
  0
SPLINE
  5
10B
330
1F
100
AcDbEntity
  8
LOGO1
 62
   238
420
  3866666
100
AcDbSpline
210
0.0
220
0.0
230
1.0
 70
     8
 71
     3
 72
     8
 73
     4
 74
     0
 42
0.000000001
 43
0.00000001
 40
0.0454545454545455
 40
0.0454545454545455
 40
0.0454545454545455
 40
0.0454545454545455
 40
0.0681818181818182
 40
0.0681818181818182
 40
0.0681818181818182
 40
0.0681818181818182
 10
236.4232179703992
 20
33.65421520959666
 30
0.0
 10
236.4232179703992
 20
33.99279738767147
 30
0.0
 10
236.3648734159684
 20
34.31495580337695
 30
0.0
 10
236.2465763863154
 20
34.61954194186212
 30
0.0
  0
SPLINE
  5
10C
330
1F
100
AcDbEntity
  8
LOGO1
 62
   238
420
  3866666
100
AcDbSpline
210
0.0
220
0.0
230
1.0
 70
     8
 71
     3
 72
     8
 73
     4
 74
     0
 42
0.000000001
 43
0.00000001
 40
0.0681818181818182
 40
0.0681818181818182
 40
0.0681818181818182
 40
0.0681818181818182
 40
0.0909090909090909
 40
0.0909090909090909
 40
0.0909090909090909
 40
0.0909090909090909
 10
236.2465763863154
 20
34.61954194186212
 30
0.0
 10
236.1285090596326
 20
34.92378352589204
 30
0.0
 10
235.9582991587144
 20
35.20137956537878
 30
0.0
 10
235.7334199508886
 20
35.45393798111363
 30
0.0
  0
SPLINE
  5
10D
330
1F
100
AcDbEntity
  8
LOGO1
 62
   238
420
  3866666
100
AcDbSpline
210
0.0
220
0.0
230
1.0
 70
     8
 71
     3
 72
     8
 73
     4
 74
     0
 42
0.000000001
 43
0.00000001
 40
0.0909090909090909
 40
0.0909090909090909
 40
0.0909090909090909
 40
0.0909090909090909
 40
0.1136363636363637
 40
0.1136363636363637
 40
0.1136363636363637
 40
0.1136363636363637
 10
235.7334199508886
 20
35.45393798111363
 30
0.0
 10
235.5090001490032
 20
35.70488847605713
 30
0.0
 10
235.251503119409
 20
35.91299936705833
 30
0.0
 10
234.9608140106209
 20
36.07700728778113
 30
0.0
  0
SPLINE
  5
10E
330
1F
100
AcDbEntity
  8
LOGO1
 62
   238
420
  3866666
100
AcDbSpline
210
0.0
220
0.0
230
1.0
 70
     8
 71
     3
 72
     8
 73
     4
 74
     0
 42
0.000000001
 43
0.00000001
 40
0.1136363636363637
 40
0.1136363636363637
 40
0.1136363636363637
 40
0.1136363636363637
 40
0.1363636363636364
 40
0.1363636363636364
 40
0.1363636363636364
 40
0.1363636363636364
 10
234.9608140106209
 20
36.07700728778113
 30
0.0
 10
234.6189011394782
 20
36.27110629760016
 30
0.0
 10
234.2340338129081
 20
36.40295580249492
 30
0.0
 10
233.8026516348725
 20
36.4711775846443
 30
0.0
  0
SPLINE
  5
10F
330
1F
100
AcDbEntity
  8
LOGO1
 62
   238
420
  3866666
100
AcDbSpline
210
0.0
220
0.0
230
1.0
 70
     8
 71
     3
 72
     8
 73
     4
 74
     0
 42
0.000000001
 43
0.00000001
 40
0.1363636363636364
 40
0.1363636363636364
 40
0.1363636363636364
 40
0.1363636363636364
 40
0.1590909090909091
 40
0.1590909090909091
 40
0.1590909090909091
 40
0.1590909090909091
 10
233.8026516348725
 20
36.4711775846443
 30
0.0
 10
233.3731070805985
 20
36.53928451530864
 30
0.0
 10
232.86374074418
 20
36.60819540636867
 30
0.0
 10
232.2771942097743
 20
36.60819540636867
 30
0.0
  0
SPLINE
  5
110
330
1F
100
AcDbEntity
  8
LOGO1
 62
   238
420
  3866666
100
AcDbSpline
210
0.0
220
0.0
230
1.0
 70
     8
 71
     3
 72
     8
 73
     4
 74
     0
 42
0.000000001
 43
0.00000001
 40
0.4772727272727271
 40
0.4772727272727271
 40
0.4772727272727271
 40
0.4772727272727271
 40
0.4999999999999998
 40
0.4999999999999998
 40
0.4999999999999998
 40
0.4999999999999998
 10
231.3009565864243
 20
34.74725679329332
 30
0.0
 10
232.2047229226762
 20
34.74725679329338
 30
0.0
 10
232.8777526253621
 20
34.71831421904814
 30
0.0
 10
233.3183229222058
 20
34.52352610031856
 30
0.0
  0
SPLINE
  5
111
330
1F
100
AcDbEntity
  8
LOGO1
 62
   238
420
  3866666
100
AcDbSpline
210
0.0
220
0.0
230
1.0
 70
     8
 71
     3
 72
     8
 73
     4
 74
     0
 42
0.000000001
 43
0.00000001
 40
0.4999999999999998
 40
0.4999999999999998
 40
0.4999999999999998
 40
0.4999999999999998
 40
0.5227272727272726
 40
0.5227272727272726
 40
0.5227272727272726
 40
0.5227272727272726
 10
233.3183229222058
 20
34.52352610031856
 30
0.0
 10
233.7592377735047
 20
34.32850827861872
 30
0.0
 10
233.9799823278669
 20
33.93606075403205
 30
0.0
 10
233.9799823278669
 20
33.34434590279683
 30
0.0
  0
SPLINE
  5
112
330
1F
100
AcDbEntity
  8
LOGO1
 62
   238
420
  3866666
100
AcDbSpline
210
0.0
220
0.0
230
1.0
 70
     8
 71
     3
 72
     8
 73
     4
 74
     0
 42
0.000000001
 43
0.00000001
 40
0.5227272727272726
 40
0.5227272727272726
 40
0.5227272727272726
 40
0.5227272727272726
 40
0.5454545454545453
 40
0.5454545454545453
 40
0.5454545454545453
 40
0.5454545454545453
 10
233.9799823278669
 20
33.34434590279683
 30
0.0
 10
233.9799823278669
 20
33.06720926925055
 30
0.0
 10
233.90888925859
 20
32.81660332876235
 30
0.0
 10
233.7698041101339
 20
32.59241322984712
 30
0.0
  0
SPLINE
  5
113
330
1F
100
AcDbEntity
  8
LOGO1
 62
   238
420
  3866666
100
AcDbSpline
210
0.0
220
0.0
230
1.0
 70
     8
 71
     3
 72
     8
 73
     4
 74
     0
 42
0.000000001
 43
0.00000001
 40
0.5454545454545453
 40
0.5454545454545453
 40
0.5454545454545453
 40
0.5454545454545453
 40
0.568181818181818
 40
0.568181818181818
 40
0.568181818181818
 40
0.568181818181818
 10
233.7698041101339
 20
32.59241322984712
 30
0.0
 10
233.5910951993183
 20
32.27737560621785
 30
0.0
 10
233.3319902489327
 20
32.06455580432754
 30
0.0
 10
232.9962793579854
 20
31.95326471526566
 30
0.0
  0
SPLINE
  5
114
330
1F
100
AcDbEntity
  8
LOGO1
 62
   238
420
  3866666
100
AcDbSpline
210
0.0
220
0.0
230
1.0
 70
     8
 71
     3
 72
     8
 73
     4
 74
     0
 42
0.000000001
 43
0.00000001
 40
0.568181818181818
 40
0.568181818181818
 40
0.568181818181818
 40
0.568181818181818
 40
0.5909090909090907
 40
0.5909090909090907
 40
0.5909090909090907
 40
0.5909090909090907
 10
232.9962793579854
 20
31.95326471526566
 30
0.0
 10
232.9344892590016
 20
31.93270629943273
 30
0.0
 10
232.8681051006138
 20
31.91421521033167
 30
0.0
 10
232.7968971798518
 20
31.89710233905174
 30
0.0
  0
SPLINE
  5
115
330
1F
100
AcDbEntity
  8
LOGO1
 62
   238
420
  3866666
100
AcDbSpline
210
0.0
220
0.0
230
1.0
 70
     8
 71
     3
 72
     8
 73
     4
 74
     0
 42
0.000000001
 43
0.00000001
 40
0.6136363636363634
 40
0.6136363636363634
 40
0.6136363636363634
 40
0.6136363636363634
 40
0.6363636363636361
 40
0.6363636363636361
 40
0.6363636363636361
 40
0.6363636363636361
 10
232.7968971798518
 20
31.89113006182653
 30
0.0
 10
232.4165090612006
 20
31.76938748762054
 30
0.0
 10
232.1383387642884
 20
31.40990233925756
 30
0.0
 10
232.1383387642884
 20
30.97920927013254
 30
0.0
  0
SPLINE
  5
116
330
1F
100
AcDbEntity
  8
LOGO1
 62
   238
420
  3866666
100
AcDbSpline
210
0.0
220
0.0
230
1.0
 70
     8
 71
     3
 72
     8
 73
     4
 74
     0
 42
0.000000001
 43
0.00000001
 40
0.6363636363636361
 40
0.6363636363636361
 40
0.6363636363636361
 40
0.6363636363636361
 40
0.6590909090909088
 40
0.6590909090909088
 40
0.6590909090909088
 40
0.6590909090909088
 10
232.1383387642884
 20
30.97920927013254
 30
0.0
 10
232.1383387642884
 20
30.54863105249261
 30
0.0
 10
232.4165090612006
 20
30.18857164670413
 30
0.0
 10
232.7968971798518
 20
30.06625481507264
 30
0.0
  0
SPLINE
  5
117
330
1F
100
AcDbEntity
  8
LOGO1
 62
   238
420
  3866666
100
AcDbSpline
210
0.0
220
0.0
230
1.0
 70
     8
 71
     2
 72
     6
 73
     3
 74
     0
 42
0.000000001
 43
0.00000001
 40
0.6590909090909088
 40
0.6590909090909088
 40
0.6590909090909088
 40
0.6818181818181815
 40
0.6818181818181815
 40
0.6818181818181815
 10
232.7968971798518
 20
30.06625481507264
 30
0.0
 10
232.8342239125093
 20
30.05385085468182
 30
0.0
 10
232.8891229223871
 20
30.03742709231255
 30
0.0
  0
SPLINE
  5
118
330
1F
100
AcDbEntity
  8
LOGO1
 62
   238
420
  3866666
100
AcDbSpline
210
0.0
220
0.0
230
1.0
 70
     8
 71
     3
 72
     8
 73
     4
 74
     0
 42
0.000000001
 43
0.00000001
 40
0.6818181818181815
 40
0.6818181818181815
 40
0.6818181818181815
 40
0.6818181818181815
 40
0.7045454545454543
 40
0.7045454545454543
 40
0.7045454545454543
 40
0.7045454545454543
 10
232.8891229223871
 20
30.03742709231255
 30
0.0
 10
233.2649169816343
 20
29.97242115174592
 30
0.0
 10
233.5771981696212
 20
29.86825085476025
 30
0.0
 10
233.8197645061524
 20
29.72066669640672
 30
0.0
  0
SPLINE
  5
119
330
1F
100
AcDbEntity
  8
LOGO1
 62
   238
420
  3866666
100
AcDbSpline
210
0.0
220
0.0
230
1.0
 70
     8
 71
     3
 72
     8
 73
     4
 74
     0
 42
0.000000001
 43
0.00000001
 40
0.7045454545454543
 40
0.7045454545454543
 40
0.7045454545454543
 40
0.7045454545454543
 40
0.727272727272727
 40
0.727272727272727
 40
0.727272727272727
 40
0.727272727272727
 10
233.8197645061524
 20
29.72066669640672
 30
0.0
 10
234.2551664861665
 20
29.45616372622145
 30
0.0
 10
234.4725803474608
 20
29.14985481545973
 30
0.0
 10
234.4725803474608
 20
28.56319342956898
 30
0.0
  0
SPLINE
  5
11A
330
1F
100
AcDbEntity
  8
LOGO1
 62
   238
420
  3866666
100
AcDbSpline
210
0.0
220
0.0
230
1.0
 70
     8
 71
     3
 72
     8
 73
     4
 74
     0
 42
0.000000001
 43
0.00000001
 40
0.727272727272727
 40
0.727272727272727
 40
0.727272727272727
 40
0.727272727272727
 40
0.7499999999999997
 40
0.7499999999999997
 40
0.7499999999999997
 40
0.7499999999999997
 10
234.4725803474608
 20
28.56319342956898
 30
0.0
 10
234.4725803474608
 20
27.41525283599444
 30
0.0
 10
233.6329011398946
 20
26.84191422237525
 30
0.0
 10
231.9545763881284
 20
26.84191422237525
 30
0.0
  0
SPLINE
  5
11B
330
1F
100
AcDbEntity
  8
LOGO1
 62
   238
420
  3866666
100
AcDbSpline
210
0.0
220
0.0
230
1.0
 70
     8
 71
     3
 72
     8
 73
     4
 74
     0
 42
0.000000001
 43
0.00000001
 40
0.954545454545454
 40
0.954545454545454
 40
0.954545454545454
 40
0.954545454545454
 40
0.9772727272727267
 40
0.9772727272727267
 40
0.9772727272727267
 40
0.9772727272727267
 10
232.0507070811571
 20
24.96489640138594
 30
0.0
 10
232.3830872790365
 20
24.96489640138594
 30
0.0
 10
232.6935308432618
 20
24.97305085682805
 30
0.0
 10
232.9834159916542
 20
24.98844095583141
 30
0.0
  0
SPLINE
  5
11C
330
1F
100
AcDbEntity
  8
LOGO1
 62
   238
420
  3866666
100
AcDbSpline
210
0.0
220
0.0
230
1.0
 70
     8
 71
     3
 72
     8
 73
     4
 74
     0
 42
0.000000001
 43
0.00000001
 40
0.0769230769230769
 40
0.0769230769230769
 40
0.0769230769230769
 40
0.0769230769230769
 40
0.1153846153846154
 40
0.1153846153846154
 40
0.1153846153846154
 40
0.1153846153846154
 10
252.2806476651076
 20
35.376750548612
 30
0.0
 10
252.1831387542578
 20
35.59760995445932
 30
0.0
 10
252.0630041008432
 20
35.80342381575852
 30
0.0
 10
251.9210476652596
 20
35.9959149047861
 30
0.0
  0
SPLINE
  5
11D
330
1F
100
AcDbEntity
  8
LOGO1
 62
   238
420
  3866666
100
AcDbSpline
210
0.0
220
0.0
230
1.0
 70
     8
 71
     3
 72
     8
 73
     4
 74
     0
 42
0.000000001
 43
0.00000001
 40
0.1153846153846154
 40
0.1153846153846154
 40
0.1153846153846154
 40
0.1153846153846154
 40
0.1538461538461539
 40
0.1538461538461539
 40
0.1538461538461539
 40
0.1538461538461539
 10
251.9210476652596
 20
35.9959149047861
 30
0.0
 10
251.7775981603696
 20
36.18771688490313
 30
0.0
 10
251.5907347941119
 20
36.34448916206462
 30
0.0
 10
251.3580456852993
 20
36.46680599369611
 30
0.0
  0
SPLINE
  5
11E
330
1F
100
AcDbEntity
  8
LOGO1
 62
   238
420
  3866666
100
AcDbSpline
210
0.0
220
0.0
230
1.0
 70
     8
 71
     3
 72
     8
 73
     4
 74
     0
 42
0.000000001
 43
0.00000001
 40
0.1538461538461539
 40
0.1538461538461539
 40
0.1538461538461539
 40
0.1538461538461539
 40
0.1923076923076923
 40
0.1923076923076923
 40
0.1923076923076923
 40
0.1923076923076923
 10
251.3580456852993
 20
36.46680599369611
 30
0.0
 10
251.1258159824272
 20
36.58820401344681
 30
0.0
 10
250.8366199429454
 20
36.64919015203488
 30
0.0
 10
250.4906872698242
 20
36.64919015203488
 30
0.0
  0
SPLINE
  5
11F
330
1F
100
AcDbEntity
  8
LOGO1
 62
   238
420
  3866666
100
AcDbSpline
210
0.0
220
0.0
230
1.0
 70
     8
 71
     3
 72
     8
 73
     4
 74
     0
 42
0.000000001
 43
0.00000001
 40
0.1923076923076923
 40
0.1923076923076923
 40
0.1923076923076923
 40
0.1923076923076923
 40
0.2307692307692308
 40
0.2307692307692308
 40
0.2307692307692308
 40
0.2307692307692308
 10
250.4906872698242
 20
36.64919015203488
 30
0.0
 10
250.1499229135325
 20
36.64919015203488
 30
0.0
 10
249.8639427156334
 20
36.58820401344681
 30
0.0
 10
249.6311387553358
 20
36.46680599369611
 30
0.0
  0
SPLINE
  5
120
330
1F
100
AcDbEntity
  8
LOGO1
 62
   238
420
  3866666
100
AcDbSpline
210
0.0
220
0.0
230
1.0
 70
     8
 71
     3
 72
     8
 73
     4
 74
     0
 42
0.000000001
 43
0.00000001
 40
0.2307692307692308
 40
0.2307692307692308
 40
0.2307692307692308
 40
0.2307692307692308
 40
0.2692307692307693
 40
0.2692307692307693
 40
0.2692307692307693
 40
0.2692307692307693
 10
249.6311387553358
 20
36.46680599369611
 30
0.0
 10
249.3984496465231
 20
36.34448916206462
 30
0.0
 10
249.2118159832356
 20
36.18369708292457
 30
0.0
 10
249.0696298446818
 20
35.98741589488868
 30
0.0
  0
SPLINE
  5
121
330
1F
100
AcDbEntity
  8
LOGO1
 62
   238
420
  3866666
100
AcDbSpline
210
0.0
220
0.0
230
1.0
 70
     8
 71
     3
 72
     8
 73
     4
 74
     0
 42
0.000000001
 43
0.00000001
 40
0.2692307692307693
 40
0.2692307692307693
 40
0.2692307692307693
 40
0.2692307692307693
 40
0.3076923076923077
 40
0.3076923076923077
 40
0.3076923076923077
 40
0.3076923076923077
 10
249.0696298446818
 20
35.98741589488868
 30
0.0
 10
248.9267545972175
 20
35.79067530091239
 30
0.0
 10
248.7922635081654
 20
35.54340005349209
 30
0.0
 10
248.667764498317
 20
35.24501589520228
 30
0.0
  0
SPLINE
  5
122
330
1F
100
AcDbEntity
  8
LOGO1
 62
   150
420
    33023
100
AcDbSpline
210
0.0
220
0.0
230
1.0
 70
     8
 71
     3
 72
     8
 73
     4
 74
     0
 42
0.000000001
 43
0.00000001
 40
0.4
 40
0.4
 40
0.4
 40
0.4
 40
0.6000000000000001
 40
0.6000000000000001
 40
0.6000000000000001
 40
0.6000000000000001
 10
236.4245961882204
 20
29.98907461708545
 30
0.0
 10
236.7547942078829
 20
29.58985085487786
 30
0.0
 10
236.9445288612681
 20
29.11046075607043
 30
0.0
 10
236.9916179701591
 20
28.55078946917817
 30
0.0
  0
SPLINE
  5
123
330
1F
100
AcDbEntity
  8
LOGO1
 62
   238
420
  3866666
100
AcDbSpline
210
0.0
220
0.0
230
1.0
 70
     8
 71
     3
 72
     8
 73
     4
 74
     0
 42
0.000000001
 43
0.00000001
 40
0.0
 40
0.0
 40
0.0
 40
0.0
 40
0.1666666666666667
 40
0.1666666666666667
 40
0.1666666666666667
 40
0.1666666666666667
 10
235.0450001491992
 20
25.36676174775082
 30
0.0
 10
235.6441803469659
 20
25.61415184665622
 30
0.0
 10
236.1195506437948
 20
25.99695184649453
 30
0.0
 10
236.4736377723581
 20
26.51653996508696
 30
0.0
  0
SPLINE
  5
124
330
1F
100
AcDbEntity
  8
LOGO1
 62
   238
420
  3866666
100
AcDbSpline
210
0.0
220
0.0
230
1.0
 70
     8
 71
     3
 72
     8
 73
     4
 74
     0
 42
0.000000001
 43
0.00000001
 40
0.1666666666666667
 40
0.1666666666666667
 40
0.1666666666666667
 40
0.1666666666666667
 40
0.3333333333333333
 40
0.3333333333333333
 40
0.3333333333333333
 40
0.3333333333333333
 10
236.4736377723581
 20
26.51653996508696
 30
0.0
 10
236.8265763860703
 20
27.03555382625383
 30
0.0
 10
237.0031031186691
 20
27.61911422204694
 30
0.0
 10
237.0031031186691
 20
28.26710630098112
 30
0.0
  0
SPLINE
  5
125
330
1F
100
AcDbEntity
  8
LOGO1
 62
   238
420
  3866666
100
AcDbSpline
210
0.0
220
0.0
230
1.0
 70
     8
 71
     3
 72
     8
 73
     4
 74
     0
 42
0.000000001
 43
0.00000001
 40
0.6666666666666666
 40
0.6666666666666666
 40
0.6666666666666666
 40
0.6666666666666666
 40
0.8333333333333333
 40
0.8333333333333333
 40
0.8333333333333333
 40
0.8333333333333333
 10
232.9834159916542
 20
24.98844095583141
 30
0.0
 10
233.2590595558942
 20
25.00325679740934
 30
0.0
 10
233.5159823280629
 20
25.02530828254856
 30
0.0
 10
233.7529209418242
 20
25.05482511421925
 30
0.0
  0
SPLINE
  5
126
330
1F
100
AcDbEntity
  8
LOGO1
 62
   238
420
  3866666
100
AcDbSpline
210
0.0
220
0.0
230
1.0
 70
     8
 71
     3
 72
     8
 73
     4
 74
     0
 42
0.000000001
 43
0.00000001
 40
0.8333333333333333
 40
0.8333333333333333
 40
0.8333333333333333
 40
0.8333333333333333
 40
1.0
 40
1.0
 40
1.0
 40
1.0
 10
233.7529209418242
 20
25.05482511421925
 30
0.0
 10
234.2398912386482
 20
25.11581125280738
 30
0.0
 10
234.6700100503477
 20
25.21917758939735
 30
0.0
 10
235.0450001491992
 20
25.36676174775082
 30
0.0
  0
ELLIPSE
  5
127
330
1F
100
AcDbEntity
  8
LOGO2
100
AcDbEllipse
 10
242.5029842637
 20
28.0678433671
 30
0.0
 11
-9.281964393266776
 21
-5.518954020724276
 31
0.0
210
0.0
220
0.0
230
1.0
 40
0.4790317882
 41
5.840044660114027
 42
8.72633430647621
  0
ELLIPSE
  5
128
330
1F
100
AcDbEntity
  8
LOGO2
100
AcDbEllipse
 10
242.5029842637
 20
28.0678433671
 30
0.0
 11
-9.281964393266776
 21
-5.518954020724276
 31
0.0
210
0.0
220
0.0
230
1.0
 40
0.4790317882
 41
4.958154129815593
 42
5.11614622350664
  0
ELLIPSE
  5
129
330
1F
100
AcDbEntity
  8
LOGO2
100
AcDbEllipse
 10
242.5029842637
 20
28.0678433671
 30
0.0
 11
-9.281964393266776
 21
-5.518954020724276
 31
0.0
210
0.0
220
0.0
230
1.0
 40
0.4790317882
 41
3.748252181811127
 42
4.67835827302119
  0
ELLIPSE
  5
12A
330
1F
100
AcDbEntity
  8
SLD-0
100
AcDbEllipse
 10
242.5029842637
 20
28.0678433671
 30
0.0
 11
-9.281964393266776
 21
-5.518954020724276
 31
0.0
210
0.0
220
0.0
230
1.0
 40
0.4790317882
 41
3.365945528146931
 42
3.425750292756564
  0
INSERT
  5
12B
330
1F
100
AcDbEntity
  8
0
  6
Continuous
 62
     7
100
AcDbBlockReference
  2
Bloc2
 10
354.8047549869
 20
14.1813780607
 30
0.0
 41
1.75
 42
1.75
 43
1.75
  0
MTEXT
  5
12D
330
1F
100
AcDbEntity
  8
PV
100
AcDbMText
 10
6.348821
 20
252.4770147354
 30
0.0
 40
3.5
 41
0.0
 46
0.0
 71
     1
 72
     1
  1
4
  7
SLDTEXTSTYLE0
 73
     1
 44
1.0
  0
MTEXT
  5
12E
330
1F
100
AcDbEntity
  8
PV
100
AcDbMText
 10
332.875
 20
11.2083967354
 30
0.0
 40
3.5
 41
0.0
 46
0.0
 71
     1
 72
     1
  1
B
  7
SLDTEXTSTYLE0
 73
     1
 44
1.0
  0
MTEXT
  5
12F
330
1F
100
AcDbEntity
  8
PV
100
AcDbMText
 10
410.651179
 20
116.2270147354
 30
0.0
 40
3.5
 41
0.0
 46
0.0
 71
     1
 72
     1
  1
2
  7
SLDTEXTSTYLE0
 73
     1
 44
1.0
  0
MTEXT
  5
130
330
1F
100
AcDbEntity
  8
PV
100
AcDbMText
 10
410.651179
 20
184.3520147354
 30
0.0
 40
3.5
 41
0.0
 46
0.0
 71
     1
 72
     1
  1
3
  7
SLDTEXTSTYLE0
 73
     1
 44
1.0
  0
MTEXT
  5
131
330
1F
100
AcDbEntity
  8
PV
100
AcDbMText
 10
410.651179
 20
252.4770147354
 30
0.0
 40
3.5
 41
0.0
 46
0.0
 71
     1
 72
     1
  1
4
  7
SLDTEXTSTYLE0
 73
     1
 44
1.0
  0
MTEXT
  5
132
330
1F
100
AcDbEntity
  8
PV
100
AcDbMText
 10
283.125
 20
11.2083967354
 30
0.0
 40
3.5
 41
0.0
 46
0.0
 71
     1
 72
     1
  1
C
  7
SLDTEXTSTYLE0
 73
     1
 44
1.0
  0
MTEXT
  5
133
330
1F
100
AcDbEntity
  8
PV
100
AcDbMText
 10
133.875
 20
11.2083967354
 30
0.0
 40
3.5
 41
0.0
 46
0.0
 71
     1
 72
     1
  1
F
  7
SLDTEXTSTYLE0
 73
     1
 44
1.0
  0
MTEXT
  5
134
330
1F
100
AcDbEntity
  8
PV
100
AcDbMText
 10
183.625
 20
11.2083967354
 30
0.0
 40
3.5
 41
0.0
 46
0.0
 71
     1
 72
     1
  1
E
  7
SLDTEXTSTYLE0
 73
     1
 44
1.0
  0
MTEXT
  5
135
330
1F
100
AcDbEntity
  8
PV
100
AcDbMText
 10
84.125
 20
11.2083967354
 30
0.0
 40
3.5
 41
0.0
 46
0.0
 71
     1
 72
     1
  1
G
  7
SLDTEXTSTYLE0
 73
     1
 44
1.0
  0
MTEXT
  5
136
330
1F
100
AcDbEntity
  8
PV
100
AcDbMText
 10
382.625
 20
11.2083967354
 30
0.0
 40
3.5
 41
0.0
 46
0.0
 71
     1
 72
     1
  1
A
  7
SLDTEXTSTYLE0
 73
     1
 44
1.0
  0
MTEXT
  5
137
330
1F
100
AcDbEntity
  8
PV
100
AcDbMText
 10
233.375
 20
11.2083967354
 30
0.0
 40
3.5
 41
0.0
 46
0.0
 71
     1
 72
     1
  1
D
  7
SLDTEXTSTYLE0
 73
     1
 44
1.0
  0
MTEXT
  5
138
330
1F
100
AcDbEntity
  8
PV
100
AcDbMText
 10
34.375
 20
11.2083967354
 30
0.0
 40
3.5
 41
0.0
 46
0.0
 71
     1
 72
     1
  1
H
  7
SLDTEXTSTYLE0
 73
     1
 44
1.0
  0
MTEXT
  5
139
330
1F
100
AcDbEntity
  8
PV
100
AcDbMText
 10
6.348821
 20
184.3520147354
 30
0.0
 40
3.5
 41
0.0
 46
0.0
 71
     1
 72
     1
  1
3
  7
SLDTEXTSTYLE0
 73
     1
 44
1.0
  0
MTEXT
  5
13A
330
1F
100
AcDbEntity
  8
PV
100
AcDbMText
 10
6.348821
 20
48.1020147354
 30
0.0
 40
3.5
 41
0.0
 46
0.0
 71
     1
 72
     1
  1
1
  7
SLDTEXTSTYLE0
 73
     1
 44
1.0
  0
MTEXT
  5
13B
330
1F
100
AcDbEntity
  8
PV
100
AcDbMText
 10
6.348821
 20
116.2270147354
 30
0.0
 40
3.5
 41
0.0
 46
0.0
 71
     1
 72
     1
  1
2
  7
SLDTEXTSTYLE0
 73
     1
 44
1.0
  0
MTEXT
  5
13C
330
1F
100
AcDbEntity
  8
PV
100
AcDbMText
 10
34.375
 20
289.3706327354
 30
0.0
 40
3.5
 41
0.0
 46
0.0
 71
     1
 72
     1
  1
H
  7
SLDTEXTSTYLE0
 73
     1
 44
1.0
  0
MTEXT
  5
13D
330
1F
100
AcDbEntity
  8
PV
100
AcDbMText
 10
233.375
 20
289.3706327354
 30
0.0
 40
3.5
 41
0.0
 46
0.0
 71
     1
 72
     1
  1
D
  7
SLDTEXTSTYLE0
 73
     1
 44
1.0
  0
MTEXT
  5
13E
330
1F
100
AcDbEntity
  8
PV
100
AcDbMText
 10
382.625
 20
289.3706327354
 30
0.0
 40
3.5
 41
0.0
 46
0.0
 71
     1
 72
     1
  1
A
  7
SLDTEXTSTYLE0
 73
     1
 44
1.0
  0
MTEXT
  5
13F
330
1F
100
AcDbEntity
  8
PV
100
AcDbMText
 10
84.125
 20
289.3706327354
 30
0.0
 40
3.5
 41
0.0
 46
0.0
 71
     1
 72
     1
  1
G
  7
SLDTEXTSTYLE0
 73
     1
 44
1.0
  0
MTEXT
  5
140
330
1F
100
AcDbEntity
  8
PV
100
AcDbMText
 10
183.625
 20
289.3706327354
 30
0.0
 40
3.5
 41
0.0
 46
0.0
 71
     1
 72
     1
  1
E
  7
SLDTEXTSTYLE0
 73
     1
 44
1.0
  0
MTEXT
  5
141
330
1F
100
AcDbEntity
  8
PV
100
AcDbMText
 10
133.875
 20
289.3706327354
 30
0.0
 40
3.5
 41
0.0
 46
0.0
 71
     1
 72
     1
  1
F
  7
SLDTEXTSTYLE0
 73
     1
 44
1.0
  0
MTEXT
  5
142
330
1F
100
AcDbEntity
  8
PV
100
AcDbMText
 10
283.125
 20
289.3706327354
 30
0.0
 40
3.5
 41
0.0
 46
0.0
 71
     1
 72
     1
  1
C
  7
SLDTEXTSTYLE0
 73
     1
 44
1.0
  0
MTEXT
  5
143
330
1F
100
AcDbEntity
  8
PV
100
AcDbMText
 10
332.875
 20
289.3706327354
 30
0.0
 40
3.5
 41
0.0
 46
0.0
 71
     1
 72
     1
  1
B
  7
SLDTEXTSTYLE0
 73
     1
 44
1.0
  0
MTEXT
  5
144
330
1F
100
AcDbEntity
  8
PV
100
AcDbMText
 10
263.3126437655
 20
25.2473412052
 30
0.0
 40
2.0
 41
0.0
 46
0.0
 71
     1
 72
     1
  1
MATERIAL :
  7
SLDTEXTSTYLE0
 73
     1
 44
1.0
  0
MTEXT
  5
145
330
1F
100
AcDbEntity
  8
PV
100
AcDbMText
 10
222.0842444312
 20
69.8723870997
 30
0.0
 40
2.0
 41
0.0
 46
0.0
 71
     1
 72
     1
  1
THIS DRAWING IS THE PROPERTY OF BEA AND MAY NOT BE REPRODUCED WITHOUT WRITTEN AGREEMENT
  7
SLDTEXTSTYLE0
 73
     1
 44
1.0
  0
MTEXT
  5
146
330
1F
100
AcDbEntity
  8
PV
100
AcDbMText
 10
300.1644316903
 20
65.2792821153
 30
0.0
 40
2.2
 41
0.0
 46
0.0
 71
     1
 72
     1
  1
MODIFICATIONS LIST
  7
SLDTEXTSTYLE0
 73
     1
 44
1.0
  0
MTEXT
  5
147
330
1F
100
AcDbEntity
  8
PV
100
AcDbMText
 10
399.9469401892
 20
61.3891857949
 30
0.0
 40
2.0
 41
0.0
 46
0.0
 71
     1
 72
     1
  1
\LRev :
  7
SLDTEXTSTYLE0
 73
     1
 44
1.0
  0
MTEXT
  5
148
330
1F
100
AcDbEntity
  8
PV
100
AcDbMText
 10
388.7527077653
 20
61.3891857949
 30
0.0
 40
2.0
 41
0.0
 46
0.0
 71
     1
 72
     1
  1
\LVer :
  7
SLDTEXTSTYLE0
 73
     1
 44
1.0
  0
MTEXT
  5
149
330
1F
100
AcDbEntity
  8
PV
100
AcDbMText
 10
250.1638407708
 20
61.5433778111
 30
0.0
 40
2.0
 41
0.0
 46
0.0
 71
     1
 72
     1
  1
\LDescription :
  7
SLDTEXTSTYLE0
 73
     1
 44
1.0
  0
MTEXT
  5
14A
330
1F
100
AcDbEntity
  8
PV
100
AcDbMText
 10
239.9207006797
 20
61.5741619316
 30
0.0
 40
2.0
 41
0.0
 46
0.0
 71
     1
 72
     1
  1
\LBy :
  7
SLDTEXTSTYLE0
 73
     1
 44
1.0
  0
MTEXT
  5
14B
330
1F
100
AcDbEntity
  8
PV
100
AcDbMText
 10
223.7054739288
 20
61.5200226407
 30
0.0
 40
2.0
 41
0.0
 46
0.0
 71
     1
 72
     1
  1
\LDate :
  7
SLDTEXTSTYLE0
 73
     1
 44
1.0
  0
MTEXT
  5
14C
330
1F
100
AcDbEntity
  8
PV
100
AcDbMText
 10
327.9989409856
 20
17.9841358327
 30
0.0
 40
4.4
 41
0.0
 46
0.0
 71
     1
 72
     1
  1
1:1
  7
SLDTEXTSTYLE0
 73
     1
 44
1.0
  0
MTEXT
  5
14D
330
1F
100
AcDbEntity
  8
PV
100
AcDbMText
 10
343.6878606228
 20
21.8200009258
 30
0.0
 40
2.0
 41
0.0
 46
0.0
 71
     1
 72
     1
  1
Size
  7
SLDTEXTSTYLE0
 73
     1
 44
1.0
  0
MTEXT
  5
14E
330
1F
100
AcDbEntity
  8
PV
100
AcDbMText
 10
375.8313957379
 20
37.2993464763
 30
0.0
 40
2.0
 41
0.0
 46
0.0
 71
     1
 72
     1
  1
DRAWER : PR
  7
SLDTEXTSTYLE0
 73
     1
 44
1.0
  0
MTEXT
  5
14F
330
1F
100
AcDbEntity
  8
PV
100
AcDbMText
 10
375.6775400219
 20
33.2896912318
 30
0.0
 40
2.0
 41
0.0
 46
0.0
 71
     1
 72
     1
  1
DATE :
  7
SLDTEXTSTYLE0
 73
     1
 44
1.0
  0
MTEXT
  5
150
330
1F
100
AcDbEntity
  8
PV
100
AcDbMText
 10
263.2975362943
 20
29.2065828456
 30
0.0
 40
2.0
 41
0.0
 46
0.0
 71
     1
 72
     1
  1
GENERAL TOLERANCE :
  7
SLDTEXTSTYLE0
 73
     1
 44
1.0
  0
MTEXT
  5
151
330
1F
100
AcDbEntity
  8
PV
100
AcDbMText
 10
392.0458349658
 20
29.2496014774
 30
0.0
 40
2.0
 41
0.0
 46
0.0
 71
     1
 72
     1
  1
APPROVED
  7
SLDTEXTSTYLE0
 73
     1
 44
1.0
  0
MTEXT
  5
152
330
1F
100
AcDbEntity
  8
PV
100
AcDbMText
 10
375.7588660845
 20
29.2541885189
 30
0.0
 40
2.0
 41
0.0
 46
0.0
 71
     1
 72
     1
  1
VERIFIED
  7
SLDTEXTSTYLE0
 73
     1
 44
1.0
  0
MTEXT
  5
154
330
1F
100
AcDbEntity
  8
PV
100
AcDbMText
 10
378.5846253155
 20
17.175850702
 30
0.0
 40
3.5
 41
0.0
 46
0.0
 71
     1
 72
     1
  1
PAGE: 1 / 1
  7
SLDTEXTSTYLE1
 73
     1
 44
1.0
  0
MTEXT
  5
156
330
1F
100
AcDbEntity
  8
LOGO1
100
AcDbMText
 10
233.253130815
 20
15.6674262338
 30
0.0
 40
1.3229166667
 41
0.0
 46
0.0
 71
     1
 72
     1
  1
WWW.BEA.BE
  7
SLDTEXTSTYLE2
 73
     1
 44
1.0
  0
MTEXT
  5
158
330
1F
100
AcDbEntity
  8
PV
100
AcDbMText
 10
222.0842444312
 20
74.6806382172
 30
0.0
 40
2.0
 41
0.0
 46
0.0
 71
     1
 72
     1
  1
Part Volume :  mm³ - Part Weight :  g
  7
SLDTEXTSTYLE3
 73
     1
 44
1.0
  0
MTEXT
  5
159
330
1F
100
AcDbEntity
  8
PV
100
AcDbMText
 10
328.5937690112
 20
21.8200009258
 30
0.0
 40
2.0
 41
0.0
 46
0.0
 71
     1
 72
     1
  1
Scale
  7
SLDTEXTSTYLE0
 73
     1
 44
1.0
  0
MTEXT
  5
15A
330
1F
100
AcDbEntity
  8
PV
100
AcDbMText
 10
342.4073314311
 20
18.0448146417
 30
0.0
 40
4.4
 41
0.0
 46
0.0
 71
     1
 72
     1
  1
A3
  7
SLDTEXTSTYLE0
 73
     1
 44
1.0
  0
INSERT
  5
161
330
1F
100
AcDbEntity
  8
SLD-0
100
AcDbBlockReference
  2
SW_NOTE_0
 10
225.7313550468
 20
16.376149639
 30
0.0
  0
MTEXT
  5
162
330
1F
100
AcDbEntity
  8
PV
100
AcDbMText
 10
386.7936576427
 20
33.5400354667
 30
0.0
 40
2.38125
 41
0.0
 46
0.0
 71
     1
 72
     1
  1
2020/10/21
  7
SLDTEXTSTYLE0
 73
     1
 44
1.0
  0
MTEXT
  5
164
330
1F
100
AcDbEntity
  8
PV
100
AcDbMText
 10
263.3618774205
 20
18.0913463746
 30
0.0
 40
4.4979166667
 41
0.0
 46
0.0
 71
     1
 72
     1
  1
48.1207 . A . PM . 01
  7
SLDTEXTSTYLE4
 73
     1
 44
1.0
  0
MTEXT
  5
165
330
1F
100
AcDbEntity
  8
PV
100
AcDbMText
 10
300.5287156838
 20
21.7135080473
 30
0.0
 40
2.0
 41
0.0
 46
0.0
 71
     1
 72
     1
  1
Type
  7
SLDTEXTSTYLE0
 73
     1
 44
1.0
  0
MTEXT
  5
166
330
1F
100
AcDbEntity
  8
PV
100
AcDbMText
 10
308.7080035214
 20
21.7135080473
 30
0.0
 40
2.0
 41
0.0
 46
0.0
 71
     1
 72
     1
  1
Revision
  7
SLDTEXTSTYLE0
 73
     1
 44
1.0
  0
MTEXT
  5
167
330
1F
100
AcDbEntity
  8
PV
100
AcDbMText
 10
289.1248999866
 20
21.7135080473
 30
0.0
 40
2.0
 41
0.0
 46
0.0
 71
     1
 72
     1
  1
Version
  7
SLDTEXTSTYLE0
 73
     1
 44
1.0
  0
MTEXT
  5
168
330
1F
100
AcDbEntity
  8
PV
100
AcDbMText
 10
265.362555877
 20
21.9314799312
 30
0.0
 40
2.0
 41
0.0
 46
0.0
 71
     1
 72
     1
  1
Part Number
  7
SLDTEXTSTYLE0
 73
     1
 44
1.0
  0
MTEXT
  5
169
330
1F
100
AcDbEntity
  8
PV
100
AcDbMText
 10
262.9570188295
 20
33.5507446495
 30
0.0
 40
2.2
 41
0.0
 46
0.0
 71
     1
 72
     1
  1
Description : Magic Switch Basic Surface External dimensions
  7
SLDTEXTSTYLE0
 73
     1
 44
1.0
  0
MTEXT
  5
16A
330
1F
100
AcDbEntity
  8
PV
100
AcDbMText
 10
263.3864504197
 20
37.3558787965
 30
0.0
 40
2.2
 41
0.0
 46
0.0
 71
     1
 72
     1
  1
Project Number :
  7
SLDTEXTSTYLE0
 73
     1
 44
1.0
  0
MTEXT
  5
16B
330
1F
100
AcDbEntity
  8
PV
100
AcDbMText
 10
318.5208899755
 20
25.2141587627
 30
0.0
 40
2.0
 41
0.0
 46
0.0
 71
     1
 72
     1
  1
TREATEMENT :
  7
SLDTEXTSTYLE0
 73
     1
 44
1.0
  0
MTEXT
  5
16D
330
1F
100
AcDbEntity
  8
PV
100
AcDbMText
 10
293.3719845981
 20
29.2065828456
 30
0.0
 40
2.0
 41
0.0
 46
0.0
 71
     1
 72
     1
  1
± 0.2 mm
  7
SLDTEXTSTYLE5
 73
     1
 44
1.0
  0
MTEXT
  5
16E
330
1F
100
AcDbEntity
  8
PV
100
AcDbMText
 10
278.1625700816
 20
25.2473412052
 30
0.0
 40
2.0
 41
0.0
 46
0.0
 71
     1
 72
     1
  1
Makrolon 2407 White
  7
SLDTEXTSTYLE0
 73
     1
 44
1.0
  0
MTEXT
  5
16F
330
1F
100
AcDbEntity
  8
PV
100
AcDbMText
 10
336.6736564433
 20
25.2141587627
 30
0.0
 40
2.0
 41
0.0
 46
0.0
 71
     1
 72
     1
  1
-
  7
SLDTEXTSTYLE0
 73
     1
 44
1.0
  0
LINE
  5
170
330
1F
100
AcDbEntity
  8
0
  6
Continuous
 62
     7
370
    25
100
AcDbLine
 10
57.0211128319
 20
237.0392560452
 30
0.0
 11
57.0211128319
 21
177.0392560452
 31
0.0
  0
LINE
  5
171
330
1F
100
AcDbEntity
  8
0
  6
Continuous
 62
     7
370
    25
100
AcDbLine
 10
137.0211128319
 20
177.0392560452
 30
0.0
 11
137.0211128319
 21
237.0392560452
 31
0.0
  0
ARC
  5
172
330
1F
100
AcDbEntity
  8
0
  6
Continuous
 62
     7
370
    25
100
AcDbCircle
 10
127.0211128319
 20
177.0392560452
 30
0.0
 40
10.0
100
AcDbArc
 50
270.0
 51
0.0
  0
LINE
  5
173
330
1F
100
AcDbEntity
  8
0
  6
Continuous
 62
     7
370
    25
100
AcDbLine
 10
67.0211128319
 20
167.0392560452
 30
0.0
 11
127.0211128319
 21
167.0392560452
 31
0.0
  0
ARC
  5
174
330
1F
100
AcDbEntity
  8
0
  6
Continuous
 62
     7
370
    25
100
AcDbCircle
 10
67.0211128319
 20
177.0392560452
 30
0.0
 40
10.0
100
AcDbArc
 50
180.0
 51
270.0
  0
ARC
  5
175
330
1F
100
AcDbEntity
  8
0
  6
Continuous
 62
     7
370
    25
100
AcDbCircle
 10
67.0211128319
 20
237.0392560452
 30
0.0
 40
10.0
100
AcDbArc
 50
90.0
 51
180.0
  0
LINE
  5
176
330
1F
100
AcDbEntity
  8
0
  6
Continuous
 62
     7
370
    25
100
AcDbLine
 10
127.0211128319
 20
247.0392560452
 30
0.0
 11
67.0211128319
 21
247.0392560452
 31
0.0
  0
ARC
  5
177
330
1F
100
AcDbEntity
  8
0
  6
Continuous
 62
     7
370
    25
100
AcDbCircle
 10
127.0211128319
 20
237.0392560452
 30
0.0
 40
9.999999999999943
100
AcDbArc
 50
0.0
 51
90.0
  0
LINE
  5
178
330
1F
100
AcDbEntity
  8
0
  6
Continuous
 62
     7
370
    25
100
AcDbLine
 10
127.0211128319
 20
241.1899192087
 30
0.0
 11
67.0211128319
 21
241.1899192087
 31
0.0
  0
LINE
  5
179
330
1F
100
AcDbEntity
  8
0
  6
Continuous
 62
     7
370
    25
100
AcDbLine
 10
67.0211128319
 20
246.6063618503
 30
0.0
 11
67.0211128319
 21
241.1899192087
 31
0.0
  0
LINE
  5
17A
330
1F
100
AcDbEntity
  8
0
  6
Continuous
 62
     7
370
    25
100
AcDbLine
 10
67.0211128319
 20
246.6063618503
 30
0.0
 11
127.0211128319
 21
246.6063618503
 31
0.0
  0
LINE
  5
17B
330
1F
100
AcDbEntity
  8
0
  6
Continuous
 62
     7
370
    25
100
AcDbLine
 10
127.0211128319
 20
241.1899192087
 30
0.0
 11
127.0211128319
 21
246.6063618503
 31
0.0
  0
LINE
  5
17C
330
1F
100
AcDbEntity
  8
0
  6
Continuous
 62
     7
370
    25
100
AcDbLine
 10
131.1717759954
 20
177.0392560452
 30
0.0
 11
131.1717759954
 21
237.0392560452
 31
0.0
  0
ARC
  5
17D
330
1F
100
AcDbEntity
  8
0
  6
Continuous
 62
     7
370
    25
100
AcDbCircle
 10
127.0211128319
 20
177.0392560452
 30
0.0
 40
4.15066316356581
100
AcDbArc
 50
270.0
 51
0.0
  0
LINE
  5
17E
330
1F
100
AcDbEntity
  8
0
  6
Continuous
 62
     7
370
    25
100
AcDbLine
 10
67.0211128319
 20
172.8885928816
 30
0.0
 11
127.0211128319
 21
172.8885928816
 31
0.0
  0
ARC
  5
17F
330
1F
100
AcDbEntity
  8
0
  6
Continuous
 62
     7
370
    25
100
AcDbCircle
 10
67.0211128319
 20
177.0392560452
 30
0.0
 40
4.150663163565753
100
AcDbArc
 50
180.0
 51
270.0
  0
LINE
  5
180
330
1F
100
AcDbEntity
  8
0
  6
Continuous
 62
     7
370
    25
100
AcDbLine
 10
62.8704496683
 20
237.0392560452
 30
0.0
 11
62.8704496683
 21
177.0392560452
 31
0.0
  0
ARC
  5
181
330
1F
100
AcDbEntity
  8
0
  6
Continuous
 62
     7
370
    25
100
AcDbCircle
 10
67.0211128319
 20
237.0392560452
 30
0.0
 40
4.150663163565781
100
AcDbArc
 50
90.0
 51
180.0
  0
ARC
  5
182
330
1F
100
AcDbEntity
  8
0
  6
Continuous
 62
     7
370
    25
100
AcDbCircle
 10
127.0211128319
 20
237.0392560452
 30
0.0
 40
4.150663163565781
100
AcDbArc
 50
0.0
 51
90.0
  0
LINE
  5
183
330
1F
100
AcDbEntity
  8
0
  6
Continuous
 62
     7
370
    25
100
AcDbLine
 10
131.1717759954
 20
237.0392560452
 30
0.0
 11
136.588218637
 21
237.0392560452
 31
0.0
  0
LINE
  5
184
330
1F
100
AcDbEntity
  8
0
  6
Continuous
 62
     7
370
    25
100
AcDbLine
 10
136.588218637
 20
237.0392560452
 30
0.0
 11
136.588218637
 21
177.0392560452
 31
0.0
  0
LINE
  5
185
330
1F
100
AcDbEntity
  8
0
  6
Continuous
 62
     7
370
    25
100
AcDbLine
 10
131.1717759954
 20
177.0392560452
 30
0.0
 11
136.588218637
 21
177.0392560452
 31
0.0
  0
LINE
  5
186
330
1F
100
AcDbEntity
  8
0
  6
Continuous
 62
     7
370
    25
100
AcDbLine
 10
57.4540070267
 20
177.0392560452
 30
0.0
 11
57.4540070267
 21
237.0392560452
 31
0.0
  0
LINE
  5
187
330
1F
100
AcDbEntity
  8
0
  6
Continuous
 62
     7
370
    25
100
AcDbLine
 10
57.4540070267
 20
237.0392560452
 30
0.0
 11
62.8704496683
 21
237.0392560452
 31
0.0
  0
LINE
  5
188
330
1F
100
AcDbEntity
  8
0
  6
Continuous
 62
     7
370
    25
100
AcDbLine
 10
57.4540070267
 20
177.0392560452
 30
0.0
 11
62.8704496683
 21
177.0392560452
 31
0.0
  0
LINE
  5
189
330
1F
100
AcDbEntity
  8
0
  6
Continuous
 62
     7
370
    25
100
AcDbLine
 10
127.0211128319
 20
172.8885928816
 30
0.0
 11
127.0211128319
 21
167.47215024
 31
0.0
  0
LINE
  5
18A
330
1F
100
AcDbEntity
  8
0
  6
Continuous
 62
     7
370
    25
100
AcDbLine
 10
127.0211128319
 20
167.47215024
 30
0.0
 11
67.0211128319
 21
167.47215024
 31
0.0
  0
LINE
  5
18B
330
1F
100
AcDbEntity
  8
0
  6
Continuous
 62
     7
370
    25
100
AcDbLine
 10
67.0211128319
 20
167.47215024
 30
0.0
 11
67.0211128319
 21
172.8885928816
 31
0.0
  0
ARC
  5
18C
330
1F
100
AcDbEntity
  8
0
  6
Continuous
 62
     7
370
    25
100
AcDbCircle
 10
127.0211128319
 20
237.0392560452
 30
0.0
 40
9.567105805132911
100
AcDbArc
 50
0.0
 51
90.0
  0
ARC
  5
18D
330
1F
100
AcDbEntity
  8
0
  6
Continuous
 62
     7
370
    25
100
AcDbCircle
 10
67.0211128319
 20
237.0392560452
 30
0.0
 40
9.567105805132883
100
AcDbArc
 50
90.0
 51
180.0
  0
ARC
  5
18E
330
1F
100
AcDbEntity
  8
0
  6
Continuous
 62
     7
370
    25
100
AcDbCircle
 10
67.0211128319
 20
177.0392560452
 30
0.0
 40
9.567105805132798
100
AcDbArc
 50
180.0
 51
270.0
  0
ARC
  5
18F
330
1F
100
AcDbEntity
  8
0
  6
Continuous
 62
     7
370
    25
100
AcDbCircle
 10
127.0211128319
 20
177.0392560452
 30
0.0
 40
9.567105805132798
100
AcDbArc
 50
270.0
 51
0.0
  0
LINE
  5
190
330
1F
100
AcDbEntity
  8
0
  6
Continuous
 62
     7
370
    25
100
AcDbLine
 10
57.4540070267
 20
237.0392560452
 30
0.0
 11
57.0211128319
 21
237.0392560452
 31
0.0
  0
LINE
  5
191
330
1F
100
AcDbEntity
  8
0
  6
Continuous
 62
     7
370
    25
100
AcDbLine
 10
57.4540070267
 20
177.0392560452
 30
0.0
 11
57.0211128319
 21
177.0392560452
 31
0.0
  0
LINE
  5
192
330
1F
100
AcDbEntity
  8
0
  6
Continuous
 62
     7
370
    25
100
AcDbLine
 10
67.0211128319
 20
167.47215024
 30
0.0
 11
67.0211128319
 21
167.0392560452
 31
0.0
  0
LINE
  5
193
330
1F
100
AcDbEntity
  8
0
  6
Continuous
 62
     7
370
    25
100
AcDbLine
 10
127.0211128319
 20
246.6063618503
 30
0.0
 11
127.0211128319
 21
247.0392560452
 31
0.0
  0
LINE
  5
194
330
1F
100
AcDbEntity
  8
0
  6
Continuous
 62
     7
370
    25
100
AcDbLine
 10
67.0211128319
 20
246.6063618503
 30
0.0
 11
67.0211128319
 21
247.0392560452
 31
0.0
  0
LINE
  5
195
330
1F
100
AcDbEntity
  8
0
  6
Continuous
 62
     7
370
    25
100
AcDbLine
 10
136.588218637
 20
237.0392560452
 30
0.0
 11
137.0211128319
 21
237.0392560452
 31
0.0
  0
LINE
  5
196
330
1F
100
AcDbEntity
  8
0
  6
Continuous
 62
     7
370
    25
100
AcDbLine
 10
136.588218637
 20
177.0392560452
 30
0.0
 11
137.0211128319
 21
177.0392560452
 31
0.0
  0
LINE
  5
197
330
1F
100
AcDbEntity
  8
0
  6
Continuous
 62
     7
370
    25
100
AcDbLine
 10
127.0211128319
 20
167.47215024
 30
0.0
 11
127.0211128319
 21
167.0392560452
 31
0.0
  0
LINE
  5
198
330
1F
100
AcDbEntity
  8
0
  6
Continuous
 62
     7
370
    25
100
AcDbLine
 10
92.0211128319
 20
167.0392560452
 30
0.0
 11
92.0298396996
 21
167.2155830259
 31
0.0
  0
LINE
  5
199
330
1F
100
AcDbEntity
  8
0
  6
Continuous
 62
     7
370
    25
100
AcDbLine
 10
67.0211128319
 20
167.0392560452
 30
0.0
 11
92.0211128319
 21
167.0392560452
 31
0.0
  0
LINE
  5
19A
330
1F
100
AcDbEntity
  8
0
  6
Continuous
 62
     7
370
    25
100
AcDbLine
 10
102.0211128319
 20
167.0392560452
 30
0.0
 11
127.0211128319
 21
167.0392560452
 31
0.0
  0
LINE
  5
19B
330
1F
100
AcDbEntity
  8
0
  6
Continuous
 62
     7
370
    25
100
AcDbLine
 10
102.0123859641
 20
167.2155830259
 30
0.0
 11
102.0211128319
 21
167.0392560452
 31
0.0
  0
LINE
  5
19C
330
1F
100
AcDbEntity
  8
0
  6
Continuous
 62
     7
370
    25
100
AcDbLine
 10
102.0123859641
 20
167.2155830259
 30
0.0
 11
92.0298396996
 21
167.2155830259
 31
0.0
  0
DIMENSION
  5
19D
330
1F
100
AcDbEntity
  8
COTATION
100
AcDbDimension
280
     0
  2
_D
 10
30.5568440281
 20
167.0392560452
 30
0.0
 11
30.5568440281
 21
207.0392560452
 31
0.0
 70
   160
  1
<>
 71
     2
 42
-1.0
 73
     0
 74
     0
 75
     0
  3
SLDDIMSTYLE0
100
AcDbAlignedDimension
 13
67.0211128319
 23
247.0392560452
 33
0.0
 14
102.0211128319
 24
167.0392560452
 34
0.0
 50
90.0
100
AcDbRotatedDimension
  0
DIMENSION
  5
1A8
330
1F
100
AcDbEntity
  8
COTATION
100
AcDbDimension
280
     0
  2
_D_1
 10
137.0211128319
 20
144.1617706796
 30
0.0
 11
97.0211128319
 21
144.1617706796
 31
0.0
 70
   160
  1
<>
 71
     2
 42
-1.0
 73
     0
 74
     0
 75
     0
  3
SLDDIMSTYLE0
100
AcDbAlignedDimension
 13
57.0211128319
 23
177.0392560452
 33
0.0
 14
137.0211128319
 24
177.0392560452
 34
0.0
 50
0.0
100
AcDbRotatedDimension
  0
LINE
  5
1B2
330
1F
100
AcDbEntity
  8
0
  6
Continuous
 62
     7
370
    25
100
AcDbLine
 10
178.744124234
 20
181.954732266
 30
0.0
 11
186.7516004672
 21
181.954732266
 31
0.0
  0
LINE
  5
1B3
330
1F
100
AcDbEntity
  8
0
  6
Continuous
 62
     7
370
    25
100
AcDbLine
 10
186.7516004672
 20
185.454732266
 30
0.0
 11
178.744124234
 21
185.454732266
 31
0.0
  0
ARC
  5
1B4
330
1F
100
AcDbEntity
  8
0
  6
Continuous
 62
     7
370
    25
100
AcDbCircle
 10
178.744124234
 20
182.454732266
 30
0.0
 40
0.5000000000000382
100
AcDbArc
 50
253.0627663289
 51
270.0
  0
ARC
  5
1B5
330
1F
100
AcDbEntity
  8
0
  6
Continuous
 62
     7
370
    25
100
AcDbCircle
 10
178.744124234
 20
184.954732266
 30
0.0
 40
0.5
100
AcDbArc
 50
90.0
 51
106.9372336711
  0
ARC
  5
1B6
330
1F
100
AcDbEntity
  8
0
  6
Continuous
 62
     7
370
    25
100
AcDbCircle
 10
180.1125754111
 20
180.4611297786
 30
0.0
 40
5.19735265218198
100
AcDbArc
 50
106.9372336711
 51
141.3847610614
  0
ARC
  5
1B7
330
1F
100
AcDbEntity
  8
0
  6
Continuous
 62
     7
370
    25
100
AcDbCircle
 10
180.1125754111
 20
186.9483347534
 30
0.0
 40
5.197352652182012
100
AcDbArc
 50
218.6152389386
 51
253.0627663289
  0
ARC
  5
1B8
330
1F
100
AcDbEntity
  8
0
  6
Continuous
 62
     7
370
    25
100
AcDbCircle
 10
178.744124234
 20
229.1237798243
 30
0.0
 40
0.500000000000011
100
AcDbArc
 50
253.0627663289
 51
270.0
  0
ARC
  5
1B9
330
1F
100
AcDbEntity
  8
0
  6
Continuous
 62
     7
370
    25
100
AcDbCircle
 10
178.744124234
 20
231.6237798243
 30
0.0
 40
0.5000000000000382
100
AcDbArc
 50
90.0
 51
106.9372336711
  0
LINE
  5
1BA
330
1F
100
AcDbEntity
  8
0
  6
Continuous
 62
     7
370
    25
100
AcDbLine
 10
178.744124234
 20
228.6237798243
 30
0.0
 11
186.7516004672
 21
228.6237798243
 31
0.0
  0
LINE
  5
1BB
330
1F
100
AcDbEntity
  8
0
  6
Continuous
 62
     7
370
    25
100
AcDbLine
 10
186.7516004672
 20
232.1237798243
 30
0.0
 11
178.744124234
 21
232.1237798243
 31
0.0
  0
ARC
  5
1BC
330
1F
100
AcDbEntity
  8
0
  6
Continuous
 62
     7
370
    25
100
AcDbCircle
 10
180.1125754111
 20
227.1301773369
 30
0.0
 40
5.197352652182012
100
AcDbArc
 50
106.9372336711
 51
141.3847610614
  0
ARC
  5
1BD
330
1F
100
AcDbEntity
  8
0
  6
Continuous
 62
     7
370
    25
100
AcDbCircle
 10
180.1125754111
 20
233.6173823117
 30
0.0
 40
5.197352652182012
100
AcDbArc
 50
218.6152389386
 51
253.0627663289
  0
LINE
  5
1BE
330
1F
100
AcDbEntity
  8
0
  6
Continuous
 62
     7
370
    25
100
AcDbLine
 10
186.7516004672
 20
237.0392560452
 30
0.0
 11
210.7516004672
 21
237.0392560452
 31
0.0
  0
LINE
  5
1BF
330
1F
100
AcDbEntity
  8
0
  6
Continuous
 62
     7
370
    25
100
AcDbLine
 10
186.7516004672
 20
246.4107939275
 30
0.0
 11
186.7516004672
 21
237.0392560452
 31
0.0
  0
LINE
  5
1C0
330
1F
100
AcDbEntity
  8
0
  6
Continuous
 62
     7
370
    25
100
AcDbLine
 10
186.7516004672
 20
246.4107939275
 30
0.0
 11
210.7516004672
 21
247.0392560452
 31
0.0
  0
LINE
  5
1C1
330
1F
100
AcDbEntity
  8
0
  6
Continuous
 62
     7
370
    25
100
AcDbLine
 10
210.7516004672
 20
247.0392560452
 30
0.0
 11
210.7516004672
 21
237.0392560452
 31
0.0
  0
LINE
  5
1C2
330
1F
100
AcDbEntity
  8
0
  6
Continuous
 62
     7
370
    25
100
AcDbLine
 10
186.7516004672
 20
177.0392560452
 30
0.0
 11
210.7516004672
 21
177.0392560452
 31
0.0
  0
LINE
  5
1C3
330
1F
100
AcDbEntity
  8
0
  6
Continuous
 62
     7
370
    25
100
AcDbLine
 10
186.7516004672
 20
237.0392560452
 30
0.0
 11
186.7516004672
 21
177.0392560452
 31
0.0
  0
LINE
  5
1C4
330
1F
100
AcDbEntity
  8
0
  6
Continuous
 62
     7
370
    25
100
AcDbLine
 10
210.7516004672
 20
237.0392560452
 30
0.0
 11
210.7516004672
 21
177.0392560452
 31
0.0
  0
LINE
  5
1C5
330
1F
100
AcDbEntity
  8
0
  6
Continuous
 62
     7
370
    25
100
AcDbLine
 10
186.7516004672
 20
167.6677181628
 30
0.0
 11
210.7516004672
 21
167.0392560452
 31
0.0
  0
LINE
  5
1C6
330
1F
100
AcDbEntity
  8
0
  6
Continuous
 62
     7
370
    25
100
AcDbLine
 10
186.7516004672
 20
177.0392560452
 30
0.0
 11
186.7516004672
 21
167.6677181628
 31
0.0
  0
LINE
  5
1C7
330
1F
100
AcDbEntity
  8
0
  6
Continuous
 62
     7
370
    25
100
AcDbLine
 10
210.7516004672
 20
177.0392560452
 30
0.0
 11
210.7516004672
 21
167.0392560452
 31
0.0
  0
LINE
  5
1C8
330
1F
100
AcDbEntity
  8
0
  6
Continuous
 62
     7
370
    25
100
AcDbLine
 10
213.2066654444
 20
246.6063618503
 30
0.0
 11
210.7516004672
 21
247.0392560452
 31
0.0
  0
LINE
  5
1C9
330
1F
100
AcDbEntity
  8
0
  6
Continuous
 62
     7
370
    25
100
AcDbLine
 10
213.2066654444
 20
237.0392560452
 30
0.0
 11
213.2066654444
 21
246.6063618503
 31
0.0
  0
LINE
  5
1CA
330
1F
100
AcDbEntity
  8
0
  6
Continuous
 62
     7
370
    25
100
AcDbLine
 10
213.2066654444
 20
237.0392560452
 30
0.0
 11
210.7516004672
 21
237.0392560452
 31
0.0
  0
LINE
  5
1CB
330
1F
100
AcDbEntity
  8
0
  6
Continuous
 62
     7
370
    25
100
AcDbLine
 10
213.2066654444
 20
177.0392560452
 30
0.0
 11
213.2066654444
 21
237.0392560452
 31
0.0
  0
LINE
  5
1CC
330
1F
100
AcDbEntity
  8
0
  6
Continuous
 62
     7
370
    25
100
AcDbLine
 10
213.2066654445
 20
177.0392560452
 30
0.0
 11
210.7516004672
 21
177.0392560452
 31
0.0
  0
LINE
  5
1CD
330
1F
100
AcDbEntity
  8
0
  6
Continuous
 62
     7
370
    25
100
AcDbLine
 10
213.2066654444
 20
167.47215024
 30
0.0
 11
213.2066654444
 21
177.0392560452
 31
0.0
  0
LINE
  5
1CE
330
1F
100
AcDbEntity
  8
0
  6
Continuous
 62
     7
370
    25
100
AcDbLine
 10
213.2066654444
 20
167.47215024
 30
0.0
 11
210.7516004672
 21
167.0392560452
 31
0.0
  0
LINE
  5
1CF
330
1F
100
AcDbEntity
  8
0
  6
Continuous
 62
     7
370
    25
100
AcDbLine
 10
213.2066654444
 20
237.0392560452
 30
0.0
 11
217.7516004672
 21
237.0392560452
 31
0.0
  0
LINE
  5
1D0
330
1F
100
AcDbEntity
  8
0
  6
Continuous
 62
     7
370
    25
100
AcDbLine
 10
217.7516004672
 20
237.0392560452
 30
0.0
 11
217.7516004672
 21
177.0392560452
 31
0.0
  0
LINE
  5
1D1
330
1F
100
AcDbEntity
  8
0
  6
Continuous
 62
     7
370
    25
100
AcDbLine
 10
213.2066654444
 20
177.0392560452
 30
0.0
 11
217.7516004672
 21
177.0392560452
 31
0.0
  0
ARC
  5
1D2
330
1F
100
AcDbEntity
  8
0
  6
Continuous
 62
     7
370
    25
100
AcDbCircle
 10
212.7250311988
 20
241.587174761
 30
0.0
 40
5.042242614586499
100
AcDbArc
 50
355.4812409491
 51
84.5187590509
  0
LINE
  5
1D3
330
1F
100
AcDbEntity
  8
0
  6
Continuous
 62
     7
370
    25
100
AcDbLine
 10
217.7516004672
 20
241.1899192087
 30
0.0
 11
217.7516004672
 21
237.0392560452
 31
0.0
  0
LINE
  5
1D4
330
1F
100
AcDbEntity
  8
0
  6
Continuous
 62
     7
370
    25
100
AcDbLine
 10
217.7516004672
 20
177.0392560452
 30
0.0
 11
217.7516004672
 21
172.8885928816
 31
0.0
  0
ARC
  5
1D5
330
1F
100
AcDbEntity
  8
0
  6
Continuous
 62
     7
370
    25
100
AcDbCircle
 10
212.7250311988
 20
172.4913373294
 30
0.0
 40
5.04224261458646
100
AcDbArc
 50
275.4812409491
 51
4.5187590509
  0
LINE
  5
1D6
330
1F
100
AcDbEntity
  8
0
  6
Continuous
 62
     7
370
    25
100
AcDbLine
 10
178.744124234
 20
183.704732266
 30
0.0
 11
178.744124234
 21
185.454732266
 31
0.0
  0
LINE
  5
1D7
330
1F
100
AcDbEntity
  8
0
  6
Continuous
 62
     7
370
    25
100
AcDbLine
 10
178.744124234
 20
181.954732266
 30
0.0
 11
178.744124234
 21
183.704732266
 31
0.0
  0
LINE
  5
1D8
330
1F
100
AcDbEntity
  8
0
  6
Continuous
 62
     7
370
    25
100
AcDbLine
 10
178.5984622752
 20
183.704732266
 30
0.0
 11
178.5984622752
 21
185.4330445006
 31
0.0
  0
LINE
  5
1D9
330
1F
100
AcDbEntity
  8
0
  6
Continuous
 62
     7
370
    25
100
AcDbLine
 10
178.5984622752
 20
181.9764200314
 30
0.0
 11
178.5984622752
 21
183.704732266
 31
0.0
  0
LINE
  5
1DA
330
1F
100
AcDbEntity
  8
0
  6
Continuous
 62
     7
370
    25
100
AcDbLine
 10
178.5984622752
 20
230.3737798243
 30
0.0
 11
178.5984622752
 21
232.1020920589
 31
0.0
  0
LINE
  5
1DB
330
1F
100
AcDbEntity
  8
0
  6
Continuous
 62
     7
370
    25
100
AcDbLine
 10
178.5984622752
 20
228.6454675897
 30
0.0
 11
178.5984622752
 21
230.3737798243
 31
0.0
  0
LINE
  5
1DC
330
1F
100
AcDbEntity
  8
0
  6
Continuous
 62
     7
370
    25
100
AcDbLine
 10
178.744124234
 20
230.3737798243
 30
0.0
 11
178.744124234
 21
232.1237798243
 31
0.0
  0
LINE
  5
1DD
330
1F
100
AcDbEntity
  8
0
  6
Continuous
 62
     7
370
    25
100
AcDbLine
 10
178.744124234
 20
228.6237798243
 30
0.0
 11
178.744124234
 21
230.3737798243
 31
0.0
  0
DIMENSION
  5
1DE
330
1F
100
AcDbEntity
  8
COTATION
100
AcDbDimension
280
     0
  2
_D_2
 10
217.7516004672
 20
137.0392310452
 30
0.0
 11
202.2516004672
 21
137.0392310452
 31
0.0
 70
   160
  1
<>
 71
     2
 42
-1.0
 73
     0
 74
     0
 75
     0
  3
SLDDIMSTYLE0
100
AcDbAlignedDimension
 13
186.7516004672
 23
177.0392560452
 33
0.0
 14
217.7516004672
 24
177.0392560452
 34
0.0
 50
0.0
100
AcDbRotatedDimension
  0
INSERT
  5
1F2
330
1F
100
AcDbEntity
  8
NOTES
100
AcDbBlockReference
  2
SW_NOTE_0_1
 10
159.3162071846
 20
258.6287756898
 30
0.0
  0
LEADER
  5
1F4
330
1F
100
AcDbEntity
  8
NOTES
100
AcDbLeader
  3
SLDDIMSTYLE1
 76
     2
 10
181.7625999766
 20
232.1237798243
 30
0.0
 10
159.3162071846
 20
258.6287756898
 30
0.0
  0
LINE
  5
1F5
330
1F
100
AcDbEntity
  8
COTATION
  6
CENTERX2
370
    18
100
AcDbLine
 10
174.0516004672
 20
230.3737798243
 30
0.0
 11
193.2746546624
 21
230.3737798243
 31
0.0
  0
LINE
  5
1F6
330
1F
100
AcDbEntity
  8
COTATION
  6
CENTERX2
370
    18
100
AcDbLine
 10
176.744124234
 20
183.704732266
 30
0.0
 11
190.7516004672
 21
183.704732266
 31
0.0
  0
CIRCLE
  5
1F7
330
1F
100
AcDbEntity
  8
0
  6
Continuous
 62
     7
370
    25
100
AcDbCircle
 10
346.396181158
 20
183.704732266
 30
0.0
 40
1.728312234586156
  0
CIRCLE
  5
1F8
330
1F
100
AcDbEntity
  8
0
  6
Continuous
 62
     7
370
    25
100
AcDbCircle
 10
346.396181158
 20
183.704732266
 30
0.0
 40
1.75
  0
CIRCLE
  5
1F9
330
1F
100
AcDbEntity
  8
0
  6
Continuous
 62
     7
370
    25
100
AcDbCircle
 10
299.7271335997
 20
183.704732266
 30
0.0
 40
1.728312234586099
  0
CIRCLE
  5
1FA
330
1F
100
AcDbEntity
  8
0
  6
Continuous
 62
     7
370
    25
100
AcDbCircle
 10
299.7271335997
 20
183.704732266
 30
0.0
 40
1.749999999999943
  0
CIRCLE
  5
1FB
330
1F
100
AcDbEntity
  8
0
  6
Continuous
 62
     7
370
    25
100
AcDbCircle
 10
299.7271335997
 20
230.3737798243
 30
0.0
 40
1.728312234586099
  0
CIRCLE
  5
1FC
330
1F
100
AcDbEntity
  8
0
  6
Continuous
 62
     7
370
    25
100
AcDbCircle
 10
299.7271335997
 20
230.3737798243
 30
0.0
 40
1.749999999999943
  0
CIRCLE
  5
1FD
330
1F
100
AcDbEntity
  8
0
  6
Continuous
 62
     7
370
    25
100
AcDbCircle
 10
346.396181158
 20
230.3737798243
 30
0.0
 40
1.728312234586156
  0
CIRCLE
  5
1FE
330
1F
100
AcDbEntity
  8
0
  6
Continuous
 62
     7
370
    25
100
AcDbCircle
 10
346.396181158
 20
230.3737798243
 30
0.0
 40
1.750000000000057
  0
LINE
  5
1FF
330
1F
100
AcDbEntity
  8
0
  6
Continuous
 62
     7
370
    25
100
AcDbLine
 10
283.6901194965
 20
177.0392560452
 30
0.0
 11
283.0616573788
 21
177.0392560452
 31
0.0
  0
ARC
  5
200
330
1F
100
AcDbEntity
  8
0
  6
Continuous
 62
     7
370
    25
100
AcDbCircle
 10
293.0616573788
 20
177.0392560452
 30
0.0
 40
9.37153788233951
100
AcDbArc
 50
180.0
 51
270.0
  0
LINE
  5
201
330
1F
100
AcDbEntity
  8
0
  6
Continuous
 62
     7
370
    25
100
AcDbLine
 10
293.0616573788
 20
167.6677181628
 30
0.0
 11
293.0616573788
 21
167.0392560452
 31
0.0
  0
ARC
  5
202
330
1F
100
AcDbEntity
  8
0
  6
Continuous
 62
     7
370
    25
100
AcDbCircle
 10
293.0616573788
 20
177.0392560452
 30
0.0
 40
10.0
100
AcDbArc
 50
180.0
 51
270.0
  0
LINE
  5
203
330
1F
100
AcDbEntity
  8
0
  6
Continuous
 62
     7
370
    25
100
AcDbLine
 10
353.0616573788
 20
167.6677181628
 30
0.0
 11
293.0616573788
 21
167.6677181628
 31
0.0
  0
LINE
  5
204
330
1F
100
AcDbEntity
  8
0
  6
Continuous
 62
     7
370
    25
100
AcDbLine
 10
283.6901194965
 20
177.0392560452
 30
0.0
 11
283.6901194965
 21
237.0392560452
 31
0.0
  0
ARC
  5
205
330
1F
100
AcDbEntity
  8
0
  6
Continuous
 62
     7
370
    25
100
AcDbCircle
 10
293.0616573788
 20
237.0392560452
 30
0.0
 40
9.371537882339453
100
AcDbArc
 50
90.0
 51
180.0
  0
LINE
  5
206
330
1F
100
AcDbEntity
  8
0
  6
Continuous
 62
     7
370
    25
100
AcDbLine
 10
293.0616573788
 20
246.4107939275
 30
0.0
 11
353.0616573788
 21
246.4107939275
 31
0.0
  0
ARC
  5
207
330
1F
100
AcDbEntity
  8
0
  6
Continuous
 62
     7
370
    25
100
AcDbCircle
 10
353.0616573788
 20
237.0392560452
 30
0.0
 40
9.37153788233951
100
AcDbArc
 50
0.0
 51
90.0
  0
LINE
  5
208
330
1F
100
AcDbEntity
  8
0
  6
Continuous
 62
     7
370
    25
100
AcDbLine
 10
362.4331952612
 20
237.0392560452
 30
0.0
 11
362.4331952612
 21
177.0392560452
 31
0.0
  0
ARC
  5
209
330
1F
100
AcDbEntity
  8
0
  6
Continuous
 62
     7
370
    25
100
AcDbCircle
 10
353.0616573788
 20
177.0392560452
 30
0.0
 40
9.37153788233951
100
AcDbArc
 50
270.0
 51
0.0
  0
CIRCLE
  5
20A
330
1F
100
AcDbEntity
  8
0
  6
Continuous
 62
     7
370
    25
100
AcDbCircle
 10
346.396181158
 20
183.704732266
 30
0.0
 40
1.965089870143572
  0
CIRCLE
  5
20B
330
1F
100
AcDbEntity
  8
0
  6
Continuous
 62
     7
370
    25
100
AcDbCircle
 10
346.396181158
 20
230.3737798243
 30
0.0
 40
1.965089870143629
  0
CIRCLE
  5
20C
330
1F
100
AcDbEntity
  8
0
  6
Continuous
 62
     7
370
    25
100
AcDbCircle
 10
299.7271335997
 20
230.3737798243
 30
0.0
 40
1.9650898701438
  0
CIRCLE
  5
20D
330
1F
100
AcDbEntity
  8
0
  6
Continuous
 62
     7
370
    25
100
AcDbCircle
 10
299.7271335997
 20
183.704732266
 30
0.0
 40
1.965089870143913
  0
CIRCLE
  5
20E
330
1F
100
AcDbEntity
  8
0
  6
Continuous
 62
     7
370
    25
100
AcDbCircle
 10
334.2446662874
 20
176.5392560452
 30
0.0
 40
2.965089870143572
  0
CIRCLE
  5
20F
330
1F
100
AcDbEntity
  8
0
  6
Continuous
 62
     7
370
    25
100
AcDbCircle
 10
292.5616573788
 20
195.8562471366
 30
0.0
 40
2.965089870143629
  0
CIRCLE
  5
210
330
1F
100
AcDbEntity
  8
0
  6
Continuous
 62
     7
370
    25
100
AcDbCircle
 10
311.8786484702
 20
237.5392560452
 30
0.0
 40
2.965089870143572
  0
CIRCLE
  5
211
330
1F
100
AcDbEntity
  8
0
  6
Continuous
 62
     7
370
    25
100
AcDbCircle
 10
353.5616573788
 20
218.2222649538
 30
0.0
 40
2.965089870143629
  0
LINE
  5
212
330
1F
100
AcDbEntity
  8
0
  6
Continuous
 62
     7
370
    25
100
AcDbLine
 10
283.6901194965
 20
237.0392560452
 30
0.0
 11
283.0616573788
 21
237.0392560452
 31
0.0
  0
LINE
  5
213
330
1F
100
AcDbEntity
  8
0
  6
Continuous
 62
     7
370
    25
100
AcDbLine
 10
283.0616573788
 20
177.0392560452
 30
0.0
 11
283.0616573788
 21
237.0392560452
 31
0.0
  0
LINE
  5
214
330
1F
100
AcDbEntity
  8
0
  6
Continuous
 62
     7
370
    25
100
AcDbLine
 10
353.0616573788
 20
167.6677181628
 30
0.0
 11
353.0616573788
 21
167.0392560452
 31
0.0
  0
LINE
  5
215
330
1F
100
AcDbEntity
  8
0
  6
Continuous
 62
     7
370
    25
100
AcDbLine
 10
353.0616573788
 20
167.0392560452
 30
0.0
 11
293.0616573788
 21
167.0392560452
 31
0.0
  0
LINE
  5
216
330
1F
100
AcDbEntity
  8
0
  6
Continuous
 62
     7
370
    25
100
AcDbLine
 10
293.0616573788
 20
246.4107939275
 30
0.0
 11
293.0616573788
 21
247.0392560452
 31
0.0
  0
ARC
  5
217
330
1F
100
AcDbEntity
  8
0
  6
Continuous
 62
     7
370
    25
100
AcDbCircle
 10
293.0616573788
 20
237.0392560452
 30
0.0
 40
9.999999999999943
100
AcDbArc
 50
90.0
 51
180.0
  0
LINE
  5
218
330
1F
100
AcDbEntity
  8
0
  6
Continuous
 62
     7
370
    25
100
AcDbLine
 10
353.0616573788
 20
246.4107939275
 30
0.0
 11
353.0616573788
 21
247.0392560452
 31
0.0
  0
LINE
  5
219
330
1F
100
AcDbEntity
  8
0
  6
Continuous
 62
     7
370
    25
100
AcDbLine
 10
293.0616573788
 20
247.0392560452
 30
0.0
 11
353.0616573788
 21
247.0392560452
 31
0.0
  0
LINE
  5
21A
330
1F
100
AcDbEntity
  8
0
  6
Continuous
 62
     7
370
    25
100
AcDbLine
 10
362.4331952612
 20
177.0392560452
 30
0.0
 11
363.0616573788
 21
177.0392560452
 31
0.0
  0
ARC
  5
21B
330
1F
100
AcDbEntity
  8
0
  6
Continuous
 62
     7
370
    25
100
AcDbCircle
 10
353.0616573788
 20
177.0392560452
 30
0.0
 40
10.0
100
AcDbArc
 50
270.0
 51
0.0
  0
LINE
  5
21C
330
1F
100
AcDbEntity
  8
0
  6
Continuous
 62
     7
370
    25
100
AcDbLine
 10
362.4331952612
 20
237.0392560452
 30
0.0
 11
363.0616573788
 21
237.0392560452
 31
0.0
  0
LINE
  5
21D
330
1F
100
AcDbEntity
  8
0
  6
Continuous
 62
     7
370
    25
100
AcDbLine
 10
363.0616573788
 20
237.0392560452
 30
0.0
 11
363.0616573788
 21
177.0392560452
 31
0.0
  0
ARC
  5
21E
330
1F
100
AcDbEntity
  8
0
  6
Continuous
 62
     7
370
    25
100
AcDbCircle
 10
353.0616573788
 20
237.0392560452
 30
0.0
 40
10.0
100
AcDbArc
 50
0.0
 51
90.0
  0
LINE
  5
21F
330
1F
100
AcDbEntity
  8
0
  6
Continuous
 62
     7
370
    25
100
AcDbLine
 10
353.0616573788
 20
167.0392560452
 30
0.0
 11
328.0616573788
 21
167.0392560452
 31
0.0
  0
LINE
  5
220
330
1F
100
AcDbEntity
  8
0
  6
Continuous
 62
     7
370
    25
100
AcDbLine
 10
318.0616573788
 20
167.0392560452
 30
0.0
 11
293.0616573788
 21
167.0392560452
 31
0.0
  0
DIMENSION
  5
221
330
1F
100
AcDbEntity
  8
COTATION
100
AcDbDimension
280
     0
  2
_D_3
 10
255.4184093479
 20
183.704732266
 30
0.0
 11
255.4184093479
 21
207.0392560452
 31
0.0
 70
   160
  1
=<>=
 71
     2
 42
-1.0
 73
     0
 74
     0
 75
     0
  3
SLDDIMSTYLE2
100
AcDbAlignedDimension
 13
341.9310912878
 23
230.3737798243
 33
0.0
 14
341.9310912878
 24
183.704732266
 34
0.0
 50
90.0
100
AcDbRotatedDimension
  0
DIMENSION
  5
22E
330
1F
100
AcDbEntity
  8
COTATION
100
AcDbDimension
280
     0
  2
_D_4
 10
346.396181158
 20
140.0521259961
 30
0.0
 11
323.0616573788
 21
140.0521259961
 31
0.0
 70
   160
  1
=<>=
 71
     2
 42
-1.0
 73
     0
 74
     0
 75
     0
  3
SLDDIMSTYLE2
100
AcDbAlignedDimension
 13
299.7271335997
 23
225.9086899542
 33
0.0
 14
346.396181158
 24
225.9086899542
 34
0.0
 50
0.0
100
AcDbRotatedDimension
  0
DIMENSION
  5
23A
330
1F
100
AcDbEntity
  8
COTATION
100
AcDbDimension
280
     0
  2
_D_5
 10
255.4184093479
 20
167.0392560452
 30
0.0
 11
255.4184093479
 21
149.9604101293
 31
0.0
 70
   160
  1
(<>)
 71
     2
 42
-1.0
 73
     0
 74
     0
 75
     0
  3
SLDDIMSTYLE2
100
AcDbAlignedDimension
 13
341.9310912878
 23
183.704732266
 33
0.0
 14
328.0616573788
 24
167.0392560452
 34
0.0
 50
90.0
100
AcDbRotatedDimension
  0
DIMENSION
  5
247
330
1F
100
AcDbEntity
  8
COTATION
100
AcDbDimension
280
     0
  2
_D_6
 10
346.396181158
 20
140.0521259961
 30
0.0
 11
373.0616823788
 21
140.0521259961
 31
0.0
 70
   160
  1
(<>)
 71
     2
 42
-1.0
 73
     0
 74
     0
 75
     0
  3
SLDDIMSTYLE2
100
AcDbAlignedDimension
 13
363.0616573788
 23
177.0392560452
 33
0.0
 14
346.396181158
 24
183.704732266
 34
0.0
 50
0.0
100
AcDbRotatedDimension
  0
DIMENSION
  5
254
330
1F
100
AcDbEntity
  8
COTATION
100
AcDbDimension
280
     0
  2
_D_7
 10
309.136307649
 20
238.6667864253
 30
0.0
 11
255.4184093479
 21
258.9625779887
 31
0.0
 70
   163
  1
4x<>\Pfor cable entry
 71
     1
 42
-1.0
 73
     0
 74
     0
 75
     0
  3
SLDDIMSTYLE3
100
AcDbDiametricDimension
 15
314.6209892915
 25
236.4117256651
 35
0.0
 40
0.0
  0
DIMENSION
  5
263
330
1F
100
AcDbEntity
  8
COTATION
100
AcDbDimension
280
     0
  2
_D_8
 10
389.750094781
 20
176.5392560452
 30
0.0
 11
389.750094781
 21
207.0392560452
 31
0.0
 70
   160
  1
=<>=
 71
     2
 42
-1.0
 73
     0
 74
     0
 75
     0
  3
SLDDIMSTYLE0
100
AcDbAlignedDimension
 13
317.3437383404
 23
237.5392560452
 33
0.0
 14
339.7097561576
 24
176.5392560452
 34
0.0
 50
90.0
100
AcDbRotatedDimension
  0
DIMENSION
  5
26F
330
1F
100
AcDbEntity
  8
COTATION
100
AcDbDimension
280
     0
  2
_D_9
 10
334.2446662874
 20
149.9604101293
 30
0.0
 11
323.0616573788
 21
149.9604101293
 31
0.0
 70
   160
  1
=<>=
 71
     2
 42
-1.0
 73
     0
 74
     0
 75
     0
  3
SLDDIMSTYLE2
100
AcDbAlignedDimension
 13
311.8786484702
 23
232.074166175
 33
0.0
 14
334.2446662874
 24
171.074166175
 34
0.0
100
AcDbRotatedDimension
  0
DIMENSION
  5
27B
330
1F
100
AcDbEntity
  8
COTATION
100
AcDbDimension
280
     0
  2
_D_10
 10
363.0616573788
 20
149.9604101293
 30
0.0
 11
373.0616823788
 21
149.9604101293
 31
0.0
 70
   160
  1
(<>)
 71
     2
 42
-1.0
 73
     0
 74
     0
 75
     0
  3
SLDDIMSTYLE2
100
AcDbAlignedDimension
 13
334.2446662874
 23
171.074166175
 33
0.0
 14
363.0616573788
 24
177.0392560452
 34
0.0
 50
0.0
100
AcDbRotatedDimension
  0
DIMENSION
  5
288
330
1F
100
AcDbEntity
  8
COTATION
100
AcDbDimension
280
     0
  2
_D_11
 10
389.750094781
 20
167.0392560452
 30
0.0
 11
389.750094781
 21
160.4660743882
 31
0.0
 70
   160
  1
(<>)
 71
     2
 42
-1.0
 73
     0
 74
     0
 75
     0
  3
SLDDIMSTYLE0
100
AcDbAlignedDimension
 13
339.7097561576
 23
176.5392560452
 33
0.0
 14
353.0616573788
 24
167.0392560452
 34
0.0
 50
90.0
100
AcDbRotatedDimension
  0
DIMENSION
  5
295
330
1F
100
AcDbEntity
  8
COTATION
100
AcDbDimension
280
     0
  2
_D_12
 10
353.5616573788
 20
128.8721904998
 30
0.0
 11
323.0616573788
 21
128.8721904998
 31
0.0
 70
   160
  1
=<>=
 71
     2
 42
-1.0
 73
     0
 74
     0
 75
     0
  3
SLDDIMSTYLE0
100
AcDbAlignedDimension
 13
292.5616573788
 23
190.3911572664
 33
0.0
 14
353.5616573788
 24
212.7571750836
 34
0.0
100
AcDbRotatedDimension
  0
DIMENSION
  5
2A1
330
1F
100
AcDbEntity
  8
COTATION
100
AcDbDimension
280
     0
  2
_D_13
 10
267.0977577838
 20
195.8562471366
 30
0.0
 11
267.0977577838
 21
207.0392560452
 31
0.0
 70
   160
  1
=<>=
 71
     2
 42
-1.0
 73
     0
 74
     0
 75
     0
  3
SLDDIMSTYLE2
100
AcDbAlignedDimension
 13
348.0965675087
 23
218.2222649538
 33
0.0
 14
287.0965675087
 24
195.8562471366
 34
0.0
 50
90.0
100
AcDbRotatedDimension
  0
DIMENSION
  5
2AD
330
1F
100
AcDbEntity
  8
COTATION
100
AcDbDimension
280
     0
  2
_D_14
 10
267.0977577838
 20
167.0392560452
 30
0.0
 11
267.0977577838
 21
149.9604101293
 31
0.0
 70
   160
  1
(<>)
 71
     2
 42
-1.0
 73
     0
 74
     0
 75
     0
  3
SLDDIMSTYLE0
100
AcDbAlignedDimension
 13
287.0965675087
 23
195.8562471366
 33
0.0
 14
293.0616573788
 24
167.0392560452
 34
0.0
 50
90.0
100
AcDbRotatedDimension
  0
DIMENSION
  5
2BA
330
1F
100
AcDbEntity
  8
COTATION
100
AcDbDimension
280
     0
  2
_D_15
 10
363.0616573788
 20
128.8721904998
 30
0.0
 11
374.7285966763
 21
128.8721904998
 31
0.0
 70
   160
  1
(<>)
 71
     2
 42
-1.0
 73
     0
 74
     0
 75
     0
  3
SLDDIMSTYLE0
100
AcDbAlignedDimension
 13
353.5616573788
 23
212.7571750836
 33
0.0
 14
363.0616573788
 24
177.0392560452
 34
0.0
 50
0.0
100
AcDbRotatedDimension
  0
INSERT
  5
2D2
330
1F
100
AcDbEntity
  8
COTATION
100
AcDbBlockReference
  2
SW_CENTERMARKSYMBOL_0
 10
299.7271335997
 20
230.3737798243
 30
0.0
  0
INSERT
  5
2DE
330
1F
100
AcDbEntity
  8
COTATION
100
AcDbBlockReference
  2
SW_CENTERMARKSYMBOL_1
 10
346.396181158
 20
230.3737798243
 30
0.0
  0
INSERT
  5
2EA
330
1F
100
AcDbEntity
  8
COTATION
100
AcDbBlockReference
  2
SW_CENTERMARKSYMBOL_2
 10
299.7271335997
 20
183.704732266
 30
0.0
  0
INSERT
  5
2F6
330
1F
100
AcDbEntity
  8
COTATION
100
AcDbBlockReference
  2
SW_CENTERMARKSYMBOL_3
 10
346.396181158
 20
183.704732266
 30
0.0
  0
INSERT
  5
302
330
1F
100
AcDbEntity
  8
COTATION
100
AcDbBlockReference
  2
SW_CENTERMARKSYMBOL_4
 10
311.8786484702
 20
237.5392560452
 30
0.0
  0
INSERT
  5
30E
330
1F
100
AcDbEntity
  8
COTATION
100
AcDbBlockReference
  2
SW_CENTERMARKSYMBOL_5
 10
292.5616573788
 20
195.8562471366
 30
0.0
  0
INSERT
  5
31A
330
1F
100
AcDbEntity
  8
COTATION
100
AcDbBlockReference
  2
SW_CENTERMARKSYMBOL_6
 10
353.5616573788
 20
218.2222649538
 30
0.0
  0
INSERT
  5
326
330
1F
100
AcDbEntity
  8
COTATION
100
AcDbBlockReference
  2
SW_CENTERMARKSYMBOL_7
 10
334.2446662874
 20
176.5392560452
 30
0.0
  0
LINE
  5
327
330
1F
100
AcDbEntity
  8
COTATION
  6
CENTERX2
370
    18
100
AcDbLine
 10
323.0616573788
 20
248.8617540837
 30
0.0
 11
323.0616573788
 21
162.4866973678
 31
0.0
  0
LINE
  5
328
330
1F
100
AcDbEntity
  8
COTATION
  6
CENTERX2
370
    18
100
AcDbLine
 10
369.3761257768
 20
207.0392560452
 30
0.0
 11
277.1808748095
 21
207.0392560452
 31
0.0
  0
LINE
  5
329
330
1F
100
AcDbEntity
  8
0
  6
Continuous
 62
     7
370
    25
100
AcDbLine
 10
62.7375045737
 20
54.1557899916
 30
0.0
 11
71.009796869
 21
40.0382863963
 31
0.0
  0
LINE
  5
32A
330
1F
100
AcDbEntity
  8
0
  6
Continuous
 62
     7
370
    25
100
AcDbLine
 10
160.4410700838
 20
92.1431650593
 30
0.0
 11
153.2764006783
 21
106.8537816301
 31
0.0
  0
ARC
  5
32B
330
1F
100
AcDbEntity
  8
0
  6
Continuous
 62
     7
370
    25
100
AcDbCircle
 10
70.2289004361
 20
59.3121425516
 30
0.0
 40
8.716722673685272
100
AcDbArc
 50
158.1813165936
 51
193.5732597397
  0
LINE
  5
32C
330
1F
100
AcDbEntity
  8
0
  6
Continuous
 62
     7
370
    25
100
AcDbLine
 10
61.7513897578
 20
57.2820688673
 30
0.0
 11
62.1428933752
 21
55.6403932051
 31
0.0
  0
ARC
  5
32D
330
1F
100
AcDbEntity
  8
0
  6
Continuous
 62
     7
370
    25
100
AcDbCircle
 10
144.8068673354
 20
103.4170928276
 30
0.0
 40
8.775944969700129
100
AcDbArc
 50
42.937638017
 51
84.8434329163
  0
LINE
  5
32E
330
1F
100
AcDbEntity
  8
0
  6
Continuous
 62
     7
370
    25
100
AcDbLine
 10
81.7296937351
 20
110.2942057421
 30
0.0
 11
62.1366029865
 21
62.5518919488
 31
0.0
  0
LINE
  5
32F
330
1F
100
AcDbEntity
  8
0
  6
Continuous
 62
     7
370
    25
100
AcDbLine
 10
152.3703544337
 20
108.1716167418
 30
0.0
 11
151.2209902769
 21
109.4074711414
 31
0.0
  0
LINE
  5
330
330
1F
100
AcDbEntity
  8
0
  6
Continuous
 62
     7
370
    25
100
AcDbLine
 10
145.5956284409
 20
112.1575199356
 30
0.0
 11
92.2741612707
 21
116.6393715584
 31
0.0
  0
ARC
  5
331
330
1F
100
AcDbEntity
  8
0
  6
Continuous
 62
     7
370
    25
100
AcDbCircle
 10
91.4809520222
 20
106.0234955981
 30
0.0
 40
10.64546867531758
100
AcDbArc
 50
85.7268484085
 51
156.3482623073
  0
ARC
  5
332
330
1F
100
AcDbEntity
  8
0
  6
Continuous
 62
     7
370
    25
100
AcDbCircle
 10
147.8902636137
 20
104.211587506
 30
0.0
 40
5.979385027261878
100
AcDbArc
 50
333.7740694005
 51
41.4740183431
  0
LINE
  5
333
330
1F
100
AcDbEntity
  8
0
  6
Continuous
 62
     7
370
    25
100
AcDbLine
 10
133.6610308108
 20
53.8269124121
 30
0.0
 11
153.2541215594
 21
101.5692262054
 31
0.0
  0
ARC
  5
334
330
1F
100
AcDbEntity
  8
0
  6
Continuous
 62
     7
370
    25
100
AcDbCircle
 10
122.307608684
 20
59.1164935935
 30
0.0
 40
12.52516918303963
100
AcDbArc
 50
266.3425105347
 51
335.0190979198
  0
LINE
  5
335
330
1F
100
AcDbEntity
  8
0
  6
Continuous
 62
     7
370
    25
100
AcDbLine
 10
68.1871373208
 20
51.0986870065
 30
0.0
 11
121.508604491
 21
46.6168353837
 31
0.0
  0
ARC
  5
336
330
1F
100
AcDbEntity
  8
0
  6
Continuous
 62
     7
370
    25
100
AcDbCircle
 10
68.178342502
 20
57.3797696562
 30
0.0
 40
6.281088806939025
100
AcDbArc
 50
196.0766309611
 51
270.0802259253
  0
LINE
  5
337
330
1F
100
AcDbEntity
  8
0
  6
Continuous
 62
     7
370
    25
100
AcDbLine
 10
140.8271003745
 20
39.4484101306
 30
0.0
 11
133.6610308108
 21
53.8269124121
 31
0.0
  0
ARC
  5
338
330
1F
100
AcDbEntity
  8
0
  6
Continuous
 62
     7
370
    25
100
AcDbCircle
 10
130.187197819
 20
44.4055611729
 30
0.0
 40
11.73800974815683
100
AcDbArc
 50
266.3425105347
 51
335.0190979198
  0
LINE
  5
339
330
1F
100
AcDbEntity
  8
0
  6
Continuous
 62
     7
370
    25
100
AcDbLine
 10
129.4384080127
 20
32.6914591299
 30
0.0
 11
121.508604491
 21
46.6168353837
 31
0.0
  0
LINE
  5
33A
330
1F
100
AcDbEntity
  8
0
  6
Continuous
 62
     7
370
    25
100
AcDbLine
 10
76.1169408425
 20
37.1733107528
 30
0.0
 11
129.4384080127
 21
32.6914591299
 31
0.0
  0
LINE
  5
33B
330
1F
100
AcDbEntity
  8
0
  6
Continuous
 62
     7
370
    25
100
AcDbLine
 10
76.1169408425
 20
37.1733107528
 30
0.0
 11
68.1871373208
 21
51.0986870065
 31
0.0
  0
LINE
  5
33C
330
1F
100
AcDbEntity
  8
0
  6
Continuous
 62
     7
370
    25
100
AcDbLine
 10
160.4201911231
 20
87.1907239238
 30
0.0
 11
153.2541215594
 21
101.5692262054
 31
0.0
  0
LINE
  5
33D
330
1F
100
AcDbEntity
  8
0
  6
Continuous
 62
     7
370
    25
100
AcDbLine
 10
140.8271003745
 20
39.4484101306
 30
0.0
 11
160.4201911231
 21
87.1907239238
 31
0.0
  0
ARC
  5
33E
330
1F
100
AcDbEntity
  8
0
  6
Continuous
 62
     7
370
    25
100
AcDbCircle
 10
76.3022616008
 20
43.4881854835
 30
0.0
 40
6.317593422215072
100
AcDbArc
 50
213.0983645187
 51
268.3190401824
  0
ARC
  5
33F
330
1F
100
AcDbEntity
  8
0
  6
Continuous
 62
     7
370
    25
100
AcDbCircle
 10
154.9860365484
 20
89.6898983161
 30
0.0
 40
5.981296563861672
100
AcDbArc
 50
335.3022405481
 51
24.2146565918
  0
ARC
  5
340
330
1F
100
AcDbEntity
  8
0
  6
Continuous
 62
     7
370
    25
100
AcDbCircle
 10
121.4840246755
 20
60.6892553189
 30
0.0
 40
5.220363633736114
100
AcDbArc
 50
266.5042135012
 51
334.8573949532
  0
ARC
  5
341
330
1F
100
AcDbEntity
  8
0
  6
Continuous
 62
     7
370
    25
100
AcDbCircle
 10
125.8883864737
 20
49.9799465853
 30
0.0
 40
8.497398776768778
100
AcDbArc
 50
39.0638662623
 51
87.8324418687
  0
ARC
  5
342
330
1F
100
AcDbEntity
  8
0
  6
Continuous
 62
     7
370
    25
100
AcDbCircle
 10
121.5934826501
 20
60.447265011
 30
0.0
 40
12.03272085859084
100
AcDbArc
 50
266.5042135012
 51
334.8573949532
  0
ARC
  5
343
330
1F
100
AcDbEntity
  8
0
  6
Continuous
 62
     7
370
    25
100
AcDbCircle
 10
129.9424864912
 20
51.5698157242
 30
0.0
 40
9.607830208623115
100
AcDbArc
 50
155.9939096586
 51
199.0307722417
  0
LINE
  5
344
330
1F
100
AcDbEntity
  8
0
  6
Continuous
 62
     7
370
    25
100
AcDbLine
 10
120.8597858465
 20
48.4369336142
 30
0.0
 11
121.508604491
 21
46.6168353837
 31
0.0
  0
LINE
  5
345
330
1F
100
AcDbEntity
  8
0
  6
Continuous
 62
     7
370
    25
100
AcDbLine
 10
132.4861406855
 20
55.3348905936
 30
0.0
 11
133.6610308108
 21
53.8269124121
 31
0.0
  0
LINE
  5
346
330
1F
100
AcDbEntity
  8
0
  6
Continuous
 62
     7
370
    25
100
AcDbLine
 10
67.8442451173
 20
59.9604569159
 30
0.0
 11
121.1657122874
 21
55.478605293
 31
0.0
  0
LINE
  5
347
330
1F
100
AcDbEntity
  8
0
  6
Continuous
 62
     7
370
    25
100
AcDbLine
 10
120.8597858465
 20
48.4369336142
 30
0.0
 11
67.5383186763
 21
52.918785237
 31
0.0
  0
ARC
  5
348
330
1F
100
AcDbEntity
  8
0
  6
Continuous
 62
     7
370
    25
100
AcDbCircle
 10
76.621019321
 20
56.051667347
 30
0.0
 40
9.607830208623206
100
AcDbArc
 50
155.9939096586
 51
199.0307722417
  0
LINE
  5
349
330
1F
100
AcDbEntity
  8
0
  6
Continuous
 62
     7
370
    25
100
AcDbLine
 10
126.2097751148
 20
58.4712654058
 30
0.0
 11
145.8028658634
 21
106.2135791991
 31
0.0
  0
ARC
  5
34A
330
1F
100
AcDbEntity
  8
0
  6
Continuous
 62
     7
370
    25
100
AcDbCircle
 10
145.4814772223
 20
97.7222603785
 30
0.0
 40
8.497398776769005
100
AcDbArc
 50
39.0638662623
 51
87.8324418687
  0
LINE
  5
34B
330
1F
100
AcDbEntity
  8
0
  6
Continuous
 62
     7
370
    25
100
AcDbLine
 10
152.0792314341
 20
103.0772043868
 30
0.0
 11
132.4861406855
 21
55.3348905936
 31
0.0
  0
ARC
  5
34C
330
1F
100
AcDbEntity
  8
0
  6
Continuous
 62
     7
370
    25
100
AcDbCircle
 10
67.8080114655
 20
62.4968821913
 30
0.0
 40
2.536684066944468
100
AcDbArc
 50
154.8934283429
 51
270.818432988
  0
LINE
  5
34D
330
1F
100
AcDbEntity
  8
0
  6
Continuous
 62
     7
370
    25
100
AcDbLine
 10
85.1040837062
 20
111.3155193698
 30
0.0
 11
65.5109929576
 21
63.5732055765
 31
0.0
  0
ARC
  5
34E
330
1F
100
AcDbEntity
  8
0
  6
Continuous
 62
     7
370
    25
100
AcDbCircle
 10
89.8298341455
 20
109.0975294568
 30
0.0
 40
5.220363633736206
100
AcDbArc
 50
86.5042135012
 51
154.8573949532
  0
LINE
  5
34F
330
1F
100
AcDbEntity
  8
0
  6
Continuous
 62
     7
370
    25
100
AcDbLine
 10
143.4696137038
 20
109.8263278598
 30
0.0
 11
90.1481465336
 21
114.3081794826
 31
0.0
  0
ARC
  5
350
330
1F
100
AcDbEntity
  8
0
  6
Continuous
 62
     7
370
    25
100
AcDbCircle
 10
143.5058473555
 20
107.2899025843
 30
0.0
 40
2.536684066944511
100
AcDbArc
 50
334.8934283429
 51
90.818432988
  0
LINE
  5
351
330
1F
100
AcDbEntity
  8
0
  6
Continuous
 62
     7
370
    25
100
AcDbLine
 10
90.4044153083
 20
49.2312488303
 30
0.0
 11
90.1478932127
 21
49.9719615409
 31
0.0
  0
LINE
  5
352
330
1F
100
AcDbEntity
  8
0
  6
Continuous
 62
     7
370
    25
100
AcDbLine
 10
67.5383186763
 20
52.918785237
 30
0.0
 11
68.1871373208
 21
51.0986870065
 31
0.0
  0
LINE
  5
353
330
1F
100
AcDbEntity
  8
0
  6
Continuous
 62
     7
370
    25
100
AcDbLine
 10
99.0192934279
 20
49.2262900213
 30
0.0
 11
99.2913265034
 21
48.4842735599
 31
0.0
  0
LINE
  5
354
330
1F
100
AcDbEntity
  8
0
  6
Continuous
 62
     7
370
    25
100
AcDbLine
 10
99.0192934279
 20
49.2262900213
 30
0.0
 11
90.1478932127
 21
49.9719615409
 31
0.0
  0
LINE
  5
355
330
1F
100
AcDbEntity
  8
0
  6
Continuous
 62
     7
370
    25
100
AcDbLine
 10
68.1871373208
 20
51.0986870065
 30
0.0
 11
90.4044153083
 21
49.2312488303
 31
0.0
  0
LINE
  5
356
330
1F
100
AcDbEntity
  8
0
  6
Continuous
 62
     7
370
    25
100
AcDbLine
 10
99.2913265034
 20
48.4842735599
 30
0.0
 11
121.508604491
 21
46.6168353837
 31
0.0
  0
LINE
  5
357
330
1F
100
AcDbEntity
  8
0
  6
Continuous
 62
     7
370
    25
100
AcDbLine
 10
152.0792314341
 20
103.0772043868
 30
0.0
 11
153.2541215594
 21
101.5692262054
 31
0.0
  0
LINE
  5
358
330
1F
100
AcDbEntity
  8
0
  6
Continuous
 62
     7
370
    25
100
AcDbLine
 10
90.6897084384
 20
49.9264201187
 30
0.0
 11
90.4044153083
 21
49.2312488303
 31
0.0
  0
LWPOLYLINE
  5
359
330
1F
100
AcDbEntity
  8
0
  6
Continuous
 62
     7
370
    25
100
AcDbPolyline
 90
        7
 70
   128
 43
0.0
 10
67.5383186763
 20
52.918785237
 10
65.9396510778
 20
53.2044783178
 10
64.5224788214
 20
53.7717401735
 10
63.341263042
 20
54.5987712493
 10
62.4413971998
 20
55.6537892046
 10
61.8574626342
 20
56.8962502911
 10
61.7874190857
 20
57.2904920376
  0
LWPOLYLINE
  5
35A
330
1F
100
AcDbEntity
  8
0
  6
Continuous
 62
     7
370
    25
100
AcDbPolyline
 90
        7
 70
   128
 43
0.0
 10
62.1547908682
 20
62.543831462
 10
62.2796078181
 20
62.8257423476
 10
62.6226360387
 20
63.1637756442
 10
63.1172886629
 20
63.4075386153
 10
63.7635656908
 20
63.5570312611
 10
64.5614671223
 20
63.6122535815
 10
65.5109929576
 20
63.5732055765
  0
LWPOLYLINE
  5
35B
330
1F
100
AcDbEntity
  8
0
  6
Continuous
 62
     7
370
    25
100
AcDbPolyline
 90
        7
 70
   128
 43
0.0
 10
143.4696137038
 20
109.8263278598
 10
143.849774347
 20
110.6542835019
 10
144.236730829
 20
111.3020415247
 10
144.6304831499
 20
111.7696019281
 10
145.0310313096
 20
112.0569647123
 10
145.4383753081
 20
112.1641298771
 10
145.593795753
 20
112.1367218966
  0
ARC
  5
35C
330
1F
100
AcDbEntity
  8
0
  6
Continuous
 62
     7
370
    25
100
AcDbCircle
 10
147.0195236355
 20
105.5792628983
 30
0.0
 40
5.644549565968333
100
AcDbArc
 50
333.6873041499
 51
42.4757408245
  0
LWPOLYLINE
  5
35D
330
1F
100
AcDbEntity
  8
0
  6
Continuous
 62
     7
370
    25
100
AcDbPolyline
 90
        7
 70
   128
 43
0.0
 10
81.7480476161
 20
110.2865201802
 10
81.8726985668
 20
110.5680561409
 10
82.2157267873
 20
110.9060894374
 10
82.7103794115
 20
111.1498524086
 10
83.3566564394
 20
111.2993450544
 10
84.154557871
 20
111.3545673748
 10
85.1040837062
 20
111.3155193698
  0
LWPOLYLINE
  5
35E
330
1F
100
AcDbEntity
  8
0
  6
Continuous
 62
     7
370
    25
100
AcDbPolyline
 90
        7
 70
   128
 43
0.0
 10
92.2720281354
 20
116.6186265025
 10
92.1169081379
 20
116.6459814999
 10
91.7095641394
 20
116.5388163351
 10
91.3090159797
 20
116.251453551
 10
90.9152636588
 20
115.7838931475
 10
90.5283071768
 20
115.1361351247
 10
90.1481465336
 20
114.3081794826
  0
ENDSEC
  0
SECTION
  2
OBJECTS
  0
DICTIONARY
  5
C
330
0
100
AcDbDictionary
281
     1
  3
ACAD_DETAILVIEWSTYLE
350
366
  3
ACAD_GROUP
350
D
  3
ACAD_LAYOUT
350
1A
  3
ACAD_MATERIAL
350
43
  3
ACAD_MLEADERSTYLE
350
6B
  3
ACAD_MLINESTYLE
350
17
  3
ACAD_PLOTSETTINGS
350
19
  3
ACAD_PLOTSTYLENAME
350
E
  3
ACAD_SCALELIST
350
47
  3
ACAD_SECTIONVIEWSTYLE
350
367
  3
ACAD_TABLESTYLE
350
69
  3
ACAD_VISUALSTYLE
350
2A
  3
ACDB_RECOMPOSE_DATA
350
363
  3
AcDbVariableDictionary
350
35F
  0
SUN
  5
6D
330
29
100
AcDbSun
 90
        1
290
     0
 63
     7
421
 16777215
 40
1.0
291
     1
 91
  2455826
 92
 54000000
292
     0
 70
     2
 71
   256
280
     1
  0
DICTIONARY
  5
366
102
{ACAD_REACTORS
330
C
102
}
330
C
100
AcDbDictionary
281
     1
  0
DICTIONARY
  5
D
102
{ACAD_REACTORS
330
C
102
}
330
C
100
AcDbDictionary
281
     1
  0
DICTIONARY
  5
1A
102
{ACAD_REACTORS
330
C
102
}
330
C
100
AcDbDictionary
281
     1
  3
Layout1
350
1E
  3
Layout2
350
26
  3
Model
350
22
  0
DICTIONARY
  5
43
102
{ACAD_REACTORS
330
C
102
}
330
C
100
AcDbDictionary
281
     1
  3
ByBlock
350
45
  3
ByLayer
350
44
  3
Global
350
46
  0
DICTIONARY
  5
6B
102
{ACAD_REACTORS
330
C
102
}
330
C
100
AcDbDictionary
281
     1
  3
Standard
350
6C
  0
DICTIONARY
  5
17
102
{ACAD_REACTORS
330
C
102
}
330
C
100
AcDbDictionary
281
     1
  3
Standard
350
18
  0
DICTIONARY
  5
19
102
{ACAD_REACTORS
330
C
102
}
330
C
100
AcDbDictionary
281
     1
  0
ACDBDICTIONARYWDFLT
  5
E
102
{ACAD_REACTORS
330
C
102
}
330
C
100
AcDbDictionary
281
     1
  3
Normal
350
F
100
AcDbDictionaryWithDefault
340
F
  0
DICTIONARY
  5
47
102
{ACAD_REACTORS
330
C
102
}
330
C
100
AcDbDictionary
281
     1
  3
A0
350
48
  3
A1
350
49
  3
A2
350
4A
  3
A3
350
4B
  3
A4
350
4C
  3
A5
350
4D
  3
A6
350
4E
  3
A7
350
4F
  3
A8
350
50
  3
A9
350
51
  3
B0
350
52
  3
B1
350
53
  3
B2
350
54
  3
B3
350
55
  3
B4
350
56
  3
B5
350
57
  3
B6
350
58
  3
B7
350
59
  3
B8
350
5A
  3
B9
350
5B
  3
C0
350
5C
  3
C1
350
5D
  3
C2
350
5E
  3
C3
350
5F
  3
C4
350
60
  3
C5
350
61
  3
C6
350
62
  3
C7
350
63
  3
C8
350
64
  3
C9
350
65
  3
D0
350
66
  3
D1
350
67
  3
D2
350
68
  0
DICTIONARY
  5
367
102
{ACAD_REACTORS
330
C
102
}
330
C
100
AcDbDictionary
281
     1
  0
DICTIONARY
  5
69
102
{ACAD_REACTORS
330
C
102
}
330
C
100
AcDbDictionary
281
     1
  3
Standard
350
6A
  0
DICTIONARY
  5
2A
102
{ACAD_REACTORS
330
C
102
}
330
C
100
AcDbDictionary
281
     1
  3
2dWireframe
350
2F
  3
Basic
350
32
  3
Brighten
350
36
  3
ColorChange
350
3A
  3
Conceptual
350
34
  3
Dim
350
35
  3
EdgeColorOff
350
3D
  3
Facepattern
350
39
  3
Flat
350
2B
  3
FlatWithEdges
350
2C
  3
Gouraud
350
2D
  3
GouraudWithEdges
350
2E
  3
Hidden
350
31
  3
JitterOff
350
3B
  3
Linepattern
350
38
  3
OverhangOff
350
3C
  3
Realistic
350
33
  3
Shaded
350
42
  3
Shaded with edges
350
41
  3
Shades of Gray
350
3E
  3
Sketchy
350
3F
  3
Thicken
350
37
  3
Wireframe
350
30
  3
X-Ray
350
40
  0
XRECORD
  5
363
102
{ACAD_REACTORS
330
C
102
}
330
C
100
AcDbXrecord
280
     1
 90
        1
330
6A
  0
DICTIONARY
  5
35F
102
{ACAD_REACTORS
330
C
102
}
330
C
100
AcDbDictionary
281
     1
  3
CANNOSCALE
350
360
  3
CENTEREXE
350
368
  3
CENTERLTYPEFILE
350
369
  3
CMLEADERSTYLE
350
365
  3
CTABLESTYLE
350
364
  0
LAYOUT
  5
1E
102
{ACAD_REACTORS
330
1A
102
}
330
1A
100
AcDbPlotSettings
  1

  2
none_device
  4

  6

 40
0.0
 41
0.0
 42
0.0
 43
0.0
 44
0.0
 45
0.0
 46
0.0
 47
0.0
 48
0.0
 49
0.0
140
0.0
141
0.0
142
1.0
143
1.0
 70
   688
 72
     1
 73
     0
 74
     5
  7

 75
    16
 76
     0
 77
     2
 78
   300
147
1.0
148
0.0
149
0.0
100
AcDbLayout
  1
Layout1
 70
     1
 71
     1
 10
0.0
 20
0.0
 11
420.0
 21
297.0
 12
0.0
 22
0.0
 32
0.0
 14
1.0000000000E+20
 24
1.0000000000E+20
 34
1.0000000000E+20
 15
-1.0000000000E+20
 25
-1.0000000000E+20
 35
-1.0000000000E+20
146
0.0
 13
0.0
 23
0.0
 33
0.0
 16
1.0
 26
0.0
 36
0.0
 17
0.0
 27
1.0
 37
0.0
 76
     0
330
1B
  0
LAYOUT
  5
26
102
{ACAD_REACTORS
330
1A
102
}
330
1A
100
AcDbPlotSettings
  1

  2
none_device
  4

  6

 40
0.0
 41
0.0
 42
0.0
 43
0.0
 44
0.0
 45
0.0
 46
0.0
 47
0.0
 48
0.0
 49
0.0
140
0.0
141
0.0
142
1.0
143
1.0
 70
   688
 72
     1
 73
     0
 74
     5
  7

 75
    16
 76
     0
 77
     2
 78
   300
147
1.0
148
0.0
149
0.0
100
AcDbLayout
  1
Layout2
 70
     1
 71
     2
 10
0.0
 20
0.0
 11
0.0
 21
0.0
 12
0.0
 22
0.0
 32
0.0
 14
0.0
 24
0.0
 34
0.0
 15
0.0
 25
0.0
 35
0.0
146
0.0
 13
0.0
 23
0.0
 33
0.0
 16
1.0
 26
0.0
 36
0.0
 17
0.0
 27
1.0
 37
0.0
 76
     0
330
23
  0
LAYOUT
  5
22
102
{ACAD_REACTORS
330
1A
102
}
330
1A
100
AcDbPlotSettings
  1

  2
none_device
  4
Letter_(8.50_x_11.00_Inches)
  6

 40
6.35
 41
6.35
 42
6.35000508
 43
6.35000508
 44
215.9
 45
279.4
 46
0.0
 47
0.0
 48
0.0
 49
0.0
140
0.0
141
0.0
142
1.0
143
1.0
 70
  1712
 72
     1
 73
     0
 74
     0
  7

 75
     0
 76
     0
 77
     2
 78
   300
147
1.0
148
0.0
149
0.0
100
AcDbLayout
  1
Model
 70
     1
 71
     0
 10
0.0
 20
0.0
 11
420.0
 21
297.0
 12
0.0
 22
0.0
 32
0.0
 14
0.0
 24
0.0
 34
0.0
 15
420.0
 25
297.0
 35
0.0
146
0.0
 13
0.0
 23
0.0
 33
0.0
 16
1.0
 26
0.0
 36
0.0
 17
0.0
 27
1.0
 37
0.0
 76
     0
330
1F
331
29
  0
MATERIAL
  5
45
102
{ACAD_REACTORS
330
43
102
}
330
43
100
AcDbMaterial
  1
ByBlock
 72
     1
 94
      127
  0
MATERIAL
  5
44
102
{ACAD_REACTORS
330
43
102
}
330
43
100
AcDbMaterial
  1
ByLayer
 72
     1
 94
      127
  0
MATERIAL
  5
46
102
{ACAD_REACTORS
330
43
102
}
330
43
100
AcDbMaterial
  1
Global
 72
     1
 94
      127
  0
MLEADERSTYLE
  5
6C
102
{ACAD_REACTORS
330
6B
102
}
330
6B
100
AcDbMLeaderStyle
179
     2
170
     2
171
     1
172
     0
 90
        2
 40
0.0
 41
0.0
173
     1
 91
-1056964608
340
14
 92
       -2
290
     1
 42
2.0
291
     1
 43
8.0
  3
Standard
341
0
 44
4.0
300

342
11
174
     1
178
     6
175
     1
176
     0
 93
-1056964608
 45
4.0
292
     0
297
     0
 46
4.0
343
0
 94
-1056964608
 47
1.0
 49
1.0
140
1.0
293
     1
141
0.0
294
     1
177
     0
142
1.0
295
     0
296
     0
143
3.75
271
     0
272
     9
273
     9
298
     0
  0
MLINESTYLE
  5
18
102
{ACAD_REACTORS
330
17
102
}
330
17
100
AcDbMlineStyle
  2
Standard
 70
     0
  3

 62
   256
 51
90.0
 52
90.0
 71
     2
 49
0.5
 62
   256
  6
BYLAYER
 49
-0.5
 62
   256
  6
BYLAYER
  0
ACDBPLACEHOLDER
  5
F
102
{ACAD_REACTORS
330
E
102
}
330
E
  0
SCALE
  5
48
102
{ACAD_REACTORS
330
47
102
}
330
47
100
AcDbScale
 70
     0
300
1:1
140
1.0
141
1.0
290
     1
  0
SCALE
  5
49
102
{ACAD_REACTORS
330
47
102
}
330
47
100
AcDbScale
 70
     0
300
1:2
140
1.0
141
2.0
290
     0
  0
SCALE
  5
4A
102
{ACAD_REACTORS
330
47
102
}
330
47
100
AcDbScale
 70
     0
300
1:4
140
1.0
141
4.0
290
     0
  0
SCALE
  5
4B
102
{ACAD_REACTORS
330
47
102
}
330
47
100
AcDbScale
 70
     0
300
1:5
140
1.0
141
5.0
290
     0
  0
SCALE
  5
4C
102
{ACAD_REACTORS
330
47
102
}
330
47
100
AcDbScale
 70
     0
300
1:8
140
1.0
141
8.0
290
     0
  0
SCALE
  5
4D
102
{ACAD_REACTORS
330
47
102
}
330
47
100
AcDbScale
 70
     0
300
1:10
140
1.0
141
10.0
290
     0
  0
SCALE
  5
4E
102
{ACAD_REACTORS
330
47
102
}
330
47
100
AcDbScale
 70
     0
300
1:16
140
1.0
141
16.0
290
     0
  0
SCALE
  5
4F
102
{ACAD_REACTORS
330
47
102
}
330
47
100
AcDbScale
 70
     0
300
1:20
140
1.0
141
20.0
290
     0
  0
SCALE
  5
50
102
{ACAD_REACTORS
330
47
102
}
330
47
100
AcDbScale
 70
     0
300
1:30
140
1.0
141
30.0
290
     0
  0
SCALE
  5
51
102
{ACAD_REACTORS
330
47
102
}
330
47
100
AcDbScale
 70
     0
300
1:40
140
1.0
141
40.0
290
     0
  0
SCALE
  5
52
102
{ACAD_REACTORS
330
47
102
}
330
47
100
AcDbScale
 70
     0
300
1:50
140
1.0
141
50.0
290
     0
  0
SCALE
  5
53
102
{ACAD_REACTORS
330
47
102
}
330
47
100
AcDbScale
 70
     0
300
1:100
140
1.0
141
100.0
290
     0
  0
SCALE
  5
54
102
{ACAD_REACTORS
330
47
102
}
330
47
100
AcDbScale
 70
     0
300
2:1
140
2.0
141
1.0
290
     0
  0
SCALE
  5
55
102
{ACAD_REACTORS
330
47
102
}
330
47
100
AcDbScale
 70
     0
300
4:1
140
4.0
141
1.0
290
     0
  0
SCALE
  5
56
102
{ACAD_REACTORS
330
47
102
}
330
47
100
AcDbScale
 70
     0
300
8:1
140
8.0
141
1.0
290
     0
  0
SCALE
  5
57
102
{ACAD_REACTORS
330
47
102
}
330
47
100
AcDbScale
 70
     0
300
10:1
140
10.0
141
1.0
290
     0
  0
SCALE
  5
58
102
{ACAD_REACTORS
330
47
102
}
330
47
100
AcDbScale
 70
     0
300
100:1
140
100.0
141
1.0
290
     0
  0
SCALE
  5
59
102
{ACAD_REACTORS
330
47
102
}
330
47
100
AcDbScale
 70
     0
300
1/128" = 1'-0"
140
0.0078125
141
12.0
290
     0
  0
SCALE
  5
5A
102
{ACAD_REACTORS
330
47
102
}
330
47
100
AcDbScale
 70
     0
300
1/64" = 1'-0"
140
0.015625
141
12.0
290
     0
  0
SCALE
  5
5B
102
{ACAD_REACTORS
330
47
102
}
330
47
100
AcDbScale
 70
     0
300
1/32" = 1'-0"
140
0.03125
141
12.0
290
     0
  0
SCALE
  5
5C
102
{ACAD_REACTORS
330
47
102
}
330
47
100
AcDbScale
 70
     0
300
1/16" = 1'-0"
140
0.0625
141
12.0
290
     0
  0
SCALE
  5
5D
102
{ACAD_REACTORS
330
47
102
}
330
47
100
AcDbScale
 70
     0
300
3/32" = 1'-0"
140
0.09375
141
12.0
290
     0
  0
SCALE
  5
5E
102
{ACAD_REACTORS
330
47
102
}
330
47
100
AcDbScale
 70
     0
300
1/8" = 1'-0"
140
0.125
141
12.0
290
     0
  0
SCALE
  5
5F
102
{ACAD_REACTORS
330
47
102
}
330
47
100
AcDbScale
 70
     0
300
3/16" = 1'-0"
140
0.1875
141
12.0
290
     0
  0
SCALE
  5
60
102
{ACAD_REACTORS
330
47
102
}
330
47
100
AcDbScale
 70
     0
300
1/4" = 1'-0"
140
0.25
141
12.0
290
     0
  0
SCALE
  5
61
102
{ACAD_REACTORS
330
47
102
}
330
47
100
AcDbScale
 70
     0
300
3/8" = 1'-0"
140
0.375
141
12.0
290
     0
  0
SCALE
  5
62
102
{ACAD_REACTORS
330
47
102
}
330
47
100
AcDbScale
 70
     0
300
1/2" = 1'-0"
140
0.5
141
12.0
290
     0
  0
SCALE
  5
63
102
{ACAD_REACTORS
330
47
102
}
330
47
100
AcDbScale
 70
     0
300
3/4" = 1'-0"
140
0.75
141
12.0
290
     0
  0
SCALE
  5
64
102
{ACAD_REACTORS
330
47
102
}
330
47
100
AcDbScale
 70
     0
300
1" = 1'-0"
140
1.0
141
12.0
290
     0
  0
SCALE
  5
65
102
{ACAD_REACTORS
330
47
102
}
330
47
100
AcDbScale
 70
     0
300
1-1/2" = 1'-0"
140
1.5
141
12.0
290
     0
  0
SCALE
  5
66
102
{ACAD_REACTORS
330
47
102
}
330
47
100
AcDbScale
 70
     0
300
3" = 1'-0"
140
3.0
141
12.0
290
     0
  0
SCALE
  5
67
102
{ACAD_REACTORS
330
47
102
}
330
47
100
AcDbScale
 70
     0
300
6" = 1'-0"
140
6.0
141
12.0
290
     0
  0
SCALE
  5
68
102
{ACAD_REACTORS
330
47
102
}
330
47
100
AcDbScale
 70
     0
300
1'-0" = 1'-0"
140
12.0
141
12.0
290
     0
  0
TABLESTYLE
  5
6A
102
{ACAD_REACTORS
330
69
102
}
102
{ACAD_XDICTIONARY
360
361
102
}
330
69
100
AcDbTableStyle
  3
Standard
 70
     0
 71
     0
 40
0.06
 41
0.06
280
     0
281
     0
  7
Standard
140
4.5
170
     2
 62
     0
 63
   257
283
     0
 90
        4
 91
        0
  1

274
    -2
284
     1
 64
     0
275
    -2
285
     1
 65
     0
276
    -2
286
     1
 66
     0
277
    -2
287
     1
 67
     0
278
    -2
288
     1
 68
     0
279
    -2
289
     1
 69
     0
  7
Standard
140
6.0
170
     5
 62
     0
 63
   257
283
     0
 90
        4
 91
        0
  1

274
    -2
284
     1
 64
     0
275
    -2
285
     1
 65
     0
276
    -2
286
     1
 66
     0
277
    -2
287
     1
 67
     0
278
    -2
288
     1
 68
     0
279
    -2
289
     1
 69
     0
  7
Standard
140
4.5
170
     5
 62
     0
 63
   257
283
     0
 90
        4
 91
        0
  1

274
    -2
284
     1
 64
     0
275
    -2
285
     1
 65
     0
276
    -2
286
     1
 66
     0
277
    -2
287
     1
 67
     0
278
    -2
288
     1
 68
     0
279
    -2
289
     1
 69
     0
  0
VISUALSTYLE
  5
2F
102
{ACAD_REACTORS
330
2A
102
}
330
2A
100
AcDbVisualStyle
  2
2dWireframe
 70
     4
177
     3
291
     0
 70
    58
 90
        0
176
     1
 90
        2
176
     1
 90
        0
176
     1
 90
        0
176
     1
 40
0.6
176
     1
 40
30.0
176
     1
 62
     7
420
 16777215
176
     1
 90
        1
176
     1
 90
        4
176
     1
 62
     7
176
     1
 62
   257
176
     1
 90
        1
176
     1
 90
        1
176
     1
 40
1.0
176
     1
 90
        0
176
     1
 62
   257
176
     1
 40
1.0
176
     1
 90
        1
176
     1
 90
        6
176
     1
 90
        2
176
     1
 62
     7
176
     1
 90
        5
176
     1
 90
        0
176
     1
 90
        0
176
     1
290
     0
176
     1
 90
        1
176
     1
 40
0.0
176
     1
 90
        0
176
     1
290
     1
176
     1
290
     1
176
     1
290
     0
176
     1
290
     0
176
     1
290
     0
176
     1
290
     0
176
     1
290
     0
176
     1
290
     0
176
     1
290
     0
176
     1
 90
       50
176
     1
 40
0.0
176
     1
 40
1.0
176
     1
 90
        0
176
     1
 62
    18
420
        0
176
     1
 90
       50
176
     1
 90
        3
176
     1
 62
     5
420
      255
176
     1
290
     0
176
     1
 90
       50
176
     1
 90
       50
176
     1
 90
       50
176
     1
290
     0
176
     1
 90
       50
176
     1
 62
   256
176
     0
 40
1.0
176
     0
 90
        2
176
     1
  1
strokes_ogs.tif
176
     1
290
     0
176
     1
 40
1.0
176
     1
 40
1.0
176
     1
  0
VISUALSTYLE
  5
32
102
{ACAD_REACTORS
330
2A
102
}
330
2A
100
AcDbVisualStyle
  2
Basic
 70
     7
177
     3
291
     1
 70
    58
 90
        1
176
     1
 90
        0
176
     1
 90
        1
176
     1
 90
        0
176
     1
 40
0.6
176
     1
 40
30.0
176
     1
 62
     7
420
 16777215
176
     1
 90
        0
176
     1
 90
        4
176
     1
 62
     7
176
     1
 62
   257
176
     1
 90
        1
176
     1
 90
        1
176
     1
 40
1.0
176
     1
 90
        8
176
     1
 62
     7
176
     1
 40
1.0
176
     1
 90
        1
176
     1
 90
        6
176
     1
 90
        2
176
     1
 62
     7
176
     1
 90
        5
176
     1
 90
        0
176
     1
 90
        0
176
     1
290
     0
176
     1
 90
        1
176
     1
 40
0.0
176
     1
 90
        0
176
     1
290
     0
176
     1
290
     1
176
     1
290
     1
176
     1
290
     0
176
     1
290
     0
176
     1
290
     0
176
     1
290
     0
176
     1
290
     0
176
     1
290
     0
176
     1
 90
       50
176
     1
 40
0.0
176
     1
 40
1.0
176
     1
 90
        0
176
     1
 62
    18
420
        0
176
     1
 90
       50
176
     1
 90
        3
176
     1
 62
     5
420
      255
176
     1
290
     0
176
     1
 90
       50
176
     1
 90
       50
176
     1
 90
       50
176
     1
290
     0
176
     1
 90
       50
176
     1
 62
   256
176
     0
 40
1.0
176
     0
 90
        2
176
     1
  1
strokes_ogs.tif
176
     1
290
     0
176
     1
 40
1.0
176
     1
 40
1.0
176
     1
  0
VISUALSTYLE
  5
36
102
{ACAD_REACTORS
330
2A
102
}
330
2A
100
AcDbVisualStyle
  2
Brighten
 70
    12
177
     3
291
     1
 70
    58
 90
        2
176
     1
 90
        2
176
     1
 90
        0
176
     1
 90
        0
176
     1
 40
0.6
176
     1
 40
30.0
176
     1
 62
     7
420
 16777215
176
     1
 90
        1
176
     1
 90
        4
176
     1
 62
     7
176
     1
 62
   257
176
     1
 90
        1
176
     1
 90
        1
176
     1
 40
1.0
176
     1
 90
        8
176
     1
 62
     7
176
     1
 40
1.0
176
     1
 90
        1
176
     1
 90
        6
176
     1
 90
        2
176
     1
 62
     7
176
     1
 90
        5
176
     1
 90
        0
176
     1
 90
        0
176
     1
290
     0
176
     1
 90
        1
176
     1
 40
50.0
176
     1
 90
        0
176
     1
290
     0
176
     1
290
     1
176
     1
290
     1
176
     1
290
     0
176
     1
290
     0
176
     1
290
     0
176
     1
290
     0
176
     1
290
     0
176
     1
290
     0
176
     1
 90
       50
176
     1
 40
0.0
176
     1
 40
1.0
176
     1
 90
        0
176
     1
 62
    18
420
        0
176
     1
 90
       50
176
     1
 90
        3
176
     1
 62
     5
420
      255
176
     1
290
     0
176
     1
 90
       50
176
     1
 90
       50
176
     1
 90
       50
176
     1
290
     0
176
     1
 90
       50
176
     1
 62
   256
176
     0
 40
1.0
176
     0
 90
        2
176
     1
  1
strokes_ogs.tif
176
     1
290
     0
176
     1
 40
1.0
176
     1
 40
1.0
176
     1
  0
VISUALSTYLE
  5
3A
102
{ACAD_REACTORS
330
2A
102
}
330
2A
100
AcDbVisualStyle
  2
ColorChange
 70
    16
177
     3
291
     1
 70
    58
 90
        2
176
     1
 90
        2
176
     1
 90
        3
176
     1
 90
        0
176
     1
 40
0.6
176
     1
 40
30.0
176
     1
 62
     8
420
  8421504
176
     1
 90
        1
176
     1
 90
        4
176
     1
 62
     7
176
     1
 62
   257
176
     1
 90
        1
176
     1
 90
        1
176
     1
 40
1.0
176
     1
 90
        8
176
     1
 62
     8
420
  8421504
176
     1
 40
1.0
176
     1
 90
        1
176
     1
 90
        6
176
     1
 90
        2
176
     1
 62
     7
176
     1
 90
        5
176
     1
 90
        0
176
     1
 90
        0
176
     1
290
     0
176
     1
 90
        1
176
     1
 40
0.0
176
     1
 90
        0
176
     1
290
     0
176
     1
290
     1
176
     1
290
     1
176
     1
290
     0
176
     1
290
     0
176
     1
290
     0
176
     1
290
     0
176
     1
290
     0
176
     1
290
     0
176
     1
 90
       50
176
     1
 40
0.0
176
     1
 40
1.0
176
     1
 90
        0
176
     1
 62
    18
420
        0
176
     1
 90
       50
176
     1
 90
        3
176
     1
 62
     5
420
      255
176
     1
290
     0
176
     1
 90
       50
176
     1
 90
       50
176
     1
 90
       50
176
     1
290
     0
176
     1
 90
       50
176
     1
 62
   256
176
     0
 40
1.0
176
     0
 90
        2
176
     1
  1
strokes_ogs.tif
176
     1
290
     0
176
     1
 40
1.0
176
     1
 40
1.0
176
     1
  0
VISUALSTYLE
  5
34
102
{ACAD_REACTORS
330
2A
102
}
330
2A
100
AcDbVisualStyle
  2
Conceptual
 70
     9
177
     3
291
     0
 70
    58
 90
        3
176
     1
 90
        2
176
     1
 90
        0
176
     1
 90
        0
176
     1
 40
0.6
176
     1
 40
30.0
176
     1
 62
     7
420
 16777215
176
     1
 90
        2
176
     1
 90
        2
176
     1
 62
     7
176
     1
 62
   257
176
     1
 90
        1
176
     1
 90
        1
176
     1
 40
179.0
176
     1
 90
        8
176
     1
 62
     7
176
     1
 40
1.0
176
     1
 90
        1
176
     1
 90
        6
176
     1
 90
        2
176
     1
 62
     7
176
     1
 90
        3
176
     1
 90
        0
176
     1
 90
        0
176
     1
290
     0
176
     1
 90
        1
176
     1
 40
0.0
176
     1
 90
        0
176
     1
290
     0
176
     1
290
     1
176
     1
290
     1
176
     1
290
     0
176
     1
290
     0
176
     1
290
     0
176
     1
290
     0
176
     1
290
     0
176
     1
290
     0
176
     1
 90
       50
176
     1
 40
0.0
176
     1
 40
1.0
176
     1
 90
        0
176
     1
 62
    18
420
        0
176
     1
 90
       50
176
     1
 90
        3
176
     1
 62
     5
420
      255
176
     1
290
     0
176
     1
 90
       50
176
     1
 90
       50
176
     1
 90
       50
176
     1
290
     0
176
     1
 90
       50
176
     1
 62
   256
176
     0
 40
1.0
176
     0
 90
        2
176
     1
  1
strokes_ogs.tif
176
     1
290
     0
176
     1
 40
1.0
176
     1
 40
1.0
176
     1
  0
VISUALSTYLE
  5
35
102
{ACAD_REACTORS
330
2A
102
}
330
2A
100
AcDbVisualStyle
  2
Dim
 70
    11
177
     3
291
     1
 70
    58
 90
        2
176
     1
 90
        2
176
     1
 90
        0
176
     1
 90
        0
176
     1
 40
0.6
176
     1
 40
30.0
176
     1
 62
     7
420
 16777215
176
     1
 90
        1
176
     1
 90
        4
176
     1
 62
     7
176
     1
 62
   257
176
     1
 90
        1
176
     1
 90
        1
176
     1
 40
1.0
176
     1
 90
        8
176
     1
 62
     7
176
     1
 40
1.0
176
     1
 90
        1
176
     1
 90
        6
176
     1
 90
        2
176
     1
 62
     7
176
     1
 90
        5
176
     1
 90
        0
176
     1
 90
        0
176
     1
290
     0
176
     1
 90
        1
176
     1
 40
-50.0
176
     1
 90
        0
176
     1
290
     0
176
     1
290
     1
176
     1
290
     1
176
     1
290
     0
176
     1
290
     0
176
     1
290
     0
176
     1
290
     0
176
     1
290
     0
176
     1
290
     0
176
     1
 90
       50
176
     1
 40
0.0
176
     1
 40
1.0
176
     1
 90
        0
176
     1
 62
    18
420
        0
176
     1
 90
       50
176
     1
 90
        3
176
     1
 62
     5
420
      255
176
     1
290
     0
176
     1
 90
       50
176
     1
 90
       50
176
     1
 90
       50
176
     1
290
     0
176
     1
 90
       50
176
     1
 62
   256
176
     0
 40
1.0
176
     0
 90
        2
176
     1
  1
strokes_ogs.tif
176
     1
290
     0
176
     1
 40
1.0
176
     1
 40
1.0
176
     1
  0
VISUALSTYLE
  5
3D
102
{ACAD_REACTORS
330
2A
102
}
330
2A
100
AcDbVisualStyle
  2
EdgeColorOff
 70
    22
177
     3
291
     1
 70
    58
 90
        2
176
     0
 90
        2
176
     0
 90
        0
176
     0
 90
        0
176
     0
 40
0.6
176
     0
 40
30.0
176
     0
 62
     7
420
 16777215
176
     0
 90
        1
176
     0
 90
        4
176
     0
 62
     7
176
     0
 62
   257
176
     0
 90
        1
176
     0
 90
        1
176
     0
 40
1.0
176
     0
 90
        8
176
     2
 62
     7
176
     0
 40
1.0
176
     0
 90
        1
176
     0
 90
        6
176
     0
 90
        2
176
     0
 62
     7
176
     0
 90
        5
176
     0
 90
        0
176
     0
 90
        0
176
     0
290
     0
176
     0
 90
        1
176
     0
 40
0.0
176
     0
 90
        0
176
     0
290
     0
176
     0
290
     1
176
     0
290
     1
176
     0
290
     0
176
     0
290
     0
176
     0
290
     0
176
     0
290
     0
176
     0
290
     0
176
     0
290
     0
176
     0
 90
       50
176
     0
 40
0.0
176
     0
 40
1.0
176
     0
 90
        0
176
     0
 62
    18
420
        0
176
     0
 90
       50
176
     0
 90
        3
176
     0
 62
     5
420
      255
176
     0
290
     0
176
     0
 90
       50
176
     0
 90
       50
176
     0
 90
       50
176
     0
290
     0
176
     0
 90
       50
176
     0
 62
   256
176
     0
 40
1.0
176
     0
 90
        2
176
     0
  1
strokes_ogs.tif
176
     0
290
     0
176
     0
 40
1.0
176
     0
 40
1.0
176
     0
  0
VISUALSTYLE
  5
39
102
{ACAD_REACTORS
330
2A
102
}
330
2A
100
AcDbVisualStyle
  2
Facepattern
 70
    15
177
     3
291
     1
 70
    58
 90
        2
176
     1
 90
        2
176
     1
 90
        0
176
     1
 90
        0
176
     1
 40
0.6
176
     1
 40
30.0
176
     1
 62
     7
420
 16777215
176
     1
 90
        1
176
     1
 90
        4
176
     1
 62
     7
176
     1
 62
   257
176
     1
 90
        1
176
     1
 90
        1
176
     1
 40
1.0
176
     1
 90
        8
176
     1
 62
     7
176
     1
 40
1.0
176
     1
 90
        1
176
     1
 90
        6
176
     1
 90
        2
176
     1
 62
     7
176
     1
 90
        5
176
     1
 90
        0
176
     1
 90
        0
176
     1
290
     0
176
     1
 90
        1
176
     1
 40
0.0
176
     1
 90
        0
176
     1
290
     0
176
     1
290
     1
176
     1
290
     1
176
     1
290
     0
176
     1
290
     0
176
     1
290
     0
176
     1
290
     0
176
     1
290
     0
176
     1
290
     0
176
     1
 90
       50
176
     1
 40
0.0
176
     1
 40
1.0
176
     1
 90
        0
176
     1
 62
    18
420
        0
176
     1
 90
       50
176
     1
 90
        3
176
     1
 62
     5
420
      255
176
     1
290
     0
176
     1
 90
       50
176
     1
 90
       50
176
     1
 90
       50
176
     1
290
     0
176
     1
 90
       50
176
     1
 62
   256
176
     0
 40
1.0
176
     0
 90
        2
176
     1
  1
strokes_ogs.tif
176
     1
290
     0
176
     1
 40
1.0
176
     1
 40
1.0
176
     1
  0
VISUALSTYLE
  5
2B
102
{ACAD_REACTORS
330
2A
102
}
330
2A
100
AcDbVisualStyle
  2
Flat
 70
     0
177
     3
291
     1
 70
    58
 90
        2
176
     1
 90
        1
176
     1
 90
        1
176
     1
 90
        2
176
     1
 40
0.6
176
     1
 40
30.0
176
     1
 62
     7
420
 16777215
176
     1
 90
        0
176
     1
 90
        0
176
     1
 62
     7
176
     1
 62
   257
176
     1
 90
        1
176
     1
 90
        1
176
     1
 40
1.0
176
     1
 90
        8
176
     1
 62
     7
176
     1
 40
1.0
176
     1
 90
        1
176
     1
 90
        6
176
     1
 90
        2
176
     1
 62
     7
176
     1
 90
        5
176
     1
 90
        0
176
     1
 90
        0
176
     1
290
     0
176
     1
 90
       13
176
     1
 40
0.0
176
     1
 90
        0
176
     1
290
     0
176
     1
290
     1
176
     1
290
     1
176
     1
290
     0
176
     1
290
     0
176
     1
290
     0
176
     1
290
     0
176
     1
290
     0
176
     1
290
     0
176
     1
 90
       50
176
     1
 40
0.0
176
     1
 40
1.0
176
     1
 90
        0
176
     1
 62
    18
420
        0
176
     1
 90
       50
176
     1
 90
        3
176
     1
 62
     5
420
      255
176
     1
290
     0
176
     1
 90
       50
176
     1
 90
       50
176
     1
 90
       50
176
     1
290
     0
176
     1
 90
       50
176
     1
 62
   256
176
     0
 40
1.0
176
     0
 90
        2
176
     1
  1
strokes_ogs.tif
176
     1
290
     0
176
     1
 40
1.0
176
     1
 40
1.0
176
     1
  0
VISUALSTYLE
  5
2C
102
{ACAD_REACTORS
330
2A
102
}
330
2A
100
AcDbVisualStyle
  2
FlatWithEdges
 70
     1
177
     3
291
     1
 70
    58
 90
        2
176
     1
 90
        1
176
     1
 90
        1
176
     1
 90
        2
176
     1
 40
0.6
176
     1
 40
30.0
176
     1
 62
     7
420
 16777215
176
     1
 90
        1
176
     1
 90
        0
176
     1
 62
     7
176
     1
 62
   257
176
     1
 90
        1
176
     1
 90
        1
176
     1
 40
1.0
176
     1
 90
        0
176
     1
 62
   257
176
     1
 40
1.0
176
     1
 90
        1
176
     1
 90
        6
176
     1
 90
        2
176
     1
 62
     7
176
     1
 90
        5
176
     1
 90
        0
176
     1
 90
        0
176
     1
290
     0
176
     1
 90
       13
176
     1
 40
0.0
176
     1
 90
        0
176
     1
290
     0
176
     1
290
     1
176
     1
290
     1
176
     1
290
     0
176
     1
290
     0
176
     1
290
     0
176
     1
290
     0
176
     1
290
     0
176
     1
290
     0
176
     1
 90
       50
176
     1
 40
0.0
176
     1
 40
1.0
176
     1
 90
        0
176
     1
 62
    18
420
        0
176
     1
 90
       50
176
     1
 90
        3
176
     1
 62
     5
420
      255
176
     1
290
     0
176
     1
 90
       50
176
     1
 90
       50
176
     1
 90
       50
176
     1
290
     0
176
     1
 90
       50
176
     1
 62
   256
176
     0
 40
1.0
176
     0
 90
        2
176
     1
  1
strokes_ogs.tif
176
     1
290
     0
176
     1
 40
1.0
176
     1
 40
1.0
176
     1
  0
VISUALSTYLE
  5
2D
102
{ACAD_REACTORS
330
2A
102
}
330
2A
100
AcDbVisualStyle
  2
Gouraud
 70
     2
177
     3
291
     1
 70
    58
 90
        2
176
     1
 90
        2
176
     1
 90
        1
176
     1
 90
        2
176
     1
 40
0.6
176
     1
 40
30.0
176
     1
 62
     7
420
 16777215
176
     1
 90
        0
176
     1
 90
        0
176
     1
 62
     7
176
     1
 62
   257
176
     1
 90
        1
176
     1
 90
        1
176
     1
 40
1.0
176
     1
 90
        0
176
     1
 62
     7
176
     1
 40
1.0
176
     1
 90
        1
176
     1
 90
        6
176
     1
 90
        2
176
     1
 62
     7
176
     1
 90
        5
176
     1
 90
        0
176
     1
 90
        0
176
     1
290
     0
176
     1
 90
       13
176
     1
 40
0.0
176
     1
 90
        0
176
     1
290
     0
176
     1
290
     1
176
     1
290
     1
176
     1
290
     0
176
     1
290
     0
176
     1
290
     0
176
     1
290
     0
176
     1
290
     0
176
     1
290
     0
176
     1
 90
       50
176
     1
 40
0.0
176
     1
 40
1.0
176
     1
 90
        0
176
     1
 62
    18
420
        0
176
     1
 90
       50
176
     1
 90
        3
176
     1
 62
     5
420
      255
176
     1
290
     0
176
     1
 90
       50
176
     1
 90
       50
176
     1
 90
       50
176
     1
290
     0
176
     1
 90
       50
176
     1
 62
   256
176
     0
 40
1.0
176
     0
 90
        2
176
     1
  1
strokes_ogs.tif
176
     1
290
     0
176
     1
 40
1.0
176
     1
 40
1.0
176
     1
  0
VISUALSTYLE
  5
2E
102
{ACAD_REACTORS
330
2A
102
}
330
2A
100
AcDbVisualStyle
  2
GouraudWithEdges
 70
     3
177
     3
291
     1
 70
    58
 90
        2
176
     1
 90
        2
176
     1
 90
        1
176
     1
 90
        2
176
     1
 40
0.6
176
     1
 40
30.0
176
     1
 62
     7
420
 16777215
176
     1
 90
        1
176
     1
 90
        0
176
     1
 62
     7
176
     1
 62
   257
176
     1
 90
        1
176
     1
 90
        1
176
     1
 40
1.0
176
     1
 90
        0
176
     1
 62
   257
176
     1
 40
1.0
176
     1
 90
        1
176
     1
 90
        6
176
     1
 90
        2
176
     1
 62
     7
176
     1
 90
        5
176
     1
 90
        0
176
     1
 90
        0
176
     1
290
     0
176
     1
 90
       13
176
     1
 40
0.0
176
     1
 90
        0
176
     1
290
     0
176
     1
290
     1
176
     1
290
     1
176
     1
290
     0
176
     1
290
     0
176
     1
290
     0
176
     1
290
     0
176
     1
290
     0
176
     1
290
     0
176
     1
 90
       50
176
     1
 40
0.0
176
     1
 40
1.0
176
     1
 90
        0
176
     1
 62
    18
420
        0
176
     1
 90
       50
176
     1
 90
        3
176
     1
 62
     5
420
      255
176
     1
290
     0
176
     1
 90
       50
176
     1
 90
       50
176
     1
 90
       50
176
     1
290
     0
176
     1
 90
       50
176
     1
 62
   256
176
     0
 40
1.0
176
     0
 90
        2
176
     1
  1
strokes_ogs.tif
176
     1
290
     0
176
     1
 40
1.0
176
     1
 40
1.0
176
     1
  0
VISUALSTYLE
  5
31
102
{ACAD_REACTORS
330
2A
102
}
330
2A
100
AcDbVisualStyle
  2
Hidden
 70
     6
177
     3
291
     0
 70
    58
 90
        1
176
     1
 90
        2
176
     1
 90
        2
176
     1
 90
        0
176
     1
 40
0.6
176
     1
 40
30.0
176
     1
 62
     7
420
 16777215
176
     1
 90
        2
176
     1
 90
        2
176
     1
 62
     7
176
     1
 62
   257
176
     1
 90
        2
176
     1
 90
        1
176
     1
 40
40.0
176
     1
 90
        0
176
     1
 62
   257
176
     1
 40
1.0
176
     1
 90
        1
176
     1
 90
        6
176
     1
 90
        2
176
     1
 62
     7
176
     1
 90
        3
176
     1
 90
        0
176
     1
 90
        0
176
     1
290
     0
176
     1
 90
        1
176
     1
 40
0.0
176
     1
 90
        0
176
     1
290
     0
176
     1
290
     1
176
     1
290
     1
176
     1
290
     0
176
     1
290
     0
176
     1
290
     0
176
     1
290
     0
176
     1
290
     0
176
     1
290
     0
176
     1
 90
       50
176
     1
 40
0.0
176
     1
 40
1.0
176
     1
 90
        0
176
     1
 62
    18
420
        0
176
     1
 90
       50
176
     1
 90
        3
176
     1
 62
     5
420
      255
176
     1
290
     0
176
     1
 90
       50
176
     1
 90
       50
176
     1
 90
       50
176
     1
290
     0
176
     1
 90
       50
176
     1
 62
   256
176
     0
 40
1.0
176
     0
 90
        2
176
     1
  1
strokes_ogs.tif
176
     1
290
     0
176
     1
 40
1.0
176
     1
 40
1.0
176
     1
  0
VISUALSTYLE
  5
3B
102
{ACAD_REACTORS
330
2A
102
}
330
2A
100
AcDbVisualStyle
  2
JitterOff
 70
    20
177
     3
291
     1
 70
    58
 90
        2
176
     0
 90
        2
176
     0
 90
        0
176
     0
 90
        0
176
     0
 40
0.6
176
     0
 40
30.0
176
     0
 62
     7
420
 16777215
176
     0
 90
        1
176
     0
 90
        4
176
     0
 62
     7
176
     0
 62
   257
176
     0
 90
        1
176
     0
 90
        1
176
     0
 40
1.0
176
     0
 90
       10
176
     2
 62
     7
176
     0
 40
1.0
176
     0
 90
        1
176
     0
 90
        6
176
     0
 90
        2
176
     0
 62
     7
176
     0
 90
        5
176
     0
 90
        0
176
     0
 90
        0
176
     0
290
     0
176
     0
 90
        1
176
     0
 40
0.0
176
     0
 90
        0
176
     0
290
     0
176
     0
290
     1
176
     0
290
     1
176
     0
290
     0
176
     0
290
     0
176
     0
290
     0
176
     0
290
     0
176
     0
290
     0
176
     0
290
     0
176
     0
 90
       50
176
     0
 40
0.0
176
     0
 40
1.0
176
     0
 90
        0
176
     0
 62
    18
420
        0
176
     0
 90
       50
176
     0
 90
        3
176
     0
 62
     5
420
      255
176
     0
290
     0
176
     0
 90
       50
176
     0
 90
       50
176
     0
 90
       50
176
     0
290
     0
176
     0
 90
       50
176
     0
 62
   256
176
     0
 40
1.0
176
     0
 90
        2
176
     0
  1
strokes_ogs.tif
176
     0
290
     0
176
     0
 40
1.0
176
     0
 40
1.0
176
     0
  0
VISUALSTYLE
  5
38
102
{ACAD_REACTORS
330
2A
102
}
330
2A
100
AcDbVisualStyle
  2
Linepattern
 70
    14
177
     3
291
     1
 70
    58
 90
        2
176
     1
 90
        2
176
     1
 90
        0
176
     1
 90
        0
176
     1
 40
0.6
176
     1
 40
30.0
176
     1
 62
     7
420
 16777215
176
     1
 90
        1
176
     1
 90
        4
176
     1
 62
     7
176
     1
 62
   257
176
     1
 90
        7
176
     1
 90
        7
176
     1
 40
1.0
176
     1
 90
        8
176
     1
 62
     7
176
     1
 40
1.0
176
     1
 90
        1
176
     1
 90
        6
176
     1
 90
        2
176
     1
 62
     7
176
     1
 90
        5
176
     1
 90
        0
176
     1
 90
        0
176
     1
290
     0
176
     1
 90
        1
176
     1
 40
0.0
176
     1
 90
        0
176
     1
290
     0
176
     1
290
     1
176
     1
290
     1
176
     1
290
     0
176
     1
290
     0
176
     1
290
     0
176
     1
290
     0
176
     1
290
     0
176
     1
290
     0
176
     1
 90
       50
176
     1
 40
0.0
176
     1
 40
1.0
176
     1
 90
        0
176
     1
 62
    18
420
        0
176
     1
 90
       50
176
     1
 90
        3
176
     1
 62
     5
420
      255
176
     1
290
     0
176
     1
 90
       50
176
     1
 90
       50
176
     1
 90
       50
176
     1
290
     0
176
     1
 90
       50
176
     1
 62
   256
176
     0
 40
1.0
176
     0
 90
        2
176
     1
  1
strokes_ogs.tif
176
     1
290
     0
176
     1
 40
1.0
176
     1
 40
1.0
176
     1
  0
VISUALSTYLE
  5
3C
102
{ACAD_REACTORS
330
2A
102
}
330
2A
100
AcDbVisualStyle
  2
OverhangOff
 70
    21
177
     3
291
     1
 70
    58
 90
        2
176
     0
 90
        2
176
     0
 90
        0
176
     0
 90
        0
176
     0
 40
0.6
176
     0
 40
30.0
176
     0
 62
     7
420
 16777215
176
     0
 90
        1
176
     0
 90
        4
176
     0
 62
     7
176
     0
 62
   257
176
     0
 90
        1
176
     0
 90
        1
176
     0
 40
1.0
176
     0
 90
        9
176
     2
 62
     7
176
     0
 40
1.0
176
     0
 90
        1
176
     0
 90
        6
176
     0
 90
        2
176
     0
 62
     7
176
     0
 90
        5
176
     0
 90
        0
176
     0
 90
        0
176
     0
290
     0
176
     0
 90
        1
176
     0
 40
0.0
176
     0
 90
        0
176
     0
290
     0
176
     0
290
     1
176
     0
290
     1
176
     0
290
     0
176
     0
290
     0
176
     0
290
     0
176
     0
290
     0
176
     0
290
     0
176
     0
290
     0
176
     0
 90
       50
176
     0
 40
0.0
176
     0
 40
1.0
176
     0
 90
        0
176
     0
 62
    18
420
        0
176
     0
 90
       50
176
     0
 90
        3
176
     0
 62
     5
420
      255
176
     0
290
     0
176
     0
 90
       50
176
     0
 90
       50
176
     0
 90
       50
176
     0
290
     0
176
     0
 90
       50
176
     0
 62
   256
176
     0
 40
1.0
176
     0
 90
        2
176
     0
  1
strokes_ogs.tif
176
     0
290
     0
176
     0
 40
1.0
176
     0
 40
1.0
176
     0
  0
VISUALSTYLE
  5
33
102
{ACAD_REACTORS
330
2A
102
}
330
2A
100
AcDbVisualStyle
  2
Realistic
 70
     8
177
     3
291
     0
 70
    58
 90
        2
176
     1
 90
        3
176
     1
 90
        0
176
     1
 90
        2
176
     1
 40
0.6
176
     1
 40
30.0
176
     1
 62
     7
420
 16777215
176
     1
 90
        0
176
     1
 90
        0
176
     1
 62
     7
176
     1
 62
   257
176
     1
 90
        1
176
     1
 90
        1
176
     1
 40
1.0
176
     1
 90
        8
176
     1
 62
   257
176
     1
 40
1.0
176
     1
 90
        1
176
     1
 90
        6
176
     1
 90
        2
176
     1
 62
     7
176
     1
 90
        3
176
     1
 90
        0
176
     1
 90
        0
176
     1
290
     0
176
     1
 90
       13
176
     1
 40
0.0
176
     1
 90
        0
176
     1
290
     0
176
     1
290
     1
176
     1
290
     1
176
     1
290
     0
176
     1
290
     0
176
     1
290
     0
176
     1
290
     0
176
     1
290
     0
176
     1
290
     0
176
     1
 90
       50
176
     1
 40
0.0
176
     1
 40
1.0
176
     1
 90
        0
176
     1
 62
    18
420
        0
176
     1
 90
       50
176
     1
 90
        3
176
     1
 62
     5
420
      255
176
     1
290
     0
176
     1
 90
       50
176
     1
 90
       50
176
     1
 90
       50
176
     1
290
     0
176
     1
 90
       50
176
     1
 62
   256
176
     0
 40
1.0
176
     0
 90
        2
176
     1
  1
strokes_ogs.tif
176
     1
290
     0
176
     1
 40
1.0
176
     1
 40
1.0
176
     1
  0
VISUALSTYLE
  5
42
102
{ACAD_REACTORS
330
2A
102
}
330
2A
100
AcDbVisualStyle
  2
Shaded
 70
    27
177
     3
291
     0
 70
    58
 90
        2
176
     1
 90
        2
176
     1
 90
        1
176
     1
 90
        2
176
     1
 40
0.6
176
     1
 40
30.0
176
     1
 62
     7
420
 16777215
176
     1
 90
        0
176
     1
 90
        4
176
     1
 62
     7
176
     1
 62
   257
176
     1
 90
        1
176
     1
 90
        1
176
     1
 40
1.0
176
     1
 90
        8
176
     1
 62
   257
176
     1
 40
1.0
176
     1
 90
        1
176
     1
 90
        6
176
     1
 90
        2
176
     1
 62
     8
420
  7895160
176
     1
 90
        3
176
     1
 90
        0
176
     1
 90
        0
176
     1
290
     0
176
     1
 90
        5
176
     1
 40
0.0
176
     1
 90
        0
176
     1
290
     0
176
     1
290
     1
176
     1
290
     1
176
     1
290
     0
176
     1
290
     0
176
     1
290
     0
176
     1
290
     0
176
     1
290
     0
176
     1
290
     0
176
     1
 90
       50
176
     1
 40
0.0
176
     1
 40
1.0
176
     1
 90
        0
176
     1
 62
    18
420
        0
176
     1
 90
       50
176
     1
 90
        3
176
     1
 62
     5
420
      255
176
     1
290
     0
176
     1
 90
       50
176
     1
 90
       50
176
     1
 90
       50
176
     1
290
     0
176
     1
 90
       50
176
     1
 62
   256
176
     0
 40
1.0
176
     0
 90
        2
176
     1
  1
strokes_ogs.tif
176
     1
290
     0
176
     1
 40
1.0
176
     1
 40
1.0
176
     1
  0
VISUALSTYLE
  5
41
102
{ACAD_REACTORS
330
2A
102
}
330
2A
100
AcDbVisualStyle
  2
Shaded with edges
 70
    26
177
     3
291
     0
 70
    58
 90
        2
176
     1
 90
        2
176
     1
 90
        1
176
     1
 90
        2
176
     1
 40
0.6
176
     1
 40
30.0
176
     1
 62
     7
420
 16777215
176
     1
 90
        1
176
     1
 90
       10
176
     1
 62
     7
176
     1
 62
   257
176
     1
 90
        2
176
     1
 90
        1
176
     1
 40
1.0
176
     1
 90
        8
176
     1
 62
   257
176
     1
 40
1.0
176
     1
 90
        1
176
     1
 90
        6
176
     1
 90
        2
176
     1
 62
     7
176
     1
 90
        3
176
     1
 90
        0
176
     1
 90
        0
176
     1
290
     0
176
     1
 90
        5
176
     1
 40
0.0
176
     1
 90
        0
176
     1
290
     0
176
     1
290
     1
176
     1
290
     1
176
     1
290
     0
176
     1
290
     0
176
     1
290
     0
176
     1
290
     0
176
     1
290
     0
176
     1
290
     0
176
     1
 90
       50
176
     1
 40
0.0
176
     1
 40
1.0
176
     1
 90
        0
176
     1
 62
    18
420
        0
176
     1
 90
       50
176
     1
 90
        3
176
     1
 62
     5
420
      255
176
     1
290
     0
176
     1
 90
       50
176
     1
 90
       50
176
     1
 90
       50
176
     1
290
     0
176
     1
 90
       50
176
     1
 62
   256
176
     0
 40
1.0
176
     0
 90
        2
176
     1
  1
strokes_ogs.tif
176
     1
290
     0
176
     1
 40
1.0
176
     1
 40
1.0
176
     1
  0
VISUALSTYLE
  5
3E
102
{ACAD_REACTORS
330
2A
102
}
330
2A
100
AcDbVisualStyle
  2
Shades of Gray
 70
    23
177
     3
291
     0
 70
    58
 90
        2
176
     1
 90
        2
176
     1
 90
        3
176
     1
 90
        0
176
     1
 40
0.6
176
     1
 40
30.0
176
     1
 62
     7
420
 16777215
176
     1
 90
        2
176
     1
 90
        2
176
     1
 62
     7
176
     1
 62
     7
176
     1
 90
        1
176
     1
 90
        1
176
     1
 40
40.0
176
     1
 90
        8
176
     1
 62
     7
176
     1
 40
1.0
176
     1
 90
        1
176
     1
 90
        6
176
     1
 90
        2
176
     1
 62
     7
176
     1
 90
        3
176
     1
 90
        0
176
     1
 90
        0
176
     1
290
     0
176
     1
 90
        1
176
     1
 40
0.0
176
     1
 90
        0
176
     1
290
     0
176
     1
290
     1
176
     1
290
     1
176
     1
290
     0
176
     1
290
     0
176
     1
290
     0
176
     1
290
     0
176
     1
290
     0
176
     1
290
     0
176
     1
 90
       50
176
     1
 40
0.0
176
     1
 40
1.0
176
     1
 90
        0
176
     1
 62
    18
420
        0
176
     1
 90
       50
176
     1
 90
        3
176
     1
 62
     5
420
      255
176
     1
290
     0
176
     1
 90
       50
176
     1
 90
       50
176
     1
 90
       50
176
     1
290
     0
176
     1
 90
       50
176
     1
 62
   256
176
     0
 40
1.0
176
     0
 90
        2
176
     1
  1
strokes_ogs.tif
176
     1
290
     0
176
     1
 40
1.0
176
     1
 40
1.0
176
     1
  0
VISUALSTYLE
  5
3F
102
{ACAD_REACTORS
330
2A
102
}
330
2A
100
AcDbVisualStyle
  2
Sketchy
 70
    24
177
     3
291
     0
 70
    58
 90
        1
176
     1
 90
        2
176
     1
 90
        2
176
     1
 90
        0
176
     1
 40
0.6
176
     1
 40
30.0
176
     1
 62
     7
420
 16777215
176
     1
 90
        2
176
     1
 90
        2
176
     1
 62
     7
176
     1
 62
     7
176
     1
 90
        1
176
     1
 90
        1
176
     1
 40
40.0
176
     1
 90
       11
176
     1
 62
     7
176
     1
 40
1.0
176
     1
 90
        1
176
     1
 90
        6
176
     1
 90
        2
176
     1
 62
     7
176
     1
 90
        6
176
     1
 90
        0
176
     1
 90
        0
176
     1
290
     0
176
     1
 90
        1
176
     1
 40
0.0
176
     1
 90
        0
176
     1
290
     0
176
     1
290
     1
176
     1
290
     1
176
     1
290
     0
176
     1
290
     0
176
     1
290
     0
176
     1
290
     0
176
     1
290
     0
176
     1
290
     0
176
     1
 90
       50
176
     1
 40
0.0
176
     1
 40
1.0
176
     1
 90
        0
176
     1
 62
    18
420
        0
176
     1
 90
       50
176
     1
 90
        3
176
     1
 62
     5
420
      255
176
     1
290
     0
176
     1
 90
       50
176
     1
 90
       50
176
     1
 90
       50
176
     1
290
     0
176
     1
 90
       50
176
     1
 62
   256
176
     0
 40
1.0
176
     0
 90
        2
176
     1
  1
strokes_ogs.tif
176
     1
290
     0
176
     1
 40
1.0
176
     1
 40
1.0
176
     1
  0
VISUALSTYLE
  5
37
102
{ACAD_REACTORS
330
2A
102
}
330
2A
100
AcDbVisualStyle
  2
Thicken
 70
    13
177
     3
291
     1
 70
    58
 90
        2
176
     1
 90
        2
176
     1
 90
        0
176
     1
 90
        0
176
     1
 40
0.6
176
     1
 40
30.0
176
     1
 62
     7
420
 16777215
176
     1
 90
        1
176
     1
 90
        4
176
     1
 62
     7
176
     1
 62
   257
176
     1
 90
        1
176
     1
 90
        1
176
     1
 40
1.0
176
     1
 90
       12
176
     1
 62
     7
176
     1
 40
1.0
176
     1
 90
        1
176
     1
 90
        6
176
     1
 90
        2
176
     1
 62
     7
176
     1
 90
        5
176
     1
 90
        0
176
     1
 90
        0
176
     1
290
     0
176
     1
 90
        1
176
     1
 40
0.0
176
     1
 90
        0
176
     1
290
     0
176
     1
290
     1
176
     1
290
     1
176
     1
290
     0
176
     1
290
     0
176
     1
290
     0
176
     1
290
     0
176
     1
290
     0
176
     1
290
     0
176
     1
 90
       50
176
     1
 40
0.0
176
     1
 40
1.0
176
     1
 90
        0
176
     1
 62
    18
420
        0
176
     1
 90
       50
176
     1
 90
        3
176
     1
 62
     5
420
      255
176
     1
290
     0
176
     1
 90
       50
176
     1
 90
       50
176
     1
 90
       50
176
     1
290
     0
176
     1
 90
       50
176
     1
 62
   256
176
     0
 40
1.0
176
     0
 90
        2
176
     1
  1
strokes_ogs.tif
176
     1
290
     0
176
     1
 40
1.0
176
     1
 40
1.0
176
     1
  0
VISUALSTYLE
  5
30
102
{ACAD_REACTORS
330
2A
102
}
330
2A
100
AcDbVisualStyle
  2
Wireframe
 70
     5
177
     3
291
     0
 70
    58
 90
        0
176
     1
 90
        2
176
     1
 90
        0
176
     1
 90
        0
176
     1
 40
0.6
176
     1
 40
30.0
176
     1
 62
     7
420
 16777215
176
     1
 90
        1
176
     1
 90
        4
176
     1
 62
     7
176
     1
 62
   257
176
     1
 90
        1
176
     1
 90
        1
176
     1
 40
1.0
176
     1
 90
        0
176
     1
 62
   257
176
     1
 40
1.0
176
     1
 90
        1
176
     1
 90
        6
176
     1
 90
        2
176
     1
 62
     7
176
     1
 90
        3
176
     1
 90
        0
176
     1
 90
        0
176
     1
290
     0
176
     1
 90
        1
176
     1
 40
0.0
176
     1
 90
        0
176
     1
290
     0
176
     1
290
     1
176
     1
290
     1
176
     1
290
     0
176
     1
290
     0
176
     1
290
     0
176
     1
290
     0
176
     1
290
     0
176
     1
290
     0
176
     1
 90
       50
176
     1
 40
0.0
176
     1
 40
1.0
176
     1
 90
        0
176
     1
 62
    18
420
        0
176
     1
 90
       50
176
     1
 90
        3
176
     1
 62
     5
420
      255
176
     1
290
     0
176
     1
 90
       50
176
     1
 90
       50
176
     1
 90
       50
176
     1
290
     0
176
     1
 90
       50
176
     1
 62
   256
176
     0
 40
1.0
176
     0
 90
        2
176
     1
  1
strokes_ogs.tif
176
     1
290
     0
176
     1
 40
1.0
176
     1
 40
1.0
176
     1
  0
VISUALSTYLE
  5
40
102
{ACAD_REACTORS
330
2A
102
}
330
2A
100
AcDbVisualStyle
  2
X-Ray
 70
    25
177
     3
291
     0
 70
    58
 90
        2
176
     1
 90
        2
176
     1
 90
        1
176
     1
 90
        1
176
     1
 40
0.5
176
     1
 40
30.0
176
     1
 62
     7
420
 16777215
176
     1
 90
        1
176
     1
 90
        0
176
     1
 62
     7
176
     1
 62
   257
176
     1
 90
        1
176
     1
 90
        1
176
     1
 40
1.0
176
     1
 90
        8
176
     1
 62
     7
176
     1
 40
1.0
176
     1
 90
        1
176
     1
 90
        6
176
     1
 90
        2
176
     1
 62
     7
176
     1
 90
        3
176
     1
 90
        0
176
     1
 90
        0
176
     1
290
     0
176
     1
 90
       13
176
     1
 40
0.0
176
     1
 90
        0
176
     1
290
     0
176
     1
290
     1
176
     1
290
     1
176
     1
290
     0
176
     1
290
     0
176
     1
290
     0
176
     1
290
     0
176
     1
290
     0
176
     1
290
     0
176
     1
 90
       50
176
     1
 40
0.0
176
     1
 40
1.0
176
     1
 90
        0
176
     1
 62
    18
420
        0
176
     1
 90
       50
176
     1
 90
        3
176
     1
 62
     5
420
      255
176
     1
290
     0
176
     1
 90
       50
176
     1
 90
       50
176
     1
 90
       50
176
     1
290
     0
176
     1
 90
       50
176
     1
 62
   256
176
     0
 40
1.0
176
     0
 90
        2
176
     1
  1
strokes_ogs.tif
176
     1
290
     0
176
     1
 40
1.0
176
     1
 40
1.0
176
     1
  0
DICTIONARYVAR
  5
360
102
{ACAD_REACTORS
330
35F
102
}
330
35F
100
DictionaryVariables
280
     0
  1
1:1
  0
DICTIONARYVAR
  5
368
102
{ACAD_REACTORS
330
35F
102
}
330
35F
100
DictionaryVariables
280
     0
  1
3.500000
  0
DICTIONARYVAR
  5
369
102
{ACAD_REACTORS
330
35F
102
}
330
35F
100
DictionaryVariables
280
     0
  1
acadiso.lin
  0
DICTIONARYVAR
  5
365
102
{ACAD_REACTORS
330
35F
102
}
330
35F
100
DictionaryVariables
280
     0
  1
Standard
  0
DICTIONARYVAR
  5
364
102
{ACAD_REACTORS
330
35F
102
}
330
35F
100
DictionaryVariables
280
     0
  1
Standard
  0
DICTIONARY
  5
361
330
6A
100
AcDbDictionary
280
     1
281
     1
  3
ACAD_ROUNDTRIP_2008_TABLESTYLE_CELLSTYLEMAP
360
362
  0
CELLSTYLEMAP
  5
362
102
{ACAD_REACTORS
330
361
102
}
330
361
100
AcDbCellStyleMap
 90
        3
300
CELLSTYLE
  1
TABLEFORMAT_BEGIN
 90
        5
170
     1
 91
        0
 92
    32768
 62
   257
 93
        1
300
CONTENTFORMAT
  1
CONTENTFORMAT_BEGIN
 90
        0
 91
        0
 92
        4
 93
        0
300

 40
0.0
140
1.0
 94
        5
 62
     0
340
11
144
6.0
309
CONTENTFORMAT_END
171
     1
301
MARGIN
  1
CELLMARGIN_BEGIN
 40
1.5
 40
1.5
 40
1.5
 40
1.5
 40
1.5
 40
1.5
309
CELLMARGIN_END
 94
        6
 95
        1
302
GRIDFORMAT
  1
GRIDFORMAT_BEGIN
 90
        0
 91
        1
 62
     0
 92
       -2
340
14
 93
        0
 40
0.045
309
GRIDFORMAT_END
 95
        2
302
GRIDFORMAT
  1
GRIDFORMAT_BEGIN
 90
        0
 91
        1
 62
     0
 92
       -2
340
14
 93
        0
 40
0.045
309
GRIDFORMAT_END
 95
        4
302
GRIDFORMAT
  1
GRIDFORMAT_BEGIN
 90
        0
 91
        1
 62
     0
 92
       -2
340
14
 93
        0
 40
0.045
309
GRIDFORMAT_END
 95
        8
302
GRIDFORMAT
  1
GRIDFORMAT_BEGIN
 90
        0
 91
        1
 62
     0
 92
       -2
340
14
 93
        0
 40
0.045
309
GRIDFORMAT_END
 95
       16
302
GRIDFORMAT
  1
GRIDFORMAT_BEGIN
 90
        0
 91
        1
 62
     0
 92
       -2
340
14
 93
        0
 40
0.045
309
GRIDFORMAT_END
 95
       32
302
GRIDFORMAT
  1
GRIDFORMAT_BEGIN
 90
        0
 91
        1
 62
     0
 92
       -2
340
14
 93
        0
 40
0.045
309
GRIDFORMAT_END
309
TABLEFORMAT_END
  1
CELLSTYLE_BEGIN
 90
        1
 91
        1
300
_TITLE
309
CELLSTYLE_END
300
CELLSTYLE
  1
TABLEFORMAT_BEGIN
 90
        5
170
     1
 91
        0
 92
        0
 62
   257
 93
        1
300
CONTENTFORMAT
  1
CONTENTFORMAT_BEGIN
 90
        0
 91
        0
 92
        4
 93
        0
300

 40
0.0
140
1.0
 94
        5
 62
     0
340
11
144
4.5
309
CONTENTFORMAT_END
171
     1
301
MARGIN
  1
CELLMARGIN_BEGIN
 40
1.5
 40
1.5
 40
1.5
 40
1.5
 40
1.5
 40
1.5
309
CELLMARGIN_END
 94
        6
 95
        1
302
GRIDFORMAT
  1
GRIDFORMAT_BEGIN
 90
        0
 91
        1
 62
     0
 92
       -2
340
14
 93
        0
 40
0.045
309
GRIDFORMAT_END
 95
        2
302
GRIDFORMAT
  1
GRIDFORMAT_BEGIN
 90
        0
 91
        1
 62
     0
 92
       -2
340
14
 93
        0
 40
0.045
309
GRIDFORMAT_END
 95
        4
302
GRIDFORMAT
  1
GRIDFORMAT_BEGIN
 90
        0
 91
        1
 62
     0
 92
       -2
340
14
 93
        0
 40
0.045
309
GRIDFORMAT_END
 95
        8
302
GRIDFORMAT
  1
GRIDFORMAT_BEGIN
 90
        0
 91
        1
 62
     0
 92
       -2
340
14
 93
        0
 40
0.045
309
GRIDFORMAT_END
 95
       16
302
GRIDFORMAT
  1
GRIDFORMAT_BEGIN
 90
        0
 91
        1
 62
     0
 92
       -2
340
14
 93
        0
 40
0.045
309
GRIDFORMAT_END
 95
       32
302
GRIDFORMAT
  1
GRIDFORMAT_BEGIN
 90
        0
 91
        1
 62
     0
 92
       -2
340
14
 93
        0
 40
0.045
309
GRIDFORMAT_END
309
TABLEFORMAT_END
  1
CELLSTYLE_BEGIN
 90
        2
 91
        1
300
_HEADER
309
CELLSTYLE_END
300
CELLSTYLE
  1
TABLEFORMAT_BEGIN
 90
        5
170
     1
 91
        0
 92
        0
 62
   257
 93
        1
300
CONTENTFORMAT
  1
CONTENTFORMAT_BEGIN
 90
        0
 91
        0
 92
        4
 93
        0
300

 40
0.0
140
1.0
 94
        2
 62
     0
340
11
144
4.5
309
CONTENTFORMAT_END
171
     1
301
MARGIN
  1
CELLMARGIN_BEGIN
 40
1.5
 40
1.5
 40
1.5
 40
1.5
 40
1.5
 40
1.5
309
CELLMARGIN_END
 94
        6
 95
        1
302
GRIDFORMAT
  1
GRIDFORMAT_BEGIN
 90
        0
 91
        1
 62
     0
 92
       -2
340
14
 93
        0
 40
0.045
309
GRIDFORMAT_END
 95
        2
302
GRIDFORMAT
  1
GRIDFORMAT_BEGIN
 90
        0
 91
        1
 62
     0
 92
       -2
340
14
 93
        0
 40
0.045
309
GRIDFORMAT_END
 95
        4
302
GRIDFORMAT
  1
GRIDFORMAT_BEGIN
 90
        0
 91
        1
 62
     0
 92
       -2
340
14
 93
        0
 40
0.045
309
GRIDFORMAT_END
 95
        8
302
GRIDFORMAT
  1
GRIDFORMAT_BEGIN
 90
        0
 91
        1
 62
     0
 92
       -2
340
14
 93
        0
 40
0.045
309
GRIDFORMAT_END
 95
       16
302
GRIDFORMAT
  1
GRIDFORMAT_BEGIN
 90
        0
 91
        1
 62
     0
 92
       -2
340
14
 93
        0
 40
0.045
309
GRIDFORMAT_END
 95
       32
302
GRIDFORMAT
  1
GRIDFORMAT_BEGIN
 90
        0
 91
        1
 62
     0
 92
       -2
340
14
 93
        0
 40
0.045
309
GRIDFORMAT_END
309
TABLEFORMAT_END
  1
CELLSTYLE_BEGIN
 90
        3
 91
        2
300
_DATA
309
CELLSTYLE_END
  0
ENDSEC
  0
EOF
