  0
SECTION
  2
HEADER
  9
$ACADVER
  1
AC1015
  9
$ACADMAINTVER
 70
     6
  9
$DWGCODEPAGE
  3
ANSI_1252
  9
$INSBASE
 10
0.0
 20
0.0
 30
0.0
  9
$EXTMIN
 10
0.0
 20
0.0
 30
0.0
  9
$EXTMAX
 10
420.0
 20
297.0
 30
0.0
  9
$LIMMIN
 10
0.0
 20
0.0
  9
$LIMMAX
 10
420.0
 20
297.0
  9
$ORTHOMODE
 70
     0
  9
$REGENMODE
 70
     1
  9
$FILLMODE
 70
     1
  9
$QTEXTMODE
 70
     0
  9
$MIRRTEXT
 70
     1
  9
$LTSCALE
 40
1.0
  9
$ATTMODE
 70
     1
  9
$TEXTSIZE
 40
3.5
  9
$TRACEWID
 40
1.0
  9
$TEXTSTYLE
  7
Standard
  9
$CLAYER
  8
0
  9
$CELTYPE
  6
ByLayer
  9
$CECOLOR
 62
   256
  9
$CELTSCALE
 40
1.0
  9
$DISPSILH
 70
     0
  9
$DIMSCALE
 40
1.0
  9
$DIMASZ
 40
3.81
  9
$DIMEXO
 40
0.0
  9
$DIMDLI
 40
3.75
  9
$DIMRND
 40
0.0
  9
$DIMDLE
 40
0.0
  9
$DIMEXE
 40
1.0
  9
$DIMTP
 40
0.0
  9
$DIMTM
 40
0.0
  9
$DIMTXT
 40
3.2
  9
$DIMCEN
 40
2.5
  9
$DIMTSZ
 40
0.0
  9
$DIMTOL
 70
     0
  9
$DIMLIM
 70
     0
  9
$DIMTIH
 70
     1
  9
$DIMTOH
 70
     1
  9
$DIMSE1
 70
     0
  9
$DIMSE2
 70
     0
  9
$DIMTAD
 70
     1
  9
$DIMZIN
 70
     0
  9
$DIMBLK
  1

  9
$DIMASO
 70
     1
  9
$DIMSHO
 70
     1
  9
$DIMPOST
  1

  9
$DIMAPOST
  1

  9
$DIMALT
 70
     0
  9
$DIMALTD
 70
     3
  9
$DIMALTF
 40
0.0393700787
  9
$DIMLFAC
 40
1.0
  9
$DIMTOFL
 70
     1
  9
$DIMTVP
 40
0.0
  9
$DIMTIX
 70
     0
  9
$DIMSOXD
 70
     0
  9
$DIMSAH
 70
     0
  9
$DIMBLK1
  1

  9
$DIMBLK2
  1

  9
$DIMSTYLE
  2
ISO-25
  9
$DIMCLRD
 70
     0
  9
$DIMCLRE
 70
     0
  9
$DIMCLRT
 70
     0
  9
$DIMTFAC
 40
1.0
  9
$DIMGAP
 40
1.524
  9
$DIMJUST
 70
     0
  9
$DIMSD1
 70
     0
  9
$DIMSD2
 70
     0
  9
$DIMTOLJ
 70
     0
  9
$DIMTZIN
 70
     0
  9
$DIMALTZ
 70
     0
  9
$DIMALTTZ
 70
     0
  9
$DIMUPT
 70
     0
  9
$DIMDEC
 70
     2
  9
$DIMTDEC
 70
     2
  9
$DIMALTU
 70
     2
  9
$DIMALTTD
 70
     3
  9
$DIMTXSTY
  7
Standard
  9
$DIMAUNIT
 70
     0
  9
$DIMADEC
 70
     0
  9
$DIMALTRND
 40
0.0
  9
$DIMAZIN
 70
     0
  9
$DIMDSEP
 70
    44
  9
$DIMATFIT
 70
     3
  9
$DIMFRAC
 70
     0
  9
$DIMLDRBLK
  1

  9
$DIMLUNIT
 70
     2
  9
$DIMLWD
 70
    -2
  9
$DIMLWE
 70
    -2
  9
$DIMTMOVE
 70
     0
  9
$LUNITS
 70
     2
  9
$LUPREC
 70
     1
  9
$SKETCHINC
 40
1.0
  9
$FILLETRAD
 40
10.0
  9
$AUNITS
 70
     0
  9
$AUPREC
 70
     0
  9
$MENU
  1
.
  9
$ELEVATION
 40
0.0
  9
$PELEVATION
 40
0.0
  9
$THICKNESS
 40
0.0
  9
$LIMCHECK
 70
     0
  9
$CHAMFERA
 40
10.0
  9
$CHAMFERB
 40
10.0
  9
$CHAMFERC
 40
20.0
  9
$CHAMFERD
 40
0.0
  9
$SKPOLY
 70
     0
  9
$TDCREATE
 40
2454698.514569676
  9
$TDUCREATE
 40
2454698.431236343
  9
$TDUPDATE
 40
2454698.514569688
  9
$TDUUPDATE
 40
2454698.431236354
  9
$TDINDWG
 40
0.0000000116
  9
$TDUSRTIMER
 40
0.0000000116
  9
$USRTIMER
 70
     1
  9
$ANGBASE
 50
0.0
  9
$ANGDIR
 70
     0
  9
$PDMODE
 70
     0
  9
$PDSIZE
 40
-1.0
  9
$PLINEWID
 40
0.0
  9
$SPLFRAME
 70
     0
  9
$SPLINETYPE
 70
     6
  9
$SPLINESEGS
 70
     8
  9
$HANDSEED
  5
2DF
  9
$SURFTAB1
 70
     6
  9
$SURFTAB2
 70
     6
  9
$SURFTYPE
 70
     6
  9
$SURFU
 70
     6
  9
$SURFV
 70
     6
  9
$UCSBASE
  2

  9
$UCSNAME
  2

  9
$UCSORG
 10
0.0
 20
0.0
 30
0.0
  9
$UCSXDIR
 10
1.0
 20
0.0
 30
0.0
  9
$UCSYDIR
 10
0.0
 20
1.0
 30
0.0
  9
$UCSORTHOREF
  2

  9
$UCSORTHOVIEW
 70
     0
  9
$UCSORGTOP
 10
0.0
 20
0.0
 30
0.0
  9
$UCSORGBOTTOM
 10
0.0
 20
0.0
 30
0.0
  9
$UCSORGLEFT
 10
0.0
 20
0.0
 30
0.0
  9
$UCSORGRIGHT
 10
0.0
 20
0.0
 30
0.0
  9
$UCSORGFRONT
 10
0.0
 20
0.0
 30
0.0
  9
$UCSORGBACK
 10
0.0
 20
0.0
 30
0.0
  9
$PUCSBASE
  2

  9
$PUCSNAME
  2

  9
$PUCSORG
 10
0.0
 20
0.0
 30
0.0
  9
$PUCSXDIR
 10
1.0
 20
0.0
 30
0.0
  9
$PUCSYDIR
 10
0.0
 20
1.0
 30
0.0
  9
$PUCSORTHOREF
  2

  9
$PUCSORTHOVIEW
 70
     0
  9
$PUCSORGTOP
 10
0.0
 20
0.0
 30
0.0
  9
$PUCSORGBOTTOM
 10
0.0
 20
0.0
 30
0.0
  9
$PUCSORGLEFT
 10
0.0
 20
0.0
 30
0.0
  9
$PUCSORGRIGHT
 10
0.0
 20
0.0
 30
0.0
  9
$PUCSORGFRONT
 10
0.0
 20
0.0
 30
0.0
  9
$PUCSORGBACK
 10
0.0
 20
0.0
 30
0.0
  9
$USERI1
 70
     0
  9
$USERI2
 70
     0
  9
$USERI3
 70
     0
  9
$USERI4
 70
     0
  9
$USERI5
 70
     0
  9
$USERR1
 40
0.0
  9
$USERR2
 40
0.0
  9
$USERR3
 40
0.0
  9
$USERR4
 40
0.0
  9
$USERR5
 40
0.0
  9
$WORLDVIEW
 70
     1
  9
$SHADEDGE
 70
     3
  9
$SHADEDIF
 70
    70
  9
$TILEMODE
 70
     1
  9
$MAXACTVP
 70
    64
  9
$PINSBASE
 10
0.0
 20
0.0
 30
0.0
  9
$PLIMCHECK
 70
     0
  9
$PEXTMIN
 10
1.0000000000E+20
 20
1.0000000000E+20
 30
1.0000000000E+20
  9
$PEXTMAX
 10
-1.0000000000E+20
 20
-1.0000000000E+20
 30
-1.0000000000E+20
  9
$PLIMMIN
 10
0.0
 20
0.0
  9
$PLIMMAX
 10
420.0
 20
297.0
  9
$UNITMODE
 70
     0
  9
$VISRETAIN
 70
     1
  9
$PLINEGEN
 70
     0
  9
$PSLTSCALE
 70
     1
  9
$TREEDEPTH
 70
  3020
  9
$CMLSTYLE
  2
Standard
  9
$CMLJUST
 70
     0
  9
$CMLSCALE
 40
20.0
  9
$PROXYGRAPHICS
 70
     1
  9
$MEASUREMENT
 70
     1
  9
$CELWEIGHT
370
    -1
  9
$ENDCAPS
280
     0
  9
$JOINSTYLE
280
     0
  9
$LWDISPLAY
290
     1
  9
$INSUNITS
 70
     4
  9
$HYPERLINKBASE
  1

  9
$STYLESHEET
  1

  9
$XEDIT
290
     1
  9
$CEPSNTYPE
380
     0
  9
$PSTYLEMODE
290
     1
  9
$FINGERPRINTGUID
  2
{AA6A3A4E-6D45-4525-9038-BEB51B323CF8}
  9
$VERSIONGUID
  2
{FAEB1C32-E019-11D5-929B-00C0DF256EC4}
  9
$EXTNAMES
290
     1
  9
$PSVPSCALE
 40
0.0
  9
$OLESTARTUP
290
     0
  0
ENDSEC
  0
SECTION
  2
CLASSES
  0
CLASS
  1
ACDBDICTIONARYWDFLT
  2
AcDbDictionaryWithDefault
  3
ObjectDBX Classes
 90
        0
280
     0
281
     0
  0
CLASS
  1
VISUALSTYLE
  2
AcDbVisualStyle
  3
ObjectDBX Classes
 90
     4095
280
     0
281
     0
  0
CLASS
  1
SCALE
  2
AcDbScale
  3
ObjectDBX Classes
 90
     1153
280
     0
281
     0
  0
CLASS
  1
DICTIONARYVAR
  2
AcDbDictionaryVar
  3
ObjectDBX Classes
 90
        0
280
     0
281
     0
  0
CLASS
  1
ACDBPLACEHOLDER
  2
AcDbPlaceHolder
  3
ObjectDBX Classes
 90
        0
280
     0
281
     0
  0
CLASS
  1
LAYOUT
  2
AcDbLayout
  3
ObjectDBX Classes
 90
        0
280
     0
281
     0
  0
ENDSEC
  0
SECTION
  2
TABLES
  0
TABLE
  2
VPORT
  5
8
330
0
100
AcDbSymbolTable
 70
     1
  0
VPORT
  5
29
330
8
100
AcDbSymbolTableRecord
100
AcDbViewportTableRecord
  2
*Active
 70
     0
 10
0.0
 20
0.0
 11
1.0
 21
1.0
 12
210.0
 22
148.5
 13
0.0
 23
0.0
 14
10.0
 24
10.0
 15
10.0
 25
10.0
 16
0.0
 26
0.0
 36
1.0
 17
0.0
 27
0.0
 37
0.0
 40
297.0
 41
1.4141414141
 42
50.0
 43
0.0
 44
0.0
 50
0.0
 51
0.0
 71
     0
 72
  2000
 73
     1
 74
     3
 75
     0
 76
     0
 77
     0
 78
     0
281
     0
 65
     1
110
0.0
120
0.0
130
0.0
111
1.0
121
0.0
131
0.0
112
0.0
122
1.0
132
0.0
 79
     0
146
0.0
  0
ENDTAB
  0
TABLE
  2
LTYPE
  5
5
330
0
100
AcDbSymbolTable
 70
     6
  0
LTYPE
  5
14
330
5
100
AcDbSymbolTableRecord
100
AcDbLinetypeTableRecord
  2
ByBlock
 70
     0
  3

 72
    65
 73
     0
 40
0.0
  0
LTYPE
  5
15
330
5
100
AcDbSymbolTableRecord
100
AcDbLinetypeTableRecord
  2
ByLayer
 70
     0
  3

 72
    65
 73
     0
 40
0.0
  0
LTYPE
  5
16
330
5
100
AcDbSymbolTableRecord
100
AcDbLinetypeTableRecord
  2
Continuous
 70
     0
  3
Solid line
 72
    65
 73
     0
 40
0.0
  0
LTYPE
  5
5D
330
5
100
AcDbSymbolTableRecord
100
AcDbLinetypeTableRecord
  2
HIDDEN
 70
     0
  3
Hidden __ __ __ __ __ __ __ __ __ __ __ __ __ __
 72
    65
 73
     2
 40
1.905
 49
1.27
 74
     0
 49
-0.635
 74
     0
  0
LTYPE
  5
5E
330
5
100
AcDbSymbolTableRecord
100
AcDbLinetypeTableRecord
  2
PHANTOM
 70
     0
  3
Phantom ______  __  __  ______  __  __  ______
 72
    65
 73
     6
 40
12.7
 49
6.35
 74
     0
 49
-1.27
 74
     0
 49
1.27
 74
     0
 49
-1.27
 74
     0
 49
1.27
 74
     0
 49
-1.27
 74
     0
  0
LTYPE
  5
5F
330
5
100
AcDbSymbolTableRecord
100
AcDbLinetypeTableRecord
  2
CENTER
 70
     0
  3
Center ____ _ ____ _ ____ _ ____ _ ____ _ ____
 72
    65
 73
     4
 40
10.16
 49
6.35
 74
     0
 49
-1.27
 74
     0
 49
1.27
 74
     0
 49
-1.27
 74
     0
  0
LTYPE
  5
60
330
5
100
AcDbSymbolTableRecord
100
AcDbLinetypeTableRecord
  2
CENTERX2
 70
     0
  3
Center (2x) ________  __  ________  __  _____
 72
    65
 73
     4
 40
20.32
 49
12.7
 74
     0
 49
-2.54
 74
     0
 49
2.54
 74
     0
 49
-2.54
 74
     0
  0
LTYPE
  5
61
330
5
100
AcDbSymbolTableRecord
100
AcDbLinetypeTableRecord
  2
DOT2
 70
     0
  3
Dot (.5x) ........................................
 72
    65
 73
     2
 40
0.635
 49
0.0
 74
     0
 49
-0.635
 74
     0
  0
ENDTAB
  0
TABLE
  2
LAYER
  5
2
330
0
100
AcDbSymbolTable
 70
     9
  0
LAYER
  5
10
330
2
100
AcDbSymbolTableRecord
100
AcDbLayerTableRecord
  2
0
 70
     0
 62
     7
  6
Continuous
370
    -3
390
F
  0
LAYER
  5
62
330
2
100
AcDbSymbolTableRecord
100
AcDbLayerTableRecord
  2
SLD-0
 70
     0
 62
     7
  6
Continuous
370
    -3
390
F
  0
LAYER
  5
63
330
2
100
AcDbSymbolTableRecord
100
AcDbLayerTableRecord
  2
PV
 70
     0
 62
     7
  6
Continuous
370
    -3
390
F
  0
LAYER
  5
64
330
2
100
AcDbSymbolTableRecord
100
AcDbLayerTableRecord
  2
COTATION
 70
     0
 62
     1
  6
Continuous
370
    -3
390
F
  0
LAYER
  5
65
330
2
100
AcDbSymbolTableRecord
100
AcDbLayerTableRecord
  2
NOTES
 70
     0
 62
     5
  6
Continuous
370
    -3
390
F
  0
LAYER
  5
66
330
2
100
AcDbSymbolTableRecord
100
AcDbLayerTableRecord
  2
COTATION2
 70
     0
 62
    96
  6
Continuous
370
    -3
390
F
  0
LAYER
  5
67
330
2
100
AcDbSymbolTableRecord
100
AcDbLayerTableRecord
  2
COTATION3
 70
     0
 62
    30
  6
Continuous
370
    -3
390
F
  0
LAYER
  5
68
330
2
100
AcDbSymbolTableRecord
100
AcDbLayerTableRecord
  2
LOGO1
 70
     0
 62
   156
  6
Continuous
370
    -3
390
F
  0
LAYER
  5
69
330
2
100
AcDbSymbolTableRecord
100
AcDbLayerTableRecord
  2
LOGO2
 70
     0
 62
   161
  6
Continuous
370
    -3
390
F
  0
ENDTAB
  0
TABLE
  2
STYLE
  5
3
330
0
100
AcDbSymbolTable
 70
     8
  0
STYLE
  5
11
330
3
100
AcDbSymbolTableRecord
100
AcDbTextStyleTableRecord
  2
Standard
 70
     0
 40
0.0
 41
1.0
 50
0.0
 71
     0
 42
2.5
  3
txt
  4

  0
STYLE
  5
11A
330
3
100
AcDbSymbolTableRecord
100
AcDbTextStyleTableRecord
  2
SLDTEXTSTYLE0
 70
     0
 40
0.0
 41
0.75
 50
0.0
 71
     0
 42
0.2
  3
TXT
  4

  0
STYLE
  5
132
330
3
100
AcDbSymbolTableRecord
100
AcDbTextStyleTableRecord
  2
SLDTEXTSTYLE1
 70
     0
 40
0.0
 41
0.6666666667
 50
0.0
 71
     0
 42
0.2
  3
TXT
  4

  0
STYLE
  5
148
330
3
100
AcDbSymbolTableRecord
100
AcDbTextStyleTableRecord
  2
SLDTEXTSTYLE2
 70
     0
 40
0.0
 41
0.6979166667
 50
0.0
 71
     0
 42
0.2
  3
TXT
  4

  0
STYLE
  5
160
330
3
100
AcDbSymbolTableRecord
100
AcDbTextStyleTableRecord
  2
SLDTEXTSTYLE3
 70
     0
 40
0.0
 41
0.6818181818
 50
0.0
 71
     0
 42
0.2
  3
TXT
  4

  0
STYLE
  5
165
330
3
100
AcDbSymbolTableRecord
100
AcDbTextStyleTableRecord
  2
SLDTEXTSTYLE4
 70
     0
 40
0.0
 41
0.7
 50
0.0
 71
     0
 42
0.2
  3
TXT
  4

  0
STYLE
  5
16B
330
3
100
AcDbSymbolTableRecord
100
AcDbTextStyleTableRecord
  2
SLDTEXTSTYLE5
 70
     0
 40
0.0
 41
0.6944444444
 50
0.0
 71
     0
 42
0.2
  3
TXT
  4

  0
STYLE
  5
171
330
3
100
AcDbSymbolTableRecord
100
AcDbTextStyleTableRecord
  2
SLDTEXTSTYLE6
 70
     0
 40
0.0
 41
0.675
 50
0.0
 71
     0
 42
0.2
  3
TXT
  4

  0
ENDTAB
  0
TABLE
  2
VIEW
  5
6
330
0
100
AcDbSymbolTable
 70
     0
  0
ENDTAB
  0
TABLE
  2
UCS
  5
7
330
0
100
AcDbSymbolTable
 70
     0
  0
ENDTAB
  0
TABLE
  2
APPID
  5
9
330
0
100
AcDbSymbolTable
 70
     1
  0
APPID
  5
12
330
9
100
AcDbSymbolTableRecord
100
AcDbRegAppTableRecord
  2
ACAD
 70
     0
  0
ENDTAB
  0
TABLE
  2
DIMSTYLE
  5
A
330
0
100
AcDbSymbolTable
 70
     3
100
AcDbDimStyleTable
  0
DIMSTYLE
105
27
330
A
100
AcDbSymbolTableRecord
100
AcDbDimStyleTableRecord
  2
ISO-25
 70
     0
 41
2.5
 42
0.625
 43
3.75
 44
1.25
 73
     0
 74
     0
 77
     1
 78
     8
140
2.5
141
2.5
143
0.0393700787
147
0.625
171
     3
172
     1
271
     2
272
     2
274
     3
278
    44
283
     0
284
     8
340
11
  0
DIMSTYLE
105
1D0
102
{ACAD_REACTORS
330
1CF
330
219
330
223
330
22D
102
}
330
A
100
AcDbSymbolTableRecord
100
AcDbDimStyleTableRecord
  2
SLDDIMSTYLE0
 70
     0
 41
3.81
 44
0.0
 45
0.000000001
 73
     0
 77
     1
 78
    12
140
3.2
147
0.8
173
     1
271
     1
272
     2
284
    12
340
11A
  0
DIMSTYLE
105
281
102
{ACAD_REACTORS
330
280
102
}
330
A
100
AcDbSymbolTableRecord
100
AcDbDimStyleTableRecord
  2
SLDDIMSTYLE1
 70
     0
 41
3.81
 44
0.0
 45
0.000000001
 73
     0
 77
     1
 78
    12
140
3.2
147
0.8
173
     1
271
     0
272
     2
284
    12
340
11A
  0
ENDTAB
  0
TABLE
  2
BLOCK_RECORD
  5
1
330
0
100
AcDbSymbolTable
 70
     9
  0
BLOCK_RECORD
  5
1F
330
1
100
AcDbSymbolTableRecord
100
AcDbBlockTableRecord
  2
*Model_Space
340
22
  0
BLOCK_RECORD
  5
1B
330
1
100
AcDbSymbolTableRecord
100
AcDbBlockTableRecord
  2
*Paper_Space
340
1E
  0
BLOCK_RECORD
  5
23
330
1
100
AcDbSymbolTableRecord
100
AcDbBlockTableRecord
  2
*Paper_Space0
340
26
  0
BLOCK_RECORD
  5
6A
330
1
100
AcDbSymbolTableRecord
100
AcDbBlockTableRecord
  2
Bloc2
340
0
102
{BLKREFS
331
119
102
}
  0
BLOCK_RECORD
  5
167
330
1
100
AcDbSymbolTableRecord
100
AcDbBlockTableRecord
  2
SW_NOTE_0
340
0
102
{BLKREFS
331
16F
102
}
  0
BLOCK_RECORD
  5
175
330
1
100
AcDbSymbolTableRecord
100
AcDbBlockTableRecord
  2
SW_NOTE_1
340
0
102
{BLKREFS
331
17B
102
}
  0
BLOCK_RECORD
  5
1D1
330
1
100
AcDbSymbolTableRecord
100
AcDbBlockTableRecord
  2
*D4
340
0
  0
BLOCK_RECORD
  5
21A
330
1
100
AcDbSymbolTableRecord
100
AcDbBlockTableRecord
  2
*D5
340
0
  0
BLOCK_RECORD
  5
224
330
1
100
AcDbSymbolTableRecord
100
AcDbBlockTableRecord
  2
*D6
340
0
  0
BLOCK_RECORD
  5
22E
330
1
100
AcDbSymbolTableRecord
100
AcDbBlockTableRecord
  2
*D7
340
0
  0
BLOCK_RECORD
  5
282
330
1
100
AcDbSymbolTableRecord
100
AcDbBlockTableRecord
  2
*D8
340
0
  0
ENDTAB
  0
ENDSEC
  0
SECTION
  2
BLOCKS
  0
BLOCK
  5
20
330
1F
100
AcDbEntity
  8
0
100
AcDbBlockBegin
  2
*Model_Space
 70
     0
 10
0.0
 20
0.0
 30
0.0
  3
*Model_Space
  1

  0
ENDBLK
  5
21
330
1F
100
AcDbEntity
  8
0
100
AcDbBlockEnd
  0
BLOCK
  5
1C
330
1B
100
AcDbEntity
 67
     1
  8
0
100
AcDbBlockBegin
  2
*Paper_Space
 70
     0
 10
0.0
 20
0.0
 30
0.0
  3
*Paper_Space
  1

  0
ENDBLK
  5
1D
330
1B
100
AcDbEntity
 67
     1
  8
0
100
AcDbBlockEnd
  0
BLOCK
  5
24
330
23
100
AcDbEntity
  8
0
100
AcDbBlockBegin
  2
*Paper_Space0
 70
     0
 10
0.0
 20
0.0
 30
0.0
  3
*Paper_Space0
  1

  0
ENDBLK
  5
25
330
23
100
AcDbEntity
  8
0
100
AcDbBlockEnd
  0
BLOCK
  5
6B
330
6A
100
AcDbEntity
  8
0
100
AcDbBlockBegin
  2
Bloc2
 70
     0
 10
0.0
 20
0.0
 30
0.0
  3
Bloc2
  1

  0
CIRCLE
  5
6D
330
6A
100
AcDbEntity
  8
PV
  6
Continuous
100
AcDbCircle
 10
8.0102707617
 20
1.7
 30
0.0
 40
0.6400000000000101
  0
CIRCLE
  5
6E
330
6A
100
AcDbEntity
  8
PV
  6
Continuous
100
AcDbCircle
 10
8.0102707617
 20
1.7
 30
0.0
 40
1.199999999999928
  0
LINE
  5
6F
330
6A
100
AcDbEntity
  8
PV
  6
CENTER
100
AcDbLine
 10
8.0102707617
 20
0.0
 30
0.0
 11
8.0102707617
 21
3.4
 31
0.0
  0
LINE
  5
70
330
6A
100
AcDbEntity
  8
PV
  6
Continuous
100
AcDbLine
 10
4.0102707617
 20
2.9
 30
0.0
 11
4.0102707617
 21
0.5
 31
0.0
  0
LINE
  5
71
330
6A
100
AcDbEntity
  8
PV
  6
Continuous
100
AcDbLine
 10
0.8102707617
 20
1.06
 30
0.0
 11
4.0102707617
 21
0.5
 31
0.0
  0
LINE
  5
72
330
6A
100
AcDbEntity
  8
PV
  6
Continuous
100
AcDbLine
 10
0.8102707617
 20
2.339999
 30
0.0
 11
0.8102707617
 21
1.06
 31
0.0
  0
LINE
  5
73
330
6A
100
AcDbEntity
  8
PV
  6
CENTER
100
AcDbLine
 10
9.7436336225
 20
1.7471354655
 30
0.0
 11
0.0
 21
1.7000647717
 31
0.0
  0
LINE
  5
74
330
6A
100
AcDbEntity
  8
PV
  6
Continuous
100
AcDbLine
 10
0.8102707617
 20
2.339999
 30
0.0
 11
4.0102707617
 21
2.9
 31
0.0
  0
ENDBLK
  5
6C
330
6A
100
AcDbEntity
  8
0
100
AcDbBlockEnd
  0
BLOCK
  5
168
330
167
100
AcDbEntity
  8
0
100
AcDbBlockBegin
  2
SW_NOTE_0
 70
     0
 10
0.0
 20
0.0
 30
0.0
  3
SW_NOTE_0
  1

  0
MTEXT
  5
16A
330
167
100
AcDbEntity
  8
PV
 62
     0
100
AcDbMText
 10
-2.5781354795
 20
0.0
 30
0.0
 40
2.0
 41
0.0
 71
     1
 72
     1
  1
PDM Project :
  7
SLDTEXTSTYLE0
 11
-3.491481338843133E-15
 21
1.0
 31
0.0
 73
     1
 44
1.0
  0
MTEXT
  5
16C
330
167
100
AcDbEntity
  8
PV
 62
     0
100
AcDbMText
 10
-2.5781354795
 20
16.8881937861
 30
0.0
 40
2.0
 41
0.0
 71
     1
 72
     1
  1
 E060 - Eagle AA -
  7
SLDTEXTSTYLE5
 11
-3.491481338843133E-15
 21
1.0
 31
0.0
 73
     1
 44
1.0
  0
MTEXT
  5
16D
330
167
100
AcDbEntity
  8
PV
 62
     0
100
AcDbMText
 10
-2.5781354795
 20
39.0812493861
 30
0.0
 40
2.0
 41
0.0
 71
     1
 72
     1
  1
  File Name :
  7
SLDTEXTSTYLE0
 11
-3.491481338843133E-15
 21
1.0
 31
0.0
 73
     1
 44
1.0
  0
MTEXT
  5
16E
330
167
100
AcDbEntity
  8
PV
 62
     0
100
AcDbMText
 10
-2.5781354795
 20
54.5121505857
 30
0.0
 40
2.0
 41
0.0
 71
     1
 72
     1
  1
 41_7476 - One DIM 
  7
SLDTEXTSTYLE0
 11
-3.491481338843133E-15
 21
1.0
 31
0.0
 73
     1
 44
1.0
  0
ENDBLK
  5
169
330
167
100
AcDbEntity
  8
0
100
AcDbBlockEnd
  0
BLOCK
  5
176
330
175
100
AcDbEntity
  8
0
100
AcDbBlockBegin
  2
SW_NOTE_1
 70
     0
 10
0.0
 20
0.0
 30
0.0
  3
SW_NOTE_1
  1

  0
MTEXT
  5
178
330
175
100
AcDbEntity
  8
SLD-0
 62
     0
100
AcDbMText
 10
0.0
 20
3.4106583948
 30
0.0
 40
2.6458333333
 41
0.0
 71
     1
 72
     1
  1
A
  7
SLDTEXTSTYLE4
 73
     1
 44
1.0
  0
MTEXT
  5
179
330
175
100
AcDbEntity
  8
SLD-0
 62
     0
100
AcDbMText
 10
2.9447143897
 20
3.4106583948
 30
0.0
 40
2.6458333333
 41
0.0
 71
     1
 72
     1
  1
HALMA
  7
SLDTEXTSTYLE4
 73
     1
 44
1.0
  0
MTEXT
  5
17A
330
175
100
AcDbEntity
  8
SLD-0
 62
     0
100
AcDbMText
 10
15.2233410627
 20
3.4106583948
 30
0.0
 40
2.6458333333
 41
0.0
 71
     1
 72
     1
  1
COMPANY
  7
SLDTEXTSTYLE4
 73
     1
 44
1.0
  0
ENDBLK
  5
177
330
175
100
AcDbEntity
  8
0
100
AcDbBlockEnd
  0
BLOCK
  5
1D2
330
1D1
100
AcDbEntity
  8
0
100
AcDbBlockBegin
  2
*D4
 70
     1
 10
0.0
 20
0.0
 30
0.0
  3
*D4
  1

  0
SOLID
  5
1D4
330
1D1
100
AcDbEntity
  8
COTATION
100
AcDbTrace
 10
387.226369681
 20
250.698676704
 30
0.0
 11
386.654869681
 21
246.888676704
 31
0.0
 12
387.797869681
 22
246.888676704
 32
0.0
 13
387.797869681
 23
246.888676704
 33
0.0
  0
SOLID
  5
1D5
330
1D1
100
AcDbEntity
  8
COTATION
100
AcDbTrace
 10
387.226369681
 20
200.698676704
 30
0.0
 11
387.797869681
 21
204.508676704
 31
0.0
 12
386.654869681
 22
204.508676704
 32
0.0
 13
386.654869681
 23
204.508676704
 33
0.0
  0
LINE
  5
1D6
330
1D1
100
AcDbEntity
  8
COTATION
100
AcDbLine
 10
361.2099569573
 20
250.698676704
 30
0.0
 11
388.226369681
 21
250.698676704
 31
0.0
  0
LINE
  5
1D7
330
1D1
100
AcDbEntity
  8
COTATION
100
AcDbLine
 10
361.2099569573
 20
200.698676704
 30
0.0
 11
388.226369681
 21
200.698676704
 31
0.0
  0
LINE
  5
1D8
330
1D1
100
AcDbEntity
  8
COTATION
100
AcDbLine
 10
387.226369681
 20
250.698676704
 30
0.0
 11
387.226369681
 21
200.698676704
 31
0.0
  0
MTEXT
  5
1D9
330
1D1
100
AcDbEntity
  8
COTATION
100
AcDbMText
 10
383.1013530884
 20
223.3353780066
 30
0.0
 40
3.2
 41
0.0
 71
     1
 72
     1
  1
50
  7
SLDTEXTSTYLE0
 11
6.123233995736766E-17
 21
1.0
 31
0.0
 73
     1
 44
1.0
  0
ENDBLK
  5
1D3
330
1D1
100
AcDbEntity
  8
0
100
AcDbBlockEnd
  0
BLOCK
  5
21B
330
21A
100
AcDbEntity
  8
0
100
AcDbBlockBegin
  2
*D5
 70
     1
 10
0.0
 20
0.0
 30
0.0
  3
*D5
  1

  0
SOLID
  5
21D
330
21A
100
AcDbEntity
  8
COTATION
100
AcDbTrace
 10
385.8047180697
 20
149.0515852428
 30
0.0
 11
385.2332180697
 21
145.2415852428
 31
0.0
 12
386.3762180697
 22
145.2415852428
 32
0.0
 13
386.3762180697
 23
145.2415852428
 33
0.0
  0
SOLID
  5
21E
330
21A
100
AcDbEntity
  8
COTATION
100
AcDbTrace
 10
385.8047180697
 20
119.4915852428
 30
0.0
 11
386.3762180697
 21
123.3015852428
 31
0.0
 12
385.2332180697
 22
123.3015852428
 32
0.0
 13
385.2332180697
 23
123.3015852428
 33
0.0
  0
LINE
  5
21F
330
21A
100
AcDbEntity
  8
COTATION
100
AcDbLine
 10
361.0058930412
 20
149.0515852428
 30
0.0
 11
386.8047180697
 21
149.0515852428
 31
0.0
  0
LINE
  5
220
330
21A
100
AcDbEntity
  8
COTATION
100
AcDbLine
 10
360.476620798
 20
119.4915852428
 30
0.0
 11
386.8047180697
 21
119.4915852428
 31
0.0
  0
LINE
  5
221
330
21A
100
AcDbEntity
  8
COTATION
100
AcDbLine
 10
385.8047180697
 20
149.0515852428
 30
0.0
 11
385.8047180697
 21
119.4915852428
 31
0.0
  0
MTEXT
  5
222
330
21A
100
AcDbEntity
  8
COTATION
100
AcDbMText
 10
381.6797014771
 20
130.1345082736
 30
0.0
 40
3.2
 41
0.0
 71
     1
 72
     1
  1
29,6
  7
SLDTEXTSTYLE0
 11
6.944615092633338E-15
 21
1.0
 31
0.0
 73
     1
 44
1.0
  0
ENDBLK
  5
21C
330
21A
100
AcDbEntity
  8
0
100
AcDbBlockEnd
  0
BLOCK
  5
225
330
224
100
AcDbEntity
  8
0
100
AcDbBlockBegin
  2
*D6
 70
     1
 10
0.0
 20
0.0
 30
0.0
  3
*D6
  1

  0
SOLID
  5
227
330
224
100
AcDbEntity
  8
COTATION
100
AcDbTrace
 10
213.321281074
 20
95.5915852428
 30
0.0
 11
213.892781074
 21
99.4015852428
 31
0.0
 12
212.749781074
 22
99.4015852428
 32
0.0
 13
212.749781074
 23
99.4015852428
 33
0.0
  0
SOLID
  5
228
330
224
100
AcDbEntity
  8
COTATION
100
AcDbTrace
 10
213.321281074
 20
149.0515852428
 30
0.0
 11
212.749781074
 21
145.2415852428
 31
0.0
 12
213.892781074
 22
145.2415852428
 32
0.0
 13
213.892781074
 23
145.2415852428
 33
0.0
  0
LINE
  5
229
330
224
100
AcDbEntity
  8
COTATION
100
AcDbLine
 10
257.3558930412
 20
95.5915852428
 30
0.0
 11
212.321281074
 21
95.5915852428
 31
0.0
  0
LINE
  5
22A
330
224
100
AcDbEntity
  8
COTATION
100
AcDbLine
 10
242.9051743197
 20
149.0515852428
 30
0.0
 11
212.321281074
 21
149.0515852428
 31
0.0
  0
LINE
  5
22B
330
224
100
AcDbEntity
  8
COTATION
100
AcDbLine
 10
213.321281074
 20
95.5915852428
 30
0.0
 11
213.321281074
 21
149.0515852428
 31
0.0
  0
MTEXT
  5
22C
330
224
100
AcDbEntity
  8
COTATION
100
AcDbMText
 10
209.1962644814
 20
118.1845082736
 30
0.0
 40
3.2
 41
0.0
 71
     1
 72
     1
  1
53,5
  7
SLDTEXTSTYLE0
 11
1.405004245023434E-14
 21
1.0
 31
0.0
 73
     1
 44
1.0
  0
ENDBLK
  5
226
330
224
100
AcDbEntity
  8
0
100
AcDbBlockEnd
  0
BLOCK
  5
22F
330
22E
100
AcDbEntity
  8
0
100
AcDbBlockBegin
  2
*D7
 70
     1
 10
0.0
 20
0.0
 30
0.0
  3
*D7
  1

  0
SOLID
  5
231
330
22E
100
AcDbEntity
  8
COTATION
100
AcDbTrace
 10
248.8558930412
 20
167.3652916628
 30
0.0
 11
252.6658930412
 21
166.7937916628
 31
0.0
 12
252.6658930412
 22
167.9367916628
 32
0.0
 13
252.6658930412
 23
167.9367916628
 33
0.0
  0
SOLID
  5
232
330
22E
100
AcDbEntity
  8
COTATION
100
AcDbTrace
 10
348.8558930412
 20
167.3652916628
 30
0.0
 11
345.0458930412
 21
167.9367916628
 31
0.0
 12
345.0458930412
 22
166.7937916628
 32
0.0
 13
345.0458930412
 23
166.7937916628
 33
0.0
  0
LINE
  5
233
330
22E
100
AcDbEntity
  8
COTATION
100
AcDbLine
 10
248.8558930412
 20
158.6515852428
 30
0.0
 11
248.8558930412
 21
168.3652916628
 31
0.0
  0
LINE
  5
234
330
22E
100
AcDbEntity
  8
COTATION
100
AcDbLine
 10
348.8558930412
 20
157.6515852428
 30
0.0
 11
348.8558930412
 21
168.3652916628
 31
0.0
  0
LINE
  5
235
330
22E
100
AcDbEntity
  8
COTATION
100
AcDbLine
 10
248.8558930412
 20
167.3652916628
 30
0.0
 11
348.8558930412
 21
167.3652916628
 31
0.0
  0
MTEXT
  5
236
330
22E
100
AcDbEntity
  8
COTATION
100
AcDbMText
 10
295.310075496
 20
171.4903082555
 30
0.0
 40
3.2
 41
0.0
 71
     1
 72
     1
  1
100
  7
SLDTEXTSTYLE0
 73
     1
 44
1.0
  0
ENDBLK
  5
230
330
22E
100
AcDbEntity
  8
0
100
AcDbBlockEnd
  0
BLOCK
  5
283
330
282
100
AcDbEntity
  8
0
100
AcDbBlockBegin
  2
*D8
 70
     1
 10
0.0
 20
0.0
 30
0.0
  3
*D8
  1

  0
SOLID
  5
285
330
282
100
AcDbEntity
  8
COTATION
100
AcDbTrace
 10
147.2766199207
 20
201.943676704
 30
0.0
 11
147.8481199207
 21
205.753676704
 31
0.0
 12
146.7051199207
 22
205.753676704
 32
0.0
 13
146.7051199207
 23
205.753676704
 33
0.0
  0
SOLID
  5
286
330
282
100
AcDbEntity
  8
COTATION
100
AcDbTrace
 10
147.2766199207
 20
236.858676704
 30
0.0
 11
146.7051199207
 21
233.048676704
 31
0.0
 12
147.8481199207
 22
233.048676704
 32
0.0
 13
147.8481199207
 23
233.048676704
 33
0.0
  0
LINE
  5
287
330
282
100
AcDbEntity
  8
COTATION
100
AcDbLine
 10
126.3793415864
 20
201.943676704
 30
0.0
 11
148.2766199207
 21
201.943676704
 31
0.0
  0
LINE
  5
288
330
282
100
AcDbEntity
  8
COTATION
100
AcDbLine
 10
134.9793415864
 20
236.858676704
 30
0.0
 11
148.2766199207
 21
236.858676704
 31
0.0
  0
LINE
  5
289
330
282
100
AcDbEntity
  8
COTATION
100
AcDbLine
 10
147.2766199207
 20
201.943676704
 30
0.0
 11
147.2766199207
 21
236.858676704
 31
0.0
  0
MTEXT
  5
28A
330
282
100
AcDbEntity
  8
COTATION
100
AcDbMText
 10
143.1516033281
 20
217.0378780066
 30
0.0
 40
3.2
 41
0.0
 71
     1
 72
     1
  1
35
  7
SLDTEXTSTYLE0
 11
6.123233995736766E-17
 21
1.0
 31
0.0
 73
     1
 44
1.0
  0
ENDBLK
  5
284
330
282
100
AcDbEntity
  8
0
100
AcDbBlockEnd
  0
ENDSEC
  0
SECTION
  2
ENTITIES
  0
HATCH
  5
75
330
1F
100
AcDbEntity
  8
LOGO2
100
AcDbHatch
 10
0.0
 20
0.0
 30
0.0
210
0.0
220
0.0
230
1.0
  2
SOLID
 70
     1
 71
     0
 91
        1
 92
        0
 93
       11
 72
     4
 94
        3
 73
     1
 74
     0
 95
        8
 96
        4
 40
0.8333333333333333
 40
0.8333333333333333
 40
0.8333333333333333
 40
0.8333333333333333
 40
1.0
 40
1.0
 40
1.0
 40
1.0
 10
235.0450001491992
 20
25.36676174775082
 42
1.0
 10
234.6700100503477
 20
25.21917758939735
 42
1.0
 10
234.2398912386482
 20
25.11581125280738
 42
1.0
 10
233.7529209418242
 20
25.05482511421925
 42
1.0
 72
     4
 94
        3
 73
     1
 74
     0
 95
        8
 96
        4
 40
0.6666666666666666
 40
0.6666666666666666
 40
0.6666666666666666
 40
0.6666666666666666
 40
0.8332189192420315
 40
0.8332189192420315
 40
0.8332189192420315
 40
0.8332189192420315
 10
233.7529209418242
 20
25.05482511421925
 42
1.0
 10
233.51614498276
 20
25.02532854539741
 42
1.0
 10
233.2594122935026
 20
25.00328707693507
 42
1.0
 10
232.9839836403293
 20
24.98847147860004
 42
1.0
 72
     3
 10
242.5029842637128
 20
28.06784336711859
 11
-9.281964393266756
 21
-5.518954020724276
 40
0.4790317882064746
 50
347.1910077409
 51
475.4587400700617
 73
     1
 72
     1
 10
247.1444352925257
 20
24.95995778752663
 11
238.8288971773038
 21
24.95995778752663
 72
     2
 10
238.8288971773038
 20
26.10847263852661
 40
1.148514850999982
 50
90.0
 51
180.0
 73
     0
 72
     1
 10
237.6803823263038
 20
26.10847263852661
 11
237.6803823263038
 21
31.0378392828109
 72
     3
 10
242.5029842637128
 20
28.06784336711859
 11
-9.281964393266756
 21
-5.518954020724276
 40
0.4790317882064746
 50
297.6379401018559
 51
311.7284851151875
 73
     1
 72
     4
 94
        3
 73
     1
 74
     0
 95
        8
 96
        4
 40
0.4001113005305121
 40
0.4001113005305121
 40
0.4001113005305121
 40
0.4001113005305121
 40
0.6000000000000001
 40
0.6000000000000001
 40
0.6000000000000001
 40
0.6000000000000001
 10
236.425147325939
 20
29.98840803535614
 42
1.0
 10
236.7550053393821
 20
29.58931726629197
 42
1.0
 10
236.9445550664821
 20
29.11014929751472
 42
1.0
 10
236.9916179701591
 20
28.55078946917817
 42
1.0
 72
     1
 10
236.991617970159
 20
28.55078946917817
 11
237.0031031186691
 21
28.26710630098111
 72
     4
 94
        3
 73
     1
 74
     0
 95
        8
 96
        4
 40
0.1666666666666667
 40
0.1666666666666667
 40
0.1666666666666667
 40
0.1666666666666667
 40
0.3333333333333333
 40
0.3333333333333333
 40
0.3333333333333333
 40
0.3333333333333333
 10
237.0031031186691
 20
28.26710630098112
 42
1.0
 10
237.0031031186691
 20
27.61911422204694
 42
1.0
 10
236.8265763860703
 20
27.03555382625383
 42
1.0
 10
236.4736377723581
 20
26.51653996508696
 42
1.0
 72
     4
 94
        3
 73
     1
 74
     0
 95
        8
 96
        4
 40
0.0
 40
0.0
 40
0.0
 40
0.0
 40
0.1666666666666667
 40
0.1666666666666667
 40
0.1666666666666667
 40
0.1666666666666667
 10
236.4736377723581
 20
26.51653996508696
 42
1.0
 10
236.1195506437948
 20
25.99695184649453
 42
1.0
 10
235.6441803469659
 20
25.61415184665622
 42
1.0
 10
235.0450001491992
 20
25.36676174775082
 42
1.0
 97
        0
 75
     0
 76
     1
 98
        1
 10
0.0
 20
0.0
  0
HATCH
  5
76
330
1F
100
AcDbEntity
  8
LOGO2
100
AcDbHatch
 10
0.0
 20
0.0
 30
0.0
210
0.0
220
0.0
230
1.0
  2
SOLID
 70
     1
 71
     0
 91
        1
 92
        0
 93
        8
 72
     1
 10
245.0481050939053
 20
26.81411292846658
 11
248.6213740979562
 21
35.13696347359802
 72
     3
 10
242.5029842637128
 20
28.06784336711859
 11
-9.281964393266756
 21
-5.518954020724276
 40
0.4790317882064746
 50
198.3882528627381
 51
265.9349358139634
 73
     1
 72
     1
 10
240.1765714035215
 20
32.69940263933057
 11
240.1785169787139
 21
31.9557914479378
 72
     1
 10
240.1785169787139
 20
31.9557914479378
 11
241.8801731907169
 21
31.95487392757013
 72
     2
 10
241.8796397487091
 20
30.96553904381194
 40
0.9893350275721516
 50
270.0308934549906
 51
450.0000000000008
 73
     0
 72
     1
 10
241.8796397487091
 20
29.97620401623979
 11
240.1785169771504
 21
29.97620401623979
 72
     1
 10
240.1785169771504
 20
29.97620401623979
 11
240.1785169771504
 21
26.81411292846658
 72
     1
 10
240.1785169771504
 20
26.81411292846658
 11
245.0481050939053
 21
26.81411292846658
 97
        0
 75
     0
 76
     1
 98
        1
 10
0.0
 20
0.0
  0
HATCH
  5
77
330
1F
100
AcDbEntity
  8
LOGO2
100
AcDbHatch
 10
0.0
 20
0.0
 30
0.0
210
0.0
220
0.0
230
1.0
  2
SOLID
 70
     1
 71
     0
 91
        1
 92
        0
 93
       16
 72
     2
 10
250.5407050931486
 20
34.05964095199965
 40
0.5676534651067738
 50
0.0
 51
41.75773980553432
 73
     1
 72
     3
 10
242.5029842637128
 20
28.06784336711859
 11
-9.281964393266756
 21
-5.518954020724276
 40
0.4790317882064746
 50
186.2383696561382
 51
187.9643607356612
 73
     1
 72
     2
 10
250.5407050931486
 20
34.05964095199965
 40
0.5676534651067738
 50
76.67331802843833
 51
180.0
 73
     1
 72
     1
 10
249.9730516280419
 20
34.05964095199965
 11
249.9730516280419
 21
29.43537560741832
 72
     1
 10
249.9730516280419
 20
29.43537560741832
 11
249.4453090540074
 21
29.43537560741832
 72
     2
 10
249.4453090540074
 20
29.09082115211836
 40
0.3445544552999752
 50
90.0
 51
180.0
 73
     1
 72
     1
 10
249.1007545987074
 20
29.09082115211836
 11
249.1007545987074
 21
27.94471818230543
 72
     1
 10
249.1007545987074
 20
27.94471818230543
 11
248.4048694504865
 21
27.94471818230543
 72
     2
 10
248.4048694504865
 20
27.60016372700547
 40
0.3445544552999891
 50
90.0
 51
180.0
 73
     1
 72
     1
 10
248.0603149951865
 20
27.60016372700547
 11
248.0603149951865
 21
26.45291224234153
 72
     1
 10
248.0603149951865
 20
26.45291224234153
 11
247.5113248964085
 21
26.45291224234153
 72
     2
 10
247.5113248964085
 20
26.10835778704157
 40
0.3445544552999891
 50
90.0
 51
180.0
 73
     1
 72
     1
 10
247.1667704411085
 20
26.10835778704157
 11
247.1667704411085
 21
24.97679326844081
 72
     3
 10
242.5029842637128
 20
28.06784336711859
 11
-9.281964393266756
 21
-5.518954020724276
 40
0.4790317882064746
 50
115.7292479518694
 51
158.0895097581669
 73
     1
 72
     1
 10
251.3115242204637
 20
29.43537560741832
 11
251.1083585582554
 21
29.43537560741832
 72
     1
 10
251.1083585582554
 20
29.43537560741832
 11
251.1083585582554
 21
34.05964095199965
 97
        0
 75
     0
 76
     1
 98
        1
 10
0.0
 20
0.0
  0
HATCH
  5
78
330
1F
100
AcDbEntity
  8
LOGO1
 62
   156
100
AcDbHatch
 10
0.0
 20
0.0
 30
0.0
210
0.0
220
0.0
230
1.0
  2
SOLID
 70
     1
 71
     0
 91
        1
 92
        0
 93
       36
 72
     2
 10
227.9438893796201
 20
35.45713849118987
 40
1.148514851000024
 50
90.03360903891996
 51
180.0115505332992
 73
     1
 72
     1
 10
226.7953745519582
 20
35.45690695652792
 11
226.7963665401149
 21
30.53620481586539
 72
     2
 10
228.0462954212562
 20
30.53645679507716
 40
1.24992890654019
 50
180.0115505333007
 51
360.0000000000008
 73
     1
 72
     1
 10
229.2962243277964
 20
30.53645679507716
 11
229.2962243277964
 21
34.74725679329332
 72
     1
 10
229.2962243277964
 20
34.74725679329332
 11
231.3009565864243
 21
34.74725679329332
 72
     4
 94
        3
 73
     1
 74
     0
 95
        8
 96
        4
 40
0.4772727272727271
 40
0.4772727272727271
 40
0.4772727272727271
 40
0.4772727272727271
 40
0.4999999999999998
 40
0.4999999999999998
 40
0.4999999999999998
 40
0.4999999999999998
 10
231.3009565864243
 20
34.74725679329332
 42
1.0
 10
232.2047229226762
 20
34.74725679329338
 42
1.0
 10
232.8777526253621
 20
34.71831421904814
 42
1.0
 10
233.3183229222058
 20
34.52352610031856
 42
1.0
 72
     4
 94
        3
 73
     1
 74
     0
 95
        8
 96
        4
 40
0.4999999999999998
 40
0.4999999999999998
 40
0.4999999999999998
 40
0.4999999999999998
 40
0.5227272727272726
 40
0.5227272727272726
 40
0.5227272727272726
 40
0.5227272727272726
 10
233.3183229222058
 20
34.52352610031856
 42
1.0
 10
233.7592377735047
 20
34.32850827861872
 42
1.0
 10
233.9799823278669
 20
33.93606075403205
 42
1.0
 10
233.9799823278669
 20
33.34434590279683
 42
1.0
 72
     4
 94
        3
 73
     1
 74
     0
 95
        8
 96
        4
 40
0.5227272727272726
 40
0.5227272727272726
 40
0.5227272727272726
 40
0.5227272727272726
 40
0.5454545454545453
 40
0.5454545454545453
 40
0.5454545454545453
 40
0.5454545454545453
 10
233.9799823278669
 20
33.34434590279683
 42
1.0
 10
233.9799823278669
 20
33.06720926925055
 42
1.0
 10
233.90888925859
 20
32.81660332876235
 42
1.0
 10
233.7698041101339
 20
32.59241322984712
 42
1.0
 72
     4
 94
        3
 73
     1
 74
     0
 95
        8
 96
        4
 40
0.5454545454545453
 40
0.5454545454545453
 40
0.5454545454545453
 40
0.5454545454545453
 40
0.568181818181818
 40
0.568181818181818
 40
0.568181818181818
 40
0.568181818181818
 10
233.7698041101339
 20
32.59241322984712
 42
1.0
 10
233.5910951993183
 20
32.27737560621785
 42
1.0
 10
233.3319902489327
 20
32.06455580432754
 42
1.0
 10
232.9962793579854
 20
31.95326471526566
 42
1.0
 72
     4
 94
        3
 73
     1
 74
     0
 95
        8
 96
        4
 40
0.568181818181818
 40
0.568181818181818
 40
0.568181818181818
 40
0.568181818181818
 40
0.5909090909090907
 40
0.5909090909090907
 40
0.5909090909090907
 40
0.5909090909090907
 10
232.9962793579854
 20
31.95326471526566
 42
1.0
 10
232.9344892590016
 20
31.93270629943273
 42
1.0
 10
232.8681051006138
 20
31.91421521033167
 42
1.0
 10
232.7968971798518
 20
31.89710233905174
 42
1.0
 72
     1
 10
232.7968971798518
 20
31.89710233905174
 11
232.7968971798518
 21
31.89113006182653
 72
     4
 94
        3
 73
     1
 74
     0
 95
        8
 96
        4
 40
0.6136363636363634
 40
0.6136363636363634
 40
0.6136363636363634
 40
0.6136363636363634
 40
0.6363636363636361
 40
0.6363636363636361
 40
0.6363636363636361
 40
0.6363636363636361
 10
232.7968971798518
 20
31.89113006182653
 42
1.0
 10
232.4165090612006
 20
31.76938748762054
 42
1.0
 10
232.1383387642884
 20
31.40990233925756
 42
1.0
 10
232.1383387642884
 20
30.97920927013254
 42
1.0
 72
     4
 94
        3
 73
     1
 74
     0
 95
        8
 96
        4
 40
0.6363636363636361
 40
0.6363636363636361
 40
0.6363636363636361
 40
0.6363636363636361
 40
0.6590909090909088
 40
0.6590909090909088
 40
0.6590909090909088
 40
0.6590909090909088
 10
232.1383387642884
 20
30.97920927013254
 42
1.0
 10
232.1383387642884
 20
30.54863105249261
 42
1.0
 10
232.4165090612006
 20
30.18857164670413
 42
1.0
 10
232.7968971798518
 20
30.06625481507264
 42
1.0
 72
     4
 94
        2
 73
     1
 74
     0
 95
        6
 96
        3
 40
0.6590909090909088
 40
0.6590909090909088
 40
0.6590909090909088
 40
0.6818181818181815
 40
0.6818181818181815
 40
0.6818181818181815
 10
232.7968971798518
 20
30.06625481507264
 42
1.0
 10
232.8342239125093
 20
30.05385085468182
 42
1.0
 10
232.8891229223871
 20
30.03742709231255
 42
1.0
 72
     4
 94
        3
 73
     1
 74
     0
 95
        8
 96
        4
 40
0.6818181818181815
 40
0.6818181818181815
 40
0.6818181818181815
 40
0.6818181818181815
 40
0.7045454545454543
 40
0.7045454545454543
 40
0.7045454545454543
 40
0.7045454545454543
 10
232.8891229223871
 20
30.03742709231255
 42
1.0
 10
233.2649169816343
 20
29.97242115174592
 42
1.0
 10
233.5771981696212
 20
29.86825085476025
 42
1.0
 10
233.8197645061524
 20
29.72066669640672
 42
1.0
 72
     4
 94
        3
 73
     1
 74
     0
 95
        8
 96
        4
 40
0.7045454545454543
 40
0.7045454545454543
 40
0.7045454545454543
 40
0.7045454545454543
 40
0.727272727272727
 40
0.727272727272727
 40
0.727272727272727
 40
0.727272727272727
 10
233.8197645061524
 20
29.72066669640672
 42
1.0
 10
234.2551664861665
 20
29.45616372622145
 42
1.0
 10
234.4725803474608
 20
29.14985481545973
 42
1.0
 10
234.4725803474608
 20
28.56319342956898
 42
1.0
 72
     4
 94
        3
 73
     1
 74
     0
 95
        8
 96
        4
 40
0.727272727272727
 40
0.727272727272727
 40
0.727272727272727
 40
0.727272727272727
 40
0.7499999999999997
 40
0.7499999999999997
 40
0.7499999999999997
 40
0.7499999999999997
 10
234.4725803474608
 20
28.56319342956898
 42
1.0
 10
234.4725803474608
 20
27.41525283599444
 42
1.0
 10
233.6329011398946
 20
26.84191422237525
 42
1.0
 10
231.9545763881284
 20
26.84191422237525
 42
1.0
 72
     1
 10
231.9545763881284
 20
26.84191422237525
 11
226.7826991625903
 21
26.84191422237525
 72
     1
 10
226.7826991625903
 20
26.84191422237525
 11
226.7826991625903
 21
26.11088451971377
 72
     2
 10
227.9312140135902
 20
26.11088451971377
 40
1.14851485100001
 50
180.0
 51
270.0351459458573
 73
     1
 72
     1
 10
227.9319185268822
 20
24.96236988479239
 11
232.0507070811571
 21
24.96489640138594
 72
     4
 94
        3
 73
     1
 74
     0
 95
        8
 96
        4
 40
0.954545454545454
 40
0.954545454545454
 40
0.954545454545454
 40
0.954545454545454
 40
0.9772727272727267
 40
0.9772727272727267
 40
0.9772727272727267
 40
0.9772727272727267
 10
232.0507070811571
 20
24.96489640138594
 42
1.0
 10
232.3830872790365
 20
24.96489640138594
 42
1.0
 10
232.6935308432618
 20
24.97305085682805
 42
1.0
 10
232.9834159916542
 20
24.98844095583141
 42
1.0
 72
     4
 94
        3
 73
     1
 74
     0
 95
        8
 96
        4
 40
0.6666666666666666
 40
0.6666666666666666
 40
0.6666666666666666
 40
0.6666666666666666
 40
0.8333333333333333
 40
0.8333333333333333
 40
0.8333333333333333
 40
0.8333333333333333
 10
232.9834159916542
 20
24.98844095583141
 42
1.0
 10
233.2590595558942
 20
25.00325679740934
 42
1.0
 10
233.5159823280629
 20
25.02530828254856
 42
1.0
 10
233.7529209418242
 20
25.05482511421925
 42
1.0
 72
     4
 94
        3
 73
     1
 74
     0
 95
        8
 96
        4
 40
0.8333333333333333
 40
0.8333333333333333
 40
0.8333333333333333
 40
0.8333333333333333
 40
1.0
 40
1.0
 40
1.0
 40
1.0
 10
233.7529209418242
 20
25.05482511421925
 42
1.0
 10
234.2398912386482
 20
25.11581125280738
 42
1.0
 10
234.6700100503477
 20
25.21917758939735
 42
1.0
 10
235.0450001491992
 20
25.36676174775082
 42
1.0
 72
     4
 94
        3
 73
     1
 74
     0
 95
        8
 96
        4
 40
0.0
 40
0.0
 40
0.0
 40
0.0
 40
0.1666666666666667
 40
0.1666666666666667
 40
0.1666666666666667
 40
0.1666666666666667
 10
235.0450001491992
 20
25.36676174775082
 42
1.0
 10
235.6441803469659
 20
25.61415184665622
 42
1.0
 10
236.1195506437948
 20
25.99695184649453
 42
1.0
 10
236.4736377723581
 20
26.51653996508696
 42
1.0
 72
     4
 94
        3
 73
     1
 74
     0
 95
        8
 96
        4
 40
0.1666666666666667
 40
0.1666666666666667
 40
0.1666666666666667
 40
0.1666666666666667
 40
0.3333333333333333
 40
0.3333333333333333
 40
0.3333333333333333
 40
0.3333333333333333
 10
236.4736377723581
 20
26.51653996508696
 42
1.0
 10
236.8265763860703
 20
27.03555382625383
 42
1.0
 10
237.0031031186691
 20
27.61911422204694
 42
1.0
 10
237.0031031186691
 20
28.26710630098112
 42
1.0
 72
     1
 10
237.0031031186691
 20
28.26710630098112
 11
236.9916179701591
 21
28.55078946917817
 72
     4
 94
        3
 73
     1
 74
     0
 95
        8
 96
        4
 40
0.4
 40
0.4
 40
0.4
 40
0.4
 40
0.6000000000000001
 40
0.6000000000000001
 40
0.6000000000000001
 40
0.6000000000000001
 10
236.9916179701591
 20
28.55078946917817
 42
1.0
 10
236.9445288612681
 20
29.11046075607043
 42
1.0
 10
236.7547942078829
 20
29.58985085487786
 42
1.0
 10
236.4245961882204
 20
29.98907461708545
 42
1.0
 72
     4
 94
        3
 73
     1
 74
     0
 95
        8
 96
        4
 40
0.0
 40
0.0
 40
0.0
 40
0.0
 40
0.0227272727272727
 40
0.0227272727272727
 40
0.0227272727272727
 40
0.0227272727272727
 10
236.4245961882204
 20
29.98907461708545
 42
1.0
 10
236.0200892576982
 20
30.47811224064123
 42
1.0
 10
235.4043704460771
 20
30.84781917117813
 42
1.0
 10
234.573879357319
 20
31.09647263641963
 42
1.0
 72
     4
 94
        3
 73
     1
 74
     0
 95
        8
 96
        4
 40
0.0227272727272727
 40
0.0227272727272727
 40
0.0227272727272727
 40
0.0227272727272727
 40
0.0454545454545455
 40
0.0454545454545455
 40
0.0454545454545455
 40
0.0454545454545455
 10
234.573879357319
 20
31.09647263641963
 42
1.0
 10
235.8069249013526
 20
31.63615976490453
 42
1.0
 10
236.4232179703992
 20
32.48893204177206
 42
1.0
 10
236.4232179703992
 20
33.65421520959666
 42
1.0
 72
     4
 94
        3
 73
     1
 74
     0
 95
        8
 96
        4
 40
0.0454545454545455
 40
0.0454545454545455
 40
0.0454545454545455
 40
0.0454545454545455
 40
0.0681818181818182
 40
0.0681818181818182
 40
0.0681818181818182
 40
0.0681818181818182
 10
236.4232179703992
 20
33.65421520959666
 42
1.0
 10
236.4232179703992
 20
33.99279738767147
 42
1.0
 10
236.3648734159684
 20
34.31495580337695
 42
1.0
 10
236.2465763863154
 20
34.61954194186212
 42
1.0
 72
     4
 94
        3
 73
     1
 74
     0
 95
        8
 96
        4
 40
0.0681818181818182
 40
0.0681818181818182
 40
0.0681818181818182
 40
0.0681818181818182
 40
0.0909090909090909
 40
0.0909090909090909
 40
0.0909090909090909
 40
0.0909090909090909
 10
236.2465763863154
 20
34.61954194186212
 42
1.0
 10
236.1285090596326
 20
34.92378352589204
 42
1.0
 10
235.9582991587144
 20
35.20137956537878
 42
1.0
 10
235.7334199508886
 20
35.45393798111363
 42
1.0
 72
     4
 94
        3
 73
     1
 74
     0
 95
        8
 96
        4
 40
0.0909090909090909
 40
0.0909090909090909
 40
0.0909090909090909
 40
0.0909090909090909
 40
0.1136363636363637
 40
0.1136363636363637
 40
0.1136363636363637
 40
0.1136363636363637
 10
235.7334199508886
 20
35.45393798111363
 42
1.0
 10
235.5090001490032
 20
35.70488847605713
 42
1.0
 10
235.251503119409
 20
35.91299936705833
 42
1.0
 10
234.9608140106209
 20
36.07700728778113
 42
1.0
 72
     4
 94
        3
 73
     1
 74
     0
 95
        8
 96
        4
 40
0.1136363636363637
 40
0.1136363636363637
 40
0.1136363636363637
 40
0.1136363636363637
 40
0.1363636363636364
 40
0.1363636363636364
 40
0.1363636363636364
 40
0.1363636363636364
 10
234.9608140106209
 20
36.07700728778113
 42
1.0
 10
234.6189011394782
 20
36.27110629760016
 42
1.0
 10
234.2340338129081
 20
36.40295580249492
 42
1.0
 10
233.8026516348725
 20
36.4711775846443
 42
1.0
 72
     4
 94
        3
 73
     1
 74
     0
 95
        8
 96
        4
 40
0.1363636363636364
 40
0.1363636363636364
 40
0.1363636363636364
 40
0.1363636363636364
 40
0.1590909090909091
 40
0.1590909090909091
 40
0.1590909090909091
 40
0.1590909090909091
 10
233.8026516348725
 20
36.4711775846443
 42
1.0
 10
233.3731070805985
 20
36.53928451530864
 42
1.0
 10
232.86374074418
 20
36.60819540636867
 42
1.0
 10
232.2771942097743
 20
36.60819540636867
 42
1.0
 72
     1
 10
232.2771942097743
 20
36.60819540636867
 11
227.9432156741842
 21
36.60565314459602
 97
        0
 75
     0
 76
     1
 98
        1
 10
0.0
 20
0.0
  0
HATCH
  5
79
330
1F
100
AcDbEntity
  8
LOGO1
 62
   156
100
AcDbHatch
 10
0.0
 20
0.0
 30
0.0
210
0.0
220
0.0
230
1.0
  2
SOLID
 70
     1
 71
     0
 91
        1
 92
        0
 93
       44
 72
     2
 10
238.8288971773038
 20
26.10847263852661
 40
1.148514850999982
 50
90.0
 51
180.0
 73
     0
 72
     1
 10
237.6803823263038
 20
26.10847263852661
 11
237.6803823263038
 21
35.46094885489814
 72
     2
 10
238.8288971773038
 20
35.46094885489814
 40
1.14851485099999
 50
180.0
 51
270.0123096399428
 73
     0
 72
     1
 10
238.8291439285356
 20
36.60946367939167
 11
244.7287909547445
 21
36.60819617710089
 72
     2
 10
244.72858826086
 20
35.66474827826771
 40
0.9434479206069416
 50
270.0123096399413
 51
450.0000000000008
 73
     0
 72
     1
 10
244.72858826086
 20
34.72130035766074
 11
240.1712813351526
 21
34.72130035766074
 72
     1
 10
240.1712813351526
 20
34.72130035766074
 11
240.1785169787139
 21
31.95579144793781
 72
     1
 10
240.1785169787139
 20
31.95579144793781
 11
241.8801731907169
 21
31.95487392757012
 72
     2
 10
241.8796397487091
 20
30.96553904381194
 40
0.9893350275721516
 50
270.0308934549906
 51
450.0000000000008
 73
     0
 72
     1
 10
241.8796397487091
 20
29.97620401623979
 11
240.1785169771504
 21
29.97620401623979
 72
     1
 10
240.1785169771504
 20
29.97620401623979
 11
240.1785169771504
 21
26.81411292846658
 72
     1
 10
240.1785169771504
 20
26.81411292846658
 11
245.0481050939053
 21
26.81411292846658
 72
     1
 10
245.0481050939053
 20
26.81411292846658
 11
248.667764498317
 21
35.24501589520228
 72
     4
 94
        3
 73
     1
 74
     0
 95
        8
 96
        4
 40
0.2692307692307693
 40
0.2692307692307693
 40
0.2692307692307693
 40
0.2692307692307693
 40
0.3076923076923077
 40
0.3076923076923077
 40
0.3076923076923077
 40
0.3076923076923077
 10
248.667764498317
 20
35.24501589520228
 42
1.0
 10
248.7922635081654
 20
35.54340005349209
 42
1.0
 10
248.9267545972175
 20
35.79067530091239
 42
1.0
 10
249.0696298446818
 20
35.98741589488868
 42
1.0
 72
     4
 94
        3
 73
     1
 74
     0
 95
        8
 96
        4
 40
0.2307692307692308
 40
0.2307692307692308
 40
0.2307692307692308
 40
0.2307692307692308
 40
0.2692307692307693
 40
0.2692307692307693
 40
0.2692307692307693
 40
0.2692307692307693
 10
249.0696298446818
 20
35.98741589488868
 42
1.0
 10
249.2118159832356
 20
36.18369708292457
 42
1.0
 10
249.3984496465231
 20
36.34448916206462
 42
1.0
 10
249.6311387553358
 20
36.46680599369611
 42
1.0
 72
     4
 94
        3
 73
     1
 74
     0
 95
        8
 96
        4
 40
0.1923076923076923
 40
0.1923076923076923
 40
0.1923076923076923
 40
0.1923076923076923
 40
0.2307692307692308
 40
0.2307692307692308
 40
0.2307692307692308
 40
0.2307692307692308
 10
249.6311387553358
 20
36.46680599369611
 42
1.0
 10
249.8639427156334
 20
36.58820401344681
 42
1.0
 10
250.1499229135325
 20
36.64919015203488
 42
1.0
 10
250.4906872698242
 20
36.64919015203488
 42
1.0
 72
     4
 94
        3
 73
     1
 74
     0
 95
        8
 96
        4
 40
0.1538461538461539
 40
0.1538461538461539
 40
0.1538461538461539
 40
0.1538461538461539
 40
0.1923076923076923
 40
0.1923076923076923
 40
0.1923076923076923
 40
0.1923076923076923
 10
250.4906872698242
 20
36.64919015203488
 42
1.0
 10
250.8366199429454
 20
36.64919015203488
 42
1.0
 10
251.1258159824272
 20
36.58820401344681
 42
1.0
 10
251.3580456852993
 20
36.46680599369611
 42
1.0
 72
     4
 94
        3
 73
     1
 74
     0
 95
        8
 96
        4
 40
0.1153846153846154
 40
0.1153846153846154
 40
0.1153846153846154
 40
0.1153846153846154
 40
0.1538461538461539
 40
0.1538461538461539
 40
0.1538461538461539
 40
0.1538461538461539
 10
251.3580456852993
 20
36.46680599369611
 42
1.0
 10
251.5907347941119
 20
36.34448916206462
 42
1.0
 10
251.7775981603696
 20
36.18771688490313
 42
1.0
 10
251.9210476652596
 20
35.9959149047861
 42
1.0
 72
     4
 94
        3
 73
     1
 74
     0
 95
        8
 96
        4
 40
0.0769230769230769
 40
0.0769230769230769
 40
0.0769230769230769
 40
0.0769230769230769
 40
0.1153846153846154
 40
0.1153846153846154
 40
0.1153846153846154
 40
0.1153846153846154
 10
251.9210476652596
 20
35.9959149047861
 42
1.0
 10
252.0630041008432
 20
35.80342381575852
 42
1.0
 10
252.1831387542578
 20
35.59760995445932
 42
1.0
 10
252.2806476651076
 20
35.376750548612
 42
1.0
 72
     1
 10
252.2806476651076
 20
35.376750548612
 11
256.1593939542088
 21
26.57037716940946
 72
     2
 10
255.1083145599884
 20
26.10743174064628
 40
1.148514850999989
 50
336.2290216667355
 51
450.0000000000008
 73
     0
 72
     1
 10
255.1083145599884
 20
24.9589168896463
 11
253.9144100422186
 21
24.9589168896463
 72
     1
 10
253.9144100422186
 20
24.9589168896463
 11
253.9144100422186
 21
26.10835778704157
 72
     2
 10
253.5698555869186
 20
26.10835778704157
 40
0.3445544552999891
 50
0.0
 51
90.0
 73
     1
 72
     1
 10
253.5698555869186
 20
26.45291224234153
 11
253.0212100425959
 21
26.45291224234153
 72
     1
 10
253.0212100425959
 20
26.45291224234153
 11
253.0212100425959
 21
27.60016372700547
 72
     2
 10
252.6766555872959
 20
27.60016372700547
 40
0.3445544552999891
 50
0.0
 51
90.0
 73
     1
 72
     1
 10
252.6766555872959
 20
27.94471818230543
 11
251.9806555875899
 21
27.94471818230543
 72
     1
 10
251.9806555875899
 20
27.94471818230543
 11
251.9806555875899
 21
29.09082115211836
 72
     2
 10
251.6361011322898
 20
29.09082115211836
 40
0.3445544552999891
 50
0.0
 51
90.0
 73
     1
 72
     1
 10
251.6361011322898
 20
29.43537560741832
 11
251.1083585582554
 21
29.43537560741832
 72
     1
 10
251.1083585582554
 20
29.43537560741832
 11
251.1083585582554
 21
34.05964095199965
 72
     2
 10
250.5407050931486
 20
34.05964095199965
 40
0.5676534651067738
 50
0.0
 51
180.0
 73
     1
 72
     1
 10
249.9730516280419
 20
34.05964095199965
 11
249.9730516280419
 21
29.43537560741832
 72
     1
 10
249.9730516280419
 20
29.43537560741832
 11
249.4453090540074
 21
29.43537560741834
 72
     2
 10
249.4453090540074
 20
29.09082115211836
 40
0.3445544552999752
 50
90.0
 51
180.0
 73
     1
 72
     1
 10
249.1007545987074
 20
29.09082115211836
 11
249.1007545987074
 21
27.94471818230543
 72
     1
 10
249.1007545987074
 20
27.94471818230543
 11
248.4048694504865
 21
27.94471818230545
 72
     2
 10
248.4048694504865
 20
27.60016372700547
 40
0.3445544552999891
 50
90.0
 51
180.0
 73
     1
 72
     1
 10
248.0603149951865
 20
27.60016372700547
 11
248.0603149951865
 21
26.45291224234153
 72
     1
 10
248.0603149951865
 20
26.45291224234153
 11
247.5113248964085
 21
26.45291224234156
 72
     2
 10
247.5113248964085
 20
26.10835778704157
 40
0.3445544552999891
 50
90.0
 51
180.0
 73
     1
 72
     1
 10
247.1667704411085
 20
26.10835778704157
 11
247.1667704411085
 21
24.95995778752663
 72
     1
 10
247.1667704411085
 20
24.95995778752663
 11
238.8288971773038
 21
24.95995778752663
 97
        0
 75
     0
 76
     1
 98
        1
 10
0.0
 20
0.0
  0
LINE
  5
7A
330
1F
100
AcDbEntity
  8
SLD-0
 62
     9
370
     0
100
AcDbLine
 10
324.5519474197
 20
22.2906533893
 30
0.0
 11
324.5519474197
 21
12.25
 31
0.0
  0
LINE
  5
7B
330
1F
100
AcDbEntity
  8
LOGO1
100
AcDbLine
 10
227.9432156742
 20
36.6056531446
 30
0.0
 11
232.2771942098
 21
36.6081954064
 31
0.0
  0
LINE
  5
7C
330
1F
100
AcDbEntity
  8
LOGO1
100
AcDbLine
 10
248.6677644983
 20
35.2450158952
 30
0.0
 11
245.0481050939
 21
26.8141129285
 31
0.0
  0
LINE
  5
7D
330
1F
100
AcDbEntity
  8
LOGO1
100
AcDbLine
 10
226.795374552
 20
35.4569069565
 30
0.0
 11
226.7963665401
 21
30.5362048159
 31
0.0
  0
LINE
  5
7E
330
1F
100
AcDbEntity
  8
LOGO1
100
AcDbLine
 10
229.2962243278
 20
34.7472567933
 30
0.0
 11
229.2962243278
 21
30.5364567951
 31
0.0
  0
LINE
  5
7F
330
1F
100
AcDbEntity
  8
LOGO1
100
AcDbLine
 10
231.3009565864
 20
34.7472567933
 30
0.0
 11
229.2962243278
 21
34.7472567933
 31
0.0
  0
LINE
  5
80
330
1F
100
AcDbEntity
  8
LOGO1
100
AcDbLine
 10
231.9545763881
 20
26.8419142224
 30
0.0
 11
226.7826991626
 21
26.8419142224
 31
0.0
  0
LINE
  5
81
330
1F
100
AcDbEntity
  8
LOGO1
100
AcDbLine
 10
226.7826991626
 20
26.1108845197
 30
0.0
 11
226.7826991626
 21
26.8419142224
 31
0.0
  0
LINE
  5
82
330
1F
100
AcDbEntity
  8
LOGO1
 62
   228
100
AcDbLine
 10
232.7968971799
 20
31.8971023391
 30
0.0
 11
232.7968971799
 21
31.8911300618
 31
0.0
  0
LINE
  5
83
330
1F
100
AcDbEntity
  8
LOGO1
 62
   228
100
AcDbLine
 10
227.9319185269
 20
24.9623698848
 30
0.0
 11
232.0507070812
 21
24.9648964014
 31
0.0
  0
LINE
  5
84
330
1F
100
AcDbEntity
  8
LOGO1
100
AcDbLine
 10
236.9916179702
 20
28.5507894692
 30
0.0
 11
237.0031031187
 21
28.267106301
 31
0.0
  0
LINE
  5
85
330
1F
100
AcDbEntity
  8
LOGO1
 62
   228
100
AcDbLine
 10
240.1785169787
 20
31.9557914479
 30
0.0
 11
240.1712813352
 21
34.7213003577
 31
0.0
  0
LINE
  5
86
330
1F
100
AcDbEntity
  8
LOGO1
 62
   228
100
AcDbLine
 10
240.1712813352
 20
34.7213003577
 30
0.0
 11
244.7285882609
 21
34.7213003577
 31
0.0
  0
LINE
  5
87
330
1F
100
AcDbEntity
  8
LOGO1
100
AcDbLine
 10
251.1083585583
 20
29.4353756074
 30
0.0
 11
251.6361011323
 21
29.4353756074
 31
0.0
  0
LINE
  5
88
330
1F
100
AcDbEntity
  8
LOGO1
 62
   228
100
AcDbLine
 10
244.7287909547
 20
36.6081961771
 30
0.0
 11
238.8291439285
 21
36.6094636794
 31
0.0
  0
LINE
  5
89
330
1F
100
AcDbEntity
  8
LOGO1
100
AcDbLine
 10
237.6803823263
 20
26.1084726385
 30
0.0
 11
237.6803823263
 21
35.4609488549
 31
0.0
  0
LINE
  5
8A
330
1F
100
AcDbEntity
  8
LOGO1
 62
   228
100
AcDbLine
 10
256.1593939542
 20
26.5703771694
 30
0.0
 11
252.2806476651
 21
35.3767505486
 31
0.0
  0
LINE
  5
8B
330
1F
100
AcDbEntity
  8
LOGO1
 62
   228
100
AcDbLine
 10
251.9806555876
 20
29.0908211521
 30
0.0
 11
251.9806555876
 21
27.9447181823
 31
0.0
  0
LINE
  5
8C
330
1F
100
AcDbEntity
  8
LOGO1
 62
   228
100
AcDbLine
 10
251.9806555876
 20
27.9447181823
 30
0.0
 11
252.6766555873
 21
27.9447181823
 31
0.0
  0
LINE
  5
8D
330
1F
100
AcDbEntity
  8
LOGO1
 62
   228
100
AcDbLine
 10
253.0212100426
 20
27.600163727
 30
0.0
 11
253.0212100426
 21
26.4529122423
 31
0.0
  0
LINE
  5
8E
330
1F
100
AcDbEntity
  8
LOGO1
 62
   228
100
AcDbLine
 10
253.0212100426
 20
26.4529122423
 30
0.0
 11
253.5698555869
 21
26.4529122423
 31
0.0
  0
LINE
  5
8F
330
1F
100
AcDbEntity
  8
LOGO1
 62
   228
100
AcDbLine
 10
253.9144100422
 20
26.108357787
 30
0.0
 11
253.9144100422
 21
24.9589168896
 31
0.0
  0
LINE
  5
90
330
1F
100
AcDbEntity
  8
LOGO1
 62
   228
100
AcDbLine
 10
253.9144100422
 20
24.9589168896
 30
0.0
 11
255.10831456
 21
24.9589168896
 31
0.0
  0
LINE
  5
91
330
1F
100
AcDbEntity
  8
LOGO1
100
AcDbLine
 10
240.1785169787
 20
31.9557914479
 30
0.0
 11
241.8801731907
 21
31.9548739276
 31
0.0
  0
LINE
  5
92
330
1F
100
AcDbEntity
  8
PV
  6
Continuous
100
AcDbLine
 10
409.0
 20
12.25
 30
0.0
 11
409.0
 21
284.75
 31
0.0
  0
LINE
  5
93
330
1F
100
AcDbEntity
  8
PV
  6
Continuous
100
AcDbLine
 10
11.0
 20
12.25
 30
0.0
 11
409.0
 21
12.25
 31
0.0
  0
LINE
  5
94
330
1F
100
AcDbEntity
  8
LOGO1
100
AcDbLine
 10
240.1785169772
 20
26.8141129285
 30
0.0
 11
245.0481050939
 21
26.8141129285
 31
0.0
  0
LINE
  5
95
330
1F
100
AcDbEntity
  8
PV
  6
Continuous
100
AcDbLine
 10
5.0
 20
6.25
 30
0.0
 11
11.0
 21
6.25
 31
0.0
  0
LINE
  5
96
330
1F
100
AcDbEntity
  8
PV
  6
Continuous
100
AcDbLine
 10
5.0
 20
290.75
 30
0.0
 11
11.0
 21
290.75
 31
0.0
  0
LINE
  5
97
330
1F
100
AcDbEntity
  8
PV
  6
Continuous
100
AcDbLine
 10
5.0
 20
290.75
 30
0.0
 11
5.0
 21
284.75
 31
0.0
  0
LINE
  5
98
330
1F
100
AcDbEntity
  8
PV
  6
Continuous
100
AcDbLine
 10
415.0
 20
290.75
 30
0.0
 11
415.0
 21
284.75
 31
0.0
  0
LINE
  5
99
330
1F
100
AcDbEntity
  8
PV
  6
Continuous
100
AcDbLine
 10
209.0
 20
14.45
 30
0.0
 11
209.0
 21
6.25
 31
0.0
  0
LINE
  5
9A
330
1F
100
AcDbEntity
  8
PV
  6
Continuous
100
AcDbLine
 10
207.124356
 20
13.25
 30
0.0
 11
210.875644
 21
13.25
 31
0.0
  0
LINE
  5
9B
330
1F
100
AcDbEntity
  8
PV
  6
Continuous
100
AcDbLine
 10
209.0
 20
6.25
 30
0.0
 11
210.875644
 21
13.25
 31
0.0
  0
LINE
  5
9C
330
1F
100
AcDbEntity
  8
PV
  6
Continuous
100
AcDbLine
 10
209.0
 20
6.25
 30
0.0
 11
207.124356
 21
13.25
 31
0.0
  0
LINE
  5
9D
330
1F
100
AcDbEntity
  8
PV
  6
Continuous
100
AcDbLine
 10
309.5
 20
12.25
 30
0.0
 11
309.5
 21
6.25
 31
0.0
  0
LINE
  5
9E
330
1F
100
AcDbEntity
  8
PV
  6
Continuous
100
AcDbLine
 10
209.0
 20
12.25
 30
0.0
 11
209.0
 21
6.25
 31
0.0
  0
LINE
  5
9F
330
1F
100
AcDbEntity
  8
PV
  6
Continuous
100
AcDbLine
 10
259.75
 20
12.25
 30
0.0
 11
259.75
 21
6.25
 31
0.0
  0
LINE
  5
A0
330
1F
100
AcDbEntity
  8
PV
  6
Continuous
100
AcDbLine
 10
160.25
 20
12.25
 30
0.0
 11
160.25
 21
6.25
 31
0.0
  0
LINE
  5
A1
330
1F
100
AcDbEntity
  8
PV
  6
Continuous
100
AcDbLine
 10
110.5
 20
12.25
 30
0.0
 11
110.5
 21
6.25
 31
0.0
  0
LINE
  5
A2
330
1F
100
AcDbEntity
  8
PV
  6
Continuous
100
AcDbLine
 10
5.0
 20
12.25
 30
0.0
 11
5.0
 21
6.25
 31
0.0
  0
LINE
  5
A3
330
1F
100
AcDbEntity
  8
PV
  6
Continuous
100
AcDbLine
 10
5.0
 20
80.375
 30
0.0
 11
11.0
 21
80.375
 31
0.0
  0
LINE
  5
A4
330
1F
100
AcDbEntity
  8
PV
  6
Continuous
100
AcDbLine
 10
5.0
 20
148.5
 30
0.0
 11
11.0
 21
148.5
 31
0.0
  0
LINE
  5
A5
330
1F
100
AcDbEntity
  8
PV
  6
Continuous
100
AcDbLine
 10
5.0
 20
216.625
 30
0.0
 11
11.0
 21
216.625
 31
0.0
  0
LINE
  5
A6
330
1F
100
AcDbEntity
  8
PV
  6
Continuous
100
AcDbLine
 10
11.0
 20
284.75
 30
0.0
 11
409.0
 21
284.75
 31
0.0
  0
LINE
  5
A7
330
1F
100
AcDbEntity
  8
PV
  6
Continuous
100
AcDbLine
 10
11.0
 20
284.75
 30
0.0
 11
11.0
 21
12.25
 31
0.0
  0
LINE
  5
A8
330
1F
100
AcDbEntity
  8
PV
  6
Continuous
100
AcDbLine
 10
12.0
 20
153.625644
 30
0.0
 11
12.0
 21
149.874356
 31
0.0
  0
LINE
  5
A9
330
1F
100
AcDbEntity
  8
PV
  6
Continuous
100
AcDbLine
 10
5.0
 20
151.75
 30
0.0
 11
12.0
 21
149.874356
 31
0.0
  0
LINE
  5
AA
330
1F
100
AcDbEntity
  8
PV
  6
Continuous
100
AcDbLine
 10
13.2
 20
151.75
 30
0.0
 11
5.0
 21
151.75
 31
0.0
  0
LINE
  5
AB
330
1F
100
AcDbEntity
  8
PV
  6
Continuous
100
AcDbLine
 10
5.0
 20
151.75
 30
0.0
 11
12.0
 21
153.625644
 31
0.0
  0
LINE
  5
AC
330
1F
100
AcDbEntity
  8
PV
  6
Continuous
100
AcDbLine
 10
60.75
 20
290.75
 30
0.0
 11
60.75
 21
284.75
 31
0.0
  0
LINE
  5
AD
330
1F
100
AcDbEntity
  8
PV
  6
Continuous
100
AcDbLine
 10
5.0
 20
151.75
 30
0.0
 11
11.0
 21
151.75
 31
0.0
  0
LINE
  5
AE
330
1F
100
AcDbEntity
  8
PV
  6
Continuous
100
AcDbLine
 10
110.5
 20
290.75
 30
0.0
 11
110.5
 21
284.75
 31
0.0
  0
LINE
  5
AF
330
1F
100
AcDbEntity
  8
PV
  6
Continuous
100
AcDbLine
 10
60.75
 20
12.25
 30
0.0
 11
60.75
 21
6.25
 31
0.0
  0
LINE
  5
B0
330
1F
100
AcDbEntity
  8
PV
  6
Continuous
100
AcDbLine
 10
359.25
 20
12.25
 30
0.0
 11
359.25
 21
6.25
 31
0.0
  0
LINE
  5
B1
330
1F
100
AcDbEntity
  8
PV
  6
Continuous
100
AcDbLine
 10
409.0
 20
290.75
 30
0.0
 11
415.0
 21
290.75
 31
0.0
  0
LINE
  5
B2
330
1F
100
AcDbEntity
  8
PV
  6
Continuous
100
AcDbLine
 10
409.0
 20
6.25
 30
0.0
 11
415.0
 21
6.25
 31
0.0
  0
LINE
  5
B3
330
1F
100
AcDbEntity
  8
PV
  6
Continuous
100
AcDbLine
 10
5.0
 20
12.25
 30
0.0
 11
5.0
 21
6.25
 31
0.0
  0
LINE
  5
B4
330
1F
100
AcDbEntity
  8
PV
  6
Continuous
100
AcDbLine
 10
415.0
 20
12.25
 30
0.0
 11
415.0
 21
6.25
 31
0.0
  0
LINE
  5
B5
330
1F
100
AcDbEntity
  8
LOGO1
100
AcDbLine
 10
240.1785169772
 20
29.9762040162
 30
0.0
 11
241.8796397487
 21
29.9762040162
 31
0.0
  0
LINE
  5
B6
330
1F
100
AcDbEntity
  8
LOGO1
100
AcDbLine
 10
240.1785169772
 20
26.8141129285
 30
0.0
 11
240.1785169772
 21
29.9762040162
 31
0.0
  0
LINE
  5
B7
330
1F
100
AcDbEntity
  8
SLD-0
100
AcDbLine
 10
373.7475582566
 20
18.2906533893
 30
0.0
 11
409.0
 21
18.2906533893
 31
0.0
  0
LINE
  5
B8
330
1F
100
AcDbEntity
  8
LOGO1
100
AcDbLine
 10
251.1083585583
 20
29.4353756074
 30
0.0
 11
251.1083585583
 21
34.059640952
 31
0.0
  0
LINE
  5
B9
330
1F
100
AcDbEntity
  8
LOGO1
100
AcDbLine
 10
249.973051628
 20
29.4353756074
 30
0.0
 11
249.973051628
 21
34.059640952
 31
0.0
  0
LINE
  5
BA
330
1F
100
AcDbEntity
  8
LOGO1
100
AcDbLine
 10
249.1007545987
 20
27.9447181823
 30
0.0
 11
249.1007545987
 21
29.0908211521
 31
0.0
  0
LINE
  5
BB
330
1F
100
AcDbEntity
  8
LOGO1
100
AcDbLine
 10
248.0603149952
 20
26.4529122423
 30
0.0
 11
248.0603149952
 21
27.600163727
 31
0.0
  0
LINE
  5
BC
330
1F
100
AcDbEntity
  8
SLD-0
 62
     9
100
AcDbLine
 10
353.7475582566
 20
12.25
 30
0.0
 11
353.7475582566
 21
22.2906533893
 31
0.0
  0
LINE
  5
BD
330
1F
100
AcDbEntity
  8
SLD-0
 62
     9
100
AcDbLine
 10
339.1519474197
 20
22.2906533893
 30
0.0
 11
339.1519474197
 21
12.25
 31
0.0
  0
LINE
  5
BE
330
1F
100
AcDbEntity
  8
0
  6
Continuous
 62
     9
370
     0
100
AcDbLine
 10
221.0
 20
76.2906533893
 30
0.0
 11
409.0
 21
76.2906533893
 31
0.0
  0
LINE
  5
BF
330
1F
100
AcDbEntity
  8
SLD-0
100
AcDbLine
 10
373.7475582566
 20
30.2906533893
 30
0.0
 11
409.0
 21
30.2906533893
 31
0.0
  0
LINE
  5
C0
330
1F
100
AcDbEntity
  8
PV
  6
Continuous
100
AcDbLine
 10
409.0
 20
216.625
 30
0.0
 11
415.0
 21
216.625
 31
0.0
  0
LINE
  5
C1
330
1F
100
AcDbEntity
  8
PV
  6
Continuous
100
AcDbLine
 10
409.0
 20
148.5
 30
0.0
 11
415.0
 21
148.5
 31
0.0
  0
LINE
  5
C2
330
1F
100
AcDbEntity
  8
PV
 62
     9
100
AcDbLine
 10
221.0
 20
71.2906533893
 30
0.0
 11
221.0
 21
76.2906533893
 31
0.0
  0
LINE
  5
C3
330
1F
100
AcDbEntity
  8
PV
  6
Continuous
100
AcDbLine
 10
160.25
 20
290.75
 30
0.0
 11
160.25
 21
284.75
 31
0.0
  0
LINE
  5
C4
330
1F
100
AcDbEntity
  8
PV
  6
Continuous
100
AcDbLine
 10
210.0
 20
284.75
 30
0.0
 11
210.0
 21
290.75
 31
0.0
  0
LINE
  5
C5
330
1F
100
AcDbEntity
  8
PV
  6
Continuous
100
AcDbLine
 10
259.75
 20
290.75
 30
0.0
 11
259.75
 21
284.75
 31
0.0
  0
LINE
  5
C6
330
1F
100
AcDbEntity
  8
PV
  6
Continuous
100
AcDbLine
 10
309.5
 20
290.75
 30
0.0
 11
309.5
 21
284.75
 31
0.0
  0
LINE
  5
C7
330
1F
100
AcDbEntity
  8
PV
  6
Continuous
100
AcDbLine
 10
359.25
 20
290.75
 30
0.0
 11
359.25
 21
284.75
 31
0.0
  0
LINE
  5
C8
330
1F
100
AcDbEntity
  8
LOGO1
100
AcDbLine
 10
247.1667704411
 20
24.9599577875
 30
0.0
 11
247.1667704411
 21
26.108357787
 31
0.0
  0
LINE
  5
C9
330
1F
100
AcDbEntity
  8
SLD-0
 62
     9
100
AcDbLine
 10
373.7475582566
 20
26.2906533893
 30
0.0
 11
409.0
 21
26.2906533893
 31
0.0
  0
LINE
  5
CA
330
1F
100
AcDbEntity
  8
SLD-0
 62
     9
100
AcDbLine
 10
353.7475582566
 20
18.8952249746
 30
0.0
 11
261.7475582566
 21
18.8952249746
 31
0.0
  0
LINE
  5
CB
330
1F
100
AcDbEntity
  8
PV
370
     0
100
AcDbLine
 10
261.7475582566
 20
22.2906533893
 30
0.0
 11
373.7475582566
 21
22.2906533893
 31
0.0
  0
LINE
  5
CC
330
1F
100
AcDbEntity
  8
COTATION3
100
AcDbLine
 10
387.001503807
 20
-3.7078428037
 30
0.0
 11
387.5011356673
 21
-3.7078428037
 31
0.0
  0
LINE
  5
CD
330
1F
100
AcDbEntity
  8
PV
100
AcDbLine
 10
373.7475582566
 20
12.25
 30
0.0
 11
373.7475582566
 21
38.2906533893
 31
0.0
  0
LINE
  5
CE
330
1F
100
AcDbEntity
  8
PV
370
    15
100
AcDbLine
 10
261.7475582566
 20
12.25
 30
0.0
 11
261.7475582566
 21
38.2906533893
 31
0.0
  0
LINE
  5
CF
330
1F
100
AcDbEntity
  8
PV
 62
     9
100
AcDbLine
 10
261.7475582566
 20
26.2906533893
 30
0.0
 11
373.7475582566
 21
26.2906533893
 31
0.0
  0
LINE
  5
D0
330
1F
100
AcDbEntity
  8
PV
 62
     9
100
AcDbLine
 10
261.7475582566
 20
30.2906533893
 30
0.0
 11
373.7475582566
 21
30.2906533893
 31
0.0
  0
LINE
  5
D1
330
1F
100
AcDbEntity
  8
PV
 62
     9
100
AcDbLine
 10
388.7056031756
 20
18.2906533893
 30
0.0
 11
388.7056031756
 21
30.2906533893
 31
0.0
  0
LINE
  5
D2
330
1F
100
AcDbEntity
  8
PV
 62
     9
100
AcDbLine
 10
261.7475582566
 20
34.2906533893
 30
0.0
 11
409.0
 21
34.2906533893
 31
0.0
  0
LINE
  5
D3
330
1F
100
AcDbEntity
  8
PV
 62
     9
100
AcDbLine
 10
315.9891629148
 20
26.2906533893
 30
0.0
 11
315.9891629148
 21
22.2906533893
 31
0.0
  0
LINE
  5
D4
330
1F
100
AcDbEntity
  8
PV
370
    15
100
AcDbLine
 10
221.0
 20
38.2906533893
 30
0.0
 11
409.0
 21
38.2906533893
 31
0.0
  0
LINE
  5
D5
330
1F
100
AcDbEntity
  8
PV
 62
     9
100
AcDbLine
 10
221.0
 20
42.2906533893
 30
0.0
 11
409.0
 21
42.2906533893
 31
0.0
  0
LINE
  5
D6
330
1F
100
AcDbEntity
  8
PV
 62
     9
100
AcDbLine
 10
221.0
 20
46.2906533893
 30
0.0
 11
409.0
 21
46.2906533893
 31
0.0
  0
LINE
  5
D7
330
1F
100
AcDbEntity
  8
PV
 62
     9
100
AcDbLine
 10
221.0
 20
50.2906533893
 30
0.0
 11
409.0
 21
50.2906533893
 31
0.0
  0
LINE
  5
D8
330
1F
100
AcDbEntity
  8
PV
 62
     9
100
AcDbLine
 10
221.0
 20
54.2906533893
 30
0.0
 11
409.0
 21
54.2906533893
 31
0.0
  0
LINE
  5
D9
330
1F
100
AcDbEntity
  8
PV
 62
     9
100
AcDbLine
 10
221.0
 20
58.2906533893
 30
0.0
 11
409.0
 21
58.2906533893
 31
0.0
  0
LINE
  5
DA
330
1F
100
AcDbEntity
  8
PV
 62
     9
100
AcDbLine
 10
221.0
 20
62.2906533893
 30
0.0
 11
409.0
 21
62.2906533893
 31
0.0
  0
LINE
  5
DB
330
1F
100
AcDbEntity
  8
PV
370
    15
100
AcDbLine
 10
221.0
 20
71.2906533893
 30
0.0
 11
221.0
 21
12.2704007736
 31
0.0
  0
LINE
  5
DC
330
1F
100
AcDbEntity
  8
PV
370
    15
100
AcDbLine
 10
221.0
 20
66.7906533893
 30
0.0
 11
409.0
 21
66.7906533893
 31
0.0
  0
LINE
  5
DD
330
1F
100
AcDbEntity
  8
PV
370
    15
100
AcDbLine
 10
221.0
 20
71.2906533893
 30
0.0
 11
409.0
 21
71.2906533893
 31
0.0
  0
LINE
  5
DE
330
1F
100
AcDbEntity
  8
PV
 62
     9
100
AcDbLine
 10
237.6477507152
 20
62.2906533893
 30
0.0
 11
237.6477507152
 21
38.2906533893
 31
0.0
  0
LINE
  5
DF
330
1F
100
AcDbEntity
  8
PV
 62
     9
100
AcDbLine
 10
247.6106668885
 20
62.2906533893
 30
0.0
 11
247.6106668885
 21
38.2906533893
 31
0.0
  0
LINE
  5
E0
330
1F
100
AcDbEntity
  8
PV
 62
     9
100
AcDbLine
 10
397.6555514975
 20
62.2906533893
 30
0.0
 11
397.6555514975
 21
38.2906533893
 31
0.0
  0
LINE
  5
E1
330
1F
100
AcDbEntity
  8
PV
 62
     9
100
AcDbLine
 10
386.6555514975
 20
62.2906533893
 30
0.0
 11
386.6555514975
 21
38.2906533893
 31
0.0
  0
LINE
  5
E2
330
1F
100
AcDbEntity
  8
LOGO1
100
AcDbLine
 10
238.8288971773
 20
24.9599577875
 30
0.0
 11
247.1667704411
 21
24.9599577875
 31
0.0
  0
LINE
  5
E3
330
1F
100
AcDbEntity
  8
LOGO1
100
AcDbLine
 10
249.445309054
 20
29.4353756074
 30
0.0
 11
249.973051628
 21
29.4353756074
 31
0.0
  0
LINE
  5
E4
330
1F
100
AcDbEntity
  8
LOGO1
100
AcDbLine
 10
248.4048694505
 20
27.9447181823
 30
0.0
 11
249.1007545987
 21
27.9447181823
 31
0.0
  0
LINE
  5
E5
330
1F
100
AcDbEntity
  8
LOGO1
100
AcDbLine
 10
247.5113248964
 20
26.4529122423
 30
0.0
 11
248.0603149952
 21
26.4529122423
 31
0.0
  0
LINE
  5
E6
330
1F
100
AcDbEntity
  8
LOGO1
 62
   151
100
AcDbLine
 10
251.2549090532
 20
29.3393597659
 30
0.0
 11
251.3103823205
 21
29.4353756074
 31
0.0
  0
LINE
  5
E7
330
1F
100
AcDbEntity
  8
COTATION3
100
AcDbLine
 10
387.5011356673
 20
-3.7078428037
 30
0.0
 11
387.001503807
 21
-3.7078428037
 31
0.0
  0
ARC
  5
E8
330
1F
100
AcDbEntity
  8
LOGO1
100
AcDbCircle
 10
228.0462954213
 20
30.5364567951
 30
0.0
 40
1.249928906540212
100
AcDbArc
 50
180.0115505333
 51
0.0
  0
ARC
  5
E9
330
1F
100
AcDbEntity
  8
LOGO1
100
AcDbCircle
 10
253.5698555869
 20
26.108357787
 30
0.0
 40
0.3445544553000275
100
AcDbArc
 50
0.0
 51
90.0
  0
ARC
  5
EA
330
1F
100
AcDbEntity
  8
LOGO1
100
AcDbCircle
 10
252.6766555873
 20
27.600163727
 30
0.0
 40
0.3445544553000275
100
AcDbArc
 50
0.0
 51
90.0
  0
ARC
  5
EB
330
1F
100
AcDbEntity
  8
LOGO1
100
AcDbCircle
 10
251.6361011323
 20
29.0908211521
 30
0.0
 40
0.3445544553000275
100
AcDbArc
 50
0.0
 51
90.0
  0
ARC
  5
EC
330
1F
100
AcDbEntity
  8
LOGO1
100
AcDbCircle
 10
249.445309054
 20
29.0908211521
 30
0.0
 40
0.3445544552999991
100
AcDbArc
 50
90.0
 51
180.0
  0
ARC
  5
ED
330
1F
100
AcDbEntity
  8
LOGO1
100
AcDbCircle
 10
248.4048694505
 20
27.600163727
 30
0.0
 40
0.3445544552999991
100
AcDbArc
 50
90.0
 51
180.0
  0
ARC
  5
EE
330
1F
100
AcDbEntity
  8
LOGO1
100
AcDbCircle
 10
247.5113248964
 20
26.108357787
 30
0.0
 40
0.3445544552999991
100
AcDbArc
 50
90.0
 51
180.0
  0
ARC
  5
EF
330
1F
100
AcDbEntity
  8
LOGO1
100
AcDbCircle
 10
250.5407050931
 20
34.059640952
 30
0.0
 40
0.5676534651067868
100
AcDbArc
 50
0.0
 51
180.0
  0
ARC
  5
F0
330
1F
100
AcDbEntity
  8
LOGO1
100
AcDbCircle
 10
244.7285882609
 20
35.6647482783
 30
0.0
 40
0.9434479206069639
100
AcDbArc
 50
270.0
 51
89.9876903601
  0
ARC
  5
F1
330
1F
100
AcDbEntity
  8
LOGO1
100
AcDbCircle
 10
241.8796397487
 20
30.9655390438
 30
0.0
 40
0.9893350275721563
100
AcDbArc
 50
270.0
 51
89.969106545
  0
ARC
  5
F2
330
1F
100
AcDbEntity
  8
LOGO1
100
AcDbCircle
 10
227.9438893796
 20
35.4571384912
 30
0.0
 40
1.148514851000051
100
AcDbArc
 50
90.0336090389
 51
180.0115505333
  0
ARC
  5
F3
330
1F
100
AcDbEntity
  8
LOGO1
100
AcDbCircle
 10
227.9312140136
 20
26.1108845197
 30
0.0
 40
1.148514851000007
100
AcDbArc
 50
180.0
 51
270.0351459459
  0
ARC
  5
F4
330
1F
100
AcDbEntity
  8
LOGO1
100
AcDbCircle
 10
238.8288971773
 20
35.4609488549
 30
0.0
 40
1.148514851000004
100
AcDbArc
 50
89.9876903601
 51
180.0
  0
ARC
  5
F5
330
1F
100
AcDbEntity
  8
LOGO1
100
AcDbCircle
 10
238.8288971773
 20
26.1084726385
 30
0.0
 40
1.148514850999987
100
AcDbArc
 50
180.0
 51
270.0
  0
ARC
  5
F6
330
1F
100
AcDbEntity
  8
LOGO1
100
AcDbCircle
 10
255.10831456
 20
26.1074317406
 30
0.0
 40
1.14851485099999
100
AcDbArc
 50
270.0
 51
23.7709783333
  0
SPLINE
  5
F7
330
1F
100
AcDbEntity
  8
LOGO1
 62
   228
100
AcDbSpline
210
0.0
220
0.0
230
1.0
 70
     8
 71
     3
 72
     8
 73
     4
 74
     0
 42
0.00000001
 43
0.00000001
 40
0.0
 40
0.0
 40
0.0
 40
0.0
 40
0.0227272727272727
 40
0.0227272727272727
 40
0.0227272727272727
 40
0.0227272727272727
 10
236.4245961882204
 20
29.98907461708545
 30
0.0
 10
236.0200892576982
 20
30.47811224064123
 30
0.0
 10
235.4043704460771
 20
30.84781917117813
 30
0.0
 10
234.573879357319
 20
31.09647263641963
 30
0.0
  0
SPLINE
  5
F8
330
1F
100
AcDbEntity
  8
LOGO1
 62
   228
100
AcDbSpline
210
0.0
220
0.0
230
1.0
 70
     8
 71
     3
 72
     8
 73
     4
 74
     0
 42
0.00000001
 43
0.00000001
 40
0.0227272727272727
 40
0.0227272727272727
 40
0.0227272727272727
 40
0.0227272727272727
 40
0.0454545454545455
 40
0.0454545454545455
 40
0.0454545454545455
 40
0.0454545454545455
 10
234.573879357319
 20
31.09647263641963
 30
0.0
 10
235.8069249013526
 20
31.63615976490453
 30
0.0
 10
236.4232179703992
 20
32.48893204177206
 30
0.0
 10
236.4232179703992
 20
33.65421520959666
 30
0.0
  0
SPLINE
  5
F9
330
1F
100
AcDbEntity
  8
LOGO1
 62
   228
100
AcDbSpline
210
0.0
220
0.0
230
1.0
 70
     8
 71
     3
 72
     8
 73
     4
 74
     0
 42
0.00000001
 43
0.00000001
 40
0.0454545454545455
 40
0.0454545454545455
 40
0.0454545454545455
 40
0.0454545454545455
 40
0.0681818181818182
 40
0.0681818181818182
 40
0.0681818181818182
 40
0.0681818181818182
 10
236.4232179703992
 20
33.65421520959666
 30
0.0
 10
236.4232179703992
 20
33.99279738767147
 30
0.0
 10
236.3648734159684
 20
34.31495580337695
 30
0.0
 10
236.2465763863154
 20
34.61954194186212
 30
0.0
  0
SPLINE
  5
FA
330
1F
100
AcDbEntity
  8
LOGO1
 62
   228
100
AcDbSpline
210
0.0
220
0.0
230
1.0
 70
     8
 71
     3
 72
     8
 73
     4
 74
     0
 42
0.00000001
 43
0.00000001
 40
0.0681818181818182
 40
0.0681818181818182
 40
0.0681818181818182
 40
0.0681818181818182
 40
0.0909090909090909
 40
0.0909090909090909
 40
0.0909090909090909
 40
0.0909090909090909
 10
236.2465763863154
 20
34.61954194186212
 30
0.0
 10
236.1285090596326
 20
34.92378352589204
 30
0.0
 10
235.9582991587144
 20
35.20137956537878
 30
0.0
 10
235.7334199508886
 20
35.45393798111363
 30
0.0
  0
SPLINE
  5
FB
330
1F
100
AcDbEntity
  8
LOGO1
 62
   228
100
AcDbSpline
210
0.0
220
0.0
230
1.0
 70
     8
 71
     3
 72
     8
 73
     4
 74
     0
 42
0.00000001
 43
0.00000001
 40
0.0909090909090909
 40
0.0909090909090909
 40
0.0909090909090909
 40
0.0909090909090909
 40
0.1136363636363637
 40
0.1136363636363637
 40
0.1136363636363637
 40
0.1136363636363637
 10
235.7334199508886
 20
35.45393798111363
 30
0.0
 10
235.5090001490032
 20
35.70488847605713
 30
0.0
 10
235.251503119409
 20
35.91299936705833
 30
0.0
 10
234.9608140106209
 20
36.07700728778113
 30
0.0
  0
SPLINE
  5
FC
330
1F
100
AcDbEntity
  8
LOGO1
 62
   228
100
AcDbSpline
210
0.0
220
0.0
230
1.0
 70
     8
 71
     3
 72
     8
 73
     4
 74
     0
 42
0.00000001
 43
0.00000001
 40
0.1136363636363637
 40
0.1136363636363637
 40
0.1136363636363637
 40
0.1136363636363637
 40
0.1363636363636364
 40
0.1363636363636364
 40
0.1363636363636364
 40
0.1363636363636364
 10
234.9608140106209
 20
36.07700728778113
 30
0.0
 10
234.6189011394782
 20
36.27110629760016
 30
0.0
 10
234.2340338129081
 20
36.40295580249492
 30
0.0
 10
233.8026516348725
 20
36.4711775846443
 30
0.0
  0
SPLINE
  5
FD
330
1F
100
AcDbEntity
  8
LOGO1
 62
   228
100
AcDbSpline
210
0.0
220
0.0
230
1.0
 70
     8
 71
     3
 72
     8
 73
     4
 74
     0
 42
0.00000001
 43
0.00000001
 40
0.1363636363636364
 40
0.1363636363636364
 40
0.1363636363636364
 40
0.1363636363636364
 40
0.1590909090909091
 40
0.1590909090909091
 40
0.1590909090909091
 40
0.1590909090909091
 10
233.8026516348725
 20
36.4711775846443
 30
0.0
 10
233.3731070805985
 20
36.53928451530864
 30
0.0
 10
232.86374074418
 20
36.60819540636867
 30
0.0
 10
232.2771942097743
 20
36.60819540636867
 30
0.0
  0
SPLINE
  5
FE
330
1F
100
AcDbEntity
  8
LOGO1
 62
   228
100
AcDbSpline
210
0.0
220
0.0
230
1.0
 70
     8
 71
     3
 72
     8
 73
     4
 74
     0
 42
0.00000001
 43
0.00000001
 40
0.4772727272727271
 40
0.4772727272727271
 40
0.4772727272727271
 40
0.4772727272727271
 40
0.4999999999999998
 40
0.4999999999999998
 40
0.4999999999999998
 40
0.4999999999999998
 10
231.3009565864243
 20
34.74725679329332
 30
0.0
 10
232.2047229226762
 20
34.74725679329338
 30
0.0
 10
232.8777526253621
 20
34.71831421904814
 30
0.0
 10
233.3183229222058
 20
34.52352610031856
 30
0.0
  0
SPLINE
  5
FF
330
1F
100
AcDbEntity
  8
LOGO1
 62
   228
100
AcDbSpline
210
0.0
220
0.0
230
1.0
 70
     8
 71
     3
 72
     8
 73
     4
 74
     0
 42
0.00000001
 43
0.00000001
 40
0.4999999999999998
 40
0.4999999999999998
 40
0.4999999999999998
 40
0.4999999999999998
 40
0.5227272727272726
 40
0.5227272727272726
 40
0.5227272727272726
 40
0.5227272727272726
 10
233.3183229222058
 20
34.52352610031856
 30
0.0
 10
233.7592377735047
 20
34.32850827861872
 30
0.0
 10
233.9799823278669
 20
33.93606075403205
 30
0.0
 10
233.9799823278669
 20
33.34434590279683
 30
0.0
  0
SPLINE
  5
100
330
1F
100
AcDbEntity
  8
LOGO1
 62
   228
100
AcDbSpline
210
0.0
220
0.0
230
1.0
 70
     8
 71
     3
 72
     8
 73
     4
 74
     0
 42
0.00000001
 43
0.00000001
 40
0.5227272727272726
 40
0.5227272727272726
 40
0.5227272727272726
 40
0.5227272727272726
 40
0.5454545454545453
 40
0.5454545454545453
 40
0.5454545454545453
 40
0.5454545454545453
 10
233.9799823278669
 20
33.34434590279683
 30
0.0
 10
233.9799823278669
 20
33.06720926925055
 30
0.0
 10
233.90888925859
 20
32.81660332876235
 30
0.0
 10
233.7698041101339
 20
32.59241322984712
 30
0.0
  0
SPLINE
  5
101
330
1F
100
AcDbEntity
  8
LOGO1
 62
   228
100
AcDbSpline
210
0.0
220
0.0
230
1.0
 70
     8
 71
     3
 72
     8
 73
     4
 74
     0
 42
0.00000001
 43
0.00000001
 40
0.5454545454545453
 40
0.5454545454545453
 40
0.5454545454545453
 40
0.5454545454545453
 40
0.568181818181818
 40
0.568181818181818
 40
0.568181818181818
 40
0.568181818181818
 10
233.7698041101339
 20
32.59241322984712
 30
0.0
 10
233.5910951993183
 20
32.27737560621785
 30
0.0
 10
233.3319902489327
 20
32.06455580432754
 30
0.0
 10
232.9962793579854
 20
31.95326471526566
 30
0.0
  0
SPLINE
  5
102
330
1F
100
AcDbEntity
  8
LOGO1
 62
   228
100
AcDbSpline
210
0.0
220
0.0
230
1.0
 70
     8
 71
     3
 72
     8
 73
     4
 74
     0
 42
0.00000001
 43
0.00000001
 40
0.568181818181818
 40
0.568181818181818
 40
0.568181818181818
 40
0.568181818181818
 40
0.5909090909090907
 40
0.5909090909090907
 40
0.5909090909090907
 40
0.5909090909090907
 10
232.9962793579854
 20
31.95326471526566
 30
0.0
 10
232.9344892590016
 20
31.93270629943273
 30
0.0
 10
232.8681051006138
 20
31.91421521033167
 30
0.0
 10
232.7968971798518
 20
31.89710233905174
 30
0.0
  0
SPLINE
  5
103
330
1F
100
AcDbEntity
  8
LOGO1
 62
   228
100
AcDbSpline
210
0.0
220
0.0
230
1.0
 70
     8
 71
     3
 72
     8
 73
     4
 74
     0
 42
0.00000001
 43
0.00000001
 40
0.6136363636363634
 40
0.6136363636363634
 40
0.6136363636363634
 40
0.6136363636363634
 40
0.6363636363636361
 40
0.6363636363636361
 40
0.6363636363636361
 40
0.6363636363636361
 10
232.7968971798518
 20
31.89113006182653
 30
0.0
 10
232.4165090612006
 20
31.76938748762054
 30
0.0
 10
232.1383387642884
 20
31.40990233925756
 30
0.0
 10
232.1383387642884
 20
30.97920927013254
 30
0.0
  0
SPLINE
  5
104
330
1F
100
AcDbEntity
  8
LOGO1
 62
   228
100
AcDbSpline
210
0.0
220
0.0
230
1.0
 70
     8
 71
     3
 72
     8
 73
     4
 74
     0
 42
0.00000001
 43
0.00000001
 40
0.6363636363636361
 40
0.6363636363636361
 40
0.6363636363636361
 40
0.6363636363636361
 40
0.6590909090909088
 40
0.6590909090909088
 40
0.6590909090909088
 40
0.6590909090909088
 10
232.1383387642884
 20
30.97920927013254
 30
0.0
 10
232.1383387642884
 20
30.54863105249261
 30
0.0
 10
232.4165090612006
 20
30.18857164670413
 30
0.0
 10
232.7968971798518
 20
30.06625481507264
 30
0.0
  0
SPLINE
  5
105
330
1F
100
AcDbEntity
  8
LOGO1
 62
   228
100
AcDbSpline
210
0.0
220
0.0
230
1.0
 70
     8
 71
     2
 72
     6
 73
     3
 74
     0
 42
0.00000001
 43
0.00000001
 40
0.6590909090909088
 40
0.6590909090909088
 40
0.6590909090909088
 40
0.6818181818181815
 40
0.6818181818181815
 40
0.6818181818181815
 10
232.7968971798518
 20
30.06625481507264
 30
0.0
 10
232.8342239125093
 20
30.05385085468182
 30
0.0
 10
232.8891229223871
 20
30.03742709231255
 30
0.0
  0
SPLINE
  5
106
330
1F
100
AcDbEntity
  8
LOGO1
 62
   228
100
AcDbSpline
210
0.0
220
0.0
230
1.0
 70
     8
 71
     3
 72
     8
 73
     4
 74
     0
 42
0.00000001
 43
0.00000001
 40
0.6818181818181815
 40
0.6818181818181815
 40
0.6818181818181815
 40
0.6818181818181815
 40
0.7045454545454543
 40
0.7045454545454543
 40
0.7045454545454543
 40
0.7045454545454543
 10
232.8891229223871
 20
30.03742709231255
 30
0.0
 10
233.2649169816343
 20
29.97242115174592
 30
0.0
 10
233.5771981696212
 20
29.86825085476025
 30
0.0
 10
233.8197645061524
 20
29.72066669640672
 30
0.0
  0
SPLINE
  5
107
330
1F
100
AcDbEntity
  8
LOGO1
 62
   228
100
AcDbSpline
210
0.0
220
0.0
230
1.0
 70
     8
 71
     3
 72
     8
 73
     4
 74
     0
 42
0.00000001
 43
0.00000001
 40
0.7045454545454543
 40
0.7045454545454543
 40
0.7045454545454543
 40
0.7045454545454543
 40
0.727272727272727
 40
0.727272727272727
 40
0.727272727272727
 40
0.727272727272727
 10
233.8197645061524
 20
29.72066669640672
 30
0.0
 10
234.2551664861665
 20
29.45616372622145
 30
0.0
 10
234.4725803474608
 20
29.14985481545973
 30
0.0
 10
234.4725803474608
 20
28.56319342956898
 30
0.0
  0
SPLINE
  5
108
330
1F
100
AcDbEntity
  8
LOGO1
 62
   228
100
AcDbSpline
210
0.0
220
0.0
230
1.0
 70
     8
 71
     3
 72
     8
 73
     4
 74
     0
 42
0.00000001
 43
0.00000001
 40
0.727272727272727
 40
0.727272727272727
 40
0.727272727272727
 40
0.727272727272727
 40
0.7499999999999997
 40
0.7499999999999997
 40
0.7499999999999997
 40
0.7499999999999997
 10
234.4725803474608
 20
28.56319342956898
 30
0.0
 10
234.4725803474608
 20
27.41525283599444
 30
0.0
 10
233.6329011398946
 20
26.84191422237525
 30
0.0
 10
231.9545763881284
 20
26.84191422237525
 30
0.0
  0
SPLINE
  5
109
330
1F
100
AcDbEntity
  8
LOGO1
 62
   228
100
AcDbSpline
210
0.0
220
0.0
230
1.0
 70
     8
 71
     3
 72
     8
 73
     4
 74
     0
 42
0.00000001
 43
0.00000001
 40
0.954545454545454
 40
0.954545454545454
 40
0.954545454545454
 40
0.954545454545454
 40
0.9772727272727267
 40
0.9772727272727267
 40
0.9772727272727267
 40
0.9772727272727267
 10
232.0507070811571
 20
24.96489640138594
 30
0.0
 10
232.3830872790365
 20
24.96489640138594
 30
0.0
 10
232.6935308432618
 20
24.97305085682805
 30
0.0
 10
232.9834159916542
 20
24.98844095583141
 30
0.0
  0
SPLINE
  5
10A
330
1F
100
AcDbEntity
  8
LOGO1
 62
   228
100
AcDbSpline
210
0.0
220
0.0
230
1.0
 70
     8
 71
     3
 72
     8
 73
     4
 74
     0
 42
0.00000001
 43
0.00000001
 40
0.0769230769230769
 40
0.0769230769230769
 40
0.0769230769230769
 40
0.0769230769230769
 40
0.1153846153846154
 40
0.1153846153846154
 40
0.1153846153846154
 40
0.1153846153846154
 10
252.2806476651076
 20
35.376750548612
 30
0.0
 10
252.1831387542578
 20
35.59760995445932
 30
0.0
 10
252.0630041008432
 20
35.80342381575852
 30
0.0
 10
251.9210476652596
 20
35.9959149047861
 30
0.0
  0
SPLINE
  5
10B
330
1F
100
AcDbEntity
  8
LOGO1
 62
   228
100
AcDbSpline
210
0.0
220
0.0
230
1.0
 70
     8
 71
     3
 72
     8
 73
     4
 74
     0
 42
0.00000001
 43
0.00000001
 40
0.1153846153846154
 40
0.1153846153846154
 40
0.1153846153846154
 40
0.1153846153846154
 40
0.1538461538461539
 40
0.1538461538461539
 40
0.1538461538461539
 40
0.1538461538461539
 10
251.9210476652596
 20
35.9959149047861
 30
0.0
 10
251.7775981603696
 20
36.18771688490313
 30
0.0
 10
251.5907347941119
 20
36.34448916206462
 30
0.0
 10
251.3580456852993
 20
36.46680599369611
 30
0.0
  0
SPLINE
  5
10C
330
1F
100
AcDbEntity
  8
LOGO1
 62
   228
100
AcDbSpline
210
0.0
220
0.0
230
1.0
 70
     8
 71
     3
 72
     8
 73
     4
 74
     0
 42
0.00000001
 43
0.00000001
 40
0.1538461538461539
 40
0.1538461538461539
 40
0.1538461538461539
 40
0.1538461538461539
 40
0.1923076923076923
 40
0.1923076923076923
 40
0.1923076923076923
 40
0.1923076923076923
 10
251.3580456852993
 20
36.46680599369611
 30
0.0
 10
251.1258159824272
 20
36.58820401344681
 30
0.0
 10
250.8366199429454
 20
36.64919015203488
 30
0.0
 10
250.4906872698242
 20
36.64919015203488
 30
0.0
  0
SPLINE
  5
10D
330
1F
100
AcDbEntity
  8
LOGO1
 62
   228
100
AcDbSpline
210
0.0
220
0.0
230
1.0
 70
     8
 71
     3
 72
     8
 73
     4
 74
     0
 42
0.00000001
 43
0.00000001
 40
0.1923076923076923
 40
0.1923076923076923
 40
0.1923076923076923
 40
0.1923076923076923
 40
0.2307692307692308
 40
0.2307692307692308
 40
0.2307692307692308
 40
0.2307692307692308
 10
250.4906872698242
 20
36.64919015203488
 30
0.0
 10
250.1499229135325
 20
36.64919015203488
 30
0.0
 10
249.8639427156334
 20
36.58820401344681
 30
0.0
 10
249.6311387553358
 20
36.46680599369611
 30
0.0
  0
SPLINE
  5
10E
330
1F
100
AcDbEntity
  8
LOGO1
 62
   228
100
AcDbSpline
210
0.0
220
0.0
230
1.0
 70
     8
 71
     3
 72
     8
 73
     4
 74
     0
 42
0.00000001
 43
0.00000001
 40
0.2307692307692308
 40
0.2307692307692308
 40
0.2307692307692308
 40
0.2307692307692308
 40
0.2692307692307693
 40
0.2692307692307693
 40
0.2692307692307693
 40
0.2692307692307693
 10
249.6311387553358
 20
36.46680599369611
 30
0.0
 10
249.3984496465231
 20
36.34448916206462
 30
0.0
 10
249.2118159832356
 20
36.18369708292457
 30
0.0
 10
249.0696298446818
 20
35.98741589488868
 30
0.0
  0
SPLINE
  5
10F
330
1F
100
AcDbEntity
  8
LOGO1
 62
   228
100
AcDbSpline
210
0.0
220
0.0
230
1.0
 70
     8
 71
     3
 72
     8
 73
     4
 74
     0
 42
0.00000001
 43
0.00000001
 40
0.2692307692307693
 40
0.2692307692307693
 40
0.2692307692307693
 40
0.2692307692307693
 40
0.3076923076923077
 40
0.3076923076923077
 40
0.3076923076923077
 40
0.3076923076923077
 10
249.0696298446818
 20
35.98741589488868
 30
0.0
 10
248.9267545972175
 20
35.79067530091239
 30
0.0
 10
248.7922635081654
 20
35.54340005349209
 30
0.0
 10
248.667764498317
 20
35.24501589520228
 30
0.0
  0
SPLINE
  5
110
330
1F
100
AcDbEntity
  8
LOGO1
 62
   150
100
AcDbSpline
210
0.0
220
0.0
230
1.0
 70
     8
 71
     3
 72
     8
 73
     4
 74
     0
 42
0.00000001
 43
0.00000001
 40
0.4
 40
0.4
 40
0.4
 40
0.4
 40
0.6000000000000001
 40
0.6000000000000001
 40
0.6000000000000001
 40
0.6000000000000001
 10
236.4245961882204
 20
29.98907461708545
 30
0.0
 10
236.7547942078829
 20
29.58985085487786
 30
0.0
 10
236.9445288612681
 20
29.11046075607043
 30
0.0
 10
236.9916179701591
 20
28.55078946917817
 30
0.0
  0
SPLINE
  5
111
330
1F
100
AcDbEntity
  8
LOGO1
 62
   228
100
AcDbSpline
210
0.0
220
0.0
230
1.0
 70
     8
 71
     3
 72
     8
 73
     4
 74
     0
 42
0.00000001
 43
0.00000001
 40
0.0
 40
0.0
 40
0.0
 40
0.0
 40
0.1666666666666667
 40
0.1666666666666667
 40
0.1666666666666667
 40
0.1666666666666667
 10
235.0450001491992
 20
25.36676174775082
 30
0.0
 10
235.6441803469659
 20
25.61415184665622
 30
0.0
 10
236.1195506437948
 20
25.99695184649453
 30
0.0
 10
236.4736377723581
 20
26.51653996508696
 30
0.0
  0
SPLINE
  5
112
330
1F
100
AcDbEntity
  8
LOGO1
 62
   228
100
AcDbSpline
210
0.0
220
0.0
230
1.0
 70
     8
 71
     3
 72
     8
 73
     4
 74
     0
 42
0.00000001
 43
0.00000001
 40
0.1666666666666667
 40
0.1666666666666667
 40
0.1666666666666667
 40
0.1666666666666667
 40
0.3333333333333333
 40
0.3333333333333333
 40
0.3333333333333333
 40
0.3333333333333333
 10
236.4736377723581
 20
26.51653996508696
 30
0.0
 10
236.8265763860703
 20
27.03555382625383
 30
0.0
 10
237.0031031186691
 20
27.61911422204694
 30
0.0
 10
237.0031031186691
 20
28.26710630098112
 30
0.0
  0
SPLINE
  5
113
330
1F
100
AcDbEntity
  8
LOGO1
 62
   228
100
AcDbSpline
210
0.0
220
0.0
230
1.0
 70
     8
 71
     3
 72
     8
 73
     4
 74
     0
 42
0.00000001
 43
0.00000001
 40
0.6666666666666666
 40
0.6666666666666666
 40
0.6666666666666666
 40
0.6666666666666666
 40
0.8333333333333333
 40
0.8333333333333333
 40
0.8333333333333333
 40
0.8333333333333333
 10
232.9834159916542
 20
24.98844095583141
 30
0.0
 10
233.2590595558942
 20
25.00325679740934
 30
0.0
 10
233.5159823280629
 20
25.02530828254856
 30
0.0
 10
233.7529209418242
 20
25.05482511421925
 30
0.0
  0
SPLINE
  5
114
330
1F
100
AcDbEntity
  8
LOGO1
 62
   228
100
AcDbSpline
210
0.0
220
0.0
230
1.0
 70
     8
 71
     3
 72
     8
 73
     4
 74
     0
 42
0.00000001
 43
0.00000001
 40
0.8333333333333333
 40
0.8333333333333333
 40
0.8333333333333333
 40
0.8333333333333333
 40
1.0
 40
1.0
 40
1.0
 40
1.0
 10
233.7529209418242
 20
25.05482511421925
 30
0.0
 10
234.2398912386482
 20
25.11581125280738
 30
0.0
 10
234.6700100503477
 20
25.21917758939735
 30
0.0
 10
235.0450001491992
 20
25.36676174775082
 30
0.0
  0
ELLIPSE
  5
115
330
1F
100
AcDbEntity
  8
LOGO2
100
AcDbEllipse
 10
242.5029842637
 20
28.0678433671
 30
0.0
 11
-9.281964393266776
 21
-5.518954020724277
 31
0.0
210
0.0
220
0.0
230
1.0
 40
0.4790317882
 41
5.840044660114027
 42
8.726334306476229
  0
ELLIPSE
  5
116
330
1F
100
AcDbEntity
  8
LOGO2
100
AcDbEllipse
 10
242.5029842637
 20
28.0678433671
 30
0.0
 11
-9.281964393266776
 21
-5.518954020724277
 31
0.0
210
0.0
220
0.0
230
1.0
 40
0.4790317882
 41
4.958154129815593
 42
5.11614622350664
  0
ELLIPSE
  5
117
330
1F
100
AcDbEntity
  8
LOGO2
100
AcDbEllipse
 10
242.5029842637
 20
28.0678433671
 30
0.0
 11
-9.281964393266776
 21
-5.518954020724277
 31
0.0
210
0.0
220
0.0
230
1.0
 40
0.4790317882
 41
3.748252181811127
 42
4.67835827302119
  0
ELLIPSE
  5
118
330
1F
100
AcDbEntity
  8
SLD-0
100
AcDbEllipse
 10
242.5029842637
 20
28.0678433671
 30
0.0
 11
-9.281964393266776
 21
-5.518954020724277
 31
0.0
210
0.0
220
0.0
230
1.0
 40
0.4790317882
 41
3.365945528146931
 42
3.425750292756564
  0
INSERT
  5
119
330
1F
100
AcDbEntity
  8
0
  6
Continuous
 62
     6
100
AcDbBlockReference
  2
Bloc2
 10
354.8047549869
 20
14.1813780607
 30
0.0
 41
1.75
 42
1.75
 43
1.75
  0
MTEXT
  5
11B
330
1F
100
AcDbEntity
  8
PV
100
AcDbMText
 10
6.348821
 20
252.4770147354
 30
0.0
 40
3.5
 41
0.0
 71
     1
 72
     1
  1
4
  7
SLDTEXTSTYLE0
 73
     1
 44
1.0
  0
MTEXT
  5
11C
330
1F
100
AcDbEntity
  8
PV
100
AcDbMText
 10
332.875
 20
11.2083967354
 30
0.0
 40
3.5
 41
0.0
 71
     1
 72
     1
  1
B
  7
SLDTEXTSTYLE0
 73
     1
 44
1.0
  0
MTEXT
  5
11D
330
1F
100
AcDbEntity
  8
PV
100
AcDbMText
 10
410.651179
 20
116.2270147354
 30
0.0
 40
3.5
 41
0.0
 71
     1
 72
     1
  1
2
  7
SLDTEXTSTYLE0
 73
     1
 44
1.0
  0
MTEXT
  5
11E
330
1F
100
AcDbEntity
  8
PV
100
AcDbMText
 10
410.651179
 20
184.3520147354
 30
0.0
 40
3.5
 41
0.0
 71
     1
 72
     1
  1
3
  7
SLDTEXTSTYLE0
 73
     1
 44
1.0
  0
MTEXT
  5
11F
330
1F
100
AcDbEntity
  8
PV
100
AcDbMText
 10
410.651179
 20
252.4770147354
 30
0.0
 40
3.5
 41
0.0
 71
     1
 72
     1
  1
4
  7
SLDTEXTSTYLE0
 73
     1
 44
1.0
  0
MTEXT
  5
120
330
1F
100
AcDbEntity
  8
PV
100
AcDbMText
 10
283.125
 20
11.2083967354
 30
0.0
 40
3.5
 41
0.0
 71
     1
 72
     1
  1
C
  7
SLDTEXTSTYLE0
 73
     1
 44
1.0
  0
MTEXT
  5
121
330
1F
100
AcDbEntity
  8
PV
100
AcDbMText
 10
133.875
 20
11.2083967354
 30
0.0
 40
3.5
 41
0.0
 71
     1
 72
     1
  1
F
  7
SLDTEXTSTYLE0
 73
     1
 44
1.0
  0
MTEXT
  5
122
330
1F
100
AcDbEntity
  8
PV
100
AcDbMText
 10
183.625
 20
11.2083967354
 30
0.0
 40
3.5
 41
0.0
 71
     1
 72
     1
  1
E
  7
SLDTEXTSTYLE0
 73
     1
 44
1.0
  0
MTEXT
  5
123
330
1F
100
AcDbEntity
  8
PV
100
AcDbMText
 10
84.125
 20
11.2083967354
 30
0.0
 40
3.5
 41
0.0
 71
     1
 72
     1
  1
G
  7
SLDTEXTSTYLE0
 73
     1
 44
1.0
  0
MTEXT
  5
124
330
1F
100
AcDbEntity
  8
PV
100
AcDbMText
 10
382.625
 20
11.2083967354
 30
0.0
 40
3.5
 41
0.0
 71
     1
 72
     1
  1
A
  7
SLDTEXTSTYLE0
 73
     1
 44
1.0
  0
MTEXT
  5
125
330
1F
100
AcDbEntity
  8
PV
100
AcDbMText
 10
233.375
 20
11.2083967354
 30
0.0
 40
3.5
 41
0.0
 71
     1
 72
     1
  1
D
  7
SLDTEXTSTYLE0
 73
     1
 44
1.0
  0
MTEXT
  5
126
330
1F
100
AcDbEntity
  8
PV
100
AcDbMText
 10
34.375
 20
11.2083967354
 30
0.0
 40
3.5
 41
0.0
 71
     1
 72
     1
  1
H
  7
SLDTEXTSTYLE0
 73
     1
 44
1.0
  0
MTEXT
  5
127
330
1F
100
AcDbEntity
  8
PV
100
AcDbMText
 10
6.348821
 20
184.3520147354
 30
0.0
 40
3.5
 41
0.0
 71
     1
 72
     1
  1
3
  7
SLDTEXTSTYLE0
 73
     1
 44
1.0
  0
MTEXT
  5
128
330
1F
100
AcDbEntity
  8
PV
100
AcDbMText
 10
6.348821
 20
48.1020147354
 30
0.0
 40
3.5
 41
0.0
 71
     1
 72
     1
  1
1
  7
SLDTEXTSTYLE0
 73
     1
 44
1.0
  0
MTEXT
  5
129
330
1F
100
AcDbEntity
  8
PV
100
AcDbMText
 10
6.348821
 20
116.2270147354
 30
0.0
 40
3.5
 41
0.0
 71
     1
 72
     1
  1
2
  7
SLDTEXTSTYLE0
 73
     1
 44
1.0
  0
MTEXT
  5
12A
330
1F
100
AcDbEntity
  8
PV
100
AcDbMText
 10
34.375
 20
289.3706327354
 30
0.0
 40
3.5
 41
0.0
 71
     1
 72
     1
  1
H
  7
SLDTEXTSTYLE0
 73
     1
 44
1.0
  0
MTEXT
  5
12B
330
1F
100
AcDbEntity
  8
PV
100
AcDbMText
 10
233.375
 20
289.3706327354
 30
0.0
 40
3.5
 41
0.0
 71
     1
 72
     1
  1
D
  7
SLDTEXTSTYLE0
 73
     1
 44
1.0
  0
MTEXT
  5
12C
330
1F
100
AcDbEntity
  8
PV
100
AcDbMText
 10
382.625
 20
289.3706327354
 30
0.0
 40
3.5
 41
0.0
 71
     1
 72
     1
  1
A
  7
SLDTEXTSTYLE0
 73
     1
 44
1.0
  0
MTEXT
  5
12D
330
1F
100
AcDbEntity
  8
PV
100
AcDbMText
 10
84.125
 20
289.3706327354
 30
0.0
 40
3.5
 41
0.0
 71
     1
 72
     1
  1
G
  7
SLDTEXTSTYLE0
 73
     1
 44
1.0
  0
MTEXT
  5
12E
330
1F
100
AcDbEntity
  8
PV
100
AcDbMText
 10
183.625
 20
289.3706327354
 30
0.0
 40
3.5
 41
0.0
 71
     1
 72
     1
  1
E
  7
SLDTEXTSTYLE0
 73
     1
 44
1.0
  0
MTEXT
  5
12F
330
1F
100
AcDbEntity
  8
PV
100
AcDbMText
 10
133.875
 20
289.3706327354
 30
0.0
 40
3.5
 41
0.0
 71
     1
 72
     1
  1
F
  7
SLDTEXTSTYLE0
 73
     1
 44
1.0
  0
MTEXT
  5
130
330
1F
100
AcDbEntity
  8
PV
100
AcDbMText
 10
283.125
 20
289.3706327354
 30
0.0
 40
3.5
 41
0.0
 71
     1
 72
     1
  1
C
  7
SLDTEXTSTYLE0
 73
     1
 44
1.0
  0
MTEXT
  5
131
330
1F
100
AcDbEntity
  8
PV
100
AcDbMText
 10
332.875
 20
289.3706327354
 30
0.0
 40
3.5
 41
0.0
 71
     1
 72
     1
  1
B
  7
SLDTEXTSTYLE0
 73
     1
 44
1.0
  0
MTEXT
  5
133
330
1F
100
AcDbEntity
  8
PV
100
AcDbMText
 10
264.5738015861
 20
17.9841358327
 30
0.0
 40
4.4
 41
0.0
 71
     1
 72
     1
  1
41.7476 . 01 . PA   . 01
  7
SLDTEXTSTYLE1
 73
     1
 44
1.0
  0
MTEXT
  5
134
330
1F
100
AcDbEntity
  8
PV
100
AcDbMText
 10
390.7745970148
 20
41.4567605458
 30
0.0
 40
2.0
 41
0.0
 71
     1
 72
     1
  1
-
  7
SLDTEXTSTYLE0
 73
     1
 44
1.0
  0
MTEXT
  5
135
330
1F
100
AcDbEntity
  8
PV
100
AcDbMText
 10
390.7351730353
 20
45.4485950517
 30
0.0
 40
2.0
 41
0.0
 71
     1
 72
     1
  1
-
  7
SLDTEXTSTYLE0
 73
     1
 44
1.0
  0
MTEXT
  5
136
330
1F
100
AcDbEntity
  8
PV
100
AcDbMText
 10
390.7351730353
 20
49.3669509187
 30
0.0
 40
2.0
 41
0.0
 71
     1
 72
     1
  1
-
  7
SLDTEXTSTYLE0
 73
     1
 44
1.0
  0
MTEXT
  5
137
330
1F
100
AcDbEntity
  8
PV
100
AcDbMText
 10
390.7351730353
 20
53.4005525466
 30
0.0
 40
2.0
 41
0.0
 71
     1
 72
     1
  1
-
  7
SLDTEXTSTYLE0
 73
     1
 44
1.0
  0
MTEXT
  5
138
330
1F
100
AcDbEntity
  8
PV
100
AcDbMText
 10
401.9955183353
 20
41.225140539
 30
0.0
 40
2.0
 41
0.0
 71
     1
 72
     1
  1
-
  7
SLDTEXTSTYLE0
 73
     1
 44
1.0
  0
MTEXT
  5
139
330
1F
100
AcDbEntity
  8
PV
100
AcDbMText
 10
401.9917360528
 20
49.1860547894
 30
0.0
 40
2.0
 41
0.0
 71
     1
 72
     1
  1
-
  7
SLDTEXTSTYLE0
 73
     1
 44
1.0
  0
MTEXT
  5
13A
330
1F
100
AcDbEntity
  8
PV
100
AcDbMText
 10
401.972634601
 20
53.1832722686
 30
0.0
 40
2.0
 41
0.0
 71
     1
 72
     1
  1
-
  7
SLDTEXTSTYLE0
 73
     1
 44
1.0
  0
MTEXT
  5
13B
330
1F
100
AcDbEntity
  8
PV
100
AcDbMText
 10
401.972634601
 20
45.2313147737
 30
0.0
 40
2.0
 41
0.0
 71
     1
 72
     1
  1
-
  7
SLDTEXTSTYLE0
 73
     1
 44
1.0
  0
MTEXT
  5
13C
330
1F
100
AcDbEntity
  8
PV
100
AcDbMText
 10
250.1001532081
 20
41.3545876173
 30
0.0
 40
2.0
 41
0.0
 71
     1
 72
     1
  1
-
  7
SLDTEXTSTYLE0
 73
     1
 44
1.0
  0
MTEXT
  5
13D
330
1F
100
AcDbEntity
  8
PV
100
AcDbMText
 10
250.1001532081
 20
45.3561765338
 30
0.0
 40
2.0
 41
0.0
 71
     1
 72
     1
  1
-
  7
SLDTEXTSTYLE0
 73
     1
 44
1.0
  0
MTEXT
  5
13E
330
1F
100
AcDbEntity
  8
PV
100
AcDbMText
 10
250.1001532081
 20
49.3193501967
 30
0.0
 40
2.0
 41
0.0
 71
     1
 72
     1
  1
-
  7
SLDTEXTSTYLE0
 73
     1
 44
1.0
  0
MTEXT
  5
13F
330
1F
100
AcDbEntity
  8
PV
100
AcDbMText
 10
250.1001532081
 20
53.2953289441
 30
0.0
 40
2.0
 41
0.0
 71
     1
 72
     1
  1
-
  7
SLDTEXTSTYLE0
 73
     1
 44
1.0
  0
MTEXT
  5
140
330
1F
100
AcDbEntity
  8
PV
100
AcDbMText
 10
239.7384121833
 20
41.3545876173
 30
0.0
 40
2.0
 41
0.0
 71
     1
 72
     1
  1
-
  7
SLDTEXTSTYLE0
 73
     1
 44
1.0
  0
MTEXT
  5
141
330
1F
100
AcDbEntity
  8
PV
100
AcDbMText
 10
239.7384121833
 20
45.3373538017
 30
0.0
 40
2.0
 41
0.0
 71
     1
 72
     1
  1
-
  7
SLDTEXTSTYLE0
 73
     1
 44
1.0
  0
MTEXT
  5
142
330
1F
100
AcDbEntity
  8
PV
100
AcDbMText
 10
239.7114580188
 20
49.3309414492
 30
0.0
 40
2.0
 41
0.0
 71
     1
 72
     1
  1
-
  7
SLDTEXTSTYLE0
 73
     1
 44
1.0
  0
MTEXT
  5
143
330
1F
100
AcDbEntity
  8
PV
100
AcDbMText
 10
239.7371846747
 20
53.2925163855
 30
0.0
 40
2.0
 41
0.0
 71
     1
 72
     1
  1
-
  7
SLDTEXTSTYLE0
 73
     1
 44
1.0
  0
MTEXT
  5
144
330
1F
100
AcDbEntity
  8
PV
100
AcDbMText
 10
223.3025238872
 20
41.3598370172
 30
0.0
 40
2.0
 41
0.0
 71
     1
 72
     1
  1
-
  7
SLDTEXTSTYLE0
 73
     1
 44
1.0
  0
MTEXT
  5
145
330
1F
100
AcDbEntity
  8
PV
100
AcDbMText
 10
223.3106839328
 20
45.3174663268
 30
0.0
 40
2.0
 41
0.0
 71
     1
 72
     1
  1
-
  7
SLDTEXTSTYLE0
 73
     1
 44
1.0
  0
MTEXT
  5
146
330
1F
100
AcDbEntity
  8
PV
100
AcDbMText
 10
223.3025238872
 20
49.3320399429
 30
0.0
 40
2.0
 41
0.0
 71
     1
 72
     1
  1
-
  7
SLDTEXTSTYLE0
 73
     1
 44
1.0
  0
MTEXT
  5
147
330
1F
100
AcDbEntity
  8
PV
100
AcDbMText
 10
223.3025238872
 20
53.2896692525
 30
0.0
 40
2.0
 41
0.0
 71
     1
 72
     1
  1
-
  7
SLDTEXTSTYLE0
 73
     1
 44
1.0
  0
MTEXT
  5
149
330
1F
100
AcDbEntity
  8
PV
100
AcDbMText
 10
263.3372167646
 20
37.2305109776
 30
0.0
 40
2.2
 41
0.0
 71
     1
 72
     1
  1
PROD. NAME : E060 - One 
  7
SLDTEXTSTYLE2
 73
     1
 44
1.0
  0
MTEXT
  5
14A
330
1F
100
AcDbEntity
  8
PV
100
AcDbMText
 10
263.3126437655
 20
25.2473412052
 30
0.0
 40
2.0
 41
0.0
 71
     1
 72
     1
  1
MATERIAL: -
  7
SLDTEXTSTYLE0
 73
     1
 44
1.0
  0
MTEXT
  5
14B
330
1F
100
AcDbEntity
  8
PV
100
AcDbMText
 10
390.7351730353
 20
57.3256016259
 30
0.0
 40
2.0
 41
0.0
 71
     1
 72
     1
  1
-
  7
SLDTEXTSTYLE0
 73
     1
 44
1.0
  0
MTEXT
  5
14C
330
1F
100
AcDbEntity
  8
PV
100
AcDbMText
 10
401.972634601
 20
57.3256016259
 30
0.0
 40
2.0
 41
0.0
 71
     1
 72
     1
  1
-
  7
SLDTEXTSTYLE0
 73
     1
 44
1.0
  0
MTEXT
  5
14D
330
1F
100
AcDbEntity
  8
PV
100
AcDbMText
 10
250.3252752916
 20
57.2676325877
 30
0.0
 40
2.0
 41
0.0
 71
     1
 72
     1
  1
-
  7
SLDTEXTSTYLE0
 73
     1
 44
1.0
  0
MTEXT
  5
14E
330
1F
100
AcDbEntity
  8
PV
100
AcDbMText
 10
239.6505604319
 20
56.9013079517
 30
0.0
 40
2.0
 41
0.0
 71
     1
 72
     1
  1
-
  7
SLDTEXTSTYLE0
 73
     1
 44
1.0
  0
MTEXT
  5
14F
330
1F
100
AcDbEntity
  8
PV
100
AcDbMText
 10
222.0842444312
 20
69.8804353895
 30
0.0
 40
2.0
 41
0.0
 71
     1
 72
     1
  1
THIS DRAWING IS THE PROPERTY OF BEA AND MAY NOT BE REPRODUCED WITHOUT WRITTEN AGREEMENT
  7
SLDTEXTSTYLE0
 73
     1
 44
1.0
  0
MTEXT
  5
150
330
1F
100
AcDbEntity
  8
PV
100
AcDbMText
 10
300.1644316903
 20
65.2792821153
 30
0.0
 40
2.2
 41
0.0
 71
     1
 72
     1
  1
MODIFICATIONS LIST
  7
SLDTEXTSTYLE0
 73
     1
 44
1.0
  0
MTEXT
  5
151
330
1F
100
AcDbEntity
  8
PV
100
AcDbMText
 10
399.9469401892
 20
61.3972340847
 30
0.0
 40
2.0
 41
0.0
 71
     1
 72
     1
  1
\LRev :
  7
SLDTEXTSTYLE0
 73
     1
 44
1.0
  0
MTEXT
  5
152
330
1F
100
AcDbEntity
  8
PV
100
AcDbMText
 10
388.7527077653
 20
61.3972340847
 30
0.0
 40
2.0
 41
0.0
 71
     1
 72
     1
  1
\LVer :
  7
SLDTEXTSTYLE0
 73
     1
 44
1.0
  0
MTEXT
  5
153
330
1F
100
AcDbEntity
  8
PV
100
AcDbMText
 10
250.1638407708
 20
61.5514261008
 30
0.0
 40
2.0
 41
0.0
 71
     1
 72
     1
  1
\LDescription :
  7
SLDTEXTSTYLE0
 73
     1
 44
1.0
  0
MTEXT
  5
154
330
1F
100
AcDbEntity
  8
PV
100
AcDbMText
 10
239.9207006797
 20
61.5822102213
 30
0.0
 40
2.0
 41
0.0
 71
     1
 72
     1
  1
\LBy :
  7
SLDTEXTSTYLE0
 73
     1
 44
1.0
  0
MTEXT
  5
155
330
1F
100
AcDbEntity
  8
PV
100
AcDbMText
 10
223.4687214288
 20
57.3037489147
 30
0.0
 40
2.0
 41
0.0
 71
     1
 72
     1
  1
-
  7
SLDTEXTSTYLE0
 73
     1
 44
1.0
  0
MTEXT
  5
156
330
1F
100
AcDbEntity
  8
PV
100
AcDbMText
 10
223.7054739288
 20
61.5280709304
 30
0.0
 40
2.0
 41
0.0
 71
     1
 72
     1
  1
\LDate : 
  7
SLDTEXTSTYLE0
 73
     1
 44
1.0
  0
MTEXT
  5
157
330
1F
100
AcDbEntity
  8
PV
100
AcDbMText
 10
263.3474399787
 20
33.2603144149
 30
0.0
 40
2.2
 41
0.0
 71
     1
 72
     1
  1
TITLE : One Dim 
  7
SLDTEXTSTYLE0
 73
     1
 44
1.0
  0
MTEXT
  5
158
330
1F
100
AcDbEntity
  8
PV
100
AcDbMText
 10
327.9989409856
 20
17.9841358327
 30
0.0
 40
4.4
 41
0.0
 71
     1
 72
     1
  1
1:1
  7
SLDTEXTSTYLE0
 73
     1
 44
1.0
  0
MTEXT
  5
159
330
1F
100
AcDbEntity
  8
PV
100
AcDbMText
 10
343.6878606228
 20
21.8200009258
 30
0.0
 40
2.0
 41
0.0
 71
     1
 72
     1
  1
Size
  7
SLDTEXTSTYLE0
 73
     1
 44
1.0
  0
MTEXT
  5
15A
330
1F
100
AcDbEntity
  8
PV
100
AcDbMText
 10
375.8313957379
 20
37.2993464763
 30
0.0
 40
2.0
 41
0.0
 71
     1
 72
     1
  1
DRAWER : nbe
  7
SLDTEXTSTYLE0
 73
     1
 44
1.0
  0
MTEXT
  5
15B
330
1F
100
AcDbEntity
  8
PV
100
AcDbMText
 10
375.6775400219
 20
33.2896912318
 30
0.0
 40
2.0
 41
0.0
 71
     1
 72
     1
  1
DATE : 08/11/2006
  7
SLDTEXTSTYLE0
 73
     1
 44
1.0
  0
MTEXT
  5
15C
330
1F
100
AcDbEntity
  8
PV
100
AcDbMText
 10
263.2975362943
 20
29.2065828456
 30
0.0
 40
2.0
 41
0.0
 71
     1
 72
     1
  1
GENERAL TOLERANCE : -
  7
SLDTEXTSTYLE0
 73
     1
 44
1.0
  0
MTEXT
  5
15D
330
1F
100
AcDbEntity
  8
PV
100
AcDbMText
 10
318.5208899755
 20
25.2141587627
 30
0.0
 40
2.0
 41
0.0
 71
     1
 72
     1
  1
TREATEMENT: -
  7
SLDTEXTSTYLE0
 73
     1
 44
1.0
  0
MTEXT
  5
15E
330
1F
100
AcDbEntity
  8
PV
100
AcDbMText
 10
392.0458349658
 20
29.2496014774
 30
0.0
 40
2.0
 41
0.0
 71
     1
 72
     1
  1
APPROVED
  7
SLDTEXTSTYLE0
 73
     1
 44
1.0
  0
MTEXT
  5
15F
330
1F
100
AcDbEntity
  8
PV
100
AcDbMText
 10
375.7588660845
 20
29.2541885189
 30
0.0
 40
2.0
 41
0.0
 71
     1
 72
     1
  1
VERIFIED
  7
SLDTEXTSTYLE0
 73
     1
 44
1.0
  0
MTEXT
  5
161
330
1F
100
AcDbEntity
  8
PV
100
AcDbMText
 10
378.5846253155
 20
17.175850702
 30
0.0
 40
3.5
 41
0.0
 71
     1
 72
     1
  1
PAGE: 1 / 1
  7
SLDTEXTSTYLE3
 73
     1
 44
1.0
  0
MTEXT
  5
162
330
1F
100
AcDbEntity
  8
PV
100
AcDbMText
 10
287.9527898279
 20
21.8061121123
 30
0.0
 40
2.0
 41
0.0
 71
     1
 72
     1
  1
Ver.Obj
  7
SLDTEXTSTYLE0
 73
     1
 44
1.0
  0
MTEXT
  5
163
330
1F
100
AcDbEntity
  8
PV
100
AcDbMText
 10
271.2559181763
 20
21.8061121123
 30
0.0
 40
2.0
 41
0.0
 71
     1
 72
     1
  1
Objet 
  7
SLDTEXTSTYLE0
 73
     1
 44
1.0
  0
MTEXT
  5
164
330
1F
100
AcDbEntity
  8
PV
100
AcDbMText
 10
301.9853812714
 20
21.8061121123
 30
0.0
 40
2.0
 41
0.0
 71
     1
 72
     1
  1
Doc. 
  7
SLDTEXTSTYLE0
 73
     1
 44
1.0
  0
MTEXT
  5
166
330
1F
100
AcDbEntity
  8
LOGO1
100
AcDbMText
 10
233.253130815
 20
15.6674262338
 30
0.0
 40
1.3229166667
 41
0.0
 71
     1
 72
     1
  1
WWW.BEA.BE
  7
SLDTEXTSTYLE4
 73
     1
 44
1.0
  0
INSERT
  5
16F
330
1F
100
AcDbEntity
  8
PV
100
AcDbBlockReference
  2
SW_NOTE_0
 10
412.7964325882
 20
12.4443945837
 30
0.0
  0
MTEXT
  5
170
330
1F
100
AcDbEntity
  8
PV
100
AcDbMText
 10
311.9865610784
 20
21.8061121123
 30
0.0
 40
2.0
 41
0.0
 71
     1
 72
     1
  1
Rev.Doc. 
  7
SLDTEXTSTYLE0
 73
     1
 44
1.0
  0
MTEXT
  5
172
330
1F
100
AcDbEntity
  8
PV
100
AcDbMText
 10
222.0842444312
 20
74.6806382172
 30
0.0
 40
2.0
 41
0.0
 71
     1
 72
     1
  1
Part Volume :   mm³  - Part Weight :  gr
  7
SLDTEXTSTYLE6
 73
     1
 44
1.0
  0
MTEXT
  5
173
330
1F
100
AcDbEntity
  8
PV
100
AcDbMText
 10
328.5937690112
 20
21.8200009258
 30
0.0
 40
2.0
 41
0.0
 71
     1
 72
     1
  1
Scale
  7
SLDTEXTSTYLE0
 73
     1
 44
1.0
  0
MTEXT
  5
174
330
1F
100
AcDbEntity
  8
PV
100
AcDbMText
 10
342.4073314311
 20
18.0448146417
 30
0.0
 40
4.4
 41
0.0
 71
     1
 72
     1
  1
A3
  7
SLDTEXTSTYLE0
 73
     1
 44
1.0
  0
INSERT
  5
17B
330
1F
100
AcDbEntity
  8
SLD-0
100
AcDbBlockReference
  2
SW_NOTE_1
 10
225.7313550468
 20
16.376149639
 30
0.0
  0
ARC
  5
17C
330
1F
100
AcDbEntity
  8
0
  6
Continuous
 62
     7
370
    15
100
AcDbCircle
 10
257.3558930412
 20
225.698676704
 30
0.0
 40
28.10391520161158
100
AcDbArc
 50
296.0585809107
 51
63.9414190893
  0
ARC
  5
17D
330
1F
100
AcDbEntity
  8
0
  6
Continuous
 62
     7
370
    15
100
AcDbCircle
 10
257.3558930412
 20
225.698676704
 30
0.0
 40
29.5729170195847
100
AcDbArc
 50
61.7405814196
 51
298.2594185804
  0
LINE
  5
17E
330
1F
100
AcDbEntity
  8
0
  6
Continuous
 62
     7
370
    15
100
AcDbLine
 10
369.0713819104
 20
210.0267739757
 30
0.0
 11
369.8047180697
 21
209.2934378163
 31
0.0
  0
ELLIPSE
  5
17F
330
1F
100
AcDbEntity
  8
0
  6
Continuous
 62
     7
370
    15
100
AcDbEllipse
 10
361.1994759887
 20
209.3039187849
 30
0.0
 11
6.088529483552974
 21
-6.088529483553088
 31
1.065814103640150E-13
210
-8.752639750856329E-15
220
8.752639750856492E-15
230
1.0
 40
0.998782766
 41
5.498396131367767
 42
7.067974482991435
  0
LINE
  5
180
330
1F
100
AcDbEntity
  8
0
  6
Continuous
 62
     7
370
    15
100
AcDbLine
 10
361.2099569573
 20
200.698676704
 30
0.0
 11
360.476620798
 21
201.4320128633
 31
0.0
  0
ELLIPSE
  5
181
330
1F
100
AcDbEntity
  8
0
  6
Continuous
 62
     7
370
    15
100
AcDbEllipse
 10
360.4661398294
 20
210.0372549443
 30
0.0
 11
6.088529483553033
 21
-6.08852948355306
 31
1.065814103640150E-13
210
-1.401062379854154E-14
220
3.494655703171260E-15
230
1.0
 40
0.998782766
 41
5.498396131367764
 42
7.06797448299143
  0
LINE
  5
182
330
1F
100
AcDbEntity
  8
0
  6
Continuous
 62
     7
370
    15
100
AcDbLine
 10
360.476620798
 20
249.9653405446
 30
0.0
 11
273.9356633391
 21
249.9653405446
 31
0.0
  0
ELLIPSE
  5
183
330
1F
100
AcDbEntity
  8
0
  6
Continuous
 62
     7
370
    15
100
AcDbEllipse
 10
360.4661398294
 20
241.3600984637
 30
0.0
 11
6.088529483553088
 21
6.088529483553004
 31
6.039613253960852E-14
210
-1.401524616316537E-14
220
4.095587778861583E-15
230
1.0
 40
0.998782766
 41
5.498396131367764
 42
7.067974482991434
  0
LINE
  5
184
330
1F
100
AcDbEntity
  8
0
  6
Continuous
 62
     7
370
    15
100
AcDbLine
 10
369.0713819104
 20
210.0267739757
 30
0.0
 11
369.0713819104
 21
241.3705794323
 31
0.0
  0
LINE
  5
185
330
1F
100
AcDbEntity
  8
0
  6
Continuous
 62
     7
370
    15
100
AcDbLine
 10
273.9356633391
 20
201.4320128633
 30
0.0
 11
360.476620798
 21
201.4320128633
 31
0.0
  0
ELLIPSE
  5
186
330
1F
100
AcDbEntity
  8
0
  6
Continuous
 62
     7
370
    15
100
AcDbEllipse
 10
366.979003287
 20
223.2394942591
 30
0.0
 11
-0.5384243474038044
 21
0.2688838801864222
 31
-7.105427357601002E-15
210
-1.320796534822253E-14
220
-2.254789518647150E-17
230
1.0
 40
0.9969593155
 41
2.035174380400706
 42
3.603536238965393
  0
LINE
  5
187
330
1F
100
AcDbEntity
  8
0
  6
Continuous
 62
     7
370
    15
100
AcDbLine
 10
367.5804684259
 20
228.1593207187
 30
0.0
 11
367.5804684259
 21
223.2380326893
 31
0.0
  0
ELLIPSE
  5
188
330
1F
100
AcDbEntity
  8
0
  6
Continuous
 62
     7
370
    15
100
AcDbEllipse
 10
366.979003287
 20
228.1578591488
 30
0.0
 11
-0.5384243474038612
 21
-0.2688838801863938
 31
-7.105427357601002E-15
210
-1.585341749336217E-14
220
5.319912109985492E-15
230
1.0
 40
0.9969593155
 41
2.6796490682143
 42
4.248010926779065
  0
LINE
  5
189
330
1F
100
AcDbEntity
  8
0
  6
Continuous
 62
     7
370
    15
100
AcDbLine
 10
345.7213819104
 20
228.7582248754
 30
0.0
 11
366.9804675333
 21
228.7582248754
 31
0.0
  0
ARC
  5
18A
330
1F
100
AcDbEntity
  8
0
  6
Continuous
 62
     7
370
    15
100
AcDbCircle
 10
345.7213819104
 20
225.698676704
 30
0.0
 40
3.059548171425632
100
AcDbArc
 50
90.0
 51
270.0
  0
LINE
  5
18B
330
1F
100
AcDbEntity
  8
0
  6
Continuous
 62
     7
370
    15
100
AcDbLine
 10
366.9804675333
 20
222.6391285325
 30
0.0
 11
345.7213819104
 21
222.6391285325
 31
0.0
  0
LINE
  5
18C
330
1F
100
AcDbEntity
  8
0
  6
Continuous
 62
     7
370
    15
100
AcDbLine
 10
369.8047180697
 20
242.1039155916
 30
0.0
 11
369.0713819104
 21
241.3705794323
 31
0.0
  0
LINE
  5
18D
330
1F
100
AcDbEntity
  8
0
  6
Continuous
 62
     7
370
    15
100
AcDbLine
 10
369.8047180697
 20
209.2934378163
 30
0.0
 11
369.8047180697
 21
242.1039155916
 31
0.0
  0
LINE
  5
18E
330
1F
100
AcDbEntity
  8
0
  6
Continuous
 62
     7
370
    15
100
AcDbLine
 10
366.9804675333
 20
222.6391285325
 30
0.0
 11
366.9804675333
 21
222.9389457806
 31
0.0
  0
ELLIPSE
  5
18F
330
1F
100
AcDbEntity
  8
0
  6
Continuous
 62
     7
370
    15
100
AcDbEllipse
 10
366.979003287
 20
223.2394942591
 30
0.0
 11
0.2708468631980736
 21
-0.1352582881219178
 31
0.0
210
0.0
220
0.0
230
0.9999999999999998
 40
0.9909421924
 41
5.176767033990413
 42
6.745128892555236
  0
LINE
  5
190
330
1F
100
AcDbEntity
  8
0
  6
Continuous
 62
     7
370
    15
100
AcDbLine
 10
367.5804684259
 20
223.2380326893
 30
0.0
 11
367.2811992108
 21
223.2380326893
 31
0.0
  0
LINE
  5
191
330
1F
100
AcDbEntity
  8
0
  6
Continuous
 62
     7
370
    15
100
AcDbLine
 10
367.2811992108
 20
223.2380326893
 30
0.0
 11
367.2811992108
 21
228.1593207187
 31
0.0
  0
LINE
  5
192
330
1F
100
AcDbEntity
  8
0
  6
Continuous
 62
     7
370
    15
100
AcDbLine
 10
367.2811992108
 20
228.1593207187
 30
0.0
 11
367.5804684259
 21
228.1593207187
 31
0.0
  0
LINE
  5
193
330
1F
100
AcDbEntity
  8
0
  6
Continuous
 62
     7
370
    15
100
AcDbLine
 10
345.7213819104
 20
222.6391285325
 30
0.0
 11
345.7213819104
 21
222.9389457806
 31
0.0
  0
LINE
  5
194
330
1F
100
AcDbEntity
  8
0
  6
Continuous
 62
     7
370
    15
100
AcDbLine
 10
345.7213819104
 20
222.9389457806
 30
0.0
 11
366.9804675333
 21
222.9389457806
 31
0.0
  0
LINE
  5
195
330
1F
100
AcDbEntity
  8
0
  6
Continuous
 62
     7
370
    15
100
AcDbLine
 10
275.5215676039
 20
200.698676704
 30
0.0
 11
361.2099569573
 21
200.698676704
 31
0.0
  0
ELLIPSE
  5
196
330
1F
100
AcDbEntity
  8
0
  6
Continuous
 62
     7
370
    15
100
AcDbEllipse
 10
366.979003287
 20
228.1578591488
 30
0.0
 11
0.2708468631980736
 21
0.1352582881219178
 31
0.0
210
0.0
220
0.0
230
0.9999999999999998
 40
0.9909421924
 41
5.821241721804065
 42
7.389603580368874
  0
LINE
  5
197
330
1F
100
AcDbEntity
  8
0
  6
Continuous
 62
     7
370
    15
100
AcDbLine
 10
366.9804675333
 20
228.4584076273
 30
0.0
 11
366.9804675333
 21
228.7582248754
 31
0.0
  0
LINE
  5
198
330
1F
100
AcDbEntity
  8
0
  6
Continuous
 62
     7
370
    15
100
AcDbLine
 10
366.9804675333
 20
228.4584076273
 30
0.0
 11
345.7213819104
 21
228.4584076273
 31
0.0
  0
LINE
  5
199
330
1F
100
AcDbEntity
  8
0
  6
Continuous
 62
     7
370
    15
100
AcDbLine
 10
345.7213819104
 20
228.4584076273
 30
0.0
 11
345.7213819104
 21
228.7582248754
 31
0.0
  0
LINE
  5
19A
330
1F
100
AcDbEntity
  8
0
  6
Continuous
 62
     7
370
    15
100
AcDbLine
 10
360.476620798
 20
249.9653405446
 30
0.0
 11
361.2099569573
 21
250.698676704
 31
0.0
  0
ELLIPSE
  5
19B
330
1F
100
AcDbEntity
  8
0
  6
Continuous
 62
     7
370
    15
100
AcDbEllipse
 10
361.1994759887
 20
242.093434623
 30
0.0
 11
6.088529483553089
 21
6.088529483553032
 31
5.684341886080801E-14
210
-4.668074533790085E-15
220
-4.668074533790043E-15
230
1.0
 40
0.998782766
 41
5.498396131367763
 42
7.067974482991437
  0
LINE
  5
19C
330
1F
100
AcDbEntity
  8
0
  6
Continuous
 62
     7
370
    15
100
AcDbLine
 10
361.2099569573
 20
250.698676704
 30
0.0
 11
275.5215676039
 21
250.698676704
 31
0.0
  0
ARC
  5
19D
330
1F
100
AcDbEntity
  8
0
  6
Continuous
 62
     7
370
    15
100
AcDbCircle
 10
345.7213819104
 20
225.698676704
 30
0.0
 40
2.759730923319893
100
AcDbArc
 50
90.0
 51
270.0
  0
LINE
  5
19E
330
1F
100
AcDbEntity
  8
0
  6
Continuous
 62
     7
370
    15
100
AcDbLine
 10
366.4713819104
 20
223.6424475695
 30
0.0
 11
367.2811992108
 21
223.2380326893
 31
0.0
  0
LINE
  5
19F
330
1F
100
AcDbEntity
  8
0
  6
Continuous
 62
     7
370
    15
100
AcDbLine
 10
366.9804675333
 20
222.9389457806
 30
0.0
 11
366.1713814641
 21
223.3429954912
 31
0.0
  0
ELLIPSE
  5
1A0
330
1F
100
AcDbEntity
  8
0
  6
Continuous
 62
     7
370
    15
100
AcDbEllipse
 10
366.1706493409
 20
223.6431783544
 30
0.0
 11
-0.2692121737018738
 21
0.1344419400932111
 31
-7.105427357601002E-15
210
-2.112502640616062E-14
220
1.054963263923203E-14
230
0.9999999999999999
 40
0.9969593155
 41
2.035174380400782
 42
3.603536238965401
  0
LINE
  5
1A1
330
1F
100
AcDbEntity
  8
0
  6
Continuous
 62
     7
370
    15
100
AcDbLine
 10
366.1713814641
 20
228.0543579168
 30
0.0
 11
366.9804675333
 21
228.4584076273
 31
0.0
  0
LINE
  5
1A2
330
1F
100
AcDbEntity
  8
0
  6
Continuous
 62
     7
370
    15
100
AcDbLine
 10
367.2811992108
 20
228.1593207187
 30
0.0
 11
366.4713819104
 21
227.7549058384
 31
0.0
  0
ELLIPSE
  5
1A3
330
1F
100
AcDbEntity
  8
0
  6
Continuous
 62
     7
370
    15
100
AcDbEllipse
 10
366.1706493409
 20
227.7541750535
 30
0.0
 11
-0.2692121737019306
 21
-0.1344419400931827
 31
0.0
210
0.0
220
0.0
230
1.0
 40
0.9969593155
 41
2.679649068214351
 42
4.248010926779004
  0
LINE
  5
1A4
330
1F
100
AcDbEntity
  8
0
  6
Continuous
 62
     7
370
    15
100
AcDbLine
 10
366.4713819104
 20
223.6424475695
 30
0.0
 11
366.4713819104
 21
227.7549058384
 31
0.0
  0
LINE
  5
1A5
330
1F
100
AcDbEntity
  8
0
  6
Continuous
 62
     7
370
    15
100
AcDbLine
 10
345.7213819104
 20
222.9389457806
 30
0.0
 11
345.7213819104
 21
222.998676704
 31
0.0
  0
LINE
  5
1A6
330
1F
100
AcDbEntity
  8
0
  6
Continuous
 62
     7
370
    15
100
AcDbLine
 10
357.9213819104
 20
222.998676704
 30
0.0
 11
345.7213819104
 21
222.998676704
 31
0.0
  0
LINE
  5
1A7
330
1F
100
AcDbEntity
  8
0
  6
Continuous
 62
     7
370
    15
100
AcDbLine
 10
357.9213819104
 20
222.9550257421
 30
0.0
 11
357.9213819104
 21
222.998676704
 31
0.0
  0
LINE
  5
1A8
330
1F
100
AcDbEntity
  8
0
  6
Continuous
 62
     7
370
    15
100
AcDbLine
 10
357.9213819104
 20
222.9550257421
 30
0.0
 11
364.3944950297
 21
222.9550257421
 31
0.0
  0
LINE
  5
1A9
330
1F
100
AcDbEntity
  8
0
  6
Continuous
 62
     7
370
    15
100
AcDbLine
 10
364.4469401386
 20
222.9812163192
 30
0.0
 11
364.3944950297
 21
222.9550257421
 31
0.0
  0
LINE
  5
1AA
330
1F
100
AcDbEntity
  8
0
  6
Continuous
 62
     7
370
    15
100
AcDbLine
 10
364.7532127062
 20
222.9812163192
 30
0.0
 11
364.4469401386
 21
222.9812163192
 31
0.0
  0
LINE
  5
1AB
330
1F
100
AcDbEntity
  8
0
  6
Continuous
 62
     7
370
    15
100
AcDbLine
 10
365.9713823566
 20
223.3429954912
 30
0.0
 11
365.2671865053
 21
222.9913269349
 31
0.0
  0
LINE
  5
1AC
330
1F
100
AcDbEntity
  8
0
  6
Continuous
 62
     7
370
    15
100
AcDbLine
 10
366.1713814641
 20
223.3429954912
 30
0.0
 11
365.9713823566
 21
223.3429954912
 31
0.0
  0
LINE
  5
1AD
330
1F
100
AcDbEntity
  8
0
  6
Continuous
 62
     7
370
    15
100
AcDbLine
 10
364.4469401386
 20
228.4161370887
 30
0.0
 11
364.3944950297
 21
228.4423276658
 31
0.0
  0
LINE
  5
1AE
330
1F
100
AcDbEntity
  8
0
  6
Continuous
 62
     7
370
    15
100
AcDbLine
 10
364.3944950297
 20
228.4423276658
 30
0.0
 11
357.9213819104
 21
228.4423276658
 31
0.0
  0
LINE
  5
1AF
330
1F
100
AcDbEntity
  8
0
  6
Continuous
 62
     7
370
    15
100
AcDbLine
 10
357.9213819104
 20
228.4423276658
 30
0.0
 11
357.9213819104
 21
228.398676704
 31
0.0
  0
LINE
  5
1B0
330
1F
100
AcDbEntity
  8
0
  6
Continuous
 62
     7
370
    15
100
AcDbLine
 10
345.7213819104
 20
228.398676704
 30
0.0
 11
357.9213819104
 21
228.398676704
 31
0.0
  0
LINE
  5
1B1
330
1F
100
AcDbEntity
  8
0
  6
Continuous
 62
     7
370
    15
100
AcDbLine
 10
345.7213819104
 20
228.4584076273
 30
0.0
 11
345.7213819104
 21
228.398676704
 31
0.0
  0
LINE
  5
1B2
330
1F
100
AcDbEntity
  8
0
  6
Continuous
 62
     7
370
    15
100
AcDbLine
 10
366.1713814641
 20
228.0543579168
 30
0.0
 11
365.9713823566
 21
228.0543579168
 31
0.0
  0
LINE
  5
1B3
330
1F
100
AcDbEntity
  8
0
  6
Continuous
 62
     7
370
    15
100
AcDbLine
 10
365.2671865053
 20
228.406026473
 30
0.0
 11
365.9713823566
 21
228.0543579168
 31
0.0
  0
LINE
  5
1B4
330
1F
100
AcDbEntity
  8
0
  6
Continuous
 62
     7
370
    15
100
AcDbLine
 10
364.7532127062
 20
228.4161370887
 30
0.0
 11
364.4469401386
 21
228.4161370887
 31
0.0
  0
ARC
  5
1B5
330
1F
100
AcDbEntity
  8
0
  6
Continuous
 62
     7
370
    15
100
AcDbCircle
 10
345.7213819104
 20
225.698676704
 30
0.0
 40
2.700000000000017
100
AcDbArc
 50
90.0
 51
270.0
  0
LINE
  5
1B6
330
1F
100
AcDbEntity
  8
0
  6
Continuous
 62
     7
370
    15
100
AcDbLine
 10
364.3944950297
 20
222.9550257421
 30
0.0
 11
364.3944950297
 21
228.4423276658
 31
0.0
  0
ARC
  5
1B7
330
1F
100
AcDbEntity
  8
0
  6
Continuous
 62
     7
370
    15
100
AcDbCircle
 10
357.9213819104
 20
225.698676704
 30
0.0
 40
2.743650961864688
100
AcDbArc
 50
270.0
 51
90.0
  0
LINE
  5
1B8
330
1F
100
AcDbEntity
  8
0
  6
Continuous
 62
     7
370
    15
100
AcDbLine
 10
364.4469401386
 20
222.9812163192
 30
0.0
 11
364.4469401386
 21
228.4161370887
 31
0.0
  0
ARC
  5
1B9
330
1F
100
AcDbEntity
  8
0
  6
Continuous
 62
     7
370
    15
100
AcDbCircle
 10
357.9213819104
 20
225.698676704
 30
0.0
 40
2.700000000000017
100
AcDbArc
 50
270.0
 51
90.0
  0
ELLIPSE
  5
1BA
330
1F
100
AcDbEntity
  8
0
  6
Continuous
 62
     7
370
    15
100
AcDbEllipse
 10
365.2686507516
 20
223.2918754134
 30
0.0
 11
-0.5384243474038045
 21
-0.2688838801863938
 31
-7.105427357601002E-15
210
-1.056251320307960E-14
220
-5.274816319615768E-15
230
1.0
 40
0.9969593155
 41
5.821241721804112
 42
6.362675246433628
  0
LINE
  5
1BB
330
1F
100
AcDbEntity
  8
0
  6
Continuous
 62
     7
370
    15
100
AcDbLine
 10
364.9664548279
 20
223.2904138435
 30
0.0
 11
364.6671856128
 21
223.2904138435
 31
0.0
  0
ELLIPSE
  5
1BC
330
1F
100
AcDbEntity
  8
0
  6
Continuous
 62
     7
370
    15
100
AcDbEllipse
 10
365.2686507516
 20
223.2918754134
 30
0.0
 11
0.2708468631980736
 21
0.1352582881218893
 31
0.0
210
0.0
220
0.0
230
1.0
 40
0.9909421924
 41
2.679649068214388
 42
4.248010926779216
  0
ELLIPSE
  5
1BD
330
1F
100
AcDbEntity
  8
0
  6
Continuous
 62
     7
370
    15
100
AcDbEllipse
 10
365.2686507516
 20
228.1054779946
 30
0.0
 11
0.2708468631980736
 21
-0.1352582881219178
 31
0.0
210
0.0
220
0.0
230
0.9999999999999998
 40
0.9909421924
 41
2.035174380400486
 42
3.60353623896528
  0
LINE
  5
1BE
330
1F
100
AcDbEntity
  8
0
  6
Continuous
 62
     7
370
    15
100
AcDbLine
 10
364.9664548279
 20
228.1069395644
 30
0.0
 11
364.6671856128
 21
228.1069395644
 31
0.0
  0
ELLIPSE
  5
1BF
330
1F
100
AcDbEntity
  8
0
  6
Continuous
 62
     7
370
    15
100
AcDbEllipse
 10
365.2686507516
 20
228.1054779946
 30
0.0
 11
-0.5384243474038612
 21
0.2688838801863938
 31
-7.105427357601002E-15
210
-1.056251320307893E-14
220
5.274816319614877E-15
230
1.0
 40
0.9969593155
 41
6.203695367925674
 42
6.745128892555062
  0
LINE
  5
1C0
330
1F
100
AcDbEntity
  8
0
  6
Continuous
 62
     7
370
    15
100
AcDbLine
 10
364.9664548279
 20
228.1069395644
 30
0.0
 11
364.9664548279
 21
223.2904138435
 31
0.0
  0
LINE
  5
1C1
330
1F
100
AcDbEntity
  8
0
  6
Continuous
 62
     7
370
    15
100
AcDbLine
 10
364.6671856128
 20
223.2904138435
 30
0.0
 11
364.6671856128
 21
228.1069395644
 31
0.0
  0
ELLIPSE
  5
1C2
330
1F
100
AcDbEntity
  8
0
  6
Continuous
 62
     7
370
    15
100
AcDbEllipse
 10
365.9721144798
 20
223.6431783544
 30
0.0
 11
-0.2692121737018737
 21
-0.1344419400931826
 31
0.0
210
0.0
220
0.0
230
1.0
 40
0.9969593155
 41
5.821241721804141
 42
7.389603580369023
  0
LINE
  5
1C3
330
1F
100
AcDbEntity
  8
0
  6
Continuous
 62
     7
370
    15
100
AcDbLine
 10
364.9664548279
 20
223.2904138435
 30
0.0
 11
365.6713819104
 21
223.6424475695
 31
0.0
  0
ELLIPSE
  5
1C4
330
1F
100
AcDbEntity
  8
0
  6
Continuous
 62
     7
370
    15
100
AcDbEllipse
 10
365.9721144798
 20
227.7541750535
 30
0.0
 11
-0.2692121737019306
 21
0.1344419400931827
 31
-7.105427357601003E-15
210
-2.112502640616018E-14
220
1.054963263922622E-14
230
1.0
 40
0.9969593155
 41
5.17676703399018
 42
6.74512889255517
  0
LINE
  5
1C5
330
1F
100
AcDbEntity
  8
0
  6
Continuous
 62
     7
370
    15
100
AcDbLine
 10
365.6713819104
 20
227.7549058384
 30
0.0
 11
364.9664548279
 21
228.1069395644
 31
0.0
  0
LINE
  5
1C6
330
1F
100
AcDbEntity
  8
0
  6
Continuous
 62
     7
370
    15
100
AcDbLine
 10
365.6713819104
 20
223.6424475695
 30
0.0
 11
365.6713819104
 21
227.7549058384
 31
0.0
  0
ARC
  5
1C7
330
1F
100
AcDbEntity
  8
0
  6
Continuous
 62
     7
370
    15
100
AcDbCircle
 10
357.9213819104
 20
225.698676704
 30
0.0
 40
2.680729094941597
100
AcDbArc
 50
270.0
 51
90.0
  0
LINE
  5
1C8
330
1F
100
AcDbEntity
  8
0
  6
Continuous
 62
     7
370
    15
100
AcDbLine
 10
357.9213819104
 20
223.017947609
 30
0.0
 11
345.7213819104
 21
223.017947609
 31
0.0
  0
ARC
  5
1C9
330
1F
100
AcDbEntity
  8
0
  6
Continuous
 62
     7
370
    15
100
AcDbCircle
 10
345.7213819104
 20
225.698676704
 30
0.0
 40
2.680729094941597
100
AcDbArc
 50
90.0
 51
270.0
  0
LINE
  5
1CA
330
1F
100
AcDbEntity
  8
0
  6
Continuous
 62
     7
370
    15
100
AcDbLine
 10
345.7213819104
 20
228.3794057989
 30
0.0
 11
357.9213819104
 21
228.3794057989
 31
0.0
  0
LINE
  5
1CB
330
1F
100
AcDbEntity
  8
0
  6
Continuous
 62
     7
370
    15
100
AcDbLine
 10
357.9213819104
 20
223.017947609
 30
0.0
 11
357.9213819104
 21
223.0004938734
 31
0.0
  0
LINE
  5
1CC
330
1F
100
AcDbEntity
  8
0
  6
Continuous
 62
     7
370
    15
100
AcDbLine
 10
357.9213819104
 20
228.3794057989
 30
0.0
 11
357.9213819104
 21
228.3968595345
 31
0.0
  0
LINE
  5
1CD
330
1F
100
AcDbEntity
  8
0
  6
Continuous
 62
     7
370
    15
100
AcDbLine
 10
345.7213819104
 20
223.017947609
 30
0.0
 11
345.7213819104
 21
223.0004938734
 31
0.0
  0
LINE
  5
1CE
330
1F
100
AcDbEntity
  8
0
  6
Continuous
 62
     7
370
    15
100
AcDbLine
 10
345.7213819104
 20
228.3794057989
 30
0.0
 11
345.7213819104
 21
228.3968595345
 31
0.0
  0
DIMENSION
  5
1CF
330
1F
100
AcDbEntity
  8
COTATION
100
AcDbDimension
  2
*D4
 10
387.226369681
 20
200.698676704
 30
0.0
 11
387.226369681
 21
225.698676704
 31
0.0
 70
   160
 71
     2
 42
-1.0
  3
SLDDIMSTYLE0
100
AcDbAlignedDimension
 13
361.2099569573
 23
250.698676704
 33
0.0
 14
361.2099569573
 24
200.698676704
 34
0.0
 50
90.0
100
AcDbRotatedDimension
  0
SPLINE
  5
1DA
330
1F
100
AcDbEntity
  8
0
  6
Continuous
 62
     7
370
    15
100
AcDbSpline
210
0.0
220
0.0
230
1.0
 70
    24
 71
     3
 72
    17
 73
    13
 74
     0
 42
0.00000001
 43
0.00000001
 40
0.0
 40
0.0
 40
0.0
 40
0.0
 40
0.0894618750098858
 40
0.1852926941576204
 40
0.2835991324756106
 40
0.3813559610805071
 40
0.5091798158204882
 40
0.6327206875049087
 40
0.7511962002935382
 40
0.8684840806926436
 40
0.9885859648165432
 40
1.0
 40
1.0
 40
1.0
 40
1.0
 10
259.8668597465928
 20
331.4642940436621
 30
0.0
 10
259.8668597465928
 20
331.4204963801441
 30
0.0
 10
259.8668597465928
 20
331.3768920274579
 30
0.0
 10
259.8668597465928
 20
331.3335449810037
 30
0.0
 10
259.8668597465928
 20
331.2905188585501
 30
0.0
 10
259.8668597465928
 20
331.2478768068646
 30
0.0
 10
259.8668597465928
 20
331.2056814090386
 30
0.0
 10
259.8668597465928
 20
331.163994592637
 30
0.0
 10
259.8668597465928
 20
331.1228775388113
 30
0.0
 10
259.8668597465928
 20
331.0823905925081
 30
0.0
 10
259.8668597465928
 20
331.0425931739043
 30
0.0
 10
259.8668597465928
 20
331.0035436911995
 30
0.0
 10
259.8668597465928
 20
330.9652994548944
 30
0.0
  0
SPLINE
  5
1DB
330
1F
100
AcDbEntity
  8
0
  6
Continuous
 62
     7
370
    15
100
AcDbSpline
210
0.0
220
0.0
230
1.0
 70
     8
 71
     3
 72
    20
 73
    16
 74
     0
 42
0.00000001
 43
0.00000001
 40
0.0
 40
0.0
 40
0.0
 40
0.0
 40
0.0936234981332393
 40
0.1835818351972071
 40
0.2695981802211208
 40
0.3516909033356113
 40
0.4304530411518262
 40
0.5073697712060867
 40
0.5850653438790214
 40
0.6660827503295782
 40
0.7499089128970546
 40
0.8140172894077178
 40
0.8784860968665174
 40
0.9413314072445638
 40
1.0
 40
1.0
 40
1.0
 40
1.0
 10
497.56825033903
 20
118.6131204422266
 30
0.0
 10
497.5607021802323
 20
118.6564674886807
 30
0.0
 10
497.5548198707932
 20
118.700071841367
 30
0.0
 10
497.5506120438129
 20
118.743869504885
 30
0.0
 10
497.5480848748577
 20
118.7877962001237
 30
0.0
 10
497.5472420728966
 20
118.8317874586006
 30
0.0
 10
497.5472420728966
 20
118.8317874586006
 30
0.0
 10
497.5472420728966
 20
128.1842636749722
 30
0.0
 10
497.5472420728966
 20
128.1842636749722
 30
0.0
 10
497.5480851053916
 20
128.2282609473549
 30
0.0
 10
497.5506129652719
 20
128.2721936300106
 30
0.0
 10
497.5548219415398
 20
128.3159972280328
 30
0.0
 10
497.5607058552523
 20
128.3596074360159
 30
0.0
 10
497.5682560685927
 20
128.4029602324588
 30
0.0
 10
497.5774614975506
 20
128.4459919737506
 30
0.0
 10
497.5883086281945
 20
128.488639487602
 30
0.0
  0
SPLINE
  5
1DC
330
1F
100
AcDbEntity
  8
0
  6
Continuous
 62
     7
370
    15
100
AcDbSpline
210
0.0
220
0.0
230
1.0
 70
    24
 71
     1
 72
     4
 73
     2
 74
     0
 42
0.00000001
 43
0.00000001
 40
0.0
 40
0.0
 40
1.0
 40
1.0
 10
296.4228584233985
 20
92.72331482007401
 30
0.0
 10
296.4353222648738
 20
92.72331482007401
 30
0.0
  0
SPLINE
  5
1DD
330
1F
100
AcDbEntity
  8
0
  6
Continuous
 62
     7
370
    15
100
AcDbSpline
210
0.0
220
0.0
230
1.0
 70
    24
 71
     1
 72
     4
 73
     2
 74
     0
 42
0.00000001
 43
0.00000001
 40
0.0
 40
0.0
 40
1.0
 40
1.0
 10
296.3897257046419
 20
92.72331482007401
 30
0.0
 10
296.3700991596928
 20
92.72331482007401
 30
0.0
  0
SPLINE
  5
1DE
330
1F
100
AcDbEntity
  8
0
  6
Continuous
 62
     7
370
    15
100
AcDbSpline
210
0.0
220
0.0
230
1.0
 70
    24
 71
     1
 72
     4
 73
     2
 74
     0
 42
0.00000001
 43
0.00000001
 40
0.0
 40
0.0
 40
1.0
 40
1.0
 10
296.1146953672298
 20
92.72331482007401
 30
0.0
 10
296.0787464275307
 20
92.72331482007401
 30
0.0
  0
SPLINE
  5
1DF
330
1F
100
AcDbEntity
  8
0
  6
Continuous
 62
     7
370
    15
100
AcDbSpline
210
0.0
220
0.0
230
1.0
 70
    24
 71
     1
 72
     4
 73
     2
 74
     0
 42
0.00000001
 43
0.00000001
 40
0.0
 40
0.0
 40
1.0
 40
1.0
 10
295.7100451385767
 20
92.72331482007401
 30
0.0
 10
295.6657652272222
 20
92.72331482007401
 30
0.0
  0
ARC
  5
1E0
330
1F
100
AcDbEntity
  8
0
  6
Continuous
 62
     7
370
    15
100
AcDbCircle
 10
251.0752954046
 20
154.8630035884
 30
0.0
 40
4.390796943830973
100
AcDbArc
 50
120.3623487653
 51
169.6536108376
  0
ARC
  5
1E1
330
1F
100
AcDbEntity
  8
0
  6
Continuous
 62
     7
370
    15
100
AcDbCircle
 10
246.6364906779
 20
154.8630035884
 30
0.0
 40
4.390796943830972
100
AcDbArc
 50
10.3463891624
 51
59.6376512347
  0
SPLINE
  5
1E2
330
1F
100
AcDbEntity
  8
0
  6
Continuous
 62
     7
370
    15
100
AcDbSpline
210
0.0
220
0.0
230
1.0
 70
    24
 71
     1
 72
     4
 73
     2
 74
     0
 42
0.00000001
 43
0.00000001
 40
0.0
 40
0.0
 40
1.0
 40
1.0
 10
291.8217336741629
 20
92.72331482007401
 30
0.0
 10
291.8205881000112
 20
92.72331482007401
 30
0.0
  0
SPLINE
  5
1E3
330
1F
100
AcDbEntity
  8
0
  6
Continuous
 62
     7
370
    15
100
AcDbSpline
210
0.0
220
0.0
230
1.0
 70
    24
 71
     1
 72
     4
 73
     2
 74
     0
 42
0.00000001
 43
0.00000001
 40
0.0
 40
0.0
 40
1.0
 40
1.0
 10
291.7115473401531
 20
92.72331482007401
 30
0.0
 10
291.6889657031388
 20
92.72331482007401
 30
0.0
  0
ARC
  5
1E4
330
1F
100
AcDbEntity
  8
0
  6
Continuous
 62
     7
370
    15
100
AcDbCircle
 10
351.0752954046
 20
153.8630035884
 30
0.0
 40
4.390796943830973
100
AcDbArc
 50
120.3623487653
 51
169.6536108376
  0
ARC
  5
1E5
330
1F
100
AcDbEntity
  8
0
  6
Continuous
 62
     7
370
    15
100
AcDbCircle
 10
346.6364906779
 20
153.8630035884
 30
0.0
 40
4.390796943831024
100
AcDbArc
 50
10.3463891624
 51
59.6376512347
  0
SPLINE
  5
1E6
330
1F
100
AcDbEntity
  8
0
  6
Continuous
 62
     7
370
    15
100
AcDbSpline
210
0.0
220
0.0
230
1.0
 70
    24
 71
     3
 72
    12
 73
     8
 74
     0
 42
0.00000001
 43
0.00000001
 40
0.0
 40
0.0
 40
0.0
 40
0.0
 40
0.1016905538033437
 40
0.346472967127918
 40
0.5945978234092304
 40
0.9999971644349356
 40
1.0
 40
1.0
 40
1.0
 40
1.0
 10
290.0546589879398
 20
92.72331482007401
 30
0.0
 10
290.0264493252778
 20
92.72331482007401
 30
0.0
 10
290.0000647708443
 20
92.72331482007401
 30
0.0
 10
289.9755650736304
 20
92.72331482007401
 30
0.0
 10
289.9530057142845
 20
92.72331482007401
 30
0.0
 10
289.9324377794742
 20
92.72331482007401
 30
0.0
 10
289.9139078461981
 20
92.72331482007401
 30
0.0
 10
289.8974578763099
 20
92.72331482007401
 30
0.0
  0
LINE
  5
1E7
330
1F
100
AcDbEntity
  8
0
  6
Continuous
 62
     7
370
    15
100
AcDbLine
 10
271.3576184126
 20
140.4915852428
 30
0.0
 11
227.7829760216
 21
140.4915852428
 31
0.0
  0
SPLINE
  5
1E8
330
1F
100
AcDbEntity
  8
0
  6
Continuous
 62
     7
370
    15
100
AcDbSpline
210
0.0
220
0.0
230
1.0
 70
     8
 71
     3
 72
    12
 73
     8
 74
     0
 42
0.00000001
 43
0.00000001
 40
0.0
 40
0.0
 40
0.0
 40
0.0
 40
0.2038126653568043
 40
0.4076200810140115
 40
0.7015406990464709
 40
0.8508257844646466
 40
1.0
 40
1.0
 40
1.0
 40
1.0
 10
509.9748232779647
 20
129.3432683780619
 30
0.0
 10
510.0471902394866
 20
129.3537888476019
 30
0.0
 10
510.1216411545602
 20
129.3619745058955
 30
0.0
 10
510.1981809627179
 20
129.3678235888237
 30
0.0
 10
510.2768146034926
 20
129.3713343322678
 30
0.0
 10
510.357547016417
 20
129.3725049721089
 30
0.0
 10
510.357547016417
 20
129.3725049721089
 30
0.0
 10
510.4327367628929
 20
129.3715212888765
 30
0.0
  0
SPLINE
  5
1E9
330
1F
100
AcDbEntity
  8
0
  6
Continuous
 62
     7
370
    15
100
AcDbSpline
210
0.0
220
0.0
230
1.0
 70
    24
 71
     3
 72
    11
 73
     7
 74
     0
 42
0.00000001
 43
0.00000001
 40
0.0
 40
0.0
 40
0.0
 40
0.0
 40
0.3654951173879664
 40
0.7415954445088082
 40
0.870574885659048
 40
1.0
 40
1.0
 40
1.0
 40
1.0
 10
259.8668597465928
 20
344.25611304469
 30
0.0
 10
259.8668597465928
 20
344.3101514181506
 30
0.0
 10
259.8668597465928
 20
344.3620999914172
 30
0.0
 10
259.8668597465928
 20
344.4075208025504
 30
0.0
 10
259.8668597465928
 20
344.4512300656132
 30
0.0
 10
259.8668597465928
 20
344.4932351899043
 30
0.0
 10
259.8668597465928
 20
344.5335435847229
 30
0.0
  0
SPLINE
  5
1EA
330
1F
100
AcDbEntity
  8
0
  6
Continuous
 62
     7
370
    15
100
AcDbSpline
210
0.0
220
0.0
230
1.0
 70
     8
 71
     3
 72
    11
 73
     7
 74
     0
 42
0.00000001
 43
0.00000001
 40
0.0
 40
0.0
 40
0.0
 40
0.0
 40
0.3370190830487054
 40
0.6838118420539252
 40
0.8414254452989228
 40
1.0
 40
1.0
 40
1.0
 40
1.0
 10
516.0262537008016
 20
119.2936919894835
 30
0.0
 10
516.0262537008016
 20
119.2936919894835
 30
0.0
 10
516.0448687058013
 20
119.2488855988939
 30
0.0
 10
516.0615746615766
 20
119.203332968998
 30
0.0
 10
516.0763417535452
 20
119.1571153961108
 30
0.0
 10
516.0891436273525
 20
119.1103153632495
 30
0.0
 10
516.0999574359057
 20
119.063016392929
 30
0.0
  0
LINE
  5
1EB
330
1F
100
AcDbEntity
  8
0
  6
Continuous
 62
     7
370
    15
100
AcDbLine
 10
360.476620798
 20
119.4915852428
 30
0.0
 11
361.2099569573
 21
140.4915852428
 31
0.0
  0
LINE
  5
1EC
330
1F
100
AcDbEntity
  8
0
  6
Continuous
 62
     7
370
    15
100
AcDbLine
 10
360.476620798
 20
119.4915852428
 30
0.0
 11
273.9356633391
 21
119.4915852428
 31
0.0
  0
LINE
  5
1ED
330
1F
100
AcDbEntity
  8
0
  6
Continuous
 62
     7
370
    15
100
AcDbLine
 10
361.2099569573
 20
140.4915852428
 30
0.0
 11
275.5215676039
 21
140.4915852428
 31
0.0
  0
LINE
  5
1EE
330
1F
100
AcDbEntity
  8
0
  6
Continuous
 62
     7
370
    15
100
AcDbLine
 10
369.8047180697
 20
140.4915852428
 30
0.0
 11
369.0713819104
 21
119.4915852428
 31
0.0
  0
LINE
  5
1EF
330
1F
100
AcDbEntity
  8
0
  6
Continuous
 62
     7
370
    15
100
AcDbLine
 10
369.0713819104
 20
119.4915852428
 30
0.0
 11
360.476620798
 21
119.4915852428
 31
0.0
  0
LINE
  5
1F0
330
1F
100
AcDbEntity
  8
0
  6
Continuous
 62
     7
370
    15
100
AcDbLine
 10
361.2099569573
 20
140.4915852428
 30
0.0
 11
369.8047180697
 21
140.4915852428
 31
0.0
  0
LINE
  5
1F1
330
1F
100
AcDbEntity
  8
0
  6
Continuous
 62
     7
370
    15
100
AcDbLine
 10
242.9051743197
 20
149.0515852428
 30
0.0
 11
268.5993455092
 21
149.0515852428
 31
0.0
  0
LINE
  5
1F2
330
1F
100
AcDbEntity
  8
0
  6
Continuous
 62
     7
370
    15
100
AcDbLine
 10
233.6008930412
 20
149.0515852428
 30
0.0
 11
233.7895866162
 21
149.0515852428
 31
0.0
  0
SPLINE
  5
1F3
330
1F
100
AcDbEntity
  8
0
  6
Continuous
 62
     7
370
    15
100
AcDbSpline
210
0.0
220
0.0
230
1.0
 70
    24
 71
     3
 72
     8
 73
     4
 74
     0
 42
0.00000001
 43
0.00000001
 40
0.0
 40
0.0
 40
0.0
 40
0.0
 40
1.0
 40
1.0
 40
1.0
 40
1.0
 10
259.8668597465928
 20
345.7322082452669
 30
0.0
 10
259.8668597465928
 20
345.7284673819194
 30
0.0
 10
259.8668597465928
 20
345.7242444039625
 30
0.0
 10
259.8668597465928
 20
345.7195455091988
 30
0.0
  0
LINE
  5
1F4
330
1F
100
AcDbEntity
  8
0
  6
Continuous
 62
     7
370
    15
100
AcDbLine
 10
242.2889589628
 20
142.546958982
 30
0.0
 11
233.5836812139
 21
142.3950077937
 31
0.0
  0
SPLINE
  5
1F5
330
1F
100
AcDbEntity
  8
0
  6
Continuous
 62
     7
370
    15
100
AcDbSpline
210
0.0
220
0.0
230
1.0
 70
    24
 71
     3
 72
     8
 73
     4
 74
     0
 42
0.00000001
 43
0.00000001
 40
0.0
 40
0.0
 40
0.0
 40
0.0
 40
1.0
 40
1.0
 40
1.0
 40
1.0
 10
259.8668597465928
 20
345.4525663983459
 30
0.0
 10
259.8668597465928
 20
345.43948509254
 30
0.0
 10
259.8668597465928
 20
345.4263457934846
 30
0.0
 10
259.8668597465928
 20
345.413167784913
 30
0.0
  0
LINE
  5
1F6
330
1F
100
AcDbEntity
  8
0
  6
Continuous
 62
     7
370
    15
100
AcDbLine
 10
275.5167548049
 20
149.0515852428
 30
0.0
 11
268.5993455092
 21
149.0515852428
 31
0.0
  0
LINE
  5
1F7
330
1F
100
AcDbEntity
  8
0
  6
Continuous
 62
     7
370
    15
100
AcDbLine
 10
275.5167548049
 20
149.0515852428
 30
0.0
 11
361.0058930412
 21
149.0515852428
 31
0.0
  0
LINE
  5
1F8
330
1F
100
AcDbEntity
  8
0
  6
Continuous
 62
     7
370
    15
100
AcDbLine
 10
363.9908930412
 20
149.0515852428
 30
0.0
 11
364.2904930412
 21
140.4915852428
 31
0.0
  0
LINE
  5
1F9
330
1F
100
AcDbEntity
  8
0
  6
Continuous
 62
     7
370
    15
100
AcDbLine
 10
361.0058930412
 20
149.0515852428
 30
0.0
 11
363.9908930412
 21
149.0515852428
 31
0.0
  0
LINE
  5
1FA
330
1F
100
AcDbEntity
  8
0
  6
Continuous
 62
     7
370
    15
100
AcDbLine
 10
240.2558930412
 20
142.7814716844
 30
0.0
 11
240.2558930412
 21
142.5114716844
 31
0.0
  0
LINE
  5
1FB
330
1F
100
AcDbEntity
  8
0
  6
Continuous
 62
     7
370
    15
100
AcDbLine
 10
233.8097747934
 20
149.0515852428
 30
0.0
 11
233.7895866162
 21
149.0515852428
 31
0.0
  0
SPLINE
  5
1FC
330
1F
100
AcDbEntity
  8
0
  6
Continuous
 62
     7
370
    15
100
AcDbSpline
210
0.0
220
0.0
230
1.0
 70
    24
 71
     1
 72
     4
 73
     2
 74
     0
 42
0.00000001
 43
0.00000001
 40
0.0
 40
0.0
 40
1.0
 40
1.0
 10
510.8851053226864
 20
127.0898524054805
 30
0.0
 10
510.8699617015154
 20
127.1122270867508
 30
0.0
  0
LINE
  5
1FD
330
1F
100
AcDbEntity
  8
0
  6
Continuous
 62
     7
370
    15
100
AcDbLine
 10
233.6142472492
 20
142.6655413258
 30
0.0
 11
242.0866501858
 21
142.8134276692
 31
0.0
  0
SPLINE
  5
1FE
330
1F
100
AcDbEntity
  8
0
  6
Continuous
 62
     7
370
    15
100
AcDbSpline
210
0.0
220
0.0
230
1.0
 70
    24
 71
     1
 72
     4
 73
     2
 74
     0
 42
0.00000001
 43
0.00000001
 40
0.0
 40
0.0
 40
1.0
 40
1.0
 10
259.8668597465928
 20
343.1301905365509
 30
0.0
 10
259.8668597465928
 20
343.1040934510982
 30
0.0
  0
LINE
  5
1FF
330
1F
100
AcDbEntity
  8
0
  6
Continuous
 62
     7
370
    15
100
AcDbLine
 10
233.8097747934
 20
149.0515852428
 30
0.0
 11
242.6666850926
 21
149.0515852428
 31
0.0
  0
LINE
  5
200
330
1F
100
AcDbEntity
  8
0
  6
Continuous
 62
     7
370
    15
100
AcDbLine
 10
242.0866501858
 20
142.8134276692
 30
0.0
 11
242.3145797624
 21
142.8174061948
 31
0.0
  0
LINE
  5
201
330
1F
100
AcDbEntity
  8
0
  6
Continuous
 62
     7
370
    15
100
AcDbLine
 10
242.6666850926
 20
149.0515852428
 30
0.0
 11
242.9051743197
 21
149.0515852428
 31
0.0
  0
LINE
  5
202
330
1F
100
AcDbEntity
  8
0
  6
Continuous
 62
     7
370
    15
100
AcDbLine
 10
290.5346596628
 20
150.0515852428
 30
0.0
 11
290.5346596628
 21
149.0515852428
 31
0.0
  0
LINE
  5
203
330
1F
100
AcDbEntity
  8
0
  6
Continuous
 62
     7
370
    15
100
AcDbLine
 10
290.5346596628
 20
150.0515852428
 30
0.0
 11
303.4058930412
 21
150.0515852428
 31
0.0
  0
LINE
  5
204
330
1F
100
AcDbEntity
  8
0
  6
Continuous
 62
     7
370
    15
100
AcDbLine
 10
279.4358930412
 20
150.0515852428
 30
0.0
 11
279.4358930412
 21
149.0515852428
 31
0.0
  0
LINE
  5
205
330
1F
100
AcDbEntity
  8
0
  6
Continuous
 62
     7
370
    15
100
AcDbLine
 10
279.4358930412
 20
150.0515852428
 30
0.0
 11
283.6358930412
 21
150.0515852428
 31
0.0
  0
LINE
  5
206
330
1F
100
AcDbEntity
  8
0
  6
Continuous
 62
     7
370
    15
100
AcDbLine
 10
283.6358930412
 20
150.0515852428
 30
0.0
 11
290.5346596628
 21
150.0515852428
 31
0.0
  0
LINE
  5
207
330
1F
100
AcDbEntity
  8
0
  6
Continuous
 62
     7
370
    15
100
AcDbLine
 10
343.4758930412
 20
150.0515852428
 30
0.0
 11
343.4758930412
 21
149.0515852428
 31
0.0
  0
LINE
  5
208
330
1F
100
AcDbEntity
  8
0
  6
Continuous
 62
     7
370
    15
100
AcDbLine
 10
345.4936913816
 20
150.0515852428
 30
0.0
 11
345.4936913816
 21
149.0515852428
 31
0.0
  0
LINE
  5
209
330
1F
100
AcDbEntity
  8
0
  6
Continuous
 62
     7
370
    15
100
AcDbLine
 10
343.4758930412
 20
150.0515852428
 30
0.0
 11
345.4936913816
 21
150.0515852428
 31
0.0
  0
LINE
  5
20A
330
1F
100
AcDbEntity
  8
0
  6
Continuous
 62
     7
370
    15
100
AcDbLine
 10
352.2180947009
 20
150.0515852428
 30
0.0
 11
352.2180947009
 21
149.0515852428
 31
0.0
  0
LINE
  5
20B
330
1F
100
AcDbEntity
  8
0
  6
Continuous
 62
     7
370
    15
100
AcDbLine
 10
345.4936913816
 20
150.0515852428
 30
0.0
 11
352.2180947009
 21
150.0515852428
 31
0.0
  0
LINE
  5
20C
330
1F
100
AcDbEntity
  8
0
  6
Continuous
 62
     7
370
    15
100
AcDbLine
 10
354.2358930412
 20
150.0515852428
 30
0.0
 11
354.2358930412
 21
149.0515852428
 31
0.0
  0
LINE
  5
20D
330
1F
100
AcDbEntity
  8
0
  6
Continuous
 62
     7
370
    15
100
AcDbLine
 10
352.2180947009
 20
150.0515852428
 30
0.0
 11
354.2358930412
 21
150.0515852428
 31
0.0
  0
LINE
  5
20E
330
1F
100
AcDbEntity
  8
0
  6
Continuous
 62
     7
370
    15
100
AcDbLine
 10
354.2358930412
 20
150.0515852428
 30
0.0
 11
356.4158930412
 21
150.0515852428
 31
0.0
  0
LINE
  5
20F
330
1F
100
AcDbEntity
  8
0
  6
Continuous
 62
     7
370
    15
100
AcDbLine
 10
341.6558930412
 20
150.0515852428
 30
0.0
 11
341.6558930412
 21
149.0515852428
 31
0.0
  0
LINE
  5
210
330
1F
100
AcDbEntity
  8
0
  6
Continuous
 62
     7
370
    15
100
AcDbLine
 10
341.6558930412
 20
150.0515852428
 30
0.0
 11
343.4758930412
 21
150.0515852428
 31
0.0
  0
LINE
  5
211
330
1F
100
AcDbEntity
  8
0
  6
Continuous
 62
     7
370
    15
100
AcDbLine
 10
247.4436629594
 20
155.6515852428
 30
0.0
 11
246.7558930412
 21
155.6515852428
 31
0.0
  0
LINE
  5
212
330
1F
100
AcDbEntity
  8
0
  6
Continuous
 62
     7
370
    15
100
AcDbLine
 10
250.9558930412
 20
155.6515852428
 30
0.0
 11
247.4436629594
 21
155.6515852428
 31
0.0
  0
LINE
  5
213
330
1F
100
AcDbEntity
  8
0
  6
Continuous
 62
     7
370
    15
100
AcDbLine
 10
348.566898577
 20
154.6515852428
 30
0.0
 11
346.7558930412
 21
154.6515852428
 31
0.0
  0
LINE
  5
214
330
1F
100
AcDbEntity
  8
0
  6
Continuous
 62
     7
370
    15
100
AcDbLine
 10
350.9558930412
 20
154.6515852428
 30
0.0
 11
348.566898577
 21
154.6515852428
 31
0.0
  0
LINE
  5
215
330
1F
100
AcDbEntity
  8
0
  6
Continuous
 62
     7
370
    15
100
AcDbLine
 10
268.5993455092
 20
149.0515852428
 30
0.0
 11
268.74114885
 21
140.4915852428
 31
0.0
  0
LINE
  5
216
330
1F
100
AcDbEntity
  8
0
  6
Continuous
 62
     7
370
    15
100
AcDbLine
 10
275.5167548049
 20
149.0515852428
 30
0.0
 11
275.5167548049
 21
140.4915852428
 31
0.0
  0
LINE
  5
217
330
1F
100
AcDbEntity
  8
0
  6
Continuous
 62
     7
370
    15
100
AcDbLine
 10
361.0058930412
 20
149.0515852428
 30
0.0
 11
361.0058930412
 21
140.4915852428
 31
0.0
  0
LINE
  5
218
330
1F
100
AcDbEntity
  8
0
  6
Continuous
 62
     7
370
    15
100
AcDbLine
 10
283.6358930412
 20
150.0515852428
 30
0.0
 11
283.6358930412
 21
149.0515852428
 31
0.0
  0
DIMENSION
  5
219
330
1F
100
AcDbEntity
  8
COTATION
100
AcDbDimension
  2
*D5
 10
385.8047180697
 20
119.4915852428
 30
0.0
 11
385.8047180697
 21
134.2715852428
 31
0.0
 70
   160
 71
     2
 42
-1.0
  3
SLDDIMSTYLE0
100
AcDbAlignedDimension
 13
361.0058930412
 23
149.0515852428
 33
0.0
 14
360.476620798
 24
119.4915852428
 34
0.0
 50
90.0
100
AcDbRotatedDimension
  0
DIMENSION
  5
223
330
1F
100
AcDbEntity
  8
COTATION
100
AcDbDimension
  2
*D6
 10
213.321281074
 20
149.0515852428
 30
0.0
 11
213.321281074
 21
122.3215852428
 31
0.0
 70
   160
 71
     2
 42
-1.0
  3
SLDDIMSTYLE0
100
AcDbAlignedDimension
 13
257.3558930412
 23
95.5915852428
 33
0.0
 14
242.9051743197
 24
149.0515852428
 34
0.0
 50
90.0
100
AcDbRotatedDimension
  0
DIMENSION
  5
22D
330
1F
100
AcDbEntity
  8
COTATION
100
AcDbDimension
  2
*D7
 10
348.8558930412
 20
167.3652916628
 30
0.0
 11
298.8558930412
 21
167.3652916628
 31
0.0
 70
   160
 71
     2
 42
-1.0
  3
SLDDIMSTYLE0
100
AcDbAlignedDimension
 13
248.8558930412
 23
158.6515852428
 33
0.0
 14
348.8558930412
 24
157.6515852428
 34
0.0
100
AcDbRotatedDimension
  0
SPLINE
  5
237
330
1F
100
AcDbEntity
  8
0
  6
Continuous
 62
     7
370
    15
100
AcDbSpline
210
0.0
220
0.0
230
1.0
 70
    24
 71
     1
 72
     4
 73
     2
 74
     0
 42
0.00000001
 43
0.00000001
 40
0.0
 40
0.0
 40
1.0
 40
1.0
 10
70.05107116374677
 20
433.0676927212942
 30
0.0
 10
70.05107116374677
 20
433.0238950577762
 30
0.0
  0
SPLINE
  5
238
330
1F
100
AcDbEntity
  8
0
  6
Continuous
 62
     7
370
    15
100
AcDbSpline
210
0.0
220
0.0
230
1.0
 70
    24
 71
     1
 72
     4
 73
     2
 74
     0
 42
0.00000001
 43
0.00000001
 40
0.0
 40
0.0
 40
1.0
 40
1.0
 10
70.05107116374677
 20
432.6459918515363
 30
0.0
 10
70.05107116374677
 20
432.6069423688315
 30
0.0
  0
SPLINE
  5
239
330
1F
100
AcDbEntity
  8
0
  6
Continuous
 62
     7
370
    15
100
AcDbSpline
210
0.0
220
0.0
230
1.0
 70
    24
 71
     3
 72
    22
 73
    18
 74
     0
 42
0.00000001
 43
0.00000001
 40
0.0
 40
0.0
 40
0.0
 40
0.0
 40
0.0586568790673819
 40
0.1214896418398553
 40
0.1859455775479562
 40
0.2500411542710526
 40
0.3131534475633331
 40
0.3748492700626352
 40
0.4346463264351113
 40
0.4926838918306675
 40
0.5585550009281881
 40
0.6255725420127889
 40
0.6948121123808872
 40
0.7668196109356085
 40
0.8417583806539926
 40
0.9195512309015476
 40
1.0
 40
1.0
 40
1.0
 40
1.0
 10
70.05107116374677
 20
432.2981832129266
 30
0.0
 10
70.05107116374677
 20
432.2695438945985
 30
0.0
 10
70.05107116374677
 20
432.2422050014579
 30
0.0
 10
70.05107116374677
 20
432.2162066571004
 30
0.0
 10
70.05107116374677
 20
432.1915870176813
 30
0.0
 10
70.05107116374677
 20
432.1683822159168
 30
0.0
 10
70.05107116374677
 20
432.1466263080532
 30
0.0
 10
70.05107116374677
 20
432.1263512238854
 30
0.0
 10
70.05107116374677
 20
432.1075867198954
 30
0.0
 10
70.05107116374677
 20
432.0903603355802
 30
0.0
 10
70.05107116374677
 20
432.0746973530345
 30
0.0
 10
70.05107116374677
 20
432.060620759845
 30
0.0
 10
70.05107116374677
 20
432.0481512153532
 30
0.0
 10
70.05107116374677
 20
432.0373070203355
 30
0.0
 10
70.05107116374677
 20
432.0281040901432
 30
0.0
 10
70.05107116374677
 20
432.0205559313455
 30
0.0
 10
70.05107116374677
 20
432.0146736219064
 30
0.0
 10
70.05107116374677
 20
432.0104657949261
 30
0.0
  0
SPLINE
  5
23A
330
1F
100
AcDbEntity
  8
0
  6
Continuous
 62
     7
370
    15
100
AcDbSpline
210
0.0
220
0.0
230
1.0
 70
    24
 71
     3
 72
    22
 73
    18
 74
     0
 42
0.00000001
 43
0.00000001
 40
0.0
 40
0.0
 40
0.0
 40
0.0
 40
0.0804487690984524
 40
0.1582416193460073
 40
0.2331803890643915
 40
0.3051878876191125
 40
0.3744274579872109
 40
0.4414449990718117
 40
0.5073161081693325
 40
0.5653536735648886
 40
0.6251507299373649
 40
0.6868465524366668
 40
0.7499588457289473
 40
0.8140544224520437
 40
0.8785103581601448
 40
0.9413431209326181
 40
1.0
 40
1.0
 40
1.0
 40
1.0
 10
70.05107116374677
 20
432.4594666648676
 30
0.0
 10
70.05107116374677
 20
432.4949717194333
 30
0.0
 10
70.05107116374677
 20
432.531446617979
 30
0.0
 10
70.05107116374677
 20
432.5688378139184
 30
0.0
 10
70.05107116374677
 20
432.6070904155047
 30
0.0
 10
70.05107116374677
 20
432.6461482664138
 30
0.0
 10
70.05107116374677
 20
432.6859540281837
 30
0.0
 10
70.05107116374677
 20
432.7264492643901
 30
0.0
 10
70.05107116374677
 20
432.7675745264327
 30
0.0
 10
70.05107116374677
 20
432.809269440809
 30
0.0
 10
70.05107116374677
 20
432.851472797744
 30
0.0
 10
70.05107116374677
 20
432.8941226410493
 30
0.0
 10
70.05107116374677
 20
432.9371563590768
 30
0.0
 10
70.05107116374677
 20
432.9805107766352
 30
0.0
 10
70.05107116374677
 20
433.0241222477339
 30
0.0
 10
70.05107116374677
 20
433.0679267490174
 30
0.0
 10
70.05107116374677
 20
433.1118599737541
 30
0.0
 10
70.05107116374677
 20
433.1558574262417
 30
0.0
  0
SPLINE
  5
23B
330
1F
100
AcDbEntity
  8
0
  6
Continuous
 62
     7
370
    15
100
AcDbSpline
210
0.0
220
0.0
230
1.0
 70
    24
 71
     1
 72
     4
 73
     2
 74
     0
 42
0.00000001
 43
0.00000001
 40
0.0
 40
0.0
 40
1.0
 40
1.0
 10
70.05107116374677
 20
439.9469009869882
 30
0.0
 10
70.05107116374677
 20
439.9605671462041
 30
0.0
  0
ARC
  5
23C
330
1F
100
AcDbEntity
  8
0
  6
Continuous
 62
     7
370
    15
100
AcDbCircle
 10
132.1907599321
 20
234.6392743406
 30
0.0
 40
4.390796943830978
100
AcDbArc
 50
30.3623487653
 51
79.6536108376
  0
ARC
  5
23D
330
1F
100
AcDbEntity
  8
0
  6
Continuous
 62
     7
370
    15
100
AcDbCircle
 10
132.1907599321
 20
239.0780790673
 30
0.0
 40
4.390796943830953
100
AcDbArc
 50
280.3463891624
 51
329.6376512347
  0
SPLINE
  5
23E
330
1F
100
AcDbEntity
  8
0
  6
Continuous
 62
     7
370
    15
100
AcDbSpline
210
0.0
220
0.0
230
1.0
 70
    24
 71
     1
 72
     4
 73
     2
 74
     0
 42
0.00000001
 43
0.00000001
 40
0.0
 40
0.0
 40
1.0
 40
1.0
 10
70.05107116374677
 20
434.4979948328587
 30
0.0
 10
70.05107116374677
 20
434.50523047642
 30
0.0
  0
SPLINE
  5
23F
330
1F
100
AcDbEntity
  8
0
  6
Continuous
 62
     7
370
    15
100
AcDbSpline
210
0.0
220
0.0
230
1.0
 70
    24
 71
     1
 72
     4
 73
     2
 74
     0
 42
0.00000001
 43
0.00000001
 40
0.0
 40
0.0
 40
1.0
 40
1.0
 10
70.05107116374677
 20
436.5303836389878
 30
0.0
 10
70.05107116374677
 20
436.5744870934806
 30
0.0
  0
ARC
  5
240
330
1F
100
AcDbEntity
  8
0
  6
Continuous
 62
     7
370
    15
100
AcDbCircle
 10
131.1907599321
 20
234.6392743406
 30
0.0
 40
4.39079694383095
100
AcDbArc
 50
30.3623487653
 51
79.6536108376
  0
ARC
  5
241
330
1F
100
AcDbEntity
  8
0
  6
Continuous
 62
     7
370
    15
100
AcDbCircle
 10
131.1907599321
 20
239.0780790673
 30
0.0
 40
4.390796943830972
100
AcDbArc
 50
280.3463891624
 51
329.6376512347
  0
SPLINE
  5
242
330
1F
100
AcDbEntity
  8
0
  6
Continuous
 62
     7
370
    15
100
AcDbSpline
210
0.0
220
0.0
230
1.0
 70
    24
 71
     1
 72
     4
 73
     2
 74
     0
 42
0.00000001
 43
0.00000001
 40
0.0
 40
0.0
 40
1.0
 40
1.0
 10
70.05107116374677
 20
436.9222738559995
 30
0.0
 10
70.05107116374677
 20
436.8889789856693
 30
0.0
  0
SPLINE
  5
243
330
1F
100
AcDbEntity
  8
0
  6
Continuous
 62
     7
370
    15
100
AcDbSpline
210
0.0
220
0.0
230
1.0
 70
    24
 71
     1
 72
     4
 73
     2
 74
     0
 42
0.00000001
 43
0.00000001
 40
0.0
 40
0.0
 40
1.0
 40
1.0
 10
70.05107116374677
 20
436.5298795729062
 30
0.0
 10
70.05107116374677
 20
436.485034602618
 30
0.0
  0
LINE
  5
244
330
1F
100
AcDbEntity
  8
0
  6
Continuous
 62
     7
370
    15
100
AcDbLine
 10
126.3793415864
 20
209.498676704
 30
0.0
 11
126.3793415864
 21
241.898676704
 31
0.0
  0
LINE
  5
245
330
1F
100
AcDbEntity
  8
0
  6
Continuous
 62
     7
370
    15
100
AcDbLine
 10
126.3793415864
 20
206.513676704
 30
0.0
 11
126.3793415864
 21
209.498676704
 31
0.0
  0
LINE
  5
246
330
1F
100
AcDbEntity
  8
0
  6
Continuous
 62
     7
370
    15
100
AcDbLine
 10
126.3793415864
 20
206.513676704
 30
0.0
 11
117.8193415864
 21
206.214076704
 31
0.0
  0
LINE
  5
247
330
1F
100
AcDbEntity
  8
0
  6
Continuous
 62
     7
370
    15
100
AcDbLine
 10
126.3793415864
 20
244.883676704
 30
0.0
 11
126.3793415864
 21
241.898676704
 31
0.0
  0
LINE
  5
248
330
1F
100
AcDbEntity
  8
0
  6
Continuous
 62
     7
370
    15
100
AcDbLine
 10
126.3793415864
 20
244.883676704
 30
0.0
 11
117.8193415864
 21
245.183276704
 31
0.0
  0
LINE
  5
249
330
1F
100
AcDbEntity
  8
0
  6
Continuous
 62
     7
370
    15
100
AcDbLine
 10
126.3793415864
 20
206.513676704
 30
0.0
 11
126.3793415864
 21
204.7729795447
 31
0.0
  0
LINE
  5
24A
330
1F
100
AcDbEntity
  8
0
  6
Continuous
 62
     7
370
    15
100
AcDbLine
 10
117.2805158088
 20
200.7076420415
 30
0.0
 11
115.9441467124
 21
200.7076420415
 31
0.0
  0
LINE
  5
24B
330
1F
100
AcDbEntity
  8
0
  6
Continuous
 62
     7
370
    15
100
AcDbLine
 10
115.9441467124
 20
200.7641599519
 30
0.0
 11
115.9441467124
 21
200.7076420415
 31
0.0
  0
LINE
  5
24C
330
1F
100
AcDbEntity
  8
0
  6
Continuous
 62
     7
370
    15
100
AcDbLine
 10
126.3793415864
 20
244.883676704
 30
0.0
 11
126.3793415864
 21
246.6243738632
 31
0.0
  0
LINE
  5
24D
330
1F
100
AcDbEntity
  8
0
  6
Continuous
 62
     7
370
    15
100
AcDbLine
 10
117.2805158088
 20
250.6897113665
 30
0.0
 11
115.9441467124
 21
250.6897113665
 31
0.0
  0
LINE
  5
24E
330
1F
100
AcDbEntity
  8
0
  6
Continuous
 62
     7
370
    15
100
AcDbLine
 10
115.9441467124
 20
250.633193456
 30
0.0
 11
115.9441467124
 21
250.6897113665
 31
0.0
  0
LINE
  5
24F
330
1F
100
AcDbEntity
  8
0
  6
Continuous
 62
     7
370
    15
100
AcDbLine
 10
126.3793415864
 20
204.7729795447
 30
0.0
 11
126.3793415864
 21
201.943676704
 31
0.0
  0
LINE
  5
250
330
1F
100
AcDbEntity
  8
0
  6
Continuous
 62
     7
370
    15
100
AcDbLine
 10
126.3793415864
 20
249.453676704
 30
0.0
 11
126.3793415864
 21
246.6243738632
 31
0.0
  0
LINE
  5
251
330
1F
100
AcDbEntity
  8
0
  6
Continuous
 62
     7
370
    15
100
AcDbLine
 10
94.3193415864
 20
217.4051683771
 30
0.0
 11
94.3193415864
 21
233.9921850309
 31
0.0
  0
ARC
  5
252
330
1F
100
AcDbEntity
  8
0
  6
Continuous
 62
     7
370
    15
100
AcDbCircle
 10
96.3193415864
 20
233.9921850309
 30
0.0
 40
2.0
100
AcDbArc
 50
120.0
 51
180.0
  0
ARC
  5
253
330
1F
100
AcDbEntity
  8
0
  6
Continuous
 62
     7
370
    15
100
AcDbCircle
 10
96.3193415864
 20
217.4051683771
 30
0.0
 40
2.000000000000024
100
AcDbArc
 50
180.0
 51
240.0
  0
LINE
  5
254
330
1F
100
AcDbEntity
  8
0
  6
Continuous
 62
     7
370
    15
100
AcDbLine
 10
95.3193415864
 20
214.7510578582
 30
0.0
 11
96.8193415864
 21
214.698676704
 31
0.0
  0
LINE
  5
255
330
1F
100
AcDbEntity
  8
0
  6
Continuous
 62
     7
370
    15
100
AcDbLine
 10
95.3193415864
 20
214.7510578582
 30
0.0
 11
95.3193415864
 21
236.6462955497
 31
0.0
  0
LINE
  5
256
330
1F
100
AcDbEntity
  8
0
  6
Continuous
 62
     7
370
    15
100
AcDbLine
 10
95.3193415864
 20
236.6462955497
 30
0.0
 11
96.8193415864
 21
236.698676704
 31
0.0
  0
LINE
  5
257
330
1F
100
AcDbEntity
  8
0
  6
Continuous
 62
     7
370
    15
100
AcDbLine
 10
96.8193415864
 20
249.9653405446
 30
0.0
 11
117.8193415864
 21
250.698676704
 31
0.0
  0
LINE
  5
258
330
1F
100
AcDbEntity
  8
0
  6
Continuous
 62
     7
370
    15
100
AcDbLine
 10
117.8193415864
 20
242.1039155916
 30
0.0
 11
96.8193415864
 21
241.3705794323
 31
0.0
  0
LINE
  5
259
330
1F
100
AcDbEntity
  8
0
  6
Continuous
 62
     7
370
    15
100
AcDbLine
 10
96.8193415864
 20
241.3705794323
 30
0.0
 11
96.8193415864
 21
249.9653405446
 31
0.0
  0
LINE
  5
25A
330
1F
100
AcDbEntity
  8
0
  6
Continuous
 62
     7
370
    15
100
AcDbLine
 10
117.8193415864
 20
250.698676704
 30
0.0
 11
117.8193415864
 21
242.1039155916
 31
0.0
  0
LINE
  5
25B
330
1F
100
AcDbEntity
  8
0
  6
Continuous
 62
     7
370
    15
100
AcDbLine
 10
96.8193415864
 20
210.0267739757
 30
0.0
 11
117.8193415864
 21
209.2934378163
 31
0.0
  0
LINE
  5
25C
330
1F
100
AcDbEntity
  8
0
  6
Continuous
 62
     7
370
    15
100
AcDbLine
 10
96.8193415864
 20
210.0267739757
 30
0.0
 11
96.8193415864
 21
241.3705794323
 31
0.0
  0
LINE
  5
25D
330
1F
100
AcDbEntity
  8
0
  6
Continuous
 62
     7
370
    15
100
AcDbLine
 10
117.8193415864
 20
209.2934378163
 30
0.0
 11
117.8193415864
 21
242.1039155916
 31
0.0
  0
LINE
  5
25E
330
1F
100
AcDbEntity
  8
0
  6
Continuous
 62
     7
370
    15
100
AcDbLine
 10
117.8193415864
 20
200.698676704
 30
0.0
 11
96.8193415864
 21
201.4320128633
 31
0.0
  0
LINE
  5
25F
330
1F
100
AcDbEntity
  8
0
  6
Continuous
 62
     7
370
    15
100
AcDbLine
 10
96.8193415864
 20
201.4320128633
 30
0.0
 11
96.8193415864
 21
210.0267739757
 31
0.0
  0
LINE
  5
260
330
1F
100
AcDbEntity
  8
0
  6
Continuous
 62
     7
370
    15
100
AcDbLine
 10
117.8193415864
 20
209.2934378163
 30
0.0
 11
117.8193415864
 21
200.698676704
 31
0.0
  0
SPLINE
  5
261
330
1F
100
AcDbEntity
  8
0
  6
Continuous
 62
     7
370
    15
100
AcDbSpline
210
0.0
220
0.0
230
1.0
 70
    24
 71
     3
 72
    13
 73
     9
 74
     0
 42
0.00000001
 43
0.00000001
 40
0.0
 40
0.0
 40
0.0
 40
0.0
 40
0.1016727933484807
 40
0.2656920648634454
 40
0.4301895724771663
 40
0.594668627695265
 40
0.9999971649301727
 40
1.0
 40
1.0
 40
1.0
 40
1.0
 10
99.44458762595212
 20
194.3267134977061
 30
0.0
 10
99.43806085359304
 20
194.3267134977061
 30
0.0
 10
99.43109941306368
 20
194.3267134977061
 30
0.0
 10
99.42371352123799
 20
194.3267134977061
 30
0.0
 10
99.4159140179307
 20
194.3267134977061
 30
0.0
 10
99.40771234998851
 20
194.3267134977061
 30
0.0
 10
99.3991205544901
 20
194.3267134977061
 30
0.0
 10
99.39015124108013
 20
194.3267134977061
 30
0.0
 10
99.3808175734629
 20
194.3267134977061
 30
0.0
  0
SPLINE
  5
262
330
1F
100
AcDbEntity
  8
0
  6
Continuous
 62
     7
370
    15
100
AcDbSpline
210
0.0
220
0.0
230
1.0
 70
    24
 71
     3
 72
    14
 73
    10
 74
     0
 42
0.00000001
 43
0.00000001
 40
0.0
 40
0.0
 40
0.0
 40
0.0
 40
0.0000028350934904
 40
0.3116218052739903
 40
0.4675109879244329
 40
0.6233616216638996
 40
0.8104304628648494
 40
0.90523701909194
 40
1.0
 40
1.0
 40
1.0
 40
1.0
 10
99.18140700103521
 20
194.3267134977061
 30
0.0
 10
99.16826770197984
 20
194.3267134977061
 30
0.0
 10
99.15508969340821
 20
194.3267134977061
 30
0.0
 10
99.14189231586514
 20
194.3267134977061
 30
0.0
 10
99.14189231586514
 20
194.3267134977061
 30
0.0
 10
97.9957893460522
 20
194.3267134977061
 30
0.0
 10
97.99578934605223
 20
194.3267134977061
 30
0.0
 10
97.99578934605223
 20
194.3267134977061
 30
0.0
 10
97.99553650546393
 20
194.3267134977061
 30
0.0
 10
97.99477835477738
 20
194.3267134977061
 30
0.0
  0
LINE
  5
263
330
1F
100
AcDbEntity
  8
0
  6
Continuous
 62
     7
370
    15
100
AcDbLine
 10
117.8193415864
 20
251.7468840832
 30
0.0
 11
117.8193415864
 21
255.2715937118
 31
0.0
  0
LINE
  5
264
330
1F
100
AcDbEntity
  8
0
  6
Continuous
 62
     7
370
    15
100
AcDbLine
 10
117.8193415864
 20
196.1257596958
 30
0.0
 11
117.8193415864
 21
199.6504693247
 31
0.0
  0
SPLINE
  5
265
330
1F
100
AcDbEntity
  8
0
  6
Continuous
 62
     7
370
    15
100
AcDbSpline
210
0.0
220
0.0
230
1.0
 70
    24
 71
     3
 72
    10
 73
     6
 74
     0
 42
0.00000001
 43
0.00000001
 40
0.0
 40
0.0
 40
0.0
 40
0.0
 40
0.3655358500547215
 40
0.7416780917417638
 40
1.0
 40
1.0
 40
1.0
 40
1.0
 10
70.05107116374677
 20
441.7595304524662
 30
0.0
 10
70.05107116374677
 20
441.7467378369606
 30
0.0
 10
70.05107116374677
 20
441.7340792176128
 30
0.0
 10
70.05107116374677
 20
441.7215731726923
 30
0.0
 10
70.05107116374677
 20
441.7092380565446
 30
0.0
 10
70.05107116374677
 20
441.6970919726536
 30
0.0
  0
SPLINE
  5
266
330
1F
100
AcDbEntity
  8
0
  6
Continuous
 62
     7
370
    15
100
AcDbSpline
210
0.0
220
0.0
230
1.0
 70
    24
 71
     3
 72
    10
 73
     6
 74
     0
 42
0.00000001
 43
0.00000001
 40
0.0
 40
0.0
 40
0.0
 40
0.0
 40
0.3370999736645683
 40
0.6839759691429381
 40
1.0
 40
1.0
 40
1.0
 40
1.0
 10
70.05107116374677
 20
441.5640166920489
 30
0.0
 10
70.05107116374677
 20
441.5562171887416
 30
0.0
 10
70.05107116374677
 20
441.548831296916
 30
0.0
 10
70.05107116374677
 20
441.5418698563866
 30
0.0
 10
70.05107116374677
 20
441.5353430840275
 30
0.0
 10
70.05107116374677
 20
441.5292605587772
 30
0.0
  0
SPLINE
  5
267
330
1F
100
AcDbEntity
  8
0
  6
Continuous
 62
     7
370
    15
100
AcDbSpline
210
0.0
220
0.0
230
1.0
 70
    24
 71
     3
 72
    10
 73
     6
 74
     0
 42
0.00000001
 43
0.00000001
 40
0.0
 40
0.0
 40
0.0
 40
0.0
 40
0.3655513911197973
 40
0.7416791114338036
 40
1.0
 40
1.0
 40
1.0
 40
1.0
 10
70.05107116374677
 20
441.4934839388145
 30
0.0
 10
70.05107116374677
 20
441.4934839388145
 30
0.0
 10
70.05107116374677
 20
433.1556106750098
 30
0.0
 10
70.05107116374677
 20
3.408178642377500E+146
 30
0.0
 10
70.05107116374677
 20
194.3267134977061
 30
0.0
 10
70.05107116374677
 20
194.3267134977061
 30
0.0
  0
SPLINE
  5
268
330
1F
100
AcDbEntity
  8
0
  6
Continuous
 62
     7
370
    15
100
AcDbSpline
210
0.0
220
0.0
230
1.0
 70
    11
 71
     3
 72
    10
 73
     6
 74
     0
 42
0.00000001
 43
0.00000001
 40
0.0
 40
0.0
 40
0.0
 40
0.0
 40
0.3370998942945167
 40
0.6839758079897656
 40
1.0
 40
1.0
 40
1.0
 40
1.0
 10
70.05107116374677
 20
194.3267134977061
 30
0.0
 10
70.05107116374677
 20
194.3267134977061
 30
0.0
 10
3.407481342833234E+146
 20
194.3267134977061
 30
0.0
 10
70.05107116374677
 20
194.3267134977061
 30
0.0
 10
70.05107116374677
 20
3.408178642377500E+146
 30
0.0
 10
70.05107116374677
 20
194.3267134977061
 30
0.0
  0
LINE
  5
269
330
1F
100
AcDbEntity
  8
0
  6
Continuous
 62
     7
370
    15
100
AcDbLine
 10
127.3793415864
 20
207.948676704
 30
0.0
 11
126.3793415864
 21
207.948676704
 31
0.0
  0
LINE
  5
26A
330
1F
100
AcDbEntity
  8
0
  6
Continuous
 62
     7
370
    15
100
AcDbLine
 10
127.3793415864
 20
219.588676704
 30
0.0
 11
127.3793415864
 21
207.948676704
 31
0.0
  0
LINE
  5
26B
330
1F
100
AcDbEntity
  8
0
  6
Continuous
 62
     7
370
    15
100
AcDbLine
 10
127.3793415864
 20
232.4599100824
 30
0.0
 11
126.3793415864
 21
232.4599100824
 31
0.0
  0
LINE
  5
26C
330
1F
100
AcDbEntity
  8
0
  6
Continuous
 62
     7
370
    15
100
AcDbLine
 10
127.3793415864
 20
232.4599100824
 30
0.0
 11
127.3793415864
 21
219.588676704
 31
0.0
  0
LINE
  5
26D
330
1F
100
AcDbEntity
  8
0
  6
Continuous
 62
     7
370
    15
100
AcDbLine
 10
127.3793415864
 20
243.558676704
 30
0.0
 11
126.3793415864
 21
243.558676704
 31
0.0
  0
LINE
  5
26E
330
1F
100
AcDbEntity
  8
0
  6
Continuous
 62
     7
370
    15
100
AcDbLine
 10
127.3793415864
 20
243.558676704
 30
0.0
 11
127.3793415864
 21
239.358676704
 31
0.0
  0
LINE
  5
26F
330
1F
100
AcDbEntity
  8
0
  6
Continuous
 62
     7
370
    15
100
AcDbLine
 10
127.3793415864
 20
239.358676704
 30
0.0
 11
127.3793415864
 21
232.4599100824
 31
0.0
  0
LINE
  5
270
330
1F
100
AcDbEntity
  8
0
  6
Continuous
 62
     7
370
    15
100
AcDbLine
 10
132.9793415864
 20
234.758676704
 30
0.0
 11
132.9793415864
 21
235.0680823756
 31
0.0
  0
LINE
  5
271
330
1F
100
AcDbEntity
  8
0
  6
Continuous
 62
     7
370
    15
100
AcDbLine
 10
132.9793415864
 20
238.6492710324
 30
0.0
 11
132.9793415864
 21
238.958676704
 31
0.0
  0
LINE
  5
272
330
1F
100
AcDbEntity
  8
0
  6
Continuous
 62
     7
370
    15
100
AcDbLine
 10
131.9793415864
 20
234.758676704
 30
0.0
 11
131.9793415864
 21
238.958676704
 31
0.0
  0
LINE
  5
273
330
1F
100
AcDbEntity
  8
0
  6
Continuous
 62
     7
370
    15
100
AcDbLine
 10
126.3793415864
 20
241.898676704
 30
0.0
 11
117.8193415864
 21
241.898676704
 31
0.0
  0
LINE
  5
274
330
1F
100
AcDbEntity
  8
0
  6
Continuous
 62
     7
370
    15
100
AcDbLine
 10
126.3793415864
 20
209.498676704
 30
0.0
 11
117.8193415864
 21
209.498676704
 31
0.0
  0
LINE
  5
275
330
1F
100
AcDbEntity
  8
0
  6
Continuous
 62
     7
370
    15
100
AcDbLine
 10
126.3793415864
 20
204.7729795447
 30
0.0
 11
117.8193415864
 21
204.5090629432
 31
0.0
  0
LINE
  5
276
330
1F
100
AcDbEntity
  8
0
  6
Continuous
 62
     7
370
    15
100
AcDbLine
 10
117.2809057802
 20
200.7174792966
 30
0.0
 11
117.2805158088
 21
200.7076420415
 31
0.0
  0
LINE
  5
277
330
1F
100
AcDbEntity
  8
0
  6
Continuous
 62
     7
370
    15
100
AcDbLine
 10
126.3793415864
 20
246.6243738632
 30
0.0
 11
117.8193415864
 21
246.8882904647
 31
0.0
  0
LINE
  5
278
330
1F
100
AcDbEntity
  8
0
  6
Continuous
 62
     7
370
    15
100
AcDbLine
 10
114.7872801106
 20
200.8045586238
 30
0.0
 11
114.7872801106
 21
200.7622320758
 31
0.0
  0
LINE
  5
279
330
1F
100
AcDbEntity
  8
0
  6
Continuous
 62
     7
370
    15
100
AcDbLine
 10
114.2968205571
 20
200.7837592689
 30
0.0
 11
114.2743437225
 21
200.8224707572
 31
0.0
  0
LINE
  5
27A
330
1F
100
AcDbEntity
  8
0
  6
Continuous
 62
     7
370
    15
100
AcDbLine
 10
113.8172801106
 20
200.8384317703
 30
0.0
 11
113.8172801106
 21
200.7496107228
 31
0.0
  0
LINE
  5
27B
330
1F
100
AcDbEntity
  8
0
  6
Continuous
 62
     7
370
    15
100
AcDbLine
 10
117.2809057802
 20
250.6798741113
 30
0.0
 11
117.2805158088
 21
250.6897113665
 31
0.0
  0
LINE
  5
27C
330
1F
100
AcDbEntity
  8
0
  6
Continuous
 62
     7
370
    15
100
AcDbLine
 10
114.7872801106
 20
250.5927947841
 30
0.0
 11
114.7872801106
 21
250.6351213321
 31
0.0
  0
LINE
  5
27D
330
1F
100
AcDbEntity
  8
0
  6
Continuous
 62
     7
370
    15
100
AcDbLine
 10
114.2968205571
 20
250.6135941391
 30
0.0
 11
114.2743437225
 21
250.5748826507
 31
0.0
  0
LINE
  5
27E
330
1F
100
AcDbEntity
  8
0
  6
Continuous
 62
     7
370
    15
100
AcDbLine
 10
113.8172801106
 20
250.5589216377
 30
0.0
 11
113.8172801106
 21
250.6477426851
 31
0.0
  0
LINE
  5
27F
330
1F
100
AcDbEntity
  8
0
  6
Continuous
 62
     7
370
    15
100
AcDbLine
 10
127.3793415864
 20
239.358676704
 30
0.0
 11
126.3793415864
 21
239.358676704
 31
0.0
  0
DIMENSION
  5
280
330
1F
100
AcDbEntity
  8
COTATION
100
AcDbDimension
  2
*D8
 10
147.2766199207
 20
236.858676704
 30
0.0
 11
147.2766199207
 21
219.401176704
 31
0.0
 70
   160
 71
     2
 42
-1.0
  3
SLDDIMSTYLE1
100
AcDbAlignedDimension
 13
126.3793415864
 23
201.943676704
 33
0.0
 14
134.9793415864
 24
236.858676704
 34
0.0
 50
90.0
100
AcDbRotatedDimension
  0
SPLINE
  5
28B
330
1F
100
AcDbEntity
  8
0
  6
Continuous
 62
     7
370
    15
100
AcDbSpline
210
0.0
220
0.0
230
1.0
 70
    24
 71
     3
 72
    13
 73
     9
 74
     0
 42
0.00000001
 43
0.00000001
 40
0.0
 40
0.0
 40
0.0
 40
0.0
 40
0.1604335585933867
 40
0.3253094614950383
 40
0.5048190741430966
 40
0.6921378539179015
 40
0.8583727089419775
 40
1.0
 40
1.0
 40
1.0
 40
1.0
 10
49.59284205214568
 20
310.9796641042374
 30
0.0
 10
49.59284205214568
 20
310.9358664407194
 30
0.0
 10
49.59284205214568
 20
310.8922620880331
 30
0.0
 10
49.59284205214568
 20
310.848915041579
 30
0.0
 10
49.59284205214568
 20
310.8058889191253
 30
0.0
 10
49.59284205214568
 20
310.7632468674398
 30
0.0
 10
49.59284205214568
 20
310.7210514696138
 30
0.0
 10
49.59284205214568
 20
310.6793646532122
 30
0.0
 10
49.59284205214568
 20
310.6382475993866
 30
0.0
  0
SPLINE
  5
28C
330
1F
100
AcDbEntity
  8
0
  6
Continuous
 62
     7
370
    15
100
AcDbSpline
210
0.0
220
0.0
230
1.0
 70
    24
 71
     1
 72
     4
 73
     2
 74
     0
 42
0.00000001
 43
0.00000001
 40
0.0
 40
0.0
 40
1.0
 40
1.0
 10
49.59284205214568
 20
310.08035359886
 30
0.0
 10
49.59284205214568
 20
310.0585976909964
 30
0.0
  0
SPLINE
  5
28D
330
1F
100
AcDbEntity
  8
0
  6
Continuous
 62
     7
370
    15
100
AcDbSpline
210
0.0
220
0.0
230
1.0
 70
    24
 71
     1
 72
     4
 73
     2
 74
     0
 42
0.00000001
 43
0.00000001
 40
0.0
 40
0.0
 40
1.0
 40
1.0
 10
49.59284205214568
 20
309.9325273142887
 30
0.0
 10
49.59284205214568
 20
309.9266450048496
 30
0.0
  0
SPLINE
  5
28E
330
1F
100
AcDbEntity
  8
0
  6
Continuous
 62
     7
370
    15
100
AcDbSpline
210
0.0
220
0.0
230
1.0
 70
    24
 71
     3
 72
     9
 73
     5
 74
     0
 42
0.00000001
 43
0.00000001
 40
0.0
 40
0.0
 40
0.0
 40
0.0
 40
0.6067953981052331
 40
1.0
 40
1.0
 40
1.0
 40
1.0
 10
49.59284205214568
 20
309.9266470755962
 30
0.0
 10
49.59284205214568
 20
309.9325309893087
 30
0.0
 10
49.59284205214568
 20
309.9400812026491
 30
0.0
 10
49.59284205214568
 20
309.9492866316072
 30
0.0
 10
49.59284205214568
 20
309.960133762251
 30
0.0
  0
SPLINE
  5
28F
330
1F
100
AcDbEntity
  8
0
  6
Continuous
 62
     7
370
    15
100
AcDbSpline
210
0.0
220
0.0
230
1.0
 70
    24
 71
     1
 72
     4
 73
     2
 74
     0
 42
0.00000001
 43
0.00000001
 40
0.0
 40
0.0
 40
1.0
 40
1.0
 10
85.78460837291796
 20
72.23868488064925
 30
0.0
 10
85.8180127176154
 20
72.23868488064925
 30
0.0
  0
SPLINE
  5
290
330
1F
100
AcDbEntity
  8
0
  6
Continuous
 62
     7
370
    15
100
AcDbSpline
210
0.0
220
0.0
230
1.0
 70
    24
 71
     3
 72
    11
 73
     7
 74
     0
 42
0.00000001
 43
0.00000001
 40
0.0
 40
0.0
 40
0.0
 40
0.0
 40
0.0908409106673747
 40
0.5160224307730494
 40
0.924908426786792
 40
1.0
 40
1.0
 40
1.0
 40
1.0
 10
86.0628557651575
 20
72.23868488064925
 30
0.0
 10
86.08312778931078
 20
72.23868488064925
 30
0.0
 10
86.10188870642116
 20
72.23868488064925
 30
0.0
 10
86.11911097472414
 20
72.23868488064925
 30
0.0
 10
86.13476931125224
 20
72.23868488064925
 30
0.0
 10
86.14884072895137
 20
72.23868488064925
 30
0.0
 10
86.16130457042671
 20
72.23868488064925
 30
0.0
  0
SPLINE
  5
291
330
1F
100
AcDbEntity
  8
0
  6
Continuous
 62
     7
370
    15
100
AcDbSpline
210
0.0
220
0.0
230
1.0
 70
    24
 71
     3
 72
    28
 73
    24
 74
     0
 42
0.00000001
 43
0.00000001
 40
0.0
 40
0.0
 40
0.0
 40
0.0
 40
0.0690482007358247
 40
0.1332243191934627
 40
0.19192640703052
 40
0.2459550038376306
 40
0.2963129865612865
 40
0.3439788668121528
 40
0.3898334799630857
 40
0.4395849011781174
 40
0.4888772363471747
 40
0.5331940729493672
 40
0.5777470147938016
 40
0.6226480015218105
 40
0.6679422368045863
 40
0.7131806738383861
 40
0.7591200830350064
 40
0.8052336132469238
 40
0.850713552109415
 40
0.8934230304904747
 40
0.9251158619348843
 40
0.9549013741779291
 40
1.0
 40
1.0
 40
1.0
 40
1.0
 10
49.59284205214568
 20
317.18988147211
 30
0.0
 10
49.59284205214568
 20
317.2332499344118
 30
0.0
 10
49.59284205214568
 20
317.2760159561215
 30
0.0
 10
49.59284205214568
 20
317.3180826716924
 30
0.0
 10
49.59284205214568
 20
317.3593547995146
 30
0.0
 10
49.59284205214568
 20
317.3997388577287
 30
0.0
 10
49.59284205214568
 20
317.4391433759637
 30
0.0
 10
49.59284205214568
 20
317.4774791025183
 30
0.0
 10
49.59284205214568
 20
317.5146592065169
 30
0.0
 10
49.59284205214568
 20
317.5505994745827
 30
0.0
 10
49.59284205214568
 20
317.5852185015819
 30
0.0
 10
49.59284205214568
 20
317.6184378750079
 30
0.0
 10
49.59284205214568
 20
317.6501823525854
 30
0.0
 10
49.59284205214568
 20
317.6803800326962
 30
0.0
 10
49.59284205214568
 20
317.7089625172362
 30
0.0
 10
49.59284205214568
 20
317.7358650665391
 30
0.0
 10
49.59284205214568
 20
317.7610267460113
 30
0.0
 10
49.59284205214568
 20
317.7843905641502
 30
0.0
 10
49.59284205214568
 20
317.8059036016306
 30
0.0
 10
49.59284205214568
 20
317.8255171311671
 30
0.0
 10
49.59284205214568
 20
317.8431867278828
 30
0.0
 10
49.59284205214568
 20
317.8588723699314
 30
0.0
 10
49.59284205214568
 20
317.8725385291473
 30
0.0
 10
49.59284205214568
 20
317.8841542515181
 30
0.0
  0
SPLINE
  5
292
330
1F
100
AcDbEntity
  8
0
  6
Continuous
 62
     7
370
    15
100
AcDbSpline
210
0.0
220
0.0
230
1.0
 70
    24
 71
     3
 72
    23
 73
    19
 74
     0
 42
0.00000001
 43
0.00000001
 40
0.0
 40
0.0
 40
0.0
 40
0.0
 40
0.078487619927683
 40
0.1110751361398558
 40
0.1654114084019879
 40
0.222608771348407
 40
0.2846446066014929
 40
0.3500137475501011
 40
0.4178429160237471
 40
0.4872117501588967
 40
0.5570631814607055
 40
0.6258268140650767
 40
0.6947254731615768
 40
0.763668364750475
 40
0.8327992942495436
 40
0.9025326337115664
 40
0.9733321004108936
 40
1.0
 40
1.0
 40
1.0
 40
1.0
 10
49.59284205214568
 20
317.0121611334105
 30
0.0
 10
49.59284205214568
 20
316.9672731415093
 30
0.0
 10
49.59284205214568
 20
316.9672731415093
 30
0.0
 10
49.59284205214568
 20
312.4099662158019
 30
0.0
 10
49.59284205214568
 20
312.4172018593632
 30
0.0
 10
49.59284205214568
 20
314.1188580713662
 30
0.0
 10
49.59284205214568
 20
314.1188580713662
 30
0.0
 10
49.59284205214568
 20
314.1659238432243
 30
0.0
 10
49.59284205214568
 20
314.2128818245564
 30
0.0
 10
49.59284205214568
 20
314.2596256769356
 30
0.0
 10
49.59284205214568
 20
314.3060495468397
 30
0.0
 10
49.59284205214568
 20
314.352048305361
 30
0.0
 10
49.59284205214568
 20
314.3975177862753
 30
0.0
 10
49.59284205214568
 20
314.442355021931
 30
0.0
 10
49.59284205214568
 20
314.4864584764238
 30
0.0
 10
49.59284205214568
 20
314.5297282755294
 30
0.0
 10
49.59284205214568
 20
314.5720664328727
 30
0.0
 10
49.59284205214568
 20
314.6133770718233
 30
0.0
 10
49.59284205214568
 20
314.6535666426108
 30
0.0
  0
SPLINE
  5
293
330
1F
100
AcDbEntity
  8
0
  6
Continuous
 62
     7
370
    15
100
AcDbSpline
210
0.0
220
0.0
230
1.0
 70
    24
 71
     1
 72
     4
 73
     2
 74
     0
 42
0.00000001
 43
0.00000001
 40
0.0
 40
0.0
 40
1.0
 40
1.0
 10
292.3723319970055
 20
102.7930628595868
 30
0.0
 10
292.3517526457427
 20
102.7507191525886
 30
0.0
  0
SPLINE
  5
294
330
1F
100
AcDbEntity
  8
0
  6
Continuous
 62
     7
370
    15
100
AcDbSpline
210
0.0
220
0.0
230
1.0
 70
    24
 71
     1
 72
     4
 73
     2
 74
     0
 42
0.00000001
 43
0.00000001
 40
0.0
 40
0.0
 40
1.0
 40
1.0
 10
292.0839591891881
 20
102.4264841219962
 30
0.0
 10
292.0462668271867
 20
102.3982744593342
 30
0.0
  0
SPLINE
  5
295
330
1F
100
AcDbEntity
  8
0
  6
Continuous
 62
     7
370
    15
100
AcDbSpline
210
0.0
220
0.0
230
1.0
 70
    24
 71
     1
 72
     4
 73
     2
 74
     0
 42
0.00000001
 43
0.00000001
 40
0.0
 40
0.0
 40
1.0
 40
1.0
 10
291.6596829402339
 20
102.2327613517409
 30
0.0
 10
291.6132548546976
 20
102.2249554505007
 30
0.0
  0
SPLINE
  5
296
330
1F
100
AcDbEntity
  8
0
  6
Continuous
 62
     7
370
    15
100
AcDbSpline
210
0.0
220
0.0
230
1.0
 70
     8
 71
     3
 72
    19
 73
    15
 74
     0
 42
0.00000001
 43
0.00000001
 40
0.0
 40
0.0
 40
0.0
 40
0.0
 40
0.0585855220773704
 40
0.1773823912528435
 40
0.1999108192628557
 40
0.206315354646956
 40
0.2130091013769946
 40
0.220768007691665
 40
0.2365736299808349
 40
0.297654934359875
 40
0.5045468360966878
 40
0.5561008092557063
 40
0.7589374349635527
 40
1.0
 40
1.0
 40
1.0
 40
1.0
 10
298.2606065504627
 20
107.4837007758515
 30
0.0
 10
298.2937053292937
 20
107.5612872227631
 30
0.0
 10
298.3272618055749
 20
107.6365012932821
 30
0.0
 10
298.3612694047882
 20
107.7093453354508
 30
0.0
 10
298.3957215524157
 20
107.7798216973112
 30
0.0
 10
298.4306116739394
 20
107.8479327269056
 30
0.0
 10
298.4680876129346
 20
107.9175896088182
 30
0.0
 10
298.5060409829176
 20
107.9845912060675
 30
0.0
 10
298.5444639400932
 20
108.0489403200088
 30
0.0
 10
298.5833486406668
 20
108.1106397519974
 30
0.0
 10
298.6226872408432
 20
108.1696923033887
 30
0.0
 10
298.6624718968275
 20
108.2261007755379
 30
0.0
 10
298.6624718968275
 20
108.2261007755379
 30
0.0
 10
298.7010427380534
 20
108.2770924912317
 30
0.0
 10
298.7416853635864
 20
108.3264230311506
 30
0.0
  0
SPLINE
  5
297
330
1F
100
AcDbEntity
  8
0
  6
Continuous
 62
     7
370
    15
100
AcDbSpline
210
0.0
220
0.0
230
1.0
 70
     8
 71
     3
 72
    11
 73
     7
 74
     0
 42
0.00000001
 43
0.00000001
 40
0.0
 40
0.0
 40
0.0
 40
0.0
 40
0.3654951173879704
 40
0.7415954445088098
 40
0.8705748856590488
 40
1.0
 40
1.0
 40
1.0
 40
1.0
 10
300.0835293219699
 20
108.8878750326841
 30
0.0
 10
300.1587190684457
 20
108.8868913494517
 30
0.0
 10
300.232077569348
 20
108.8839412056348
 30
0.0
 10
300.3036042811482
 20
108.8790259600542
 30
0.0
 10
300.3732986603181
 20
108.8721469715305
 30
0.0
 10
300.4411601633296
 20
108.8633055988845
 30
0.0
 10
300.5071882466543
 20
108.8525032009367
 30
0.0
  0
LINE
  5
298
330
1F
100
AcDbEntity
  8
0
  6
Continuous
 62
     7
370
    15
100
AcDbLine
 10
139.6627118817
 20
87.5274986126
 30
0.0
 11
78.4690140121
 21
122.8538684497
 31
0.0
  0
ELLIPSE
  5
299
330
1F
100
AcDbEntity
  8
0
  6
Continuous
 62
     7
370
    15
100
AcDbEllipse
 10
139.6553007177
 20
80.5052456312
 30
0.0
 11
-4.299649270267253
 21
7.448020955521215
 31
0.0
210
0.0
220
0.0
230
1.0
 40
0.5780852102
 41
3.927681267029274
 42
5.497259618652949
  0
LINE
  5
29A
330
1F
100
AcDbEntity
  8
0
  6
Continuous
 62
     7
370
    15
100
AcDbLine
 10
145.7401257469
 20
51.4076126951
 30
0.0
 11
145.7401257469
 21
77.0011090503
 31
0.0
  0
ELLIPSE
  5
29B
330
1F
100
AcDbEntity
  8
0
  6
Continuous
 62
     7
370
    15
100
AcDbEllipse
 10
139.6553007177
 20
54.9288655533
 30
0.0
 11
-4.304891885127432
 21
7.457096512742986
 31
0.0
210
0.0
220
0.0
230
0.9999999999999999
 40
0.5766787367
 41
2.356884544289787
 42
3.926462895913476
  0
LINE
  5
29C
330
1F
100
AcDbEntity
  8
0
  6
Continuous
 62
     7
370
    15
100
AcDbLine
 10
78.4690140121
 20
83.2244256613
 30
0.0
 11
139.6627118817
 21
47.8980558241
 31
0.0
  0
SPLINE
  5
29D
330
1F
100
AcDbEntity
  8
0
  6
Continuous
 62
     7
370
    15
100
AcDbSpline
210
0.0
220
0.0
230
1.0
 70
    24
 71
     3
 72
    10
 73
     6
 74
     0
 42
0.00000001
 43
0.00000001
 40
0.0
 40
0.0
 40
0.0
 40
0.0
 40
0.592236844840845
 40
0.7957650233469374
 40
1.0
 40
1.0
 40
1.0
 40
1.0
 10
49.59284205214568
 20
327.987398739752
 30
0.0
 10
49.59284205214568
 20
327.9465595001694
 30
0.0
 10
49.59284205214568
 20
327.9046502450128
 30
0.0
 10
49.59284205214568
 20
327.8617457683833
 30
0.0
 10
49.59284205214568
 20
327.8179226405219
 30
0.0
 10
49.59284205214568
 20
327.7732590711568
 30
0.0
  0
LWPOLYLINE
  5
29E
330
1F
100
AcDbEntity
  8
0
  6
Continuous
 62
     7
370
    15
100
AcDbPolyline
 90
       19
 70
   128
 43
0.0
 10
75.4751203606
 20
125.3827090614
 10
77.5072932873
 20
122.8859843541
 10
79.3911244503
 20
120.2089810967
 10
81.1006472815
 20
117.3885988739
 10
82.612297864
 20
114.4637135936
 10
83.9052397351
 20
111.4746416253
 10
84.9616510942
 20
108.462584082
 10
85.7669704573
 20
105.469058908
 10
86.3100973709
 20
102.5353285991
 10
86.5835454201
 20
99.7018314437
 10
86.5835454201
 20
97.007624125
 10
86.3100973709
 20
94.489843367
 10
85.7669704573
 20
92.1831940448
 10
84.9616510942
 20
90.119470816
 10
83.9052397351
 20
88.3271198658
 10
82.612297864
 20
86.8308468066
 10
81.1006472815
 20
85.6512761389
 10
79.3911244503
 20
84.804666964
 10
78.7738330527
 20
84.5963550831
  0
ELLIPSE
  5
29F
330
1F
100
AcDbEntity
  8
0
  6
Continuous
 62
     7
370
    15
100
AcDbEllipse
 10
144.2605906335
 20
63.0504554832
 30
0.0
 11
-0.3016205788731839
 21
0.5205806984081391
 31
0.0
210
0.0
220
0.0
230
1.0
 40
0.575975888
 41
2.355671760597874
 42
3.924033619162656
  0
LINE
  5
2A0
330
1F
100
AcDbEntity
  8
0
  6
Continuous
 62
     7
370
    15
100
AcDbLine
 10
144.6858907118
 20
66.8221740656
 30
0.0
 11
144.6858907118
 21
62.8037415426
 31
0.0
  0
ELLIPSE
  5
2A1
330
1F
100
AcDbEntity
  8
0
  6
Continuous
 62
     7
370
    15
100
AcDbEllipse
 10
144.2605906335
 20
67.0665011433
 30
0.0
 11
-0.3008948482090261
 21
0.5193104719189563
 31
0.0
210
0.0
220
0.0
230
1.0
 40
0.5787871019
 41
3.926451059686391
 42
5.494812918251126
  0
LINE
  5
2A2
330
1F
100
AcDbEntity
  8
0
  6
Continuous
 62
     7
370
    15
100
AcDbLine
 10
129.2291824062
 20
76.2341715261
 30
0.0
 11
144.261626012
 21
67.5561265499
 31
0.0
  0
LWPOLYLINE
  5
2A3
330
1F
100
AcDbEntity
  8
0
  6
Continuous
 62
     7
370
    15
100
AcDbPolyline
 90
       10
 70
   128
 43
0.0
 10
129.2291824062
 20
71.2376796303
 10
128.4892467049
 20
71.8154980842
 10
127.8385581694
 20
72.6249484363
 10
127.3555994403
 20
73.568399028
 10
127.0986224681
 20
74.5320557941
 10
127.0986224681
 20
75.3996875066
 10
127.3555994403
 20
76.0666449759
 10
127.8385581694
 20
76.4524832882
 10
128.4892467049
 20
76.5106646485
 10
129.2291824062
 20
76.2341715261
  0
LINE
  5
2A4
330
1F
100
AcDbEntity
  8
0
  6
Continuous
 62
     7
370
    15
100
AcDbLine
 10
144.261626012
 20
62.5596346541
 30
0.0
 11
129.2291824062
 21
71.2376796303
 31
0.0
  0
LINE
  5
2A5
330
1F
100
AcDbEntity
  8
0
  6
Continuous
 62
     7
370
    15
100
AcDbLine
 10
139.6627118817
 20
87.5274986126
 30
0.0
 11
155.0305012577
 21
96.399231895
 31
0.0
  0
ELLIPSE
  5
2A6
330
1F
100
AcDbEntity
  8
0
  6
Continuous
 62
     7
370
    15
100
AcDbEllipse
 10
155.0230900938
 20
89.3769789137
 30
0.0
 11
-4.299649270267224
 21
7.448020955521202
 31
0.0
210
0.0
220
0.0
230
1.0
 40
0.5780852102
 41
3.927681267029276
 42
5.497259618652949
  0
LINE
  5
2A7
330
1F
100
AcDbEntity
  8
0
  6
Continuous
 62
     7
370
    15
100
AcDbLine
 10
161.107915123
 20
85.8728423327
 30
0.0
 11
145.7401257469
 21
77.0011090503
 31
0.0
  0
SPLINE
  5
2A8
330
1F
100
AcDbEntity
  8
0
  6
Continuous
 62
     7
370
    15
100
AcDbSpline
210
0.0
220
0.0
230
1.0
 70
    24
 71
     3
 72
    12
 73
     8
 74
     0
 42
0.00000001
 43
0.00000001
 40
0.0
 40
0.0
 40
0.0
 40
0.0
 40
0.2038126653568043
 40
0.4076200810140115
 40
0.7015406990464709
 40
0.8508257844646466
 40
1.0
 40
1.0
 40
1.0
 40
1.0
 10
49.59284205214568
 20
324.0035863505091
 30
0.0
 10
49.59284205214568
 20
323.9912512343614
 30
0.0
 10
49.59284205214568
 20
323.9787451894408
 30
0.0
 10
49.59284205214568
 20
323.9660865700931
 30
0.0
 10
49.59284205214568
 20
323.9532939545874
 30
0.0
 10
49.59284205214568
 20
323.9403861178512
 30
0.0
 10
49.59284205214568
 20
323.927382003915
 30
0.0
 10
49.59284205214568
 20
323.9143006981092
 30
0.0
  0
LINE
  5
2A9
330
1F
100
AcDbEntity
  8
0
  6
Continuous
 62
     7
370
    15
100
AcDbLine
 10
155.0305012577
 20
96.399231895
 30
0.0
 11
94.439660077
 21
131.3775799736
 31
0.0
  0
LINE
  5
2AA
330
1F
100
AcDbEntity
  8
0
  6
Continuous
 62
     7
370
    15
100
AcDbLine
 10
161.107915123
 20
59.0817481718
 30
0.0
 11
161.107915123
 21
85.8728423327
 31
0.0
  0
LINE
  5
2AB
330
1F
100
AcDbEntity
  8
0
  6
Continuous
 62
     7
370
    15
100
AcDbLine
 10
145.7401257469
 20
51.4076126951
 30
0.0
 11
161.107915123
 21
59.0817481718
 31
0.0
  0
ARC
  5
2AC
330
1F
100
AcDbEntity
  8
0
  6
Continuous
 62
     7
370
    15
100
AcDbCircle
 10
129.3767580151
 20
76.2182056753
 30
0.0
 40
0.1484367499454008
100
AcDbArc
 50
173.8253230708
 51
234.8624965359
  0
LINE
  5
2AD
330
1F
100
AcDbEntity
  8
0
  6
Continuous
 62
     7
370
    15
100
AcDbLine
 10
143.5308117827
 20
64.4854655353
 30
0.0
 11
143.5308117827
 21
67.8765382795
 31
0.0
  0
LINE
  5
2AE
330
1F
100
AcDbEntity
  8
0
  6
Continuous
 62
     7
370
    15
100
AcDbLine
 10
143.5308117827
 20
64.4854655353
 30
0.0
 11
142.9633974046
 21
64.1793351244
 31
0.0
  0
LINE
  5
2AF
330
1F
100
AcDbEntity
  8
0
  6
Continuous
 62
     7
370
    15
100
AcDbLine
 10
142.9633974046
 20
64.1793351244
 30
0.0
 11
142.9633974046
 21
68.2040996276
 31
0.0
  0
LINE
  5
2B0
330
1F
100
AcDbEntity
  8
0
  6
Continuous
 62
     7
370
    15
100
AcDbLine
 10
139.1230035824
 20
66.3963472876
 30
0.0
 11
142.9633974046
 21
64.1793351244
 31
0.0
  0
LWPOLYLINE
  5
2B1
330
1F
100
AcDbEntity
  8
0
  6
Continuous
 62
     7
370
    15
100
AcDbPolyline
 90
        7
 70
   128
 43
0.0
 10
139.5591780704
 20
70.1693136185
 10
139.7580407035
 20
69.8541845766
 10
140.1785915902
 20
68.884599121
 10
140.3262694229
 20
67.9420196874
 10
140.1785915902
 20
67.1699454501
 10
139.7580407035
 20
66.6859177129
 10
139.443033747
 20
66.5731665731
  0
ELLIPSE
  5
2B2
330
1F
100
AcDbEntity
  8
0
  6
Continuous
 62
     7
370
    15
100
AcDbEllipse
 10
144.1118489293
 20
64.4037057592
 30
0.0
 11
-0.3008948482090261
 21
0.5193104719189421
 31
0.0
210
0.0
220
0.0
230
1.0
 40
0.5787871019
 41
0.7848584060965188
 42
1.326291930726032
  0
LINE
  5
2B3
330
1F
100
AcDbEntity
  8
0
  6
Continuous
 62
     7
370
    15
100
AcDbLine
 10
143.7473791921
 20
64.360443831
 30
0.0
 11
143.5308117827
 21
64.4854655353
 31
0.0
  0
ARC
  5
2B4
330
1F
100
AcDbEntity
  8
0
  6
Continuous
 62
     7
370
    15
100
AcDbCircle
 10
143.8994485308
 20
65.0618218622
 30
0.0
 40
0.4653467857872099
100
AcDbArc
 50
242.7736075068
 51
294.9166161735
  0
ARC
  5
2B5
330
1F
100
AcDbEntity
  8
0
  6
Continuous
 62
     7
370
    15
100
AcDbCircle
 10
144.7244341929
 20
62.5378480119
 30
0.0
 40
0.4633206989096043
100
AcDbArc
 50
123.8500425738
 51
177.3047974538
  0
SPLINE
  5
2B6
330
1F
100
AcDbEntity
  8
0
  6
Continuous
 62
     7
370
    15
100
AcDbSpline
210
0.0
220
0.0
230
1.0
 70
     8
 71
     3
 72
    11
 73
     7
 74
     0
 42
0.00000001
 43
0.00000001
 40
0.0
 40
0.0
 40
0.0
 40
0.0
 40
0.0057575782379331
 40
0.3996226446228369
 40
0.7481289046617081
 40
1.0
 40
1.0
 40
1.0
 40
1.0
 10
297.93211139772
 20
100.1771005831147
 30
0.0
 10
297.9192035609839
 20
100.174339704057
 30
0.0
 10
297.9064109454783
 20
100.1710864455517
 30
0.0
 10
297.8937523261304
 20
100.1673455822042
 30
0.0
 10
297.8812462812099
 20
100.1631226042473
 30
0.0
 10
297.8689111650622
 20
100.1584237094836
 30
0.0
 10
297.8567650811713
 20
100.1532557941891
 30
0.0
  0
ELLIPSE
  5
2B7
330
1F
100
AcDbEntity
  8
0
  6
Continuous
 62
     7
370
    15
100
AcDbEllipse
 10
144.3239809637
 20
64.526166976
 30
0.0
 11
-0.16044523707302
 21
0.2539830915842031
 31
0.0
210
0.0
220
0.0
230
1.0
 40
0.6412270862
 41
0.7583840106063048
 42
2.326745869171044
  0
ELLIPSE
  5
2B8
330
1F
100
AcDbEntity
  8
0
  6
Continuous
 62
     7
370
    15
100
AcDbEllipse
 10
155.0230900938
 20
62.6030010299
 30
0.0
 11
-4.304891885127405
 21
7.457096512742988
 31
0.0
210
0.0
220
0.0
230
1.0
 40
0.5766787367
 41
3.106725692914019
 42
3.926462895913482
  0
SPLINE
  5
2B9
330
1F
100
AcDbEntity
  8
0
  6
Continuous
 62
     7
370
    15
100
AcDbSpline
210
0.0
220
0.0
230
1.0
 70
    24
 71
     3
 72
    12
 73
     8
 74
     0
 42
0.00000001
 43
0.00000001
 40
0.0
 40
0.0
 40
0.0
 40
0.0
 40
0.1016905538033437
 40
0.346472967127918
 40
0.5945978234092304
 40
0.9999971644349356
 40
1.0
 40
1.0
 40
1.0
 40
1.0
 10
49.59284205214568
 20
319.5854092852042
 30
0.0
 10
49.59284205214568
 20
319.5739360143127
 30
0.0
 10
49.59284205214568
 20
319.5627211559483
 30
0.0
 10
49.59284205214568
 20
319.5517811694622
 30
0.0
 10
49.59284205214568
 20
319.5411321107931
 30
0.0
 10
49.59284205214568
 20
319.5307896089031
 30
0.0
 10
49.59284205214568
 20
319.5207688428401
 30
0.0
 10
49.59284205214568
 20
319.5110845194599
 30
0.0
  0
LWPOLYLINE
  5
2BA
330
1F
100
AcDbEntity
  8
0
  6
Continuous
 62
     7
370
    15
100
AcDbPolyline
 90
       13
 70
   128
 43
0.0
 10
91.4953033673
 20
133.9332250266
 10
89.3830441262
 20
136.2932830232
 10
87.1739384644
 20
138.4305883683
 10
84.8954557524
 20
140.3185645005
 10
82.5759280374
 20
141.9337351701
 10
80.2441977455
 20
143.2560163573
 10
77.9292590368
 20
144.2689660094
 10
75.6598972747
 20
144.9599884909
 10
73.4643310911
 20
145.3204912058
 10
71.3698614983
 20
145.3459914429
 10
69.4025324121
 20
145.0361721167
 10
67.5868068052
 20
144.39488571
 10
66.4485091488
 20
143.7722320029
  0
SPLINE
  5
2BB
330
1F
100
AcDbEntity
  8
0
  6
Continuous
 62
     7
370
    15
100
AcDbSpline
210
0.0
220
0.0
230
1.0
 70
     8
 71
     3
 72
    11
 73
     7
 74
     0
 42
0.00000001
 43
0.00000001
 40
0.0
 40
0.0
 40
0.0
 40
0.0
 40
0.3370190830487054
 40
0.6838118420539252
 40
0.8414254452989228
 40
1.0
 40
1.0
 40
1.0
 40
1.0
 10
76.361112474826
 20
79.27733909304128
 30
0.0
 10
76.36111247482599
 20
79.34398424623758
 30
0.0
 10
3049.592842052146
 20
33072.23868488065
 30
0.0
 10
49.59284205214568
 20
3072.238684880649
 30
0.0
 10
10049.59284205214
 20
72.23868488064925
 30
0.0
 10
5.102332797386264E+62
 20
72.23868488064925
 30
0.0
 10
49.59284205214568
 20
3.407481342833234E+146
 30
0.0
  0
ARC
  5
2BC
330
1F
100
AcDbEntity
  8
0
  6
Continuous
 62
     7
370
    15
100
AcDbCircle
 10
158.4671340051
 20
91.3641754364
 30
0.0
 40
4.587362350602573
100
AcDbArc
 50
2.6054784857
 51
57.39452166
  0
LINE
  5
2BD
330
1F
100
AcDbEntity
  8
0
  6
Continuous
 62
     7
370
    15
100
AcDbLine
 10
163.0497540677
 20
65.1167877753
 30
0.0
 11
163.0497540677
 21
91.5727100804
 31
0.0
  0
LINE
  5
2BE
330
1F
100
AcDbEntity
  8
0
  6
Continuous
 62
     7
370
    15
100
AcDbLine
 10
100.4890909611
 20
130.1255864752
 30
0.0
 11
160.9390403258
 21
95.2285735108
 31
0.0
  0
ARC
  5
2BF
330
1F
100
AcDbEntity
  8
0
  6
Continuous
 62
     7
370
    15
100
AcDbCircle
 10
161.5379187678
 20
64.9728591748
 30
0.0
 40
1.518670937362375
100
AcDbArc
 50
307.7609744754
 51
5.438239552
  0
ARC
  5
2C0
330
1F
100
AcDbEntity
  8
0
  6
Continuous
 62
     7
370
    15
100
AcDbCircle
 10
110.146615682
 20
146.1939466483
 30
0.0
 40
18.74726599765236
100
AcDbArc
 50
219.0994023832
 51
238.9929795378
  0
LWPOLYLINE
  5
2C1
330
1F
100
AcDbEntity
  8
0
  6
Continuous
 62
     7
370
    15
100
AcDbPolyline
 90
        9
 70
   128
 43
0.0
 10
79.6443079309
 20
143.5474775448
 10
81.1207878518
 20
143.5141818729
 10
83.1408866959
 20
143.160962435
 10
85.2340807347
 20
142.4624656424
 10
87.3664187395
 20
141.4300209867
 10
89.5033145738
 20
140.0803745334
 10
91.6101081737
 20
138.4354173037
 10
93.6526277283
 20
136.5218302063
 10
95.5977439399
 20
134.3706512777
  0
LWPOLYLINE
  5
2C2
330
1F
100
AcDbEntity
  8
0
  6
Continuous
 62
     7
370
    15
100
AcDbPolyline
 90
        9
 70
   128
 43
0.0
 10
137.8558851367
 20
70.9447608077
 10
138.5812852025
 20
70.359374291
 10
139.1962496841
 20
69.5298636202
 10
139.6071558138
 20
68.5825142755
 10
139.7514468582
 20
67.6615516067
 10
139.6071558138
 20
66.9071838318
 10
139.1962496841
 20
66.434256606
 10
138.5812852025
 20
66.3147688125
 10
137.8558851367
 20
66.5669113845
  0
LINE
  5
2C3
330
1F
100
AcDbEntity
  8
0
  6
Continuous
 62
     7
370
    15
100
AcDbLine
 10
137.8558851367
 20
66.5669113845
 30
0.0
 11
129.2291824062
 21
71.5470008666
 31
0.0
  0
LWPOLYLINE
  5
2C4
330
1F
100
AcDbEntity
  8
0
  6
Continuous
 62
     7
370
    15
100
AcDbPolyline
 90
        9
 70
   128
 43
0.0
 10
129.2291824062
 20
71.5470008666
 10
128.5037823403
 20
72.1323873833
 10
127.8888178587
 20
72.9618980541
 10
127.477911729
 20
73.9092473988
 10
127.3336206846
 20
74.8302100676
 10
127.477911729
 20
75.5845778425
 10
127.8888178587
 20
76.0575050683
 10
128.5037823403
 20
76.1769928619
 10
129.2291824062
 20
75.9248502899
  0
LINE
  5
2C5
330
1F
100
AcDbEntity
  8
0
  6
Continuous
 62
     7
370
    15
100
AcDbLine
 10
129.2291824062
 20
75.9248502899
 30
0.0
 11
137.8558851367
 21
70.9447608077
 31
0.0
  0
ARC
  5
2C6
330
1F
100
AcDbEntity
  8
0
  6
Continuous
 62
     7
370
    15
100
AcDbCircle
 10
144.4098888573
 20
67.540295615
 30
0.0
 40
0.1491056330199155
100
AcDbArc
 50
173.905269935
 51
233.9847979094
  0
ARC
  5
2C7
330
1F
100
AcDbEntity
  8
0
  6
Continuous
 62
     7
370
    15
100
AcDbCircle
 10
144.7468533251
 20
66.9588902568
 30
0.0
 40
0.14969220805942
100
AcDbArc
 50
186.2187325829
 51
245.967605833
  0
ARC
  5
2C8
330
1F
100
AcDbEntity
  8
0
  6
Continuous
 62
     7
370
    15
100
AcDbCircle
 10
144.7425929053
 20
62.937180286
 30
0.0
 40
0.1449863337685984
100
AcDbArc
 50
184.3422605725
 51
246.9778803851
  0
LINE
  5
2C9
330
1F
100
AcDbEntity
  8
0
  6
Continuous
 62
     7
370
    15
100
AcDbLine
 10
144.095498594
 20
64.6397886837
 30
0.0
 11
144.5980227462
 21
64.9109096336
 31
0.0
  0
LINE
  5
2CA
330
1F
100
AcDbEntity
  8
0
  6
Continuous
 62
     7
370
    15
100
AcDbLine
 10
144.095498594
 20
67.5505515221
 30
0.0
 11
144.095498594
 21
64.6397886837
 31
0.0
  0
LINE
  5
2CB
330
1F
100
AcDbEntity
  8
0
  6
Continuous
 62
     7
370
    15
100
AcDbLine
 10
143.686548851
 20
64.648032837
 30
0.0
 11
143.686548851
 21
67.7866331836
 31
0.0
  0
ELLIPSE
  5
2CC
330
1F
100
AcDbEntity
  8
0
  6
Continuous
 62
     7
370
    15
100
AcDbEllipse
 10
144.4727226679
 20
63.1729166999
 30
0.0
 11
-0.1296981488264919
 21
0.2740247240139695
 31
0.0
210
0.0
220
0.0
230
0.9999999999999999
 40
0.5508090222
 41
2.399722020165369
 42
3.238123324784636
  0
LINE
  5
2CD
330
1F
100
AcDbEntity
  8
0
  6
Continuous
 62
     7
370
    15
100
AcDbLine
 10
144.4663547451
 20
62.9226350552
 30
0.0
 11
144.5980227462
 21
63.015783659
 31
0.0
  0
LINE
  5
2CE
330
1F
100
AcDbEntity
  8
0
  6
Continuous
 62
     7
370
    15
100
AcDbLine
 10
138.5921541643
 20
66.3137388688
 30
0.0
 11
144.4663547451
 21
62.9226350552
 31
0.0
  0
LINE
  5
2CF
330
1F
100
AcDbEntity
  8
0
  6
Continuous
 62
     7
370
    15
100
AcDbLine
 10
144.5980227462
 20
64.4294841178
 30
0.0
 11
144.3155422839
 21
64.2770807538
 31
0.0
  0
ARC
  5
2D0
330
1F
100
AcDbEntity
  8
0
  6
Continuous
 62
     7
370
    15
100
AcDbCircle
 10
129.6863652982
 20
71.216870113
 30
0.0
 40
0.4576562386242366
100
AcDbArc
 50
142.8055958547
 51
177.3938763523
  0
LWPOLYLINE
  5
2D1
330
1F
100
AcDbEntity
  8
0
  6
Continuous
 62
     7
370
    15
100
AcDbPolyline
 90
        3
 70
   128
 43
0.0
 10
128.0885122601
 20
76.2630434303
 10
128.0540456777
 20
76.2441100404
 10
127.73841814
 20
75.948523827
  0
LINE
  5
2D2
330
1F
100
AcDbEntity
  8
0
  6
Continuous
 62
     7
370
    15
100
AcDbLine
 10
163.0497540677
 20
91.5727100804
 30
0.0
 11
160.289547858
 21
89.86369113
 31
0.0
  0
LINE
  5
2D3
330
1F
100
AcDbEntity
  8
0
  6
Continuous
 62
     7
370
    15
100
AcDbLine
 10
160.9390403258
 20
95.2285735108
 30
0.0
 11
158.0790906591
 21
93.693149462
 31
0.0
  0
LINE
  5
2D4
330
1F
100
AcDbEntity
  8
0
  6
Continuous
 62
     7
370
    15
100
AcDbLine
 10
163.0497540677
 20
65.1167877753
 30
0.0
 11
161.107915123
 21
63.9144719688
 31
0.0
  0
LINE
  5
2D5
330
1F
100
AcDbEntity
  8
0
  6
Continuous
 62
     7
370
    15
100
AcDbLine
 10
100.4890909611
 20
130.1255864752
 30
0.0
 11
98.478364317
 21
129.0460856431
 31
0.0
  0
LINE
  5
2D6
330
1F
100
AcDbEntity
  8
0
  6
Continuous
 62
     7
370
    15
100
AcDbLine
 10
95.5977439399
 20
134.3706512777
 30
0.0
 11
92.6597020131
 21
132.7237797412
 31
0.0
  0
LINE
  5
2D7
330
1F
100
AcDbEntity
  8
0
  6
Continuous
 62
     7
370
    15
100
AcDbLine
 10
137.8558851367
 20
70.9447608077
 30
0.0
 11
138.0343442239
 21
71.0495814611
 31
0.0
  0
LINE
  5
2D8
330
1F
100
AcDbEntity
  8
0
  6
Continuous
 62
     7
370
    15
100
AcDbLine
 10
129.2291824062
 20
75.9248502899
 30
0.0
 11
129.4076414934
 21
76.0296709432
 31
0.0
  0
ENDSEC
  0
SECTION
  2
OBJECTS
  0
DICTIONARY
  5
C
330
0
100
AcDbDictionary
281
     1
  3
ACAD_GROUP
350
D
  3
ACAD_LAYOUT
350
1A
  3
ACAD_MLEADERSTYLE
350
2DC
  3
ACAD_MLINESTYLE
350
17
  3
ACAD_PLOTSETTINGS
350
19
  3
ACAD_PLOTSTYLENAME
350
E
  3
ACAD_SCALELIST
350
3B
  3
ACAD_TABLESTYLE
350
2DB
  3
ACAD_VISUALSTYLE
350
2A
  3
AcDbVariableDictionary
350
2D9
  0
DICTIONARY
  5
D
102
{ACAD_REACTORS
330
C
102
}
330
C
100
AcDbDictionary
281
     1
  0
DICTIONARY
  5
1A
102
{ACAD_REACTORS
330
C
102
}
330
C
100
AcDbDictionary
281
     1
  3
Layout1
350
1E
  3
Layout2
350
26
  3
Model
350
22
  0
DICTIONARY
  5
2DC
102
{ACAD_REACTORS
330
C
102
}
330
C
100
AcDbDictionary
281
     1
  0
DICTIONARY
  5
17
102
{ACAD_REACTORS
330
C
102
}
330
C
100
AcDbDictionary
281
     1
  3
Standard
350
18
  0
DICTIONARY
  5
19
102
{ACAD_REACTORS
330
C
102
}
330
C
100
AcDbDictionary
281
     1
  0
ACDBDICTIONARYWDFLT
  5
E
102
{ACAD_REACTORS
330
C
102
}
330
C
100
AcDbDictionary
281
     1
  3
Normal
350
F
100
AcDbDictionaryWithDefault
340
F
  0
DICTIONARY
  5
3B
102
{ACAD_REACTORS
330
C
102
}
330
C
100
AcDbDictionary
281
     1
  3
A0
350
3C
  3
A1
350
3D
  3
A2
350
3E
  3
A3
350
3F
  3
A4
350
40
  3
A5
350
41
  3
A6
350
42
  3
A7
350
43
  3
A8
350
44
  3
A9
350
45
  3
B0
350
46
  3
B1
350
47
  3
B2
350
48
  3
B3
350
49
  3
B4
350
4A
  3
B5
350
4B
  3
B6
350
4C
  3
B7
350
4D
  3
B8
350
4E
  3
B9
350
4F
  3
C0
350
50
  3
C1
350
51
  3
C2
350
52
  3
C3
350
53
  3
C4
350
54
  3
C5
350
55
  3
C6
350
56
  3
C7
350
57
  3
C8
350
58
  3
C9
350
59
  3
D0
350
5A
  3
D1
350
5B
  3
D2
350
5C
  0
DICTIONARY
  5
2DB
102
{ACAD_REACTORS
330
C
102
}
330
C
100
AcDbDictionary
281
     1
  0
DICTIONARY
  5
2A
102
{ACAD_REACTORS
330
C
102
}
330
C
100
AcDbDictionary
281
     1
  3
2dWireframe
350
2F
  3
3D Hidden
350
31
  3
3dWireframe
350
30
  3
Basic
350
32
  3
Brighten
350
36
  3
ColorChange
350
3A
  3
Conceptual
350
34
  3
Dim
350
35
  3
Facepattern
350
39
  3
Flat
350
2B
  3
FlatWithEdges
350
2C
  3
Gouraud
350
2D
  3
GouraudWithEdges
350
2E
  3
Linepattern
350
38
  3
Realistic
350
33
  3
Thicken
350
37
  0
DICTIONARY
  5
2D9
102
{ACAD_REACTORS
330
C
102
}
330
C
100
AcDbDictionary
281
     1
  3
CANNOSCALE
350
2DA
  3
PSOLHEIGHT
350
2DE
  3
PSOLWIDTH
350
2DD
  0
LAYOUT
  5
1E
102
{ACAD_REACTORS
330
1A
102
}
330
1A
100
AcDbPlotSettings
  1

  2
none_device
  4

  6

 40
0.0
 41
0.0
 42
0.0
 43
0.0
 44
0.0
 45
0.0
 46
0.0
 47
0.0
 48
0.0
 49
0.0
140
0.0
141
0.0
142
1.0
143
1.0
 70
   688
 72
     0
 73
     0
 74
     5
  7

 75
    16
147
1.0
148
0.0
149
0.0
100
AcDbLayout
  1
Layout1
 70
     1
 71
     1
 10
0.0
 20
0.0
 11
420.0
 21
297.0
 12
0.0
 22
0.0
 32
0.0
 14
1.0000000000E+20
 24
1.0000000000E+20
 34
1.0000000000E+20
 15
-1.0000000000E+20
 25
-1.0000000000E+20
 35
-1.0000000000E+20
146
0.0
 13
0.0
 23
0.0
 33
0.0
 16
1.0
 26
0.0
 36
0.0
 17
0.0
 27
1.0
 37
0.0
 76
     0
330
1B
  0
LAYOUT
  5
26
102
{ACAD_REACTORS
330
1A
102
}
330
1A
100
AcDbPlotSettings
  1

  2
none_device
  4

  6

 40
0.0
 41
0.0
 42
0.0
 43
0.0
 44
0.0
 45
0.0
 46
0.0
 47
0.0
 48
0.0
 49
0.0
140
0.0
141
0.0
142
1.0
143
1.0
 70
   688
 72
     0
 73
     0
 74
     5
  7

 75
    16
147
1.0
148
0.0
149
0.0
100
AcDbLayout
  1
Layout2
 70
     1
 71
     2
 10
0.0
 20
0.0
 11
0.0
 21
0.0
 12
0.0
 22
0.0
 32
0.0
 14
0.0
 24
0.0
 34
0.0
 15
0.0
 25
0.0
 35
0.0
146
0.0
 13
0.0
 23
0.0
 33
0.0
 16
1.0
 26
0.0
 36
0.0
 17
0.0
 27
1.0
 37
0.0
 76
     0
330
23
  0
LAYOUT
  5
22
102
{ACAD_REACTORS
330
1A
102
}
330
1A
100
AcDbPlotSettings
  1

  2
none_device
  4

  6

 40
0.0
 41
0.0
 42
0.0
 43
0.0
 44
0.0
 45
0.0
 46
0.0
 47
0.0
 48
0.0
 49
0.0
140
0.0
141
0.0
142
1.0
143
1.0
 70
  1712
 72
     0
 73
     0
 74
     0
  7

 75
     0
147
1.0
148
0.0
149
0.0
100
AcDbLayout
  1
Model
 70
     1
 71
     0
 10
0.0
 20
0.0
 11
420.0
 21
297.0
 12
0.0
 22
0.0
 32
0.0
 14
0.0
 24
0.0
 34
0.0
 15
420.0
 25
297.0
 35
0.0
146
0.0
 13
0.0
 23
0.0
 33
0.0
 16
1.0
 26
0.0
 36
0.0
 17
0.0
 27
1.0
 37
0.0
 76
     0
330
1F
331
29
  0
MLINESTYLE
  5
18
102
{ACAD_REACTORS
330
17
102
}
330
17
100
AcDbMlineStyle
  2
Standard
 70
     0
  3

 62
   256
 51
90.0
 52
90.0
 71
     2
 49
0.5
 62
   256
  6
BYLAYER
 49
-0.5
 62
   256
  6
BYLAYER
  0
ACDBPLACEHOLDER
  5
F
102
{ACAD_REACTORS
330
E
102
}
330
E
  0
SCALE
  5
3C
102
{ACAD_REACTORS
330
3B
102
}
330
3B
100
AcDbScale
 70
     0
300
1:1
140
1.0
141
1.0
290
     1
  0
SCALE
  5
3D
102
{ACAD_REACTORS
330
3B
102
}
330
3B
100
AcDbScale
 70
     0
300
1:2
140
1.0
141
2.0
290
     0
  0
SCALE
  5
3E
102
{ACAD_REACTORS
330
3B
102
}
330
3B
100
AcDbScale
 70
     0
300
1:4
140
1.0
141
4.0
290
     0
  0
SCALE
  5
3F
102
{ACAD_REACTORS
330
3B
102
}
330
3B
100
AcDbScale
 70
     0
300
1:5
140
1.0
141
5.0
290
     0
  0
SCALE
  5
40
102
{ACAD_REACTORS
330
3B
102
}
330
3B
100
AcDbScale
 70
     0
300
1:8
140
1.0
141
8.0
290
     0
  0
SCALE
  5
41
102
{ACAD_REACTORS
330
3B
102
}
330
3B
100
AcDbScale
 70
     0
300
1:10
140
1.0
141
10.0
290
     0
  0
SCALE
  5
42
102
{ACAD_REACTORS
330
3B
102
}
330
3B
100
AcDbScale
 70
     0
300
1:16
140
1.0
141
16.0
290
     0
  0
SCALE
  5
43
102
{ACAD_REACTORS
330
3B
102
}
330
3B
100
AcDbScale
 70
     0
300
1:20
140
1.0
141
20.0
290
     0
  0
SCALE
  5
44
102
{ACAD_REACTORS
330
3B
102
}
330
3B
100
AcDbScale
 70
     0
300
1:30
140
1.0
141
30.0
290
     0
  0
SCALE
  5
45
102
{ACAD_REACTORS
330
3B
102
}
330
3B
100
AcDbScale
 70
     0
300
1:40
140
1.0
141
40.0
290
     0
  0
SCALE
  5
46
102
{ACAD_REACTORS
330
3B
102
}
330
3B
100
AcDbScale
 70
     0
300
1:50
140
1.0
141
50.0
290
     0
  0
SCALE
  5
47
102
{ACAD_REACTORS
330
3B
102
}
330
3B
100
AcDbScale
 70
     0
300
1:100
140
1.0
141
100.0
290
     0
  0
SCALE
  5
48
102
{ACAD_REACTORS
330
3B
102
}
330
3B
100
AcDbScale
 70
     0
300
2:1
140
2.0
141
1.0
290
     0
  0
SCALE
  5
49
102
{ACAD_REACTORS
330
3B
102
}
330
3B
100
AcDbScale
 70
     0
300
4:1
140
4.0
141
1.0
290
     0
  0
SCALE
  5
4A
102
{ACAD_REACTORS
330
3B
102
}
330
3B
100
AcDbScale
 70
     0
300
8:1
140
8.0
141
1.0
290
     0
  0
SCALE
  5
4B
102
{ACAD_REACTORS
330
3B
102
}
330
3B
100
AcDbScale
 70
     0
300
10:1
140
10.0
141
1.0
290
     0
  0
SCALE
  5
4C
102
{ACAD_REACTORS
330
3B
102
}
330
3B
100
AcDbScale
 70
     0
300
100:1
140
100.0
141
1.0
290
     0
  0
SCALE
  5
4D
102
{ACAD_REACTORS
330
3B
102
}
330
3B
100
AcDbScale
 70
     0
300
1/128" = 1'-0"
140
0.0078125
141
12.0
290
     0
  0
SCALE
  5
4E
102
{ACAD_REACTORS
330
3B
102
}
330
3B
100
AcDbScale
 70
     0
300
1/64" = 1'-0"
140
0.015625
141
12.0
290
     0
  0
SCALE
  5
4F
102
{ACAD_REACTORS
330
3B
102
}
330
3B
100
AcDbScale
 70
     0
300
1/32" = 1'-0"
140
0.03125
141
12.0
290
     0
  0
SCALE
  5
50
102
{ACAD_REACTORS
330
3B
102
}
330
3B
100
AcDbScale
 70
     0
300
1/16" = 1'-0"
140
0.0625
141
12.0
290
     0
  0
SCALE
  5
51
102
{ACAD_REACTORS
330
3B
102
}
330
3B
100
AcDbScale
 70
     0
300
3/32" = 1'-0"
140
0.09375
141
12.0
290
     0
  0
SCALE
  5
52
102
{ACAD_REACTORS
330
3B
102
}
330
3B
100
AcDbScale
 70
     0
300
1/8" = 1'-0"
140
0.125
141
12.0
290
     0
  0
SCALE
  5
53
102
{ACAD_REACTORS
330
3B
102
}
330
3B
100
AcDbScale
 70
     0
300
3/16" = 1'-0"
140
0.1875
141
12.0
290
     0
  0
SCALE
  5
54
102
{ACAD_REACTORS
330
3B
102
}
330
3B
100
AcDbScale
 70
     0
300
1/4" = 1'-0"
140
0.25
141
12.0
290
     0
  0
SCALE
  5
55
102
{ACAD_REACTORS
330
3B
102
}
330
3B
100
AcDbScale
 70
     0
300
3/8" = 1'-0"
140
0.375
141
12.0
290
     0
  0
SCALE
  5
56
102
{ACAD_REACTORS
330
3B
102
}
330
3B
100
AcDbScale
 70
     0
300
1/2" = 1'-0"
140
0.5
141
12.0
290
     0
  0
SCALE
  5
57
102
{ACAD_REACTORS
330
3B
102
}
330
3B
100
AcDbScale
 70
     0
300
3/4" = 1'-0"
140
0.75
141
12.0
290
     0
  0
SCALE
  5
58
102
{ACAD_REACTORS
330
3B
102
}
330
3B
100
AcDbScale
 70
     0
300
1" = 1'-0"
140
1.0
141
12.0
290
     0
  0
SCALE
  5
59
102
{ACAD_REACTORS
330
3B
102
}
330
3B
100
AcDbScale
 70
     0
300
1-1/2" = 1'-0"
140
1.5
141
12.0
290
     0
  0
SCALE
  5
5A
102
{ACAD_REACTORS
330
3B
102
}
330
3B
100
AcDbScale
 70
     0
300
3" = 1'-0"
140
3.0
141
12.0
290
     0
  0
SCALE
  5
5B
102
{ACAD_REACTORS
330
3B
102
}
330
3B
100
AcDbScale
 70
     0
300
6" = 1'-0"
140
6.0
141
12.0
290
     0
  0
SCALE
  5
5C
102
{ACAD_REACTORS
330
3B
102
}
330
3B
100
AcDbScale
 70
     0
300
1'-0" = 1'-0"
140
12.0
141
12.0
290
     0
  0
VISUALSTYLE
  5
2F
102
{ACAD_REACTORS
330
2A
102
}
330
2A
100
AcDbVisualStyle
  2
2dWireframe
 70
     4
 71
     0
 72
     2
 73
     0
 90
        0
 40
-0.6
 41
-30.0
 62
     5
 63
     7
 74
     1
 91
        4
 64
     7
 65
   257
 75
     1
175
     1
 42
1.0
 92
        0
 66
   257
 43
1.0
 76
     1
 77
     6
 78
     2
 67
     7
 79
     5
170
     0
171
     0
290
     0
174
     0
 93
        1
 44
0.0
173
     0
291
     0
 45
0.0
1001
ACAD
1000
AcDbSavedByObjectVersion
1070
     0
  0
VISUALSTYLE
  5
31
102
{ACAD_REACTORS
330
2A
102
}
330
2A
100
AcDbVisualStyle
  2
3D Hidden
 70
     6
 71
     1
 72
     2
 73
     2
 90
        0
 40
-0.6
 41
-30.0
 62
     5
 63
     7
 74
     2
 91
        2
 64
     7
 65
   257
 75
     2
175
     1
 42
40.0
 92
        0
 66
   257
 43
1.0
 76
     1
 77
     6
 78
     2
 67
     7
 79
     3
170
     0
171
     0
290
     0
174
     0
 93
        1
 44
0.0
173
     0
291
     0
 45
0.0
1001
ACAD
1000
AcDbSavedByObjectVersion
1070
     0
  0
VISUALSTYLE
  5
30
102
{ACAD_REACTORS
330
2A
102
}
330
2A
100
AcDbVisualStyle
  2
3dWireframe
 70
     5
 71
     0
 72
     2
 73
     0
 90
        0
 40
-0.6
 41
-30.0
 62
     5
 63
     7
 74
     1
 91
        4
 64
     7
 65
   257
 75
     1
175
     1
 42
1.0
 92
        0
 66
   257
 43
1.0
 76
     1
 77
     6
 78
     2
 67
     7
 79
     5
170
     0
171
     0
290
     0
174
     0
 93
        1
 44
0.0
173
     0
291
     0
 45
0.0
1001
ACAD
1000
AcDbSavedByObjectVersion
1070
     0
  0
VISUALSTYLE
  5
32
102
{ACAD_REACTORS
330
2A
102
}
330
2A
100
AcDbVisualStyle
  2
Basic
 70
     7
 71
     1
 72
     0
 73
     1
 90
        0
 40
-0.6
 41
-30.0
 62
     5
 63
     7
 74
     0
 91
        4
 64
     7
 65
   257
 75
     1
175
     1
 42
1.0
 92
        8
 66
     7
 43
1.0
 76
     1
 77
     6
 78
     2
 67
     7
 79
     5
170
     0
171
     0
290
     0
174
     0
 93
        1
 44
0.0
173
     0
291
     1
 45
0.0
1001
ACAD
1000
AcDbSavedByObjectVersion
1070
     0
  0
VISUALSTYLE
  5
36
102
{ACAD_REACTORS
330
2A
102
}
330
2A
100
AcDbVisualStyle
  2
Brighten
 70
    12
 71
     2
 72
     2
 73
     0
 90
        0
 40
-0.6
 41
-30.0
 62
     5
 63
     7
 74
     1
 91
        4
 64
     7
 65
   257
 75
     1
175
     1
 42
1.0
 92
        8
 66
     7
 43
1.0
 76
     1
 77
     6
 78
     2
 67
     7
 79
     5
170
     0
171
     0
290
     0
174
     0
 93
        1
 44
50.0
173
     0
291
     1
 45
0.0
1001
ACAD
1000
AcDbSavedByObjectVersion
1070
     0
  0
VISUALSTYLE
  5
3A
102
{ACAD_REACTORS
330
2A
102
}
330
2A
100
AcDbVisualStyle
  2
ColorChange
 70
    16
 71
     2
 72
     2
 73
     3
 90
        0
 40
-0.6
 41
-30.0
 62
     5
 63
     8
 74
     1
 91
        4
 64
     7
 65
   257
 75
     1
175
     1
 42
1.0
 92
        8
 66
     8
 43
1.0
 76
     1
 77
     6
 78
     2
 67
     7
 79
     5
170
     0
171
     0
290
     0
174
     0
 93
        1
 44
0.0
173
     0
291
     1
 45
0.0
1001
ACAD
1000
AcDbSavedByObjectVersion
1070
     0
  0
VISUALSTYLE
  5
34
102
{ACAD_REACTORS
330
2A
102
}
330
2A
100
AcDbVisualStyle
  2
Conceptual
 70
     9
 71
     3
 72
     2
 73
     0
 90
        0
 40
-0.6
 41
-30.0
 62
     5
 63
     7
 74
     2
 91
        2
 64
     7
 65
   257
 75
     1
175
     1
 42
40.0
 92
        8
 66
     7
 43
1.0
 76
     1
 77
     6
 78
     2
 67
     7
 79
     3
170
     0
171
     0
290
     0
174
     0
 93
        1
 44
0.0
173
     0
291
     0
 45
0.0
1001
ACAD
1000
AcDbSavedByObjectVersion
1070
     0
  0
VISUALSTYLE
  5
35
102
{ACAD_REACTORS
330
2A
102
}
330
2A
100
AcDbVisualStyle
  2
Dim
 70
    11
 71
     2
 72
     2
 73
     0
 90
        0
 40
-0.6
 41
-30.0
 62
     5
 63
     7
 74
     1
 91
        4
 64
     7
 65
   257
 75
     1
175
     1
 42
1.0
 92
        8
 66
     7
 43
1.0
 76
     1
 77
     6
 78
     2
 67
     7
 79
     5
170
     0
171
     0
290
     0
174
     0
 93
        1
 44
-50.0
173
     0
291
     1
 45
0.0
1001
ACAD
1000
AcDbSavedByObjectVersion
1070
     0
  0
VISUALSTYLE
  5
39
102
{ACAD_REACTORS
330
2A
102
}
330
2A
100
AcDbVisualStyle
  2
Facepattern
 70
    15
 71
     2
 72
     2
 73
     0
 90
        0
 40
-0.6
 41
-30.0
 62
     5
 63
     7
 74
     1
 91
        4
 64
     7
 65
   257
 75
     1
175
     1
 42
1.0
 92
        8
 66
     7
 43
1.0
 76
     1
 77
     6
 78
     2
 67
     7
 79
     5
170
     0
171
     0
290
     0
174
     0
 93
        1
 44
0.0
173
     0
291
     1
 45
0.0
1001
ACAD
1000
AcDbSavedByObjectVersion
1070
     0
  0
VISUALSTYLE
  5
2B
102
{ACAD_REACTORS
330
2A
102
}
330
2A
100
AcDbVisualStyle
  2
Flat
 70
     0
 71
     2
 72
     1
 73
     1
 90
        2
 40
-0.6
 41
30.0
 62
     5
 63
     7
 74
     0
 91
        4
 64
     7
 65
   257
 75
     1
175
     1
 42
1.0
 92
        8
 66
     7
 43
1.0
 76
     1
 77
     6
 78
     2
 67
     7
 79
     5
170
     0
171
     0
290
     0
174
     0
 93
       13
 44
0.0
173
     0
291
     1
 45
0.0
1001
ACAD
1000
AcDbSavedByObjectVersion
1070
     0
  0
VISUALSTYLE
  5
2C
102
{ACAD_REACTORS
330
2A
102
}
330
2A
100
AcDbVisualStyle
  2
FlatWithEdges
 70
     1
 71
     2
 72
     1
 73
     1
 90
        2
 40
-0.6
 41
30.0
 62
     5
 63
     7
 74
     1
 91
        4
 64
     7
 65
   257
 75
     1
175
     1
 42
1.0
 92
        0
 66
   257
 43
1.0
 76
     1
 77
     6
 78
     2
 67
     7
 79
     5
170
     0
171
     0
290
     0
174
     0
 93
       13
 44
0.0
173
     0
291
     1
 45
0.0
1001
ACAD
1000
AcDbSavedByObjectVersion
1070
     0
  0
VISUALSTYLE
  5
2D
102
{ACAD_REACTORS
330
2A
102
}
330
2A
100
AcDbVisualStyle
  2
Gouraud
 70
     2
 71
     2
 72
     2
 73
     1
 90
        2
 40
-0.6
 41
30.0
 62
     5
 63
     7
 74
     0
 91
        4
 64
     7
 65
   257
 75
     1
175
     1
 42
1.0
 92
        0
 66
     7
 43
1.0
 76
     1
 77
     6
 78
     2
 67
     7
 79
     5
170
     0
171
     0
290
     0
174
     0
 93
       13
 44
0.0
173
     0
291
     1
 45
0.0
1001
ACAD
1000
AcDbSavedByObjectVersion
1070
     0
  0
VISUALSTYLE
  5
2E
102
{ACAD_REACTORS
330
2A
102
}
330
2A
100
AcDbVisualStyle
  2
GouraudWithEdges
 70
     3
 71
     2
 72
     2
 73
     1
 90
        2
 40
-0.6
 41
30.0
 62
     5
 63
     7
 74
     1
 91
        4
 64
     7
 65
   257
 75
     1
175
     1
 42
1.0
 92
        0
 66
   257
 43
1.0
 76
     1
 77
     6
 78
     2
 67
     7
 79
     5
170
     0
171
     0
290
     0
174
     0
 93
       13
 44
0.0
173
     0
291
     1
 45
0.0
1001
ACAD
1000
AcDbSavedByObjectVersion
1070
     0
  0
VISUALSTYLE
  5
38
102
{ACAD_REACTORS
330
2A
102
}
330
2A
100
AcDbVisualStyle
  2
Linepattern
 70
    14
 71
     2
 72
     2
 73
     0
 90
        0
 40
-0.6
 41
-30.0
 62
     5
 63
     7
 74
     1
 91
        4
 64
     7
 65
   257
 75
     7
175
     7
 42
1.0
 92
        8
 66
     7
 43
1.0
 76
     1
 77
     6
 78
     2
 67
     7
 79
     5
170
     0
171
     0
290
     0
174
     0
 93
        1
 44
0.0
173
     0
291
     1
 45
0.0
1001
ACAD
1000
AcDbSavedByObjectVersion
1070
     0
  0
VISUALSTYLE
  5
33
102
{ACAD_REACTORS
330
2A
102
}
330
2A
100
AcDbVisualStyle
  2
Realistic
 70
     8
 71
     2
 72
     2
 73
     0
 90
        0
 40
-0.6
 41
-30.0
 62
     5
 63
     7
 74
     1
 91
        0
 64
     7
 65
   257
 75
     1
175
     1
 42
1.0
 92
        8
 66
     8
 43
1.0
 76
     1
 77
     6
 78
     2
 67
     7
 79
     5
170
     0
171
     0
290
     0
174
     0
 93
       13
 44
0.0
173
     0
291
     0
 45
0.0
1001
ACAD
1000
AcDbSavedByObjectVersion
1070
     0
  0
VISUALSTYLE
  5
37
102
{ACAD_REACTORS
330
2A
102
}
330
2A
100
AcDbVisualStyle
  2
Thicken
 70
    13
 71
     2
 72
     2
 73
     0
 90
        0
 40
-0.6
 41
-30.0
 62
     5
 63
     7
 74
     1
 91
        4
 64
     7
 65
   257
 75
     1
175
     1
 42
1.0
 92
       12
 66
     7
 43
1.0
 76
     1
 77
     6
 78
     2
 67
     7
 79
     5
170
     0
171
     0
290
     0
174
     0
 93
        1
 44
0.0
173
     0
291
     1
 45
0.0
1001
ACAD
1000
AcDbSavedByObjectVersion
1070
     0
  0
DICTIONARYVAR
  5
2DA
102
{ACAD_REACTORS
330
2D9
102
}
330
2D9
100
DictionaryVariables
280
     0
  1
1:1
  0
DICTIONARYVAR
  5
2DE
102
{ACAD_REACTORS
330
2D9
102
}
330
2D9
100
DictionaryVariables
280
     0
  1
80.000000
  0
DICTIONARYVAR
  5
2DD
102
{ACAD_REACTORS
330
2D9
102
}
330
2D9
100
DictionaryVariables
280
     0
  1
5.000000
  0
ENDSEC
  0
EOF
