  0
SECTION
  2
HEADER
  9
$ACADVER
  1
AC1009
  9
$DWGCODEPAGE
  3
ansi_1252
  9
$INSBASE
 10
0.0
 20
0.0
 30
0.0
  9
$EXTMIN
 10
0.0
 20
0.0
 30
0.0
  9
$EXTMAX
 10
420.0
 20
297.0
 30
0.0
  9
$LIMMIN
 10
0.0
 20
0.0
  9
$LIMMAX
 10
0.0
 20
0.0
  9
$ORTHOMODE
 70
     0
  9
$REGENMODE
 70
     1
  9
$FILLMODE
 70
     1
  9
$QTEXTMODE
 70
     0
  9
$MIRRTEXT
 70
     1
  9
$DRAGMODE
 70
     2
  9
$LTSCALE
 40
1.0
  9
$OSMODE
 70
    37
  9
$ATTMODE
 70
     1
  9
$TEXTSIZE
 40
3.5
  9
$TRACEWID
 40
1.0
  9
$TEXTSTYLE
  7
STANDARD
  9
$CLAYER
  8
0
  9
$CELTYPE
  6
BYLAYER
  9
$CECOLOR
 62
   256
  9
$DIMSCALE
 40
1.0
  9
$DIMASZ
 40
3.81
  9
$DIMEXO
 40
0.0
  9
$DIMDLI
 40
3.75
  9
$DIMRND
 40
0.0
  9
$DIMDLE
 40
0.0
  9
$DIMEXE
 40
1.0
  9
$DIMTP
 40
0.0
  9
$DIMTM
 40
0.0
  9
$DIMTXT
 40
3.2
  9
$DIMCEN
 40
2.5
  9
$DIMTSZ
 40
0.0
  9
$DIMTOL
 70
     0
  9
$DIMLIM
 70
     0
  9
$DIMTIH
 70
     1
  9
$DIMTOH
 70
     1
  9
$DIMSE1
 70
     0
  9
$DIMSE2
 70
     0
  9
$DIMTAD
 70
     1
  9
$DIMZIN
 70
     0
  9
$DIMBLK
  1

  9
$DIMASO
 70
     1
  9
$DIMSHO
 70
     1
  9
$DIMPOST
  1

  9
$DIMAPOST
  1

  9
$DIMALT
 70
     0
  9
$DIMALTD
 70
     3
  9
$DIMALTF
 40
0.0393700787
  9
$DIMLFAC
 40
1.0
  9
$DIMTOFL
 70
     1
  9
$DIMTVP
 40
0.0
  9
$DIMTIX
 70
     0
  9
$DIMSOXD
 70
     0
  9
$DIMSAH
 70
     0
  9
$DIMBLK1
  1

  9
$DIMBLK2
  1

  9
$DIMSTYLE
  2
ISO-25
  9
$DIMCLRD
 70
     0
  9
$DIMCLRE
 70
     0
  9
$DIMCLRT
 70
     0
  9
$DIMTFAC
 40
1.0
  9
$DIMGAP
 40
1.524
  9
$LUNITS
 70
     2
  9
$LUPREC
 70
     1
  9
$SKETCHINC
 40
1.0
  9
$FILLETRAD
 40
10.0
  9
$AUNITS
 70
     0
  9
$AUPREC
 70
     0
  9
$MENU
  1
.
  9
$ELEVATION
 40
0.0
  9
$PELEVATION
 40
0.0
  9
$THICKNESS
 40
0.0
  9
$LIMCHECK
 70
     0
  9
$CHAMFERA
 40
10.0
  9
$CHAMFERB
 40
10.0
  9
$SKPOLY
 70
     0
  9
$TDCREATE
 40
2453868.509779456
  9
$TDUPDATE
 40
2453868.509779468
  9
$TDINDWG
 40
0.0000000116
  9
$TDUSRTIMER
 40
0.0000000116
  9
$USRTIMER
 70
     1
  9
$ANGBASE
 50
0.0
  9
$ANGDIR
 70
     0
  9
$PDMODE
 70
     0
  9
$PDSIZE
 40
-1.0
  9
$PLINEWID
 40
0.0
  9
$COORDS
 70
     1
  9
$SPLFRAME
 70
     0
  9
$SPLINETYPE
 70
     6
  9
$SPLINESEGS
 70
     8
  9
$ATTDIA
 70
     0
  9
$ATTREQ
 70
     1
  9
$HANDLING
 70
     1
  9
$HANDSEED
  5
A6A
  9
$SURFTAB1
 70
     6
  9
$SURFTAB2
 70
     6
  9
$SURFTYPE
 70
     6
  9
$SURFU
 70
     6
  9
$SURFV
 70
     6
  9
$UCSNAME
  2

  9
$UCSORG
 10
0.0
 20
0.0
 30
0.0
  9
$UCSXDIR
 10
1.0
 20
0.0
 30
0.0
  9
$UCSYDIR
 10
0.0
 20
1.0
 30
0.0
  9
$PUCSNAME
  2

  9
$PUCSORG
 10
0.0
 20
0.0
 30
0.0
  9
$PUCSXDIR
 10
1.0
 20
0.0
 30
0.0
  9
$PUCSYDIR
 10
0.0
 20
1.0
 30
0.0
  9
$USERI1
 70
     0
  9
$USERI2
 70
     0
  9
$USERI3
 70
     0
  9
$USERI4
 70
     0
  9
$USERI5
 70
     0
  9
$USERR1
 40
0.0
  9
$USERR2
 40
0.0
  9
$USERR3
 40
0.0
  9
$USERR4
 40
0.0
  9
$USERR5
 40
0.0
  9
$WORLDVIEW
 70
     1
  9
$SHADEDGE
 70
     3
  9
$SHADEDIF
 70
    70
  9
$TILEMODE
 70
     1
  9
$MAXACTVP
 70
    64
  9
$PLIMCHECK
 70
     0
  9
$PEXTMIN
 10
1.0000000000E+20
 20
1.0000000000E+20
 30
1.0000000000E+20
  9
$PEXTMAX
 10
-1.0000000000E+20
 20
-1.0000000000E+20
 30
-1.0000000000E+20
  9
$PLIMMIN
 10
0.0
 20
0.0
  9
$PLIMMAX
 10
420.0
 20
297.0
  9
$UNITMODE
 70
     0
  9
$VISRETAIN
 70
     1
  9
$PLINEGEN
 70
     0
  9
$PSLTSCALE
 70
     1
  0
ENDSEC
  0
SECTION
  2
TABLES
  0
TABLE
  2
VPORT
 70
     1
  0
VPORT
  2
*ACTIVE
 70
     0
 10
0.0
 20
0.0
 11
1.0
 21
1.0
 12
210.0
 22
148.5
 13
0.0
 23
0.0
 14
10.0
 24
10.0
 15
10.0
 25
10.0
 16
0.0
 26
0.0
 36
1.0
 17
0.0
 27
0.0
 37
0.0
 40
297.0
 41
1.9729729729
 42
50.0
 43
0.0
 44
0.0
 50
0.0
 51
0.0
 71
     0
 72
  2000
 73
     1
 74
     3
 75
     0
 76
     0
 77
     0
 78
     0
  0
ENDTAB
  0
TABLE
  2
LTYPE
 70
     6
  0
LTYPE
  2
CONTINUOUS
 70
     0
  3
Solid line
 72
    65
 73
     0
 40
0.0
  0
LTYPE
  2
HIDDEN
 70
     0
  3
Hidden __ __ __ __ __ __ __ __ __ __ __ __ __ __
 72
    65
 73
     2
 40
1.905
 49
1.27
 49
-0.635
  0
LTYPE
  2
PHANTOM
 70
     0
  3
Phantom ______  __  __  ______  __  __  ______
 72
    65
 73
     6
 40
12.7
 49
6.35
 49
-1.27
 49
1.27
 49
-1.27
 49
1.27
 49
-1.27
  0
LTYPE
  2
CENTER
 70
     0
  3
Center ____ _ ____ _ ____ _ ____ _ ____ _ ____
 72
    65
 73
     4
 40
10.16
 49
6.35
 49
-1.27
 49
1.27
 49
-1.27
  0
LTYPE
  2
CENTERX2
 70
     0
  3
Center (2x) ________  __  ________  __  _____
 72
    65
 73
     4
 40
20.32
 49
12.7
 49
-2.54
 49
2.54
 49
-2.54
  0
LTYPE
  2
DOT2
 70
     0
  3
Dot (.5x) ........................................
 72
    65
 73
     2
 40
0.635
 49
0.0
 49
-0.635
  0
ENDTAB
  0
TABLE
  2
LAYER
 70
     8
  0
LAYER
  2
0
 70
     0
 62
     7
  6
CONTINUOUS
  0
LAYER
  2
SLD-0
 70
     0
 62
     7
  6
CONTINUOUS
  0
LAYER
  2
PV
 70
     0
 62
     7
  6
CONTINUOUS
  0
LAYER
  2
COTATION
 70
     0
 62
     1
  6
CONTINUOUS
  0
LAYER
  2
NOTES
 70
     0
 62
     5
  6
CONTINUOUS
  0
LAYER
  2
COTATION2
 70
     0
 62
    96
  6
CONTINUOUS
  0
LAYER
  2
COTATION3
 70
     0
 62
    30
  6
CONTINUOUS
  0
LAYER
  2
DEFPOINTS
 70
     0
 62
     7
  6
CONTINUOUS
  0
ENDTAB
  0
TABLE
  2
STYLE
 70
     1
  0
STYLE
  2
STANDARD
 70
     0
 40
0.0
 41
1.0
 50
0.0
 71
     0
 42
2.5
  3
txt
  4

  0
ENDTAB
  0
TABLE
  2
VIEW
 70
     0
  0
ENDTAB
  0
TABLE
  2
UCS
 70
     0
  0
ENDTAB
  0
TABLE
  2
APPID
 70
     1
  0
APPID
  2
ACAD
 70
     0
  0
ENDTAB
  0
TABLE
  2
DIMSTYLE
 70
     2
  0
DIMSTYLE
  2
ISO-25
 70
     0
  3

  4

  5

  6

  7

 40
1.0
 41
2.5
 42
0.625
 43
3.75
 44
1.25
 45
0.0
 46
0.0
 47
0.0
 48
0.0
140
2.5
141
2.5
142
0.0
143
0.0393700787
144
1.0
145
0.0
146
1.0
147
0.625
 71
     0
 72
     0
 73
     0
 74
     0
 75
     0
 76
     0
 77
     1
 78
     8
170
     0
171
     3
172
     1
173
     0
174
     0
175
     0
176
     0
177
     0
178
     0
  0
DIMSTYLE
  2
SLDDIMSTYLE0
 70
     0
  3

  4

  5

  6

  7

 40
1.0
 41
3.81
 42
0.0625
 43
0.38
 44
0.0
 45
0.0
 46
0.0
 47
0.0
 48
0.0
140
3.2
141
0.09
142
0.0
143
25.4
144
1.0
145
0.0
146
1.0
147
0.8
 71
     0
 72
     0
 73
     1
 74
     1
 75
     0
 76
     0
 77
     1
 78
    12
170
     0
171
     2
172
     0
173
     1
174
     0
175
     0
176
     0
177
     0
178
     0
  0
ENDTAB
  0
ENDSEC
  0
SECTION
  2
BLOCKS
  0
BLOCK
  8
0
  2
$MODEL_SPACE
 70
     0
 10
0.0
 20
0.0
 30
0.0
  3
$MODEL_SPACE
  1

  0
ENDBLK
  5
21
  8
0
  0
BLOCK
 67
     1
  8
0
  2
$PAPER_SPACE
 70
     0
 10
0.0
 20
0.0
 30
0.0
  3
$PAPER_SPACE
  1

  0
ENDBLK
  5
1D
 67
     1
  8
0
  0
BLOCK
  8
0
  2
SW_NOTE_0
 70
     0
 10
0.0
 20
0.0
 30
0.0
  3
SW_NOTE_0
  1

  0
TEXT
  5
D6
  8
PV
 10
0.0
 20
0.4535714286
 30
0.0
 40
1.5875
  1
Parc scientifique du Sart-Tilman
 41
0.6671875
 11
0.0
 21
0.0
 31
0.0
 73
     1
  0
TEXT
  5
D7
  8
PV
 10
0.0
 20
-1.6630952125
 30
0.0
 40
1.5875
  1
5, allée des noisetiers
 41
0.6543478261
 11
0.0
 21
-2.1166666411
 31
0.0
 73
     1
  0
TEXT
  5
D8
  8
PV
 10
0.0
 20
-3.7797618536
 30
0.0
 40
1.5875
  1
4031 Angleur - BELGIUM
 41
0.6522727273
 11
0.0
 21
-4.2333332822
 31
0.0
 73
     1
  0
TEXT
  5
D9
  8
PV
 10
0.0
 20
-5.8964284947
 30
0.0
 40
1.5875
  1
Tel.: +0032(4) / 361.68.68
 41
0.6596153846
 11
0.0
 21
-6.3499999233
 31
0.0
 73
     1
  0
ENDBLK
  5
D5
  8
0
  0
BLOCK
  8
0
  2
*D2
 70
     1
 10
0.0
 20
0.0
 30
0.0
  3
*D2
  1

  0
SOLID
  5
1F7
  8
COTATION
 10
148.6432636926
 20
251.418833947
 30
0.0
 11
144.8332658129
 21
251.990348082
 31
0.0
 12
144.8332615724
 22
250.847348082
 32
0.0
 13
144.8332615724
 23
250.847348082
 33
0.0
  0
SOLID
  5
1F8
  8
COTATION
 10
27.743053887
 20
251.4192824811
 30
0.0
 11
31.5530517667
 21
250.8477683462
 31
0.0
 12
31.5530560072
 22
251.9907683462
 32
0.0
 13
31.5530560072
 23
251.9907683462
 33
0.0
  0
LINE
  5
1F9
  8
COTATION
 10
148.6431768694
 20
228.0160455727
 30
0.0
 11
148.6432674026
 21
252.418833947
 31
0.0
  0
LINE
  5
1FA
  8
COTATION
 10
27.7429670638
 20
228.0164941067
 30
0.0
 11
27.743057597
 21
252.4192824811
 31
0.0
  0
LINE
  5
1FB
  8
COTATION
 10
148.6432636926
 20
251.418833947
 30
0.0
 11
27.743053887
 21
251.4192824811
 31
0.0
  0
TEXT
  5
1FC
  8
COTATION
 10
78.2852240218
 20
252.3333805117
 30
0.0
 40
3.2
  1
120,9
 50
-0.0002125646
 41
0.7
 11
78.2852206299
 21
251.4190947974
 31
0.0
 73
     1
  0
TEXT
  5
1FD
  8
COTATION
 10
88.923664942
 20
252.3333410436
 30
0.0
 40
3.2
  1
 mm
 50
-0.0002125646
 41
0.7
 11
88.9236615501
 21
251.4190553293
 31
0.0
 73
     1
  0
ENDBLK
  5
1F5
  8
0
  0
BLOCK
  8
0
  2
*D3
 70
     1
 10
0.0
 20
0.0
 30
0.0
  3
*D3
  1

  0
SOLID
  5
3A4
  8
COTATION
 10
190.831390419
 20
247.3530297526
 30
0.0
 11
194.641390419
 21
246.7815297526
 31
0.0
 12
194.641390419
 22
247.9245297526
 32
0.0
 13
194.641390419
 23
247.9245297526
 33
0.0
  0
SOLID
  5
3A5
  8
COTATION
 10
242.9762290991
 20
247.3530297526
 30
0.0
 11
239.1662290991
 21
247.9245297526
 31
0.0
 12
239.1662290991
 22
246.7815297526
 32
0.0
 13
239.1662290991
 23
246.7815297526
 33
0.0
  0
LINE
  5
3A6
  8
COTATION
 10
190.831390419
 20
222.8779496683
 30
0.0
 11
190.831390419
 21
248.3530297526
 31
0.0
  0
LINE
  5
3A7
  8
COTATION
 10
242.9762290991
 20
207.261031153
 30
0.0
 11
242.9762290991
 21
248.3530297526
 31
0.0
  0
LINE
  5
3A8
  8
COTATION
 10
190.831390419
 20
247.3530297526
 30
0.0
 11
242.9762290991
 21
247.3530297526
 31
0.0
  0
TEXT
  5
3A9
  8
COTATION
 10
212.766052247
 20
248.2673152923
 30
0.0
 40
3.2
  1
52,1
 41
0.7
 11
212.766052247
 21
247.353029578
 31
0.0
 73
     1
  0
ENDBLK
  5
3A3
  8
0
  0
BLOCK
  8
0
  2
*D4
 70
     1
 10
0.0
 20
0.0
 30
0.0
  3
*D4
  1

  0
SOLID
  5
3B8
  8
COTATION
 10
161.6420445783
 20
237.7480778989
 30
0.0
 11
161.0705445798
 21
233.9380778986
 31
0.0
 12
162.2135445798
 22
233.9380778991
 32
0.0
 13
162.2135445798
 23
233.9380778991
 33
0.0
  0
SOLID
  5
3B9
  8
COTATION
 10
161.6420446091
 20
157.8653427313
 30
0.0
 11
162.2135446076
 21
161.6753427315
 31
0.0
 12
161.0705446076
 22
161.6753427311
 32
0.0
 13
161.0705446076
 23
161.6753427311
 33
0.0
  0
LINE
  5
3BA
  8
COTATION
 10
191.8313901082
 20
237.7480779105
 30
0.0
 11
160.6420445783
 21
237.7480778985
 31
0.0
  0
LINE
  5
3BB
  8
COTATION
 10
191.8313901389
 20
157.8653427429
 30
0.0
 11
160.6420446091
 21
157.8653427309
 31
0.0
  0
LINE
  5
3BC
  8
COTATION
 10
161.6420445783
 20
237.7480778989
 30
0.0
 11
161.6420446091
 21
157.8653427313
 31
0.0
  0
TEXT
  5
3BD
  8
COTATION
 10
160.7277590574
 20
189.0802351027
 30
0.0
 40
3.2
  1
79,9
 50
90.0000000221
 41
0.7
 11
161.6420447717
 21
189.0802351031
 31
0.0
 73
     1
  0
TEXT
  5
3BE
  8
COTATION
 10
160.7277590542
 20
197.355750127
 30
0.0
 40
3.2
  1
 mm
 50
90.0000000221
 41
0.7
 11
161.6420447685
 21
197.3557501273
 31
0.0
 73
     1
  0
ENDBLK
  5
3B7
  8
0
  0
BLOCK
  8
0
  2
*D5
 70
     1
 10
0.0
 20
0.0
 30
0.0
  3
*D5
  1

  0
SOLID
  5
3CD
  8
COTATION
 10
170.109705079
 20
208.9154047333
 30
0.0
 11
169.538205079
 21
205.1054047333
 31
0.0
 12
170.681205079
 22
205.1054047333
 32
0.0
 13
170.681205079
 23
205.1054047333
 33
0.0
  0
SOLID
  5
3CE
  8
COTATION
 10
170.109705079
 20
157.8653427429
 30
0.0
 11
170.681205079
 21
161.6753427429
 31
0.0
 12
169.538205079
 22
161.6753427429
 32
0.0
 13
169.538205079
 23
161.6753427429
 33
0.0
  0
LINE
  5
3CF
  8
COTATION
 10
183.231390419
 20
208.9154047333
 30
0.0
 11
169.109705079
 21
208.9154047333
 31
0.0
  0
LINE
  5
3D0
  8
COTATION
 10
191.8313901389
 20
157.8653427429
 30
0.0
 11
169.109705079
 21
157.8653427429
 31
0.0
  0
LINE
  5
3D1
  8
COTATION
 10
170.109705079
 20
208.9154047333
 30
0.0
 11
170.109705079
 21
157.8653427429
 31
0.0
  0
TEXT
  5
3D2
  8
COTATION
 10
169.1954195394
 20
179.252616226
 30
0.0
 40
3.2
  1
51,1
 50
90.0
 41
0.7
 11
170.1097052537
 21
179.252616226
 31
0.0
 73
     1
  0
ENDBLK
  5
3CC
  8
0
  0
BLOCK
  8
0
  2
*D6
 70
     1
 10
0.0
 20
0.0
 30
0.0
  3
*D6
  1

  0
SOLID
  5
62E
  8
COTATION
 10
277.1210483943
 20
143.6637597462
 30
0.0
 11
280.9310483943
 21
143.0922597462
 31
0.0
 12
280.9310483943
 22
144.2352597462
 32
0.0
 13
280.9310483943
 23
144.2352597462
 33
0.0
  0
SOLID
  5
62F
  8
COTATION
 10
376.1210483943
 20
143.6637597462
 30
0.0
 11
372.3110483943
 21
144.2352597462
 31
0.0
 12
372.3110483943
 22
143.0922597462
 32
0.0
 13
372.3110483943
 23
143.0922597462
 33
0.0
  0
LINE
  5
630
  8
COTATION
 10
277.1210483943
 20
202.3154047333
 30
0.0
 11
277.1210483943
 21
142.6637597462
 31
0.0
  0
LINE
  5
631
  8
COTATION
 10
376.1210483943
 20
203.2128597982
 30
0.0
 11
376.1210483943
 21
142.6637597462
 31
0.0
  0
LINE
  5
632
  8
COTATION
 10
277.1210483943
 20
143.6637597462
 30
0.0
 11
376.1210483943
 21
143.6637597462
 31
0.0
  0
TEXT
  5
633
  8
COTATION
 10
319.6694047984
 20
144.5780452858
 30
0.0
 40
3.2
  1
99
 41
0.7
 11
319.6694047984
 21
143.6637595715
 31
0.0
 73
     1
  0
TEXT
  5
634
  8
COTATION
 10
324.3952565905
 20
144.5780452858
 30
0.0
 40
3.2
  1
 mm
 41
0.7
 11
324.3952565905
 21
143.6637595715
 31
0.0
 73
     1
  0
ENDBLK
  5
62D
  8
0
  0
BLOCK
  8
0
  2
SW_CENTERMARKSYMBOL_0
 70
     0
 10
0.0
 20
0.0
 30
0.0
  3
SW_CENTERMARKSYMBOL_0
  1

  0
LINE
  5
638
  8
PV
 10
0.0
 20
0.0
 30
0.0
 11
0.0
 21
2.5
 31
0.0
  0
LINE
  5
639
  8
PV
 10
0.0
 20
0.0
 30
0.0
 11
-2.5
 21
0.0
 31
0.0
  0
LINE
  5
63A
  8
PV
 10
0.0
 20
0.0
 30
0.0
 11
0.0
 21
-2.5
 31
0.0
  0
LINE
  5
63B
  8
PV
 10
0.0
 20
0.0
 30
0.0
 11
2.5
 21
0.0
 31
0.0
  0
LINE
  5
63C
  8
PV
 10
0.0
 20
5.0
 30
0.0
 11
0.0
 21
6.6
 31
0.0
  0
LINE
  5
63D
  8
PV
 10
-5.0
 20
0.0
 30
0.0
 11
-6.6
 21
0.0
 31
0.0
  0
LINE
  5
63E
  8
PV
 10
0.0
 20
-5.0
 30
0.0
 11
0.0
 21
-6.6
 31
0.0
  0
LINE
  5
63F
  8
PV
 10
5.0
 20
0.0
 30
0.0
 11
6.6
 21
0.0
 31
0.0
  0
ENDBLK
  5
637
  8
0
  0
BLOCK
  8
0
  2
SW_CENTERMARKSYMBOL_1
 70
     0
 10
0.0
 20
0.0
 30
0.0
  3
SW_CENTERMARKSYMBOL_1
  1

  0
LINE
  5
644
  8
PV
 10
0.0
 20
0.0
 30
0.0
 11
0.0
 21
2.5
 31
0.0
  0
LINE
  5
645
  8
PV
 10
0.0
 20
0.0
 30
0.0
 11
-2.5
 21
0.0
 31
0.0
  0
LINE
  5
646
  8
PV
 10
0.0
 20
0.0
 30
0.0
 11
0.0
 21
-2.5
 31
0.0
  0
LINE
  5
647
  8
PV
 10
0.0
 20
0.0
 30
0.0
 11
2.5
 21
0.0
 31
0.0
  0
LINE
  5
648
  8
PV
 10
0.0
 20
5.0
 30
0.0
 11
0.0
 21
6.6
 31
0.0
  0
LINE
  5
649
  8
PV
 10
-5.0
 20
0.0
 30
0.0
 11
-6.6
 21
0.0
 31
0.0
  0
LINE
  5
64A
  8
PV
 10
0.0
 20
-5.0
 30
0.0
 11
0.0
 21
-6.6
 31
0.0
  0
LINE
  5
64B
  8
PV
 10
5.0
 20
0.0
 30
0.0
 11
6.6
 21
0.0
 31
0.0
  0
ENDBLK
  5
643
  8
0
  0
ENDSEC
  0
SECTION
  2
ENTITIES
  0
LINE
  5
35
  8
PV
  6
CONTINUOUS
 10
409.0
 20
12.25
 30
0.0
 11
409.0
 21
284.75
 31
0.0
  0
LINE
  5
36
  8
PV
  6
CONTINUOUS
 10
11.0
 20
12.25
 30
0.0
 11
409.0
 21
12.25
 31
0.0
  0
LINE
  5
37
  8
PV
  6
CONTINUOUS
 10
5.0
 20
6.25
 30
0.0
 11
11.0
 21
6.25
 31
0.0
  0
LINE
  5
38
  8
PV
  6
CONTINUOUS
 10
5.0
 20
290.75
 30
0.0
 11
11.0
 21
290.75
 31
0.0
  0
LINE
  5
39
  8
PV
  6
CONTINUOUS
 10
5.0
 20
290.75
 30
0.0
 11
5.0
 21
284.75
 31
0.0
  0
LINE
  5
3A
  8
PV
  6
CONTINUOUS
 10
415.0
 20
290.75
 30
0.0
 11
415.0
 21
284.75
 31
0.0
  0
LINE
  5
3B
  8
PV
  6
CONTINUOUS
 10
209.0
 20
14.45
 30
0.0
 11
209.0
 21
6.25
 31
0.0
  0
LINE
  5
3C
  8
PV
  6
CONTINUOUS
 10
207.124356
 20
13.25
 30
0.0
 11
210.875644
 21
13.25
 31
0.0
  0
LINE
  5
3D
  8
PV
  6
CONTINUOUS
 10
209.0
 20
6.25
 30
0.0
 11
210.875644
 21
13.25
 31
0.0
  0
LINE
  5
3E
  8
PV
  6
CONTINUOUS
 10
209.0
 20
6.25
 30
0.0
 11
207.124356
 21
13.25
 31
0.0
  0
LINE
  5
3F
  8
PV
  6
CONTINUOUS
 10
309.5
 20
12.25
 30
0.0
 11
309.5
 21
6.25
 31
0.0
  0
LINE
  5
40
  8
PV
  6
CONTINUOUS
 10
209.0
 20
12.25
 30
0.0
 11
209.0
 21
6.25
 31
0.0
  0
LINE
  5
41
  8
PV
  6
CONTINUOUS
 10
259.75
 20
12.25
 30
0.0
 11
259.75
 21
6.25
 31
0.0
  0
LINE
  5
42
  8
PV
  6
CONTINUOUS
 10
160.25
 20
12.25
 30
0.0
 11
160.25
 21
6.25
 31
0.0
  0
LINE
  5
43
  8
PV
  6
CONTINUOUS
 10
110.5
 20
12.25
 30
0.0
 11
110.5
 21
6.25
 31
0.0
  0
LINE
  5
44
  8
PV
  6
CONTINUOUS
 10
5.0
 20
12.25
 30
0.0
 11
5.0
 21
6.25
 31
0.0
  0
LINE
  5
45
  8
PV
  6
CONTINUOUS
 10
5.0
 20
80.375
 30
0.0
 11
11.0
 21
80.375
 31
0.0
  0
LINE
  5
46
  8
PV
  6
CONTINUOUS
 10
5.0
 20
148.5
 30
0.0
 11
11.0
 21
148.5
 31
0.0
  0
LINE
  5
47
  8
PV
  6
CONTINUOUS
 10
5.0
 20
216.625
 30
0.0
 11
11.0
 21
216.625
 31
0.0
  0
LINE
  5
48
  8
PV
  6
CONTINUOUS
 10
11.0
 20
284.75
 30
0.0
 11
409.0
 21
284.75
 31
0.0
  0
LINE
  5
49
  8
PV
  6
CONTINUOUS
 10
11.0
 20
284.75
 30
0.0
 11
11.0
 21
12.25
 31
0.0
  0
LINE
  5
4A
  8
PV
  6
CONTINUOUS
 10
12.0
 20
153.625644
 30
0.0
 11
12.0
 21
149.874356
 31
0.0
  0
LINE
  5
4B
  8
PV
  6
CONTINUOUS
 10
5.0
 20
151.75
 30
0.0
 11
12.0
 21
149.874356
 31
0.0
  0
LINE
  5
4C
  8
PV
  6
CONTINUOUS
 10
13.2
 20
151.75
 30
0.0
 11
5.0
 21
151.75
 31
0.0
  0
LINE
  5
4D
  8
PV
  6
CONTINUOUS
 10
5.0
 20
151.75
 30
0.0
 11
12.0
 21
153.625644
 31
0.0
  0
LINE
  5
4E
  8
PV
  6
CONTINUOUS
 10
60.75
 20
290.75
 30
0.0
 11
60.75
 21
284.75
 31
0.0
  0
LINE
  5
4F
  8
PV
  6
CONTINUOUS
 10
5.0
 20
151.75
 30
0.0
 11
11.0
 21
151.75
 31
0.0
  0
LINE
  5
50
  8
PV
  6
CONTINUOUS
 10
110.5
 20
290.75
 30
0.0
 11
110.5
 21
284.75
 31
0.0
  0
LINE
  5
51
  8
PV
  6
CONTINUOUS
 10
60.75
 20
12.25
 30
0.0
 11
60.75
 21
6.25
 31
0.0
  0
LINE
  5
52
  8
PV
  6
CONTINUOUS
 10
359.25
 20
12.25
 30
0.0
 11
359.25
 21
6.25
 31
0.0
  0
LINE
  5
53
  8
PV
  6
CONTINUOUS
 10
409.0
 20
290.75
 30
0.0
 11
415.0
 21
290.75
 31
0.0
  0
LINE
  5
54
  8
PV
  6
CONTINUOUS
 10
409.0
 20
6.25
 30
0.0
 11
415.0
 21
6.25
 31
0.0
  0
LINE
  5
55
  8
PV
  6
CONTINUOUS
 10
5.0
 20
12.25
 30
0.0
 11
5.0
 21
6.25
 31
0.0
  0
LINE
  5
56
  8
PV
  6
CONTINUOUS
 10
415.0
 20
12.25
 30
0.0
 11
415.0
 21
6.25
 31
0.0
  0
LINE
  5
57
  8
PV
 10
290.7475582566
 20
12.25
 30
0.0
 11
290.7475582566
 21
18.2906533893
 31
0.0
  0
LINE
  5
58
  8
PV
  6
CENTER
 10
367.4737239493
 20
26.4978187388
 30
0.0
 11
367.4737239493
 21
29.8978187388
 31
0.0
  0
LINE
  5
59
  8
PV
  6
CONTINUOUS
 10
363.4737239493
 20
29.3978187388
 30
0.0
 11
363.4737239493
 21
26.9978187388
 31
0.0
  0
LINE
  5
5A
  8
PV
 10
339.7475582566
 20
12.25
 30
0.0
 11
339.7475582566
 21
18.2906533893
 31
0.0
  0
LINE
  5
5B
  8
PV
  6
CONTINUOUS
 10
360.2737239493
 20
27.5578187388
 30
0.0
 11
363.4737239493
 21
26.9978187388
 31
0.0
  0
LINE
  5
5C
  8
PV
  6
CONTINUOUS
 10
360.2737239493
 20
28.8378177388
 30
0.0
 11
360.2737239493
 21
27.5578187388
 31
0.0
  0
LINE
  5
5D
  8
PV
  6
CONTINUOUS
 10
409.0
 20
216.625
 30
0.0
 11
415.0
 21
216.625
 31
0.0
  0
LINE
  5
5E
  8
PV
  6
CONTINUOUS
 10
409.0
 20
148.5
 30
0.0
 11
415.0
 21
148.5
 31
0.0
  0
LINE
  5
5F
  8
PV
  6
CONTINUOUS
 10
409.0
 20
80.375
 30
0.0
 11
415.0
 21
80.375
 31
0.0
  0
LINE
  5
60
  8
PV
  6
CONTINUOUS
 10
160.25
 20
290.75
 30
0.0
 11
160.25
 21
284.75
 31
0.0
  0
LINE
  5
61
  8
PV
  6
CONTINUOUS
 10
210.0
 20
284.75
 30
0.0
 11
210.0
 21
290.75
 31
0.0
  0
LINE
  5
62
  8
PV
  6
CONTINUOUS
 10
259.75
 20
290.75
 30
0.0
 11
259.75
 21
284.75
 31
0.0
  0
LINE
  5
63
  8
PV
  6
CONTINUOUS
 10
309.5
 20
290.75
 30
0.0
 11
309.5
 21
284.75
 31
0.0
  0
LINE
  5
64
  8
PV
  6
CONTINUOUS
 10
359.25
 20
290.75
 30
0.0
 11
359.25
 21
284.75
 31
0.0
  0
LINE
  5
65
  8
PV
  6
CENTER
 10
369.2070868101
 20
28.2449542043
 30
0.0
 11
359.4634531876
 21
28.1978835105
 31
0.0
  0
LINE
  5
66
  8
PV
  6
CONTINUOUS
 10
360.2737239493
 20
28.8378177388
 30
0.0
 11
363.4737239493
 21
29.3978187388
 31
0.0
  0
LINE
  5
67
  8
PV
 10
261.7475582566
 20
22.2906533893
 30
0.0
 11
373.7475582566
 21
22.2906533893
 31
0.0
  0
LINE
  5
68
  8
PV
 10
261.7475582566
 20
18.2906533893
 30
0.0
 11
409.0
 21
18.2906533893
 31
0.0
  0
LINE
  5
69
  8
PV
 10
373.7475582566
 20
12.25
 30
0.0
 11
373.7475582566
 21
38.2906533893
 31
0.0
  0
LINE
  5
6A
  8
PV
 10
261.7475582566
 20
12.25
 30
0.0
 11
261.7475582566
 21
38.2906533893
 31
0.0
  0
LINE
  5
6B
  8
PV
 10
261.7475582566
 20
26.2906533893
 30
0.0
 11
409.0
 21
26.2906533893
 31
0.0
  0
LINE
  5
6C
  8
PV
 10
261.7475582566
 20
30.2906533893
 30
0.0
 11
409.0
 21
30.2906533893
 31
0.0
  0
LINE
  5
6D
  8
PV
 10
388.7056031756
 20
18.2906533893
 30
0.0
 11
388.7056031756
 21
30.2906533893
 31
0.0
  0
LINE
  5
6E
  8
PV
 10
261.7475582566
 20
34.2906533893
 30
0.0
 11
409.0
 21
34.2906533893
 31
0.0
  0
LINE
  5
6F
  8
PV
 10
315.9891629148
 20
26.2906533893
 30
0.0
 11
315.9891629148
 21
22.2906533893
 31
0.0
  0
LINE
  5
70
  8
PV
 10
221.0
 20
38.2906533893
 30
0.0
 11
409.0
 21
38.2906533893
 31
0.0
  0
LINE
  5
71
  8
PV
 10
356.8619786814
 20
26.2906533893
 30
0.0
 11
356.8619786814
 21
38.2906533893
 31
0.0
  0
LINE
  5
72
  8
PV
 10
221.0
 20
42.2906533893
 30
0.0
 11
409.0
 21
42.2906533893
 31
0.0
  0
LINE
  5
73
  8
PV
 10
221.0
 20
46.2906533893
 30
0.0
 11
409.0
 21
46.2906533893
 31
0.0
  0
LINE
  5
74
  8
PV
 10
221.0
 20
50.2906533893
 30
0.0
 11
409.0
 21
50.2906533893
 31
0.0
  0
LINE
  5
75
  8
PV
 10
221.0
 20
54.2906533893
 30
0.0
 11
409.0
 21
54.2906533893
 31
0.0
  0
LINE
  5
76
  8
PV
 10
221.0
 20
58.2906533893
 30
0.0
 11
409.0
 21
58.2906533893
 31
0.0
  0
LINE
  5
77
  8
PV
 10
221.0
 20
62.2906533893
 30
0.0
 11
409.0
 21
62.2906533893
 31
0.0
  0
LINE
  5
78
  8
PV
 10
221.0
 20
71.2906533893
 30
0.0
 11
221.0
 21
12.2704007736
 31
0.0
  0
LINE
  5
79
  8
PV
 10
221.0
 20
66.7906533893
 30
0.0
 11
409.0
 21
66.7906533893
 31
0.0
  0
LINE
  5
7A
  8
PV
 10
221.0
 20
71.2906533893
 30
0.0
 11
409.0
 21
71.2906533893
 31
0.0
  0
LINE
  5
7B
  8
PV
 10
237.6477507152
 20
62.2906533893
 30
0.0
 11
237.6477507152
 21
38.2906533893
 31
0.0
  0
LINE
  5
7C
  8
PV
 10
247.6106668885
 20
62.2906533893
 30
0.0
 11
247.6106668885
 21
38.2906533893
 31
0.0
  0
LINE
  5
7D
  8
PV
 10
397.6555514975
 20
62.2906533893
 30
0.0
 11
397.6555514975
 21
38.2906533893
 31
0.0
  0
LINE
  5
7E
  8
PV
 10
386.6555514975
 20
62.2906533893
 30
0.0
 11
386.6555514975
 21
38.2906533893
 31
0.0
  0
CIRCLE
  5
7F
  8
PV
  6
CONTINUOUS
 10
367.4737239493
 20
28.1978187388
 30
0.0
 40
0.6400000000000319
  0
CIRCLE
  5
80
  8
PV
  6
CONTINUOUS
 10
367.4737239493
 20
28.1978187388
 30
0.0
 40
1.199999999999947
  0
TEXT
  5
81
  8
PV
 10
6.348821
 20
248.9652776462
 30
0.0
 40
3.5
  1
4
 41
0.7
 11
6.348821
 21
247.9652776462
 31
0.0
 73
     1
  0
TEXT
  5
82
  8
PV
 10
410.651179
 20
44.5902776462
 30
0.0
 40
3.5
  1
1
 41
0.7
 11
410.651179
 21
43.5902776462
 31
0.0
 73
     1
  0
TEXT
  5
83
  8
PV
 10
332.875
 20
7.6966596462
 30
0.0
 40
3.5
  1
B
 41
0.7
 11
332.875
 21
6.6966596462
 31
0.0
 73
     1
  0
TEXT
  5
84
  8
PV
 10
410.651179
 20
112.7152776462
 30
0.0
 40
3.5
  1
2
 41
0.7
 11
410.651179
 21
111.7152776462
 31
0.0
 73
     1
  0
TEXT
  5
85
  8
PV
 10
410.651179
 20
180.8402776462
 30
0.0
 40
3.5
  1
3
 41
0.7
 11
410.651179
 21
179.8402776462
 31
0.0
 73
     1
  0
TEXT
  5
86
  8
PV
 10
410.651179
 20
248.9652776462
 30
0.0
 40
3.5
  1
4
 41
0.7
 11
410.651179
 21
247.9652776462
 31
0.0
 73
     1
  0
TEXT
  5
87
  8
PV
 10
283.125
 20
7.6966596462
 30
0.0
 40
3.5
  1
C
 41
0.7
 11
283.125
 21
6.6966596462
 31
0.0
 73
     1
  0
TEXT
  5
88
  8
PV
 10
133.875
 20
7.6966596462
 30
0.0
 40
3.5
  1
F
 41
0.7
 11
133.875
 21
6.6966596462
 31
0.0
 73
     1
  0
TEXT
  5
89
  8
PV
 10
183.625
 20
7.6966596462
 30
0.0
 40
3.5
  1
E
 41
0.7
 11
183.625
 21
6.6966596462
 31
0.0
 73
     1
  0
TEXT
  5
8A
  8
PV
 10
84.125
 20
7.6966596462
 30
0.0
 40
3.5
  1
G
 41
0.7
 11
84.125
 21
6.6966596462
 31
0.0
 73
     1
  0
TEXT
  5
8B
  8
PV
 10
382.625
 20
7.6966596462
 30
0.0
 40
3.5
  1
A
 41
0.7
 11
382.625
 21
6.6966596462
 31
0.0
 73
     1
  0
TEXT
  5
8C
  8
PV
 10
233.375
 20
7.6966596462
 30
0.0
 40
3.5
  1
D
 41
0.7
 11
233.375
 21
6.6966596462
 31
0.0
 73
     1
  0
TEXT
  5
8D
  8
PV
 10
34.375
 20
7.6966596462
 30
0.0
 40
3.5
  1
H
 41
0.7
 11
34.375
 21
6.6966596462
 31
0.0
 73
     1
  0
TEXT
  5
8E
  8
PV
 10
6.348821
 20
180.8402776462
 30
0.0
 40
3.5
  1
3
 41
0.7
 11
6.348821
 21
179.8402776462
 31
0.0
 73
     1
  0
TEXT
  5
8F
  8
PV
 10
6.348821
 20
44.5902776462
 30
0.0
 40
3.5
  1
1
 41
0.7
 11
6.348821
 21
43.5902776462
 31
0.0
 73
     1
  0
TEXT
  5
90
  8
PV
 10
6.348821
 20
112.7152776462
 30
0.0
 40
3.5
  1
2
 41
0.7
 11
6.348821
 21
111.7152776462
 31
0.0
 73
     1
  0
TEXT
  5
91
  8
PV
 10
34.375
 20
285.8588956462
 30
0.0
 40
3.5
  1
H
 41
0.7
 11
34.375
 21
284.8588956462
 31
0.0
 73
     1
  0
TEXT
  5
92
  8
PV
 10
233.375
 20
285.8588956462
 30
0.0
 40
3.5
  1
D
 41
0.7
 11
233.375
 21
284.8588956462
 31
0.0
 73
     1
  0
TEXT
  5
93
  8
PV
 10
382.625
 20
285.8588956462
 30
0.0
 40
3.5
  1
A
 41
0.7
 11
382.625
 21
284.8588956462
 31
0.0
 73
     1
  0
TEXT
  5
94
  8
PV
 10
84.125
 20
285.8588956462
 30
0.0
 40
3.5
  1
G
 41
0.7
 11
84.125
 21
284.8588956462
 31
0.0
 73
     1
  0
TEXT
  5
95
  8
PV
 10
183.625
 20
285.8588956462
 30
0.0
 40
3.5
  1
E
 41
0.7
 11
183.625
 21
284.8588956462
 31
0.0
 73
     1
  0
TEXT
  5
96
  8
PV
 10
133.875
 20
285.8588956462
 30
0.0
 40
3.5
  1
F
 41
0.7
 11
133.875
 21
284.8588956462
 31
0.0
 73
     1
  0
TEXT
  5
97
  8
PV
 10
283.125
 20
285.8588956462
 30
0.0
 40
3.5
  1
C
 41
0.7
 11
283.125
 21
284.8588956462
 31
0.0
 73
     1
  0
TEXT
  5
98
  8
PV
 10
332.875
 20
285.8588956462
 30
0.0
 40
3.5
  1
B
 41
0.7
 11
332.875
 21
284.8588956462
 31
0.0
 73
     1
  0
TEXT
  5
99
  8
PV
 10
385.4487040217
 20
31.4451056754
 30
0.0
 40
2.0
  1
20/09/2001
 41
0.7
 11
385.4487040217
 21
30.873677104
 31
0.0
 73
     1
  0
TEXT
  5
9A
  8
PV
 10
277.216378164
 20
13.0925325224
 30
0.0
 40
3.5
  1
PA
 41
0.7
 11
277.216378164
 21
12.0925325224
 31
0.0
 73
     1
  0
TEXT
  5
9B
  8
PV
 10
310.8317309682
 20
13.2948935964
 30
0.0
 40
3.5
  1
41.5494
 41
0.7
 11
310.8317309682
 21
12.2948935964
 31
0.0
 73
     1
  0
TEXT
  5
9C
  8
PV
 10
390.49629998
 20
35.2871875066
 30
0.0
 40
2.0
  1
ML
 41
0.7
 11
390.49629998
 21
34.7157589352
 31
0.0
 73
     1
  0
TEXT
  5
9D
  8
PV
 10
338.070238954
 20
23.1851263846
 30
0.0
 40
2.0
  1
-
 41
0.7
 11
338.070238954
 21
22.6136978132
 31
0.0
 73
     1
  0
TEXT
  5
9E
  8
PV
 10
277.9563664136
 20
23.2181380299
 30
0.0
 40
2.0
  1
-
 41
0.7
 11
277.9563664136
 21
22.6467094585
 31
0.0
 73
     1
  0
TEXT
  5
9F
  8
PV
 10
273.3691847247
 20
31.1499297624
 30
0.0
 40
2.0
  1
EAGLE Dimensions
 41
0.7
 11
273.3691847247
 21
30.5785011909
 31
0.0
 73
     1
  0
TEXT
  5
A0
  8
PV
 10
283.1865802855
 20
35.3855306387
 30
0.0
 40
2.0
  1
EAGLE
 41
0.7
 11
283.1865802855
 21
34.8141020673
 31
0.0
 73
     1
  0
TEXT
  5
A1
  8
PV
 10
296.532761055
 20
27.2051496897
 30
0.0
 40
2.0
  1
-
 41
0.7
 11
296.532761055
 21
26.6337211183
 31
0.0
 73
     1
  0
TEXT
  5
A2
  8
PV
 10
353.8934781817
 20
13.1528260225
 30
0.0
 40
3.5
  1
NA
 41
0.7
 11
353.8934781817
 21
12.1528260225
 31
0.0
 73
     1
  0
TEXT
  5
A3
  8
PV
 10
401.2651848431
 20
39.3768427465
 30
0.0
 40
2.0
  1
-
 41
0.7
 11
401.2651848431
 21
38.8054141751
 31
0.0
 73
     1
  0
TEXT
  5
A4
  8
PV
 10
401.2257608635
 20
43.3686772525
 30
0.0
 40
2.0
  1
-
 41
0.7
 11
401.2257608635
 21
42.797248681
 31
0.0
 73
     1
  0
TEXT
  5
A5
  8
PV
 10
401.2257608635
 20
47.2870331195
 30
0.0
 40
2.0
  1
-
 41
0.7
 11
401.2257608635
 21
46.7156045481
 31
0.0
 73
     1
  0
TEXT
  5
A6
  8
PV
 10
401.2257608635
 20
51.3206347473
 30
0.0
 40
2.0
  1
-
 41
0.7
 11
401.2257608635
 21
50.7492061759
 31
0.0
 73
     1
  0
TEXT
  5
A7
  8
PV
 10
388.8789329392
 20
39.3625030177
 30
0.0
 40
2.0
  1
-
 41
0.7
 11
388.8789329392
 21
38.7910744463
 31
0.0
 73
     1
  0
TEXT
  5
A8
  8
PV
 10
388.8751506567
 20
47.3234172681
 30
0.0
 40
2.0
  1
-
 41
0.7
 11
388.8751506567
 21
46.7519886967
 31
0.0
 73
     1
  0
TEXT
  5
A9
  8
PV
 10
388.8560492049
 20
51.3206347473
 30
0.0
 40
2.0
  1
-
 41
0.7
 11
388.8560492049
 21
50.7492061759
 31
0.0
 73
     1
  0
TEXT
  5
AA
  8
PV
 10
388.8560492049
 20
43.3686772525
 30
0.0
 40
2.0
  1
-
 41
0.7
 11
388.8560492049
 21
42.797248681
 31
0.0
 73
     1
  0
TEXT
  5
AB
  8
PV
 10
250.1001532081
 20
39.3478807092
 30
0.0
 40
2.0
  1
-
 41
0.7
 11
250.1001532081
 21
38.7764521378
 31
0.0
 73
     1
  0
TEXT
  5
AC
  8
PV
 10
250.1001532081
 20
43.3494696257
 30
0.0
 40
2.0
  1
-
 41
0.7
 11
250.1001532081
 21
42.7780410542
 31
0.0
 73
     1
  0
TEXT
  5
AD
  8
PV
 10
250.1001532081
 20
47.3126432886
 30
0.0
 40
2.0
  1
-
 41
0.7
 11
250.1001532081
 21
46.7412147171
 31
0.0
 73
     1
  0
TEXT
  5
AE
  8
PV
 10
250.1001532081
 20
51.288622036
 30
0.0
 40
2.0
  1
-
 41
0.7
 11
250.1001532081
 21
50.7171934645
 31
0.0
 73
     1
  0
TEXT
  5
AF
  8
PV
 10
239.7341198441
 20
39.3305699194
 30
0.0
 40
2.0
  1
-
 41
0.7
 11
239.7341198441
 21
38.759141348
 31
0.0
 73
     1
  0
TEXT
  5
B0
  8
PV
 10
239.7384121833
 20
43.3306468936
 30
0.0
 40
2.0
  1
-
 41
0.7
 11
239.7384121833
 21
42.7592183221
 31
0.0
 73
     1
  0
TEXT
  5
B1
  8
PV
 10
239.7114580188
 20
47.3242345411
 30
0.0
 40
2.0
  1
-
 41
0.7
 11
239.7114580188
 21
46.7528059697
 31
0.0
 73
     1
  0
TEXT
  5
B2
  8
PV
 10
239.7371846747
 20
51.2858094774
 30
0.0
 40
2.0
  1
-
 41
0.7
 11
239.7371846747
 21
50.7143809059
 31
0.0
 73
     1
  0
TEXT
  5
B3
  8
PV
 10
223.121079893
 20
39.3531301091
 30
0.0
 40
2.0
  1
-
 41
0.7
 11
223.121079893
 21
38.7817015377
 31
0.0
 73
     1
  0
TEXT
  5
B4
  8
PV
 10
223.1292399385
 20
43.3107594187
 30
0.0
 40
2.0
  1
-
 41
0.7
 11
223.1292399385
 21
42.7393308472
 31
0.0
 73
     1
  0
TEXT
  5
B5
  8
PV
 10
223.121079893
 20
47.3253330348
 30
0.0
 40
2.0
  1
-
 41
0.7
 11
223.121079893
 21
46.7539044634
 31
0.0
 73
     1
  0
TEXT
  5
B6
  8
PV
 10
223.121079893
 20
51.2829623444
 30
0.0
 40
2.0
  1
-
 41
0.7
 11
223.121079893
 21
50.711533773
 31
0.0
 73
     1
  0
TEXT
  5
B7
  8
PV
 10
263.3372167646
 20
35.1659905311
 30
0.0
 40
2.0
  1
PROD. NAME :
 41
0.6416666667
 11
263.3372167646
 21
34.5945619596
 31
0.0
 73
     1
  0
TEXT
  5
B8
  8
PV
 10
263.3126437655
 20
23.2406343553
 30
0.0
 40
2.0
  1
MATERIAL:
 41
0.7
 11
263.3126437655
 21
22.6692057839
 31
0.0
 73
     1
  0
TEXT
  5
B9
  8
PV
 10
401.3547705377
 20
55.2456838267
 30
0.0
 40
2.0
  1
-
 41
0.7
 11
401.3547705377
 21
54.6742552553
 31
0.0
 73
     1
  0
TEXT
  5
BA
  8
PV
 10
389.1631222509
 20
55.2799721416
 30
0.0
 40
2.0
  1
-
 41
0.7
 11
389.1631222509
 21
54.7085435702
 31
0.0
 73
     1
  0
TEXT
  5
BB
  8
PV
 10
250.3252752916
 20
55.2609256796
 30
0.0
 40
2.0
  1
IMPORT INTO SOLIDWORKS AND SCREW HEIGHT CORRECTION
 41
0.658
 11
250.3252752916
 21
54.6894971081
 31
0.0
 73
     1
  0
TEXT
  5
BC
  8
PV
 10
239.5832934965
 20
55.2645691883
 30
0.0
 40
2.0
  1
PR
 41
0.7
 11
239.5832934965
 21
54.6931406169
 31
0.0
 73
     1
  0
TEXT
  5
BD
  8
PV
 10
222.0842444312
 20
67.6707487965
 30
0.0
 40
2.5
  1
THIS DRAWING IS THE PROPERTY OF BEA AND MAY NOT BE REPRODUCED WITHOUT WRITTEN AGREEMENT
 41
0.6436781609
 11
222.0842444312
 21
66.9564630823
 31
0.0
 73
     1
  0
TEXT
  5
BE
  8
PV
 10
300.2684701888
 20
63.0656958431
 30
0.0
 40
2.5
  1
MODIFICATIONS LIST
 41
0.7
 11
300.2684701888
 21
62.3514101288
 31
0.0
 73
     1
  0
TEXT
  5
BF
  8
PV
 10
388.7139629753
 20
59.3212578115
 30
0.0
 40
2.0
  1
REL :
 41
0.7
 11
388.7139629753
 21
58.74982924
 31
0.0
 73
     1
  0
TEXT
  5
C0
  8
PV
 10
400.3003628642
 20
59.3329303854
 30
0.0
 40
2.0
  1
VER :
 41
0.7
 11
400.3003628642
 21
58.761501814
 31
0.0
 73
     1
  0
TEXT
  5
C1
  8
PV
 10
250.168114392
 20
59.3423628848
 30
0.0
 40
2.0
  1
DESCRIPTION :
 41
0.7
 11
250.168114392
 21
58.7709343133
 31
0.0
 73
     1
  0
TEXT
  5
C2
  8
PV
 10
239.9249743009
 20
59.3731470052
 30
0.0
 40
2.0
  1
BY :
 41
0.7
 11
239.9249743009
 21
58.8017184338
 31
0.0
 73
     1
  0
TEXT
  5
C3
  8
PV
 10
223.2872774345
 20
55.2970420066
 30
0.0
 40
2.0
  1
12/05/06
 41
0.7
 11
223.2872774345
 21
54.7256134351
 31
0.0
 73
     1
  0
TEXT
  5
C4
  8
PV
 10
223.8876685229
 20
59.3363287006
 30
0.0
 40
2.0
  1
DATE : 
 41
0.6
 11
223.8876685229
 21
58.7649001291
 31
0.0
 73
     1
  0
TEXT
  5
C5
  8
PV
 10
263.3474399787
 20
31.1957939684
 30
0.0
 40
2.0
  1
TITLE : 
 41
0.6125
 11
263.3474399787
 21
30.6243653969
 31
0.0
 73
     1
  0
TEXT
  5
C6
  8
PV
 10
358.4723973937
 20
35.2553391167
 30
0.0
 40
2.0
  1
SC : 1:1
 41
0.6125
 11
358.4723973937
 21
34.6839105452
 31
0.0
 73
     1
  0
TEXT
  5
C7
  8
PV
 10
358.4913043206
 20
31.2142442956
 30
0.0
 40
2.0
  1
SIZE : A3
 41
0.6222222222
 11
358.4913043206
 21
30.6428157241
 31
0.0
 73
     1
  0
TEXT
  5
C8
  8
PV
 10
375.8313957379
 20
35.2926396264
 30
0.0
 40
2.0
  1
DRAWER : 
 41
0.6222222222
 11
375.8313957379
 21
34.721211055
 31
0.0
 73
     1
  0
TEXT
  5
C9
  8
PV
 10
375.6775400219
 20
31.2829843819
 30
0.0
 40
2.0
  1
DATE : 
 41
0.6
 11
375.6775400219
 21
30.7115558104
 31
0.0
 73
     1
  0
TEXT
  5
CA
  8
PV
 10
263.2975362943
 20
27.1998759957
 30
0.0
 40
2.0
  1
GENERAL TOLERANCE : 
 41
0.6475
 11
263.2975362943
 21
26.6284474243
 31
0.0
 73
     1
  0
TEXT
  5
CB
  8
PV
 10
318.5208899755
 20
23.2074519128
 30
0.0
 40
2.0
  1
TREATEMENT:
 41
0.7
 11
318.5208899755
 21
22.6360233414
 31
0.0
 73
     1
  0
TEXT
  5
CC
  8
PV
 10
392.0458349658
 20
27.2428946275
 30
0.0
 40
2.0
  1
APPROVED
 41
0.7
 11
392.0458349658
 21
26.6714660561
 31
0.0
 73
     1
  0
TEXT
  5
CD
  8
PV
 10
375.7588660845
 20
27.247481669
 30
0.0
 40
2.0
  1
VERIFIED
 41
0.7
 11
375.7588660845
 21
26.6760530975
 31
0.0
 73
     1
  0
TEXT
  5
CE
  8
PV
 10
263.3634494681
 20
19.1760364308
 30
0.0
 40
2.0
  1
C.A.O. FILE : O:\SW\projets\E007 eagle\ASSY EAGLE_DIM_NA
 41
0.66875
 11
263.3634494681
 21
18.6046078594
 31
0.0
 73
     1
  0
TEXT
  5
CF
  8
PV
 10
375.2282159663
 20
13.2929469305
 30
0.0
 40
3.5
  1
PAGE: 1 / 1
 41
0.6045454545
 11
375.2282159663
 21
12.2929469305
 31
0.0
 73
     1
  0
TEXT
  5
D0
  8
PV
 10
341.4978895462
 20
13.3236305597
 30
0.0
 40
3.5
  1
VER.:
 41
0.7
 11
341.4978895462
 21
12.3236305597
 31
0.0
 73
     1
  0
TEXT
  5
D1
  8
PV
 10
292.5395215228
 20
13.3031204275
 30
0.0
 40
3.5
  1
OBJET :
 41
0.7
 11
292.5395215228
 21
12.3031204275
 31
0.0
 73
     1
  0
TEXT
  5
D2
  8
PV
 10
262.7121073881
 20
12.9183085267
 30
0.0
 40
3.5
  1
DOC.: 
 41
0.7
 11
262.7121073881
 21
11.9183085267
 31
0.0
 73
     1
  0
INSERT
  5
DA
  8
PV
  2
SW_NOTE_0
 10
227.1890859903
 20
19.5378434888
 30
0.0
  0
ARC
  5
DB
  8
0
  6
CONTINUOUS
 62
     7
 10
31.049212208
 20
227.0029418294
 30
0.0
 40
3.598369587390448
 50
134.3872717329
 51
151.7846949931
  0
LINE
  5
DC
  8
0
  6
CONTINUOUS
 62
     7
 10
86.6680290813
 20
222.1364040039
 30
0.0
 11
86.6680290813
 21
222.1347872279
 31
0.0
  0
LINE
  5
DD
  8
0
  6
CONTINUOUS
 62
     7
 10
86.6680290813
 20
222.1364040039
 30
0.0
 11
89.6275730368
 21
222.1364040039
 31
0.0
  0
LINE
  5
DE
  8
0
  6
CONTINUOUS
 62
     7
 10
89.6275730368
 20
222.1364040039
 30
0.0
 11
89.7180290224
 21
222.13166916
 31
0.0
  0
LINE
  5
DF
  8
0
  6
CONTINUOUS
 62
     7
 10
89.7180290224
 20
221.9751622639
 30
0.0
 11
89.7180290224
 21
222.13166916
 31
0.0
  0
LINE
  5
E0
  8
0
  6
CONTINUOUS
 62
     7
 10
86.6930290388
 20
221.1364057027
 30
0.0
 11
89.6930290649
 21
221.1364057027
 31
0.0
  0
LINE
  5
E1
  8
0
  6
CONTINUOUS
 62
     7
 10
89.6275730368
 20
222.1364040039
 30
0.0
 11
89.7180290224
 21
222.1411388479
 31
0.0
  0
LINE
  5
E2
  8
0
  6
CONTINUOUS
 62
     7
 10
89.7180290224
 20
222.13166916
 30
0.0
 11
89.7180290224
 21
222.1411388479
 31
0.0
  0
LINE
  5
E3
  8
0
  6
CONTINUOUS
 62
     7
 10
89.6930290649
 20
223.2401814423
 30
0.0
 11
86.6930290388
 21
223.2429754101
 31
0.0
  0
LINE
  5
E4
  8
0
  6
CONTINUOUS
 62
     7
 10
89.7180290224
 20
222.1411388479
 30
0.0
 11
89.7180290224
 21
222.2976457439
 31
0.0
  0
LINE
  5
E5
  8
0
  6
CONTINUOUS
 62
     7
 10
86.6680290813
 20
222.1364040039
 30
0.0
 11
86.6680290813
 21
222.1380207799
 31
0.0
  0
LINE
  5
E6
  8
0
  6
CONTINUOUS
 62
     7
 10
86.6680290813
 20
220.1364036761
 30
0.0
 11
86.6680290813
 21
220.1347869001
 31
0.0
  0
LINE
  5
E7
  8
0
  6
CONTINUOUS
 62
     7
 10
86.6680290813
 20
220.1364036761
 30
0.0
 11
89.6275730368
 21
220.1364036761
 31
0.0
  0
LINE
  5
E8
  8
0
  6
CONTINUOUS
 62
     7
 10
89.6275730368
 20
220.1364036761
 30
0.0
 11
89.7180290224
 21
220.1316688321
 31
0.0
  0
LINE
  5
E9
  8
0
  6
CONTINUOUS
 62
     7
 10
86.6930290388
 20
219.1364053748
 30
0.0
 11
89.6930290649
 21
219.1364053748
 31
0.0
  0
LINE
  5
EA
  8
0
  6
CONTINUOUS
 62
     7
 10
89.7180290224
 20
219.9751619361
 30
0.0
 11
89.7180290224
 21
220.1316688321
 31
0.0
  0
LINE
  5
EB
  8
0
  6
CONTINUOUS
 62
     7
 10
89.6275730368
 20
220.1364036761
 30
0.0
 11
89.7180290224
 21
220.1411385201
 31
0.0
  0
LINE
  5
EC
  8
0
  6
CONTINUOUS
 62
     7
 10
89.7180290224
 20
220.1411385201
 30
0.0
 11
89.7180290224
 21
220.1316688321
 31
0.0
  0
LINE
  5
ED
  8
0
  6
CONTINUOUS
 62
     7
 10
86.6680290813
 20
220.1380204521
 30
0.0
 11
86.6680290813
 21
220.1364036761
 31
0.0
  0
LINE
  5
EE
  8
0
  6
CONTINUOUS
 62
     7
 10
89.7180290224
 20
220.2976454161
 30
0.0
 11
89.7180290224
 21
220.1411385201
 31
0.0
  0
LINE
  5
EF
  8
0
  6
CONTINUOUS
 62
     7
 10
86.6680290813
 20
218.1382361911
 30
0.0
 11
86.6680290813
 21
218.1364052109
 31
0.0
  0
LINE
  5
F0
  8
0
  6
CONTINUOUS
 62
     7
 10
89.6275730368
 20
218.1364052109
 30
0.0
 11
89.7180290224
 21
218.1411381922
 31
0.0
  0
LINE
  5
F1
  8
0
  6
CONTINUOUS
 62
     7
 10
86.6680290813
 20
218.1364052109
 30
0.0
 11
89.6275730368
 21
218.1364052109
 31
0.0
  0
LINE
  5
F2
  8
0
  6
CONTINUOUS
 62
     7
 10
89.7180290224
 20
218.2976488136
 30
0.0
 11
89.7180290224
 21
218.1411381922
 31
0.0
  0
LINE
  5
F3
  8
0
  6
CONTINUOUS
 62
     7
 10
89.6275730368
 20
218.1364052109
 30
0.0
 11
89.7180290224
 21
218.131670367
 31
0.0
  0
LINE
  5
F4
  8
0
  6
CONTINUOUS
 62
     7
 10
89.7180290224
 20
218.1411381922
 30
0.0
 11
89.7180290224
 21
218.131670367
 31
0.0
  0
LINE
  5
F5
  8
0
  6
CONTINUOUS
 62
     7
 10
86.6680290813
 20
217.136405047
 30
0.0
 11
89.7180290224
 21
217.136405047
 31
0.0
  0
LINE
  5
F6
  8
0
  6
CONTINUOUS
 62
     7
 10
89.7180290224
 20
217.136405047
 30
0.0
 11
89.7180290224
 21
218.131670367
 31
0.0
  0
LINE
  5
F7
  8
0
  6
CONTINUOUS
 62
     7
 10
89.6275730368
 20
216.1364048831
 30
0.0
 11
89.7180290224
 21
216.1316700391
 31
0.0
  0
LINE
  5
F8
  8
0
  6
CONTINUOUS
 62
     7
 10
89.6275730368
 20
216.1364048831
 30
0.0
 11
89.7180290224
 21
216.1411397271
 31
0.0
  0
LINE
  5
F9
  8
0
  6
CONTINUOUS
 62
     7
 10
89.7180290224
 20
216.1411397271
 30
0.0
 11
89.7180290224
 21
216.1316700391
 31
0.0
  0
LINE
  5
FA
  8
0
  6
CONTINUOUS
 62
     7
 10
86.6680290813
 20
216.1364048831
 30
0.0
 11
89.6275730368
 21
216.1364048831
 31
0.0
  0
LINE
  5
FB
  8
0
  6
CONTINUOUS
 62
     7
 10
86.6680290813
 20
215.1364047192
 30
0.0
 11
89.7180290224
 21
215.1364047192
 31
0.0
  0
LINE
  5
FC
  8
0
  6
CONTINUOUS
 62
     7
 10
89.7180290224
 20
215.1364047192
 30
0.0
 11
89.7180290224
 21
216.1316700391
 31
0.0
  0
LINE
  5
FD
  8
0
  6
CONTINUOUS
 62
     7
 10
89.7180290224
 20
217.136405047
 30
0.0
 11
89.7180290224
 21
216.1411397271
 31
0.0
  0
LINE
  5
FE
  8
0
  6
CONTINUOUS
 62
     7
 10
89.6275730368
 20
214.1364045553
 30
0.0
 11
89.7180290224
 21
214.1411393992
 31
0.0
  0
LINE
  5
FF
  8
0
  6
CONTINUOUS
 62
     7
 10
86.6680290813
 20
214.1364045553
 30
0.0
 11
89.6275730368
 21
214.1364045553
 31
0.0
  0
LINE
  5
100
  8
0
  6
CONTINUOUS
 62
     7
 10
89.7180290224
 20
215.1364047192
 30
0.0
 11
89.7180290224
 21
214.1411393992
 31
0.0
  0
LINE
  5
101
  8
0
  6
CONTINUOUS
 62
     7
 10
89.6275730368
 20
214.1364045553
 30
0.0
 11
89.7180290224
 21
214.1316697113
 31
0.0
  0
LINE
  5
102
  8
0
  6
CONTINUOUS
 62
     7
 10
89.7180290224
 20
214.1411393992
 30
0.0
 11
89.7180290224
 21
214.1316697113
 31
0.0
  0
LINE
  5
103
  8
0
  6
CONTINUOUS
 62
     7
 10
86.6680290813
 20
214.1364045553
 30
0.0
 11
86.6680290813
 21
213.1364043914
 31
0.0
  0
LINE
  5
104
  8
0
  6
CONTINUOUS
 62
     7
 10
86.6680290813
 20
213.1364043914
 30
0.0
 11
89.7180290224
 21
213.1364043914
 31
0.0
  0
LINE
  5
105
  8
0
  6
CONTINUOUS
 62
     7
 10
89.7180290224
 20
213.1364043914
 30
0.0
 11
89.7180290224
 21
214.1316697113
 31
0.0
  0
LINE
  5
106
  8
0
  6
CONTINUOUS
 62
     7
 10
86.6680290813
 20
212.1364042274
 30
0.0
 11
86.6680290813
 21
211.565404769
 31
0.0
  0
LINE
  5
107
  8
0
  6
CONTINUOUS
 62
     7
 10
86.6680290813
 20
212.1364042274
 30
0.0
 11
89.6275730368
 21
212.1364042274
 31
0.0
  0
LINE
  5
108
  8
0
  6
CONTINUOUS
 62
     7
 10
89.6275730368
 20
212.1364042274
 30
0.0
 11
89.7180290224
 21
212.1316712461
 31
0.0
  0
LINE
  5
109
  8
0
  6
CONTINUOUS
 62
     7
 10
89.7180290224
 20
212.1316712461
 30
0.0
 11
89.7180290224
 21
211.6733357422
 31
0.0
  0
LINE
  5
10A
  8
0
  6
CONTINUOUS
 62
     7
 10
89.6275730368
 20
212.1364042274
 30
0.0
 11
89.7180290224
 21
212.1411390714
 31
0.0
  0
LINE
  5
10B
  8
0
  6
CONTINUOUS
 62
     7
 10
89.7180290224
 20
212.1411390714
 30
0.0
 11
89.7180290224
 21
212.1316712461
 31
0.0
  0
LINE
  5
10C
  8
0
  6
CONTINUOUS
 62
     7
 10
86.6680290813
 20
213.1364043914
 30
0.0
 11
86.6680290813
 21
212.1364042274
 31
0.0
  0
LINE
  5
10D
  8
0
  6
CONTINUOUS
 62
     7
 10
89.7180290224
 20
213.1364043914
 30
0.0
 11
89.7180290224
 21
212.1411390714
 31
0.0
  0
LINE
  5
10E
  8
0
  6
CONTINUOUS
 62
     7
 10
86.6930290388
 20
223.2864048444
 30
0.0
 11
89.6930290649
 21
223.2864048444
 31
0.0
  0
LINE
  5
10F
  8
0
  6
CONTINUOUS
 62
     7
 10
88.1930288841
 20
205.469101306
 30
0.0
 11
88.1930288753
 21
203.5738710426
 31
0.0
  0
POLYLINE
  5
110
  8
0
  6
CONTINUOUS
 62
     7
 66
     1
 10
0.0
 20
0.0
 30
0.0
  0
VERTEX
  5
654
  8
0
  6
CONTINUOUS
 62
     7
 10
88.1930288753
 20
203.5738710426
 30
0.0
  0
VERTEX
  5
655
  8
0
  6
CONTINUOUS
 62
     7
 10
85.7469678188
 20
203.5871423893
 30
0.0
  0
VERTEX
  5
656
  8
0
  6
CONTINUOUS
 62
     7
 10
83.3188010177
 20
203.6268986873
 30
0.0
  0
SEQEND
  5
653
  8
0
  6
CONTINUOUS
 62
     7
  0
ARC
  5
111
  8
0
  6
CONTINUOUS
 62
     7
 10
91.251099291
 20
203.6281043244
 30
0.0
 40
7.93229836487187
 50
165.7868760123
 51
180.0087084364
  0
POLYLINE
  5
112
  8
0
  6
CONTINUOUS
 62
     7
 66
     1
 10
0.0
 20
0.0
 30
0.0
  0
VERTEX
  5
658
  8
0
  6
CONTINUOUS
 62
     7
 10
83.5616154394
 20
205.5224344246
 30
0.0
  0
VERTEX
  5
659
  8
0
  6
CONTINUOUS
 62
     7
 10
85.8102935629
 20
205.4832946621
 30
0.0
  0
VERTEX
  5
65A
  8
0
  6
CONTINUOUS
 62
     7
 10
88.1930288841
 20
205.469101306
 30
0.0
  0
SEQEND
  5
657
  8
0
  6
CONTINUOUS
 62
     7
  0
ARC
  5
113
  8
0
  6
CONTINUOUS
 62
     7
 10
85.1342382828
 20
203.6280512227
 30
0.0
 40
7.933018886989141
 50
359.9916758781
 51
14.2114064365
  0
POLYLINE
  5
114
  8
0
  6
CONTINUOUS
 62
     7
 66
     1
 10
0.0
 20
0.0
 30
0.0
  0
VERTEX
  5
65C
  8
0
  6
CONTINUOUS
 62
     7
 10
93.067257086
 20
203.6268986873
 30
0.0
  0
VERTEX
  5
65D
  8
0
  6
CONTINUOUS
 62
     7
 10
90.6390900521
 20
203.5871423893
 30
0.0
  0
VERTEX
  5
65E
  8
0
  6
CONTINUOUS
 62
     7
 10
88.1930288753
 20
203.5738710426
 30
0.0
  0
SEQEND
  5
65B
  8
0
  6
CONTINUOUS
 62
     7
  0
POLYLINE
  5
115
  8
0
  6
CONTINUOUS
 62
     7
 66
     1
 10
0.0
 20
0.0
 30
0.0
  0
VERTEX
  5
660
  8
0
  6
CONTINUOUS
 62
     7
 10
88.1930288841
 20
205.469101306
 30
0.0
  0
VERTEX
  5
661
  8
0
  6
CONTINUOUS
 62
     7
 10
90.5764236844
 20
205.4830022268
 30
0.0
  0
VERTEX
  5
662
  8
0
  6
CONTINUOUS
 62
     7
 10
92.824478986
 20
205.522343155
 30
0.0
  0
SEQEND
  5
65F
  8
0
  6
CONTINUOUS
 62
     7
  0
POLYLINE
  5
116
  8
0
  6
CONTINUOUS
 62
     7
 66
     1
 10
0.0
 20
0.0
 30
0.0
  0
VERTEX
  5
664
  8
0
  6
CONTINUOUS
 62
     7
 10
83.3188010177
 20
203.6268986873
 30
0.0
  0
VERTEX
  5
665
  8
0
  6
CONTINUOUS
 62
     7
 10
80.928330662
 20
203.6928121112
 30
0.0
  0
VERTEX
  5
666
  8
0
  6
CONTINUOUS
 62
     7
 10
78.5909340514
 20
203.7839420251
 30
0.0
  0
SEQEND
  5
663
  8
0
  6
CONTINUOUS
 62
     7
  0
POLYLINE
  5
117
  8
0
  6
CONTINUOUS
 62
     7
 66
     1
 10
0.0
 20
0.0
 30
0.0
  0
VERTEX
  5
668
  8
0
  6
CONTINUOUS
 62
     7
 10
97.7951240523
 20
203.7839420251
 30
0.0
  0
VERTEX
  5
669
  8
0
  6
CONTINUOUS
 62
     7
 10
95.4577274418
 20
203.6928121112
 30
0.0
  0
VERTEX
  5
66A
  8
0
  6
CONTINUOUS
 62
     7
 10
93.067257086
 20
203.6268986873
 30
0.0
  0
SEQEND
  5
667
  8
0
  6
CONTINUOUS
 62
     7
  0
POLYLINE
  5
118
  8
0
  6
CONTINUOUS
 62
     7
 66
     1
 10
0.0
 20
0.0
 30
0.0
  0
VERTEX
  5
66C
  8
0
  6
CONTINUOUS
 62
     7
 10
102.2496836989
 20
204.0366824828
 30
0.0
  0
VERTEX
  5
66D
  8
0
  6
CONTINUOUS
 62
     7
 10
100.0657853468
 20
203.8992118202
 30
0.0
  0
VERTEX
  5
66E
  8
0
  6
CONTINUOUS
 62
     7
 10
97.7951240523
 20
203.7839420251
 30
0.0
  0
SEQEND
  5
66B
  8
0
  6
CONTINUOUS
 62
     7
  0
POLYLINE
  5
119
  8
0
  6
CONTINUOUS
 62
     7
 66
     1
 10
0.0
 20
0.0
 30
0.0
  0
VERTEX
  5
670
  8
0
  6
CONTINUOUS
 62
     7
 10
106.2914020179
 20
204.3682221435
 30
0.0
  0
VERTEX
  5
671
  8
0
  6
CONTINUOUS
 62
     7
 10
104.3293027936
 20
204.1940312944
 30
0.0
  0
VERTEX
  5
672
  8
0
  6
CONTINUOUS
 62
     7
 10
102.2496836989
 20
204.0366824828
 30
0.0
  0
SEQEND
  5
66F
  8
0
  6
CONTINUOUS
 62
     7
  0
POLYLINE
  5
11A
  8
0
  6
CONTINUOUS
 62
     7
 66
     1
 10
0.0
 20
0.0
 30
0.0
  0
VERTEX
  5
674
  8
0
  6
CONTINUOUS
 62
     7
 10
109.6056419222
 20
204.7263324372
 30
0.0
  0
VERTEX
  5
675
  8
0
  6
CONTINUOUS
 62
     7
 10
108.0116758852
 20
204.5435734205
 30
0.0
  0
VERTEX
  5
676
  8
0
  6
CONTINUOUS
 62
     7
 10
106.2914020179
 20
204.3682221435
 30
0.0
  0
SEQEND
  5
673
  8
0
  6
CONTINUOUS
 62
     7
  0
LINE
  5
11B
  8
0
  6
CONTINUOUS
 62
     7
 10
109.6056419222
 20
204.7263324372
 30
0.0
 11
110.2533451079
 21
204.8065323494
 31
0.0
  0
ARC
  5
11C
  8
0
  6
CONTINUOUS
 62
     7
 10
385.3502087699
 20
224.7291698286
 30
0.0
 40
275.8320227590437
 50
184.1841039097
 51
187.8955992203
  0
POLYLINE
  5
11D
  8
0
  6
CONTINUOUS
 62
     7
 66
     1
 10
0.0
 20
0.0
 30
0.0
  0
VERTEX
  5
678
  8
0
  6
CONTINUOUS
 62
     7
 10
64.2529873906
 20
186.8385508375
 30
0.0
  0
VERTEX
  5
679
  8
0
  6
CONTINUOUS
 62
     7
 10
65.5253286271
 20
186.7769638363
 30
0.0
  0
VERTEX
  5
67A
  8
0
  6
CONTINUOUS
 62
     7
 10
66.9274701534
 20
186.7189108622
 30
0.0
  0
VERTEX
  5
67B
  8
0
  6
CONTINUOUS
 62
     7
 10
68.4513802438
 20
186.6647243611
 30
0.0
  0
VERTEX
  5
67C
  8
0
  6
CONTINUOUS
 62
     7
 10
70.0883342682
 20
186.6147145508
 30
0.0
  0
VERTEX
  5
67D
  8
0
  6
CONTINUOUS
 62
     7
 10
71.8289575337
 20
186.569167871
 30
0.0
  0
VERTEX
  5
67E
  8
0
  6
CONTINUOUS
 62
     7
 10
73.6632839574
 20
186.5283450922
 30
0.0
  0
VERTEX
  5
67F
  8
0
  6
CONTINUOUS
 62
     7
 10
75.5808100833
 20
186.4924799471
 30
0.0
  0
VERTEX
  5
680
  8
0
  6
CONTINUOUS
 62
     7
 10
77.5705546869
 20
186.4617778216
 30
0.0
  0
VERTEX
  5
681
  8
0
  6
CONTINUOUS
 62
     7
 10
79.6211258306
 20
186.436414561
 30
0.0
  0
VERTEX
  5
682
  8
0
  6
CONTINUOUS
 62
     7
 10
81.7207800022
 20
186.4165353351
 30
0.0
  0
VERTEX
  5
683
  8
0
  6
CONTINUOUS
 62
     7
 10
83.85749569
 20
186.4022540273
 30
0.0
  0
VERTEX
  5
684
  8
0
  6
CONTINUOUS
 62
     7
 10
86.0190369452
 20
186.3936523902
 30
0.0
  0
VERTEX
  5
685
  8
0
  6
CONTINUOUS
 62
     7
 10
88.1930267807
 20
186.3907796675
 30
0.0
  0
VERTEX
  5
686
  8
0
  6
CONTINUOUS
 62
     7
 10
90.3670167348
 20
186.3936522738
 30
0.0
  0
VERTEX
  5
687
  8
0
  6
CONTINUOUS
 62
     7
 10
92.5285582228
 20
186.4022538527
 30
0.0
  0
VERTEX
  5
688
  8
0
  6
CONTINUOUS
 62
     7
 10
94.665273445
 20
186.4165351023
 30
0.0
  0
VERTEX
  5
689
  8
0
  6
CONTINUOUS
 62
     7
 10
96.7649285479
 20
186.4364142699
 30
0.0
  0
VERTEX
  5
68A
  8
0
  6
CONTINUOUS
 62
     7
 10
98.8154987602
 20
186.4617774724
 30
0.0
  0
VERTEX
  5
68B
  8
0
  6
CONTINUOUS
 62
     7
 10
100.8052442952
 20
186.4924795397
 30
0.0
  0
VERTEX
  5
68C
  8
0
  6
CONTINUOUS
 62
     7
 10
102.7227694897
 20
186.5283445974
 30
0.0
  0
VERTEX
  5
68D
  8
0
  6
CONTINUOUS
 62
     7
 10
104.5570968448
 20
186.5691673471
 30
0.0
  0
VERTEX
  5
68E
  8
0
  6
CONTINUOUS
 62
     7
 10
106.2977201103
 20
186.6147139687
 30
0.0
  0
VERTEX
  5
68F
  8
0
  6
CONTINUOUS
 62
     7
 10
107.9346741347
 20
186.6647236917
 30
0.0
  0
VERTEX
  5
690
  8
0
  6
CONTINUOUS
 62
     7
 10
109.458584225
 20
186.7189101637
 30
0.0
  0
VERTEX
  5
691
  8
0
  6
CONTINUOUS
 62
     7
 10
110.8607257514
 20
186.7769630941
 30
0.0
  0
VERTEX
  5
692
  8
0
  6
CONTINUOUS
 62
     7
 10
112.1330688505
 20
186.8385478544
 30
0.0
  0
SEQEND
  5
677
  8
0
  6
CONTINUOUS
 62
     7
  0
ARC
  5
11E
  8
0
  6
CONTINUOUS
 62
     7
 10
-169.6396348636
 20
220.5459924036
 30
0.0
 40
236.3090145591005
 50
351.7992800954
 51
356.1378175197
  0
POLYLINE
  5
11F
  8
0
  6
CONTINUOUS
 62
     7
 66
     1
 10
0.0
 20
0.0
 30
0.0
  0
VERTEX
  5
694
  8
0
  6
CONTINUOUS
 62
     7
 10
70.0946560858
 20
204.3682221435
 30
0.0
  0
VERTEX
  5
695
  8
0
  6
CONTINUOUS
 62
     7
 10
68.0186840503
 20
204.5826479904
 30
0.0
  0
VERTEX
  5
696
  8
0
  6
CONTINUOUS
 62
     7
 10
66.1327111332
 20
204.8065323494
 30
0.0
  0
SEQEND
  5
693
  8
0
  6
CONTINUOUS
 62
     7
  0
POLYLINE
  5
120
  8
0
  6
CONTINUOUS
 62
     7
 66
     1
 10
0.0
 20
0.0
 30
0.0
  0
VERTEX
  5
698
  8
0
  6
CONTINUOUS
 62
     7
 10
74.1363753362
 20
204.0366824828
 30
0.0
  0
VERTEX
  5
699
  8
0
  6
CONTINUOUS
 62
     7
 10
72.0567553102
 20
204.1940312944
 30
0.0
  0
VERTEX
  5
69A
  8
0
  6
CONTINUOUS
 62
     7
 10
70.0946560858
 20
204.3682221435
 30
0.0
  0
SEQEND
  5
697
  8
0
  6
CONTINUOUS
 62
     7
  0
POLYLINE
  5
121
  8
0
  6
CONTINUOUS
 62
     7
 66
     1
 10
0.0
 20
0.0
 30
0.0
  0
VERTEX
  5
69C
  8
0
  6
CONTINUOUS
 62
     7
 10
78.5909340514
 20
203.7839420251
 30
0.0
  0
VERTEX
  5
69D
  8
0
  6
CONTINUOUS
 62
     7
 10
76.3202736883
 20
203.8992118202
 30
0.0
  0
VERTEX
  5
69E
  8
0
  6
CONTINUOUS
 62
     7
 10
74.1363753362
 20
204.0366824828
 30
0.0
  0
SEQEND
  5
69B
  8
0
  6
CONTINUOUS
 62
     7
  0
ARC
  5
122
  8
0
  6
CONTINUOUS
 62
     7
 10
93.5008772612
 20
203.758862466
 30
0.0
 40
4.294320026144385
 50
0.3346189971
 51
27.3016714397
  0
POLYLINE
  5
123
  8
0
  6
CONTINUOUS
 62
     7
 66
     1
 10
0.0
 20
0.0
 30
0.0
  0
VERTEX
  5
6A0
  8
0
  6
CONTINUOUS
 62
     7
 10
92.824478986
 20
205.522343155
 30
0.0
  0
VERTEX
  5
6A1
  8
0
  6
CONTINUOUS
 62
     7
 10
95.2304861306
 20
205.5935241394
 30
0.0
  0
VERTEX
  5
6A2
  8
0
  6
CONTINUOUS
 62
     7
 10
97.3168265803
 20
205.6803848706
 30
0.0
  0
SEQEND
  5
69F
  8
0
  6
CONTINUOUS
 62
     7
  0
ARC
  5
124
  8
0
  6
CONTINUOUS
 62
     7
 10
82.8854506566
 20
203.7588277768
 30
0.0
 40
4.294590038361299
 50
152.7010127742
 51
179.6649392315
  0
POLYLINE
  5
125
  8
0
  6
CONTINUOUS
 62
     7
 66
     1
 10
0.0
 20
0.0
 30
0.0
  0
VERTEX
  5
6A4
  8
0
  6
CONTINUOUS
 62
     7
 10
79.0691691248
 20
205.6803066395
 30
0.0
  0
VERTEX
  5
6A5
  8
0
  6
CONTINUOUS
 62
     7
 10
81.1547621882
 20
205.5934030674
 30
0.0
  0
VERTEX
  5
6A6
  8
0
  6
CONTINUOUS
 62
     7
 10
83.5616154394
 20
205.5224344246
 30
0.0
  0
SEQEND
  5
6A3
  8
0
  6
CONTINUOUS
 62
     7
  0
POLYLINE
  5
126
  8
0
  6
CONTINUOUS
 62
     7
 66
     1
 10
0.0
 20
0.0
 30
0.0
  0
VERTEX
  5
6A8
  8
0
  6
CONTINUOUS
 62
     7
 10
78.5729520752
 20
160.3179030232
 30
0.0
  0
VERTEX
  5
6A9
  8
0
  6
CONTINUOUS
 62
     7
 10
75.8141818254
 20
161.4961918555
 30
0.0
  0
VERTEX
  5
6AA
  8
0
  6
CONTINUOUS
 62
     7
 10
73.2409012301
 20
162.9595957808
 30
0.0
  0
VERTEX
  5
6AB
  8
0
  6
CONTINUOUS
 62
     7
 10
70.8927883564
 20
164.6866850667
 30
0.0
  0
VERTEX
  5
6AC
  8
0
  6
CONTINUOUS
 62
     7
 10
68.8052232175
 20
166.6516751163
 30
0.0
  0
VERTEX
  5
6AD
  8
0
  6
CONTINUOUS
 62
     7
 10
67.0099108277
 20
168.8247691952
 30
0.0
  0
VERTEX
  5
6AE
  8
0
  6
CONTINUOUS
 62
     7
 10
65.5339433609
 20
171.1727041863
 30
0.0
  0
VERTEX
  5
6AF
  8
0
  6
CONTINUOUS
 62
     7
 10
64.3995906024
 20
173.6602015905
 30
0.0
  0
VERTEX
  5
6B0
  8
0
  6
CONTINUOUS
 62
     7
 10
63.6236647873
 20
176.2497943006
 30
0.0
  0
VERTEX
  5
6B1
  8
0
  6
CONTINUOUS
 62
     7
 10
63.2177739202
 20
178.9025744535
 30
0.0
  0
VERTEX
  5
6B2
  8
0
  6
CONTINUOUS
 62
     7
 10
63.1881466864
 20
181.5784616507
 30
0.0
  0
VERTEX
  5
6B3
  8
0
  6
CONTINUOUS
 62
     7
 10
63.535019642
 20
184.2371282279
 30
0.0
  0
VERTEX
  5
6B4
  8
0
  6
CONTINUOUS
 62
     7
 10
64.2529873906
 20
186.8385508375
 30
0.0
  0
SEQEND
  5
6A7
  8
0
  6
CONTINUOUS
 62
     7
  0
POLYLINE
  5
127
  8
0
  6
CONTINUOUS
 62
     7
 66
     1
 10
0.0
 20
0.0
 30
0.0
  0
VERTEX
  5
6B6
  8
0
  6
CONTINUOUS
 62
     7
 10
112.1330688505
 20
186.8385478544
 30
0.0
  0
VERTEX
  5
6B7
  8
0
  6
CONTINUOUS
 62
     7
 10
112.8510496376
 20
184.2370569818
 30
0.0
  0
VERTEX
  5
6B8
  8
0
  6
CONTINUOUS
 62
     7
 10
113.1979170053
 20
181.5783722438
 30
0.0
  0
VERTEX
  5
6B9
  8
0
  6
CONTINUOUS
 62
     7
 10
113.168276733
 20
178.9024943597
 30
0.0
  0
VERTEX
  5
6BA
  8
0
  6
CONTINUOUS
 62
     7
 10
112.7623765527
 20
176.2497244514
 30
0.0
  0
VERTEX
  5
6BB
  8
0
  6
CONTINUOUS
 62
     7
 10
111.9864451496
 20
173.6601419858
 30
0.0
  0
VERTEX
  5
6BC
  8
0
  6
CONTINUOUS
 62
     7
 10
110.8520886658
 20
171.1726557575
 30
0.0
  0
VERTEX
  5
6BD
  8
0
  6
CONTINUOUS
 62
     7
 10
109.3761193363
 20
168.8247300796
 30
0.0
  0
VERTEX
  5
6BE
  8
0
  6
CONTINUOUS
 62
     7
 10
107.5808088093
 20
166.6516471766
 30
0.0
  0
VERTEX
  5
6BF
  8
0
  6
CONTINUOUS
 62
     7
 10
105.4932473956
 20
164.6866683028
 30
0.0
  0
VERTEX
  5
6C0
  8
0
  6
CONTINUOUS
 62
     7
 10
103.1451401098
 20
162.9595846049
 30
0.0
  0
VERTEX
  5
6C1
  8
0
  6
CONTINUOUS
 62
     7
 10
100.5718651025
 20
161.4961862676
 30
0.0
  0
VERTEX
  5
6C2
  8
0
  6
CONTINUOUS
 62
     7
 10
97.8131069599
 20
160.3179030232
 30
0.0
  0
SEQEND
  5
6B5
  8
0
  6
CONTINUOUS
 62
     7
  0
ARC
  5
128
  8
0
  6
CONTINUOUS
 62
     7
 10
88.1930297038
 20
187.4283292606
 30
0.0
 40
28.76666654925864
 50
250.4628777388
 51
289.5371214739
  0
POLYLINE
  5
129
  8
0
  6
CONTINUOUS
 62
     7
 66
     1
 10
0.0
 20
0.0
 30
0.0
  0
VERTEX
  5
6C4
  8
0
  6
CONTINUOUS
 62
     7
 10
97.3168265803
 20
205.6803848706
 30
0.0
  0
VERTEX
  5
6C5
  8
0
  6
CONTINUOUS
 62
     7
 10
99.6359334125
 20
205.8060072474
 30
0.0
  0
VERTEX
  5
6C6
  8
0
  6
CONTINUOUS
 62
     7
 10
101.5502064286
 20
205.9351462982
 30
0.0
  0
SEQEND
  5
6C3
  8
0
  6
CONTINUOUS
 62
     7
  0
POLYLINE
  5
12A
  8
0
  6
CONTINUOUS
 62
     7
 66
     1
 10
0.0
 20
0.0
 30
0.0
  0
VERTEX
  5
6C8
  8
0
  6
CONTINUOUS
 62
     7
 10
74.8358526064
 20
205.9351462982
 30
0.0
  0
VERTEX
  5
6C9
  8
0
  6
CONTINUOUS
 62
     7
 10
76.7503705604
 20
205.8060016595
 30
0.0
  0
VERTEX
  5
6CA
  8
0
  6
CONTINUOUS
 62
     7
 10
79.0691691248
 20
205.6803066395
 30
0.0
  0
SEQEND
  5
6C7
  8
0
  6
CONTINUOUS
 62
     7
  0
POLYLINE
  5
12B
  8
0
  6
CONTINUOUS
 62
     7
 66
     1
 10
0.0
 20
0.0
 30
0.0
  0
VERTEX
  5
6CC
  8
0
  6
CONTINUOUS
 62
     7
 10
70.995630583
 20
206.2710873894
 30
0.0
  0
VERTEX
  5
6CD
  8
0
  6
CONTINUOUS
 62
     7
 10
72.7071155591
 20
206.1083220057
 30
0.0
  0
VERTEX
  5
6CE
  8
0
  6
CONTINUOUS
 62
     7
 10
74.8358526064
 20
205.9351462982
 30
0.0
  0
SEQEND
  5
6CB
  8
0
  6
CONTINUOUS
 62
     7
  0
ARC
  5
12C
  8
0
  6
CONTINUOUS
 62
     7
 10
82.4903728885
 20
319.9357003757
 30
0.0
 40
114.2443580488415
 50
262.3227562002
 51
264.2253907003
  0
LINE
  5
12D
  8
0
  6
CONTINUOUS
 62
     7
 10
64.3542910723
 20
206.8929053955
 30
0.0
 11
67.2281737237
 21
206.7155443244
 31
0.0
  0
ARC
  5
12E
  8
0
  6
CONTINUOUS
 62
     7
 10
87.4383647129
 20
66.126906978
 30
0.0
 40
142.6718411882599
 50
89.6969323529
 51
99.3112964142
  0
ARC
  5
12F
  8
0
  6
CONTINUOUS
 62
     7
 10
88.9476901544
 20
66.1267872399
 30
0.0
 40
142.6719609193522
 50
80.6887124264
 51
90.30306699
  0
LINE
  5
130
  8
0
  6
CONTINUOUS
 62
     7
 10
109.1578843801
 20
206.7155443244
 30
0.0
 11
112.0317614435
 21
206.8929053955
 31
0.0
  0
LINE
  5
131
  8
0
  6
CONTINUOUS
 62
     7
 10
109.1578843801
 20
206.7155443244
 30
0.0
 11
108.5420547782
 21
206.6339474283
 31
0.0
  0
POLYLINE
  5
132
  8
0
  6
CONTINUOUS
 62
     7
 66
     1
 10
0.0
 20
0.0
 30
0.0
  0
VERTEX
  5
6D0
  8
0
  6
CONTINUOUS
 62
     7
 10
105.3904275207
 20
206.2710873894
 30
0.0
  0
VERTEX
  5
6D1
  8
0
  6
CONTINUOUS
 62
     7
 10
107.1475743113
 20
206.4623940848
 30
0.0
  0
VERTEX
  5
6D2
  8
0
  6
CONTINUOUS
 62
     7
 10
108.5420547782
 20
206.6339474283
 30
0.0
  0
SEQEND
  5
6CF
  8
0
  6
CONTINUOUS
 62
     7
  0
POLYLINE
  5
133
  8
0
  6
CONTINUOUS
 62
     7
 66
     1
 10
0.0
 20
0.0
 30
0.0
  0
VERTEX
  5
6D4
  8
0
  6
CONTINUOUS
 62
     7
 10
101.5502064286
 20
205.9351462982
 30
0.0
  0
VERTEX
  5
6D5
  8
0
  6
CONTINUOUS
 62
     7
 10
103.6789425446
 20
206.1083220057
 30
0.0
  0
VERTEX
  5
6D6
  8
0
  6
CONTINUOUS
 62
     7
 10
105.3904275207
 20
206.2710873894
 30
0.0
  0
SEQEND
  5
6D3
  8
0
  6
CONTINUOUS
 62
     7
  0
ARC
  5
134
  8
0
  6
CONTINUOUS
 62
     7
 10
99.0444053604
 20
203.9761498274
 30
0.0
 40
3.205849876323974
 50
1.0819195943
 51
38.5895782375
  0
ARC
  5
135
  8
0
  6
CONTINUOUS
 62
     7
 10
77.3416277419
 20
203.9761589416
 30
0.0
 40
3.205823776111619
 50
141.410263252
 51
178.9182345175
  0
LINE
  5
136
  8
0
  6
CONTINUOUS
 62
     7
 10
65.7972468792
 20
203.8084637485
 30
0.0
 11
68.9375324903
 21
203.6487288885
 31
0.0
  0
ARC
  5
137
  8
0
  6
CONTINUOUS
 62
     7
 10
103.5559369855
 20
204.2713346164
 30
0.0
 40
2.737180325881426
 50
2.0285131449
 51
47.9165867741
  0
ARC
  5
138
  8
0
  6
CONTINUOUS
 62
     7
 10
72.8301211182
 20
204.2713346164
 30
0.0
 40
2.737180325871776
 50
132.0834132259
 51
177.9714868552
  0
ARC
  5
139
  8
0
  6
CONTINUOUS
 62
     7
 10
68.5744970066
 20
204.6980881875
 30
0.0
 40
2.444192788621893
 50
123.4236520354
 51
177.4570610105
  0
ARC
  5
13A
  8
0
  6
CONTINUOUS
 62
     7
 10
107.177927627
 20
204.6509077176
 30
0.0
 40
2.428885667855509
 50
1.7795044884
 51
55.8316271966
  0
ARC
  5
13B
  8
0
  6
CONTINUOUS
 62
     7
 10
107.8115486503
 20
204.6980838361
 30
0.0
 40
2.444203555404443
 50
2.5430298823
 51
56.5761649485
  0
ARC
  5
13C
  8
0
  6
CONTINUOUS
 62
     7
 10
88.7962913311
 20
66.8744653843
 30
0.0
 40
144.0348510267
 50
80.77409357
 51
90.2399730566
  0
ARC
  5
13D
  8
0
  6
CONTINUOUS
 62
     7
 10
115.5764676942
 20
208.1305595946
 30
0.0
 40
3.793425005741154
 50
166.4235645041
 51
200.863064467
  0
POLYLINE
  5
13E
  8
0
  6
CONTINUOUS
 62
     7
 66
     1
 10
0.0
 20
0.0
 30
0.0
  0
VERTEX
  5
6D8
  8
0
  6
CONTINUOUS
 62
     7
 10
88.1930290542
 20
210.9080530815
 30
0.0
  0
VERTEX
  5
6D9
  8
0
  6
CONTINUOUS
 62
     7
 10
88.1930288401
 20
210.1815488301
 30
0.0
  0
VERTEX
  5
6DA
  8
0
  6
CONTINUOUS
 62
     7
 10
88.1930283944
 20
209.4946779422
 30
0.0
  0
VERTEX
  5
6DB
  8
0
  6
CONTINUOUS
 62
     7
 10
88.1930280737
 20
209.0644180886
 30
0.0
  0
VERTEX
  5
6DC
  8
0
  6
CONTINUOUS
 62
     7
 10
88.1930279351
 20
208.7967522554
 30
0.0
  0
SEQEND
  5
6D7
  8
0
  6
CONTINUOUS
 62
     7
  0
ARC
  5
13F
  8
0
  6
CONTINUOUS
 62
     7
 10
61.2502496253
 20
208.0970905176
 30
0.0
 40
3.375676970075582
 50
336.8576922698
 51
15.8849772513
  0
ARC
  5
140
  8
0
  6
CONTINUOUS
 62
     7
 10
87.5897678544
 20
66.8744928266
 30
0.0
 40
144.0348235802068
 50
89.7600273261
 51
99.2259078887
  0
ARC
  5
141
  8
0
  6
CONTINUOUS
 62
     7
 10
104.9132039559
 20
169.9163966996
 30
0.0
 40
37.71958513465112
 50
59.4729304305
 51
79.1217241514
  0
ARC
  5
142
  8
0
  6
CONTINUOUS
 62
     7
 10
122.3438428492
 20
198.3701051313
 30
0.0
 40
4.392391244507693
 50
51.8594154712
 51
66.8027892924
  0
POLYLINE
  5
143
  8
0
  6
CONTINUOUS
 62
     7
 66
     1
 10
0.0
 20
0.0
 30
0.0
  0
VERTEX
  5
6DE
  8
0
  6
CONTINUOUS
 62
     7
 10
125.0565535186
 20
201.7810816057
 30
0.0
  0
VERTEX
  5
6DF
  8
0
  6
CONTINUOUS
 62
     7
 10
122.4423683046
 20
202.8419129662
 30
0.0
  0
VERTEX
  5
6E0
  8
0
  6
CONTINUOUS
 62
     7
 10
119.8590210436
 20
203.7325888984
 30
0.0
  0
VERTEX
  5
6E1
  8
0
  6
CONTINUOUS
 62
     7
 10
117.3076218723
 20
204.3875880651
 30
0.0
  0
VERTEX
  5
6E2
  8
0
  6
CONTINUOUS
 62
     7
 10
114.8287932186
 20
204.7887906544
 30
0.0
  0
VERTEX
  5
6E3
  8
0
  6
CONTINUOUS
 62
     7
 10
112.4642266689
 20
204.9289137237
 30
0.0
  0
VERTEX
  5
6E4
  8
0
  6
CONTINUOUS
 62
     7
 10
110.2533451079
 20
204.8065323494
 30
0.0
  0
SEQEND
  5
6DD
  8
0
  6
CONTINUOUS
 62
     7
  0
ARC
  5
144
  8
0
  6
CONTINUOUS
 62
     7
 10
70.4185974876
 20
172.7327063861
 30
0.0
 40
34.76216930243152
 50
100.0467300706
 51
121.3881364908
  0
ARC
  5
145
  8
0
  6
CONTINUOUS
 62
     7
 10
64.4323088997
 20
176.3705266955
 30
0.0
 40
28.57467873783797
 50
86.5884668865
 51
116.9311068224
  0
POLYLINE
  5
146
  8
0
  6
CONTINUOUS
 62
     7
 66
     1
 10
0.0
 20
0.0
 30
0.0
  0
VERTEX
  5
6E6
  8
0
  6
CONTINUOUS
 62
     7
 10
52.312109506
 20
202.4074994139
 30
0.0
  0
VERTEX
  5
6E7
  8
0
  6
CONTINUOUS
 62
     7
 10
51.8410838006
 20
202.1070035286
 30
0.0
  0
VERTEX
  5
6E8
  8
0
  6
CONTINUOUS
 62
     7
 10
51.4902992903
 20
201.8463319279
 30
0.0
  0
SEQEND
  5
6E5
  8
0
  6
CONTINUOUS
 62
     7
  0
LINE
  5
147
  8
0
  6
CONTINUOUS
 62
     7
 10
125.0565535186
 20
201.7810816057
 30
0.0
 11
126.2153721212
 21
198.2863364853
 31
0.0
  0
ARC
  5
148
  8
0
  6
CONTINUOUS
 62
     7
 10
154.6203802684
 20
148.7551271534
 30
0.0
 40
57.09803136471373
 50
119.833278334
 51
138.0828546693
  0
POLYLINE
  5
149
  8
0
  6
CONTINUOUS
 62
     7
 66
     1
 10
0.0
 20
0.0
 30
0.0
  0
VERTEX
  5
6EA
  8
0
  6
CONTINUOUS
 62
     7
 10
50.171255952
 20
198.2882224135
 30
0.0
  0
VERTEX
  5
6EB
  8
0
  6
CONTINUOUS
 62
     7
 10
50.882581508
 20
200.0546600781
 30
0.0
  0
VERTEX
  5
6EC
  8
0
  6
CONTINUOUS
 62
     7
 10
51.4902992903
 20
201.8463319279
 30
0.0
  0
SEQEND
  5
6E9
  8
0
  6
CONTINUOUS
 62
     7
  0
ARC
  5
14A
  8
0
  6
CONTINUOUS
 62
     7
 10
21.7616583863
 20
148.7607285257
 30
0.0
 40
57.09709173547267
 50
41.9100598165
 51
60.1608718156
  0
ARC
  5
14B
  8
0
  6
CONTINUOUS
 62
     7
 10
55.6785535574
 20
-167.3818565633
 30
0.0
 40
396.0842558920311
 50
90.2217005752
 51
91.7320624269
  0
POLYLINE
  5
14C
  8
0
  6
CONTINUOUS
 62
     7
 66
     1
 10
0.0
 20
0.0
 30
0.0
  0
VERTEX
  5
6EE
  8
0
  6
CONTINUOUS
 62
     7
 10
68.9597873746
 20
228.7364859246
 30
0.0
  0
VERTEX
  5
6EF
  8
0
  6
CONTINUOUS
 62
     7
 10
63.8122352569
 20
228.734682884
 30
0.0
  0
VERTEX
  5
6F0
  8
0
  6
CONTINUOUS
 62
     7
 10
58.8606185077
 20
228.7243414782
 30
0.0
  0
VERTEX
  5
6F1
  8
0
  6
CONTINUOUS
 62
     7
 10
54.1459469853
 20
228.6994341872
 30
0.0
  0
SEQEND
  5
6ED
  8
0
  6
CONTINUOUS
 62
     7
  0
POLYLINE
  5
14D
  8
0
  6
CONTINUOUS
 62
     7
 66
     1
 10
0.0
 20
0.0
 30
0.0
  0
VERTEX
  5
6F3
  8
0
  6
CONTINUOUS
 62
     7
 10
78.2801554336
 20
228.7321869395
 30
0.0
  0
VERTEX
  5
6F4
  8
0
  6
CONTINUOUS
 62
     7
 10
73.5737941025
 20
228.734835621
 30
0.0
  0
VERTEX
  5
6F5
  8
0
  6
CONTINUOUS
 62
     7
 10
68.9597873746
 20
228.7364859246
 30
0.0
  0
SEQEND
  5
6F2
  8
0
  6
CONTINUOUS
 62
     7
  0
POLYLINE
  5
14E
  8
0
  6
CONTINUOUS
 62
     7
 66
     1
 10
0.0
 20
0.0
 30
0.0
  0
VERTEX
  5
6F7
  8
0
  6
CONTINUOUS
 62
     7
 10
88.1874324167
 20
228.7298027538
 30
0.0
  0
VERTEX
  5
6F8
  8
0
  6
CONTINUOUS
 62
     7
 10
83.2165660134
 20
228.7303727232
 30
0.0
  0
VERTEX
  5
6F9
  8
0
  6
CONTINUOUS
 62
     7
 10
78.2801554336
 20
228.7321869395
 30
0.0
  0
SEQEND
  5
6F6
  8
0
  6
CONTINUOUS
 62
     7
  0
POLYLINE
  5
14F
  8
0
  6
CONTINUOUS
 62
     7
 66
     1
 10
0.0
 20
0.0
 30
0.0
  0
VERTEX
  5
6FB
  8
0
  6
CONTINUOUS
 62
     7
 10
98.0950164406
 20
228.732179489
 30
0.0
  0
VERTEX
  5
6FC
  8
0
  6
CONTINUOUS
 62
     7
 10
93.1584149396
 20
228.7303727232
 30
0.0
  0
VERTEX
  5
6FD
  8
0
  6
CONTINUOUS
 62
     7
 10
88.1874324167
 20
228.7298027538
 30
0.0
  0
SEQEND
  5
6FA
  8
0
  6
CONTINUOUS
 62
     7
  0
POLYLINE
  5
150
  8
0
  6
CONTINUOUS
 62
     7
 66
     1
 10
0.0
 20
0.0
 30
0.0
  0
VERTEX
  5
6FF
  8
0
  6
CONTINUOUS
 62
     7
 10
107.4165197818
 20
228.7364859246
 30
0.0
  0
VERTEX
  5
700
  8
0
  6
CONTINUOUS
 62
     7
 10
102.801921664
 20
228.7348318957
 30
0.0
  0
VERTEX
  5
701
  8
0
  6
CONTINUOUS
 62
     7
 10
98.0950164406
 20
228.732179489
 30
0.0
  0
SEQEND
  5
6FE
  8
0
  6
CONTINUOUS
 62
     7
  0
POLYLINE
  5
151
  8
0
  6
CONTINUOUS
 62
     7
 66
     1
 10
0.0
 20
0.0
 30
0.0
  0
VERTEX
  5
703
  8
0
  6
CONTINUOUS
 62
     7
 10
122.2335397063
 20
228.699482616
 30
0.0
  0
VERTEX
  5
704
  8
0
  6
CONTINUOUS
 62
     7
 10
117.5178046136
 20
228.7243675552
 30
0.0
  0
VERTEX
  5
705
  8
0
  6
CONTINUOUS
 62
     7
 10
112.5651261567
 20
228.7346903346
 30
0.0
  0
VERTEX
  5
706
  8
0
  6
CONTINUOUS
 62
     7
 10
107.4165197818
 20
228.7364859246
 30
0.0
  0
SEQEND
  5
702
  8
0
  6
CONTINUOUS
 62
     7
  0
ARC
  5
152
  8
0
  6
CONTINUOUS
 62
     7
 10
119.1216709538
 20
-260.051938198
 30
0.0
 40
488.761327311089
 50
88.4109853094
 51
89.6352040545
  0
POLYLINE
  5
153
  8
0
  6
CONTINUOUS
 62
     7
 66
     1
 10
0.0
 20
0.0
 30
0.0
  0
VERTEX
  5
708
  8
0
  6
CONTINUOUS
 62
     7
 10
140.0766818582
 20
228.1470555924
 30
0.0
  0
VERTEX
  5
709
  8
0
  6
CONTINUOUS
 62
     7
 10
136.642888075
 20
228.356774535
 30
0.0
  0
VERTEX
  5
70A
  8
0
  6
CONTINUOUS
 62
     7
 10
132.6750143228
 20
228.5180386267
 30
0.0
  0
SEQEND
  5
707
  8
0
  6
CONTINUOUS
 62
     7
  0
ARC
  5
154
  8
0
  6
CONTINUOUS
 62
     7
 10
124.7258282987
 20
34.8266347515
 30
0.0
 40
193.9289401278141
 50
83.1074761843
 51
85.4598822151
  0
LINE
  5
155
  8
0
  6
CONTINUOUS
 62
     7
 10
147.9987165688
 20
218.3154035471
 30
0.0
 11
147.9987165688
 21
227.2786047421
 31
0.0
  0
LINE
  5
156
  8
0
  6
CONTINUOUS
 62
     7
 10
89.6930290649
 20
218.3154035471
 30
0.0
 11
147.9987165688
 21
218.3154035471
 31
0.0
  0
LINE
  5
157
  8
0
  6
CONTINUOUS
 62
     7
 10
89.6930290649
 20
223.7654063962
 30
0.0
 11
89.6930290649
 21
222.2958203517
 31
0.0
  0
LINE
  5
158
  8
0
  6
CONTINUOUS
 62
     7
 10
89.6930290649
 20
221.9769876562
 30
0.0
 11
89.6930290649
 21
220.2958200238
 31
0.0
  0
LINE
  5
159
  8
0
  6
CONTINUOUS
 62
     7
 10
89.6930290649
 20
219.9769873284
 30
0.0
 11
89.6930290649
 21
218.3154035471
 31
0.0
  0
LINE
  5
15A
  8
0
  6
CONTINUOUS
 62
     7
 10
86.6930290388
 20
223.7654063962
 30
0.0
 11
89.6930290649
 21
223.7654063962
 31
0.0
  0
LINE
  5
15B
  8
0
  6
CONTINUOUS
 62
     7
 10
86.6930290388
 20
218.3154035471
 30
0.0
 11
86.6930290388
 21
220.1339971386
 31
0.0
  0
LINE
  5
15C
  8
0
  6
CONTINUOUS
 62
     7
 10
86.6930290388
 20
220.1388139389
 30
0.0
 11
86.6930290388
 21
222.1339974664
 31
0.0
  0
LINE
  5
15D
  8
0
  6
CONTINUOUS
 62
     7
 10
86.6930290388
 20
222.1388142668
 30
0.0
 11
86.6930290388
 21
223.7654063962
 31
0.0
  0
LINE
  5
15E
  8
0
  6
CONTINUOUS
 62
     7
 10
28.3873415349
 20
218.3154035471
 30
0.0
 11
86.6930290388
 21
218.3154035471
 31
0.0
  0
LINE
  5
15F
  8
0
  6
CONTINUOUS
 62
     7
 10
28.3873415349
 20
227.2786382697
 30
0.0
 11
28.3873415349
 21
218.3154035471
 31
0.0
  0
LINE
  5
160
  8
0
  6
CONTINUOUS
 62
     7
 10
28.3873415349
 20
227.2786382697
 30
0.0
 11
29.0414876102
 21
227.3731302582
 31
0.0
  0
ARC
  5
161
  8
0
  6
CONTINUOUS
 62
     7
 10
42.1989702294
 20
136.3535534606
 30
0.0
 40
91.98222414926536
 50
93.6729542181
 51
98.2240136655
  0
ARC
  5
162
  8
0
  6
CONTINUOUS
 62
     7
 10
50.7138132133
 20
6.7040837105
 30
0.0
 40
221.9244678883878
 50
91.8093824673
 51
93.7222604286
  0
POLYLINE
  5
163
  8
0
  6
CONTINUOUS
 62
     7
 66
     1
 10
0.0
 20
0.0
 30
0.0
  0
VERTEX
  5
70C
  8
0
  6
CONTINUOUS
 62
     7
 10
52.3179917394
 20
202.5648798905
 30
0.0
  0
VERTEX
  5
70D
  8
0
  6
CONTINUOUS
 62
     7
 10
53.2699039935
 20
203.5083897523
 30
0.0
  0
VERTEX
  5
70E
  8
0
  6
CONTINUOUS
 62
     7
 10
54.4076225518
 20
204.4151049219
 30
0.0
  0
VERTEX
  5
70F
  8
0
  6
CONTINUOUS
 62
     7
 10
55.7221582888
 20
205.2834551893
 30
0.0
  0
VERTEX
  5
710
  8
0
  6
CONTINUOUS
 62
     7
 10
57.2488791107
 20
206.0951139889
 30
0.0
  0
VERTEX
  5
711
  8
0
  6
CONTINUOUS
 62
     7
 10
58.2055560111
 20
206.6634852551
 30
0.0
  0
VERTEX
  5
712
  8
0
  6
CONTINUOUS
 62
     7
 10
59.1992194562
 20
207.2250411026
 30
0.0
  0
VERTEX
  5
713
  8
0
  6
CONTINUOUS
 62
     7
 10
60.4921559601
 20
207.6750394068
 30
0.0
  0
VERTEX
  5
714
  8
0
  6
CONTINUOUS
 62
     7
 10
62.4490248768
 20
208.3623871319
 30
0.0
  0
VERTEX
  5
715
  8
0
  6
CONTINUOUS
 62
     7
 10
63.4571852891
 20
208.699488651
 30
0.0
  0
VERTEX
  5
716
  8
0
  6
CONTINUOUS
 62
     7
 10
63.9740525542
 20
208.8637106232
 30
0.0
  0
VERTEX
  5
717
  8
0
  6
CONTINUOUS
 62
     7
 10
64.2370450108
 20
208.9440185688
 30
0.0
  0
VERTEX
  5
718
  8
0
  6
CONTINUOUS
 62
     7
 10
64.3699000387
 20
208.9835941903
 30
0.0
  0
VERTEX
  5
719
  8
0
  6
CONTINUOUS
 62
     7
 10
64.4366646914
 20
209.0033289157
 30
0.0
  0
VERTEX
  5
71A
  8
0
  6
CONTINUOUS
 62
     7
 10
64.4760056196
 20
209.0077955387
 30
0.0
  0
VERTEX
  5
71B
  8
0
  6
CONTINUOUS
 62
     7
 10
64.485724902
 20
209.0091031156
 30
0.0
  0
VERTEX
  5
71C
  8
0
  6
CONTINUOUS
 62
     7
 10
64.4924546389
 20
209.0122826509
 30
0.0
  0
VERTEX
  5
71D
  8
0
  6
CONTINUOUS
 62
     7
 10
64.4946171699
 20
209.0143632255
 30
0.0
  0
VERTEX
  5
71E
  8
0
  6
CONTINUOUS
 62
     7
 10
64.4960588573
 20
209.016602125
 30
0.0
  0
VERTEX
  5
71F
  8
0
  6
CONTINUOUS
 62
     7
 10
64.4968393056
 20
209.0188689641
 30
0.0
  0
VERTEX
  5
720
  8
0
  6
CONTINUOUS
 62
     7
 10
64.4970199822
 20
209.0210370831
 30
0.0
  0
SEQEND
  5
70B
  8
0
  6
CONTINUOUS
 62
     7
  0
POLYLINE
  5
164
  8
0
  6
CONTINUOUS
 62
     7
 66
     1
 10
0.0
 20
0.0
 30
0.0
  0
VERTEX
  5
722
  8
0
  6
CONTINUOUS
 62
     7
 10
52.2474272905
 20
202.5024514757
 30
0.0
  0
VERTEX
  5
723
  8
0
  6
CONTINUOUS
 62
     7
 10
52.2860958038
 20
202.5263082348
 30
0.0
  0
VERTEX
  5
724
  8
0
  6
CONTINUOUS
 62
     7
 10
52.3063129543
 20
202.5449458621
 30
0.0
  0
VERTEX
  5
725
  8
0
  6
CONTINUOUS
 62
     7
 10
52.3179917394
 20
202.5648798905
 30
0.0
  0
SEQEND
  5
721
  8
0
  6
CONTINUOUS
 62
     7
  0
POLYLINE
  5
165
  8
0
  6
CONTINUOUS
 62
     7
 66
     1
 10
0.0
 20
0.0
 30
0.0
  0
VERTEX
  5
727
  8
0
  6
CONTINUOUS
 62
     7
 10
52.3133165
 20
202.4077331759
 30
0.0
  0
VERTEX
  5
728
  8
0
  6
CONTINUOUS
 62
     7
 10
52.3122659682
 20
202.4135744311
 30
0.0
  0
VERTEX
  5
729
  8
0
  6
CONTINUOUS
 62
     7
 10
52.3032731174
 20
202.4308690913
 30
0.0
  0
VERTEX
  5
72A
  8
0
  6
CONTINUOUS
 62
     7
 10
52.285302317
 20
202.4531807862
 30
0.0
  0
VERTEX
  5
72B
  8
0
  6
CONTINUOUS
 62
     7
 10
52.2295943259
 20
202.4936681725
 30
0.0
  0
SEQEND
  5
726
  8
0
  6
CONTINUOUS
 62
     7
  0
ARC
  5
166
  8
0
  6
CONTINUOUS
 62
     7
 10
79.3626055374
 20
188.1426814879
 30
0.0
 40
30.96372115505988
 50
160.520306153
 51
220.514360042
  0
ARC
  5
167
  8
0
  6
CONTINUOUS
 62
     7
 10
88.1932248131
 20
218.3157432195
 30
0.0
 40
59.80607327506736
 50
180.1444236559
 51
237.2306127789
  0
LINE
  5
168
  8
0
  6
CONTINUOUS
 62
     7
 10
86.6930290388
 20
211.565404769
 30
0.0
 11
86.6930290388
 21
211.846598994
 31
0.0
  0
LINE
  5
169
  8
0
  6
CONTINUOUS
 62
     7
 10
86.6930290388
 20
212.37631106
 30
0.0
 11
86.6930290388
 21
213.9988649748
 31
0.0
  0
LINE
  5
16A
  8
0
  6
CONTINUOUS
 62
     7
 10
86.6930290388
 20
214.2429087423
 30
0.0
 11
86.6930290388
 21
218.3154035471
 31
0.0
  0
LINE
  5
16B
  8
0
  6
CONTINUOUS
 62
     7
 10
89.6930290649
 20
211.565404769
 30
0.0
 11
86.6930290388
 21
211.565404769
 31
0.0
  0
LINE
  5
16C
  8
0
  6
CONTINUOUS
 62
     7
 10
89.6930290649
 20
218.3154035471
 30
0.0
 11
89.6930290649
 21
218.218978133
 31
0.0
  0
LINE
  5
16D
  8
0
  6
CONTINUOUS
 62
     7
 10
89.6930290649
 20
218.0538304262
 30
0.0
 11
89.6930290649
 21
216.3144048415
 31
0.0
  0
LINE
  5
16E
  8
0
  6
CONTINUOUS
 62
     7
 10
89.6930290649
 20
215.9292452149
 30
0.0
 11
89.6930290649
 21
214.3915683143
 31
0.0
  0
LINE
  5
16F
  8
0
  6
CONTINUOUS
 62
     7
 10
89.6930290649
 20
213.8321694098
 30
0.0
 11
89.6930290649
 21
212.5210926048
 31
0.0
  0
LINE
  5
170
  8
0
  6
CONTINUOUS
 62
     7
 10
89.6930290649
 20
211.6748500727
 30
0.0
 11
89.6930290649
 21
211.565404769
 31
0.0
  0
ARC
  5
171
  8
0
  6
CONTINUOUS
 62
     7
 10
88.1928344561
 20
218.3157407066
 30
0.0
 40
59.80607008116702
 50
302.7693836184
 51
359.8563493333
  0
ARC
  5
172
  8
0
  6
CONTINUOUS
 62
     7
 10
97.023651343
 20
188.1426070639
 30
0.0
 40
30.96352006574583
 50
319.485498606
 51
19.4765819059
  0
POLYLINE
  5
173
  8
0
  6
CONTINUOUS
 62
     7
 66
     1
 10
0.0
 20
0.0
 30
0.0
  0
VERTEX
  5
72D
  8
0
  6
CONTINUOUS
 62
     7
 10
111.8890399842
 20
209.0210370831
 30
0.0
  0
VERTEX
  5
72E
  8
0
  6
CONTINUOUS
 62
     7
 10
116.0829829781
 20
207.8738208972
 30
0.0
  0
VERTEX
  5
72F
  8
0
  6
CONTINUOUS
 62
     7
 10
119.2700172572
 20
206.261772301
 30
0.0
  0
VERTEX
  5
730
  8
0
  6
CONTINUOUS
 62
     7
 10
121.8185386418
 20
204.4153358899
 30
0.0
  0
VERTEX
  5
731
  8
0
  6
CONTINUOUS
 62
     7
 10
124.0680626391
 20
202.5648836158
 30
0.0
  0
SEQEND
  5
72C
  8
0
  6
CONTINUOUS
 62
     7
  0
POLYLINE
  5
174
  8
0
  6
CONTINUOUS
 62
     7
 66
     1
 10
0.0
 20
0.0
 30
0.0
  0
VERTEX
  5
733
  8
0
  6
CONTINUOUS
 62
     7
 10
88.1874324167
 20
228.7298027538
 30
0.0
  0
VERTEX
  5
734
  8
0
  6
CONTINUOUS
 62
     7
 10
88.187438428
 20
229.2808439694
 30
0.0
  0
VERTEX
  5
735
  8
0
  6
CONTINUOUS
 62
     7
 10
88.1874561695
 20
229.7965135537
 30
0.0
  0
VERTEX
  5
736
  8
0
  6
CONTINUOUS
 62
     7
 10
88.1875017952
 20
230.4022904597
 30
0.0
  0
SEQEND
  5
732
  8
0
  6
CONTINUOUS
 62
     7
  0
POLYLINE
  5
175
  8
0
  6
CONTINUOUS
 62
     7
 66
     1
 10
0.0
 20
0.0
 30
0.0
  0
VERTEX
  5
738
  8
0
  6
CONTINUOUS
 62
     7
 10
97.9714364542
 20
230.4068874679
 30
0.0
  0
VERTEX
  5
739
  8
0
  6
CONTINUOUS
 62
     7
 10
93.090891259
 20
230.4033894203
 30
0.0
  0
VERTEX
  5
73A
  8
0
  6
CONTINUOUS
 62
     7
 10
88.1875017952
 20
230.4022904597
 30
0.0
  0
SEQEND
  5
737
  8
0
  6
CONTINUOUS
 62
     7
  0
ARC
  5
176
  8
0
  6
CONTINUOUS
 62
     7
 10
89.4776859336
 20
228.9611158029
 30
0.0
 40
8.620371042016862
 50
358.478183025
 51
9.832404393
  0
ARC
  5
177
  8
0
  6
CONTINUOUS
 62
     7
 10
86.8882391863
 20
228.961111935
 30
0.0
 40
8.611127251825533
 50
170.1568612403
 51
181.5233756489
  0
POLYLINE
  5
178
  8
0
  6
CONTINUOUS
 62
     7
 66
     1
 10
0.0
 20
0.0
 30
0.0
  0
VERTEX
  5
73C
  8
0
  6
CONTINUOUS
 62
     7
 10
88.1875017952
 20
230.4022904597
 30
0.0
  0
VERTEX
  5
73D
  8
0
  6
CONTINUOUS
 62
     7
 10
83.284239637
 20
230.4033931456
 30
0.0
  0
VERTEX
  5
73E
  8
0
  6
CONTINUOUS
 62
     7
 10
78.4038723244
 20
230.4068986438
 30
0.0
  0
SEQEND
  5
73B
  8
0
  6
CONTINUOUS
 62
     7
  0
POLYLINE
  5
179
  8
0
  6
CONTINUOUS
 62
     7
 66
     1
 10
0.0
 20
0.0
 30
0.0
  0
VERTEX
  5
740
  8
0
  6
CONTINUOUS
 62
     7
 10
147.0434925316
 20
229.1384149454
 30
0.0
  0
VERTEX
  5
741
  8
0
  6
CONTINUOUS
 62
     7
 10
147.115539646
 20
229.6155799292
 30
0.0
  0
VERTEX
  5
742
  8
0
  6
CONTINUOUS
 62
     7
 10
147.1960021912
 20
229.939408239
 30
0.0
  0
SEQEND
  5
73F
  8
0
  6
CONTINUOUS
 62
     7
  0
POLYLINE
  5
17A
  8
0
  6
CONTINUOUS
 62
     7
 66
     1
 10
0.0
 20
0.0
 30
0.0
  0
VERTEX
  5
744
  8
0
  6
CONTINUOUS
 62
     7
 10
147.0434925316
 20
229.1384149454
 30
0.0
  0
VERTEX
  5
745
  8
0
  6
CONTINUOUS
 62
     7
 10
143.3753295599
 20
229.6118732653
 30
0.0
  0
VERTEX
  5
746
  8
0
  6
CONTINUOUS
 62
     7
 10
139.3103225885
 20
229.9671318494
 30
0.0
  0
SEQEND
  5
743
  8
0
  6
CONTINUOUS
 62
     7
  0
POLYLINE
  5
17B
  8
0
  6
CONTINUOUS
 62
     7
 66
     1
 10
0.0
 20
0.0
 30
0.0
  0
VERTEX
  5
748
  8
0
  6
CONTINUOUS
 62
     7
 10
139.3103225885
 20
229.9671318494
 30
0.0
  0
VERTEX
  5
749
  8
0
  6
CONTINUOUS
 62
     7
 10
135.7970869897
 20
230.1611002646
 30
0.0
  0
VERTEX
  5
74A
  8
0
  6
CONTINUOUS
 62
     7
 10
132.0600881039
 20
230.2887361608
 30
0.0
  0
SEQEND
  5
747
  8
0
  6
CONTINUOUS
 62
     7
  0
POLYLINE
  5
17C
  8
0
  6
CONTINUOUS
 62
     7
 66
     1
 10
0.0
 20
0.0
 30
0.0
  0
VERTEX
  5
74C
  8
0
  6
CONTINUOUS
 62
     7
 10
132.0600881039
 20
230.2887361608
 30
0.0
  0
VERTEX
  5
74D
  8
0
  6
CONTINUOUS
 62
     7
 10
127.0717791079
 20
230.3776700161
 30
0.0
  0
VERTEX
  5
74E
  8
0
  6
CONTINUOUS
 62
     7
 10
121.7921635865
 20
230.4141406081
 30
0.0
  0
SEQEND
  5
74B
  8
0
  6
CONTINUOUS
 62
     7
  0
POLYLINE
  5
17D
  8
0
  6
CONTINUOUS
 62
     7
 66
     1
 10
0.0
 20
0.0
 30
0.0
  0
VERTEX
  5
750
  8
0
  6
CONTINUOUS
 62
     7
 10
121.7921635865
 20
230.4141406081
 30
0.0
  0
VERTEX
  5
751
  8
0
  6
CONTINUOUS
 62
     7
 10
117.0677709191
 20
230.4237965606
 30
0.0
  0
VERTEX
  5
752
  8
0
  6
CONTINUOUS
 62
     7
 10
112.1862697212
 20
230.4235730432
 30
0.0
  0
VERTEX
  5
753
  8
0
  6
CONTINUOUS
 62
     7
 10
107.1751228331
 20
230.4185029231
 30
0.0
  0
SEQEND
  5
74F
  8
0
  6
CONTINUOUS
 62
     7
  0
POLYLINE
  5
17E
  8
0
  6
CONTINUOUS
 62
     7
 66
     1
 10
0.0
 20
0.0
 30
0.0
  0
VERTEX
  5
755
  8
0
  6
CONTINUOUS
 62
     7
 10
107.1751228331
 20
230.4185029231
 30
0.0
  0
VERTEX
  5
756
  8
0
  6
CONTINUOUS
 62
     7
 10
102.604238203
 20
230.4124083482
 30
0.0
  0
VERTEX
  5
757
  8
0
  6
CONTINUOUS
 62
     7
 10
97.9714364542
 20
230.4068874679
 30
0.0
  0
SEQEND
  5
754
  8
0
  6
CONTINUOUS
 62
     7
  0
POLYLINE
  5
17F
  8
0
  6
CONTINUOUS
 62
     7
 66
     1
 10
0.0
 20
0.0
 30
0.0
  0
VERTEX
  5
759
  8
0
  6
CONTINUOUS
 62
     7
 10
78.4038723244
 20
230.4068986438
 30
0.0
  0
VERTEX
  5
75A
  8
0
  6
CONTINUOUS
 62
     7
 10
73.7716153993
 20
230.412419524
 30
0.0
  0
VERTEX
  5
75B
  8
0
  6
CONTINUOUS
 62
     7
 10
69.2013091205
 20
230.418514099
 30
0.0
  0
SEQEND
  5
758
  8
0
  6
CONTINUOUS
 62
     7
  0
POLYLINE
  5
180
  8
0
  6
CONTINUOUS
 62
     7
 66
     1
 10
0.0
 20
0.0
 30
0.0
  0
VERTEX
  5
75D
  8
0
  6
CONTINUOUS
 62
     7
 10
69.2013091205
 20
230.418514099
 30
0.0
  0
VERTEX
  5
75E
  8
0
  6
CONTINUOUS
 62
     7
 10
64.1912127642
 20
230.4235804938
 30
0.0
  0
VERTEX
  5
75F
  8
0
  6
CONTINUOUS
 62
     7
 10
59.3107658236
 20
230.42378911
 30
0.0
  0
VERTEX
  5
760
  8
0
  6
CONTINUOUS
 62
     7
 10
54.5874199627
 20
230.4141145311
 30
0.0
  0
SEQEND
  5
75C
  8
0
  6
CONTINUOUS
 62
     7
  0
POLYLINE
  5
181
  8
0
  6
CONTINUOUS
 62
     7
 66
     1
 10
0.0
 20
0.0
 30
0.0
  0
VERTEX
  5
762
  8
0
  6
CONTINUOUS
 62
     7
 10
54.5874199627
 20
230.4141145311
 30
0.0
  0
VERTEX
  5
763
  8
0
  6
CONTINUOUS
 62
     7
 10
49.3089257537
 20
230.3776104115
 30
0.0
  0
VERTEX
  5
764
  8
0
  6
CONTINUOUS
 62
     7
 10
44.3216821907
 20
230.2886244021
 30
0.0
  0
SEQEND
  5
761
  8
0
  6
CONTINUOUS
 62
     7
  0
POLYLINE
  5
182
  8
0
  6
CONTINUOUS
 62
     7
 66
     1
 10
0.0
 20
0.0
 30
0.0
  0
VERTEX
  5
766
  8
0
  6
CONTINUOUS
 62
     7
 10
44.3216821907
 20
230.2886244021
 30
0.0
  0
VERTEX
  5
767
  8
0
  6
CONTINUOUS
 62
     7
 10
40.5854320882
 20
230.1609475277
 30
0.0
  0
VERTEX
  5
768
  8
0
  6
CONTINUOUS
 62
     7
 10
37.0729005693
 20
229.9669381343
 30
0.0
  0
SEQEND
  5
765
  8
0
  6
CONTINUOUS
 62
     7
  0
POLYLINE
  5
183
  8
0
  6
CONTINUOUS
 62
     7
 66
     1
 10
0.0
 20
0.0
 30
0.0
  0
VERTEX
  5
76A
  8
0
  6
CONTINUOUS
 62
     7
 10
37.0729005693
 20
229.9669381343
 30
0.0
  0
VERTEX
  5
76B
  8
0
  6
CONTINUOUS
 62
     7
 10
33.3634129523
 20
229.6494390927
 30
0.0
  0
VERTEX
  5
76C
  8
0
  6
CONTINUOUS
 62
     7
 10
29.9800074457
 20
229.2308915518
 30
0.0
  0
SEQEND
  5
769
  8
0
  6
CONTINUOUS
 62
     7
  0
LINE
  5
184
  8
0
  6
CONTINUOUS
 62
     7
 10
29.342550671
 20
229.1384074949
 30
0.0
 11
29.9800074457
 21
229.2308915518
 31
0.0
  0
POLYLINE
  5
185
  8
0
  6
CONTINUOUS
 62
     7
 66
     1
 10
0.0
 20
0.0
 30
0.0
  0
VERTEX
  5
76E
  8
0
  6
CONTINUOUS
 62
     7
 10
29.1900559126
 20
229.939408239
 30
0.0
  0
VERTEX
  5
76F
  8
0
  6
CONTINUOUS
 62
     7
 10
29.2704290508
 20
229.6213951073
 30
0.0
  0
VERTEX
  5
770
  8
0
  6
CONTINUOUS
 62
     7
 10
29.342550671
 20
229.1384074949
 30
0.0
  0
SEQEND
  5
76D
  8
0
  6
CONTINUOUS
 62
     7
  0
ARC
  5
186
  8
0
  6
CONTINUOUS
 62
     7
 10
88.1979152881
 20
9.77384096
 30
0.0
 40
227.9359657520894
 50
74.9989804215
 51
105.0035627468
  0
POLYLINE
  5
187
  8
0
  6
CONTINUOUS
 62
     7
 66
     1
 10
0.0
 20
0.0
 30
0.0
  0
VERTEX
  5
772
  8
0
  6
CONTINUOUS
 62
     7
 10
85.6588463096
 20
233.4035668634
 30
0.0
  0
VERTEX
  5
773
  8
0
  6
CONTINUOUS
 62
     7
 10
85.8011598496
 20
234.8748367391
 30
0.0
  0
VERTEX
  5
774
  8
0
  6
CONTINUOUS
 62
     7
 10
85.9502541164
 20
235.9510656558
 30
0.0
  0
SEQEND
  5
771
  8
0
  6
CONTINUOUS
 62
     7
  0
LINE
  5
188
  8
0
  6
CONTINUOUS
 62
     7
 10
90.7272117941
 20
233.4035668634
 30
0.0
 11
85.6588463096
 21
233.4035668634
 31
0.0
  0
POLYLINE
  5
189
  8
0
  6
CONTINUOUS
 62
     7
 66
     1
 10
0.0
 20
0.0
 30
0.0
  0
VERTEX
  5
776
  8
0
  6
CONTINUOUS
 62
     7
 10
90.4358039873
 20
235.9510656558
 30
0.0
  0
VERTEX
  5
777
  8
0
  6
CONTINUOUS
 62
     7
 10
90.5848982541
 20
234.8748367391
 30
0.0
  0
VERTEX
  5
778
  8
0
  6
CONTINUOUS
 62
     7
 10
90.7272117941
 20
233.4035668634
 30
0.0
  0
SEQEND
  5
775
  8
0
  6
CONTINUOUS
 62
     7
  0
LINE
  5
18A
  8
0
  6
CONTINUOUS
 62
     7
 10
90.4358039873
 20
235.9510656558
 30
0.0
 11
90.4258127587
 21
235.9510954581
 31
0.0
  0
LINE
  5
18B
  8
0
  6
CONTINUOUS
 62
     7
 10
90.3446845508
 20
236.386377003
 30
0.0
 11
90.4258127587
 21
235.9510954581
 31
0.0
  0
LINE
  5
18C
  8
0
  6
CONTINUOUS
 62
     7
 10
86.041373553
 20
236.386377003
 30
0.0
 11
90.3446845508
 21
236.386377003
 31
0.0
  0
LINE
  5
18D
  8
0
  6
CONTINUOUS
 62
     7
 10
85.960245345
 20
235.9510954581
 30
0.0
 11
86.041373553
 21
236.386377003
 31
0.0
  0
LINE
  5
18E
  8
0
  6
CONTINUOUS
 62
     7
 10
85.960245345
 20
235.9510954581
 30
0.0
 11
85.9502541164
 21
235.9510656558
 31
0.0
  0
ARC
  5
18F
  8
0
  6
CONTINUOUS
 62
     7
 10
102.8470071668
 20
228.961156533
 30
0.0
 40
4.575032504894213
 50
357.185187822
 51
18.9098798491
  0
ARC
  5
190
  8
0
  6
CONTINUOUS
 62
     7
 10
73.5271280094
 20
228.9611550758
 30
0.0
 40
4.572863074873837
 50
161.0806722309
 51
182.8161303612
  0
ARC
  5
191
  8
0
  6
CONTINUOUS
 62
     7
 10
87.0361509835
 20
214.5341619571
 30
0.0
 40
56.01032734143001
 50
236.1320169601
 51
258.9298940542
  0
POLYLINE
  5
192
  8
0
  6
CONTINUOUS
 62
     7
 66
     1
 10
0.0
 20
0.0
 30
0.0
  0
VERTEX
  5
77A
  8
0
  6
CONTINUOUS
 62
     7
 10
76.2816107629
 20
159.5679946355
 30
0.0
  0
VERTEX
  5
77B
  8
0
  6
CONTINUOUS
 62
     7
 10
77.5165929256
 20
160.2126170061
 30
0.0
  0
VERTEX
  5
77C
  8
0
  6
CONTINUOUS
 62
     7
 10
78.5729520752
 20
160.3179030232
 30
0.0
  0
SEQEND
  5
779
  8
0
  6
CONTINUOUS
 62
     7
  0
ARC
  5
193
  8
0
  6
CONTINUOUS
 62
     7
 10
89.3499100324
 20
214.5341389053
 30
0.0
 40
56.01030604858958
 50
281.0701081427
 51
303.8679894815
  0
POLYLINE
  5
194
  8
0
  6
CONTINUOUS
 62
     7
 66
     1
 10
0.0
 20
0.0
 30
0.0
  0
VERTEX
  5
77E
  8
0
  6
CONTINUOUS
 62
     7
 10
97.8131069599
 20
160.3179030232
 30
0.0
  0
VERTEX
  5
77F
  8
0
  6
CONTINUOUS
 62
     7
 10
98.8694651781
 20
160.2126188688
 30
0.0
  0
VERTEX
  5
780
  8
0
  6
CONTINUOUS
 62
     7
 10
100.1044482721
 20
159.5679927729
 30
0.0
  0
SEQEND
  5
77D
  8
0
  6
CONTINUOUS
 62
     7
  0
ARC
  5
195
  8
0
  6
CONTINUOUS
 62
     7
 10
119.4681337938
 20
228.9221438571
 30
0.0
 40
2.77435540063719
 50
355.3966658986
 51
33.1037683868
  0
ARC
  5
196
  8
0
  6
CONTINUOUS
 62
     7
 10
56.9107941573
 20
228.9221296703
 30
0.0
 40
2.77380121174637
 50
146.8889948059
 51
184.6049653989
  0
LINE
  5
197
  8
0
  6
CONTINUOUS
 62
     7
 10
90.7272117941
 20
233.4035668634
 30
0.0
 11
90.145166035
 21
234.5690798126
 31
0.0
  0
LINE
  5
198
  8
0
  6
CONTINUOUS
 62
     7
 10
85.6588463096
 20
233.4035668634
 30
0.0
 11
86.2408920687
 21
234.5690798126
 31
0.0
  0
LINE
  5
199
  8
0
  6
CONTINUOUS
 62
     7
 10
90.145166035
 20
234.5690798126
 30
0.0
 11
86.2408920687
 21
234.5690798126
 31
0.0
  0
LINE
  5
19A
  8
0
  6
CONTINUOUS
 62
     7
 10
90.4358039873
 20
235.9510656558
 30
0.0
 11
90.145166035
 21
235.3690784536
 31
0.0
  0
LINE
  5
19B
  8
0
  6
CONTINUOUS
 62
     7
 10
90.145166035
 20
235.3690784536
 30
0.0
 11
90.145166035
 21
234.5690798126
 31
0.0
  0
LINE
  5
19C
  8
0
  6
CONTINUOUS
 62
     7
 10
86.2408920687
 20
235.3690784536
 30
0.0
 11
85.9502541164
 21
235.9510656558
 31
0.0
  0
LINE
  5
19D
  8
0
  6
CONTINUOUS
 62
     7
 10
86.2408920687
 20
235.3690784536
 30
0.0
 11
86.2408920687
 21
234.5690798126
 31
0.0
  0
ARC
  5
19E
  8
0
  6
CONTINUOUS
 62
     7
 10
130.4557771491
 20
228.7588921211
 30
0.0
 40
2.232268809813917
 50
353.805940675
 51
44.0535077831
  0
ARC
  5
19F
  8
0
  6
CONTINUOUS
 62
     7
 10
45.9257626303
 20
228.7587527267
 30
0.0
 40
2.232120950057877
 50
135.9419056061
 51
186.1944309915
  0
LINE
  5
1A0
  8
0
  6
CONTINUOUS
 62
     7
 10
90.3446845508
 20
235.7886392735
 30
0.0
 11
90.4258127587
 21
235.9510954581
 31
0.0
  0
LINE
  5
1A1
  8
0
  6
CONTINUOUS
 62
     7
 10
90.3446845508
 20
236.386377003
 30
0.0
 11
90.3446845508
 21
235.7886392735
 31
0.0
  0
LINE
  5
1A2
  8
0
  6
CONTINUOUS
 62
     7
 10
85.960245345
 20
235.9510954581
 30
0.0
 11
86.041373553
 21
235.7886392735
 31
0.0
  0
LINE
  5
1A3
  8
0
  6
CONTINUOUS
 62
     7
 10
86.041373553
 20
235.7886392735
 30
0.0
 11
86.041373553
 21
236.386377003
 31
0.0
  0
LINE
  5
1A4
  8
0
  6
CONTINUOUS
 62
     7
 10
86.2408920687
 20
235.3690784536
 30
0.0
 11
90.145166035
 21
235.3690784536
 31
0.0
  0
LINE
  5
1A5
  8
0
  6
CONTINUOUS
 62
     7
 10
86.041373553
 20
235.7886392735
 30
0.0
 11
90.3446845508
 21
235.7886392735
 31
0.0
  0
ARC
  5
1A6
  8
0
  6
CONTINUOUS
 62
     7
 10
137.9929698352
 20
228.3704998575
 30
0.0
 40
2.095658162564424
 50
353.879347512
 51
51.0523170327
  0
ARC
  5
1A7
  8
0
  6
CONTINUOUS
 62
     7
 10
38.3383693448
 20
228.3927369508
 30
0.0
 40
2.046719670760247
 50
128.1914564511
 51
186.9002049669
  0
ARC
  5
1A8
  8
0
  6
CONTINUOUS
 62
     7
 10
88.2109865013
 20
185.9777914553
 30
0.0
 40
27.410245930033
 50
249.4134687008
 51
269.9624633954
  0
ARC
  5
1A9
  8
0
  6
CONTINUOUS
 62
     7
 10
88.1750695734
 20
185.9778102747
 30
0.0
 40
27.41026458867249
 50
270.0375407162
 51
290.5865232599
  0
LINE
  5
1AA
  8
0
  6
CONTINUOUS
 62
     7
 10
76.4581522702
 20
159.4580147527
 30
0.0
 11
76.2816107629
 21
159.5679946355
 31
0.0
  0
LINE
  5
1AB
  8
0
  6
CONTINUOUS
 62
     7
 10
100.1044482721
 20
159.5679927729
 30
0.0
 11
99.9278900011
 21
159.4580128901
 31
0.0
  0
POLYLINE
  5
1AC
  8
0
  6
CONTINUOUS
 62
     7
 66
     1
 10
0.0
 20
0.0
 30
0.0
  0
VERTEX
  5
782
  8
0
  6
CONTINUOUS
 62
     7
 10
71.6843436269
 20
160.5487741642
 30
0.0
  0
VERTEX
  5
783
  8
0
  6
CONTINUOUS
 62
     7
 10
74.0837034567
 20
159.9468790106
 30
0.0
  0
VERTEX
  5
784
  8
0
  6
CONTINUOUS
 62
     7
 10
76.4581522702
 20
159.4580147527
 30
0.0
  0
SEQEND
  5
781
  8
0
  6
CONTINUOUS
 62
     7
  0
LINE
  5
1AD
  8
0
  6
CONTINUOUS
 62
     7
 10
88.1930290519
 20
157.865343254
 30
0.0
 11
88.1930290519
 21
158.5686631612
 31
0.0
  0
ARC
  5
1AE
  8
0
  6
CONTINUOUS
 62
     7
 10
88.2110380868
 20
218.4200807395
 30
0.0
 40
60.55565772313972
 50
254.061639106
 51
269.9829604408
  0
POLYLINE
  5
1AF
  8
0
  6
CONTINUOUS
 62
     7
 66
     1
 10
0.0
 20
0.0
 30
0.0
  0
VERTEX
  5
786
  8
0
  6
CONTINUOUS
 62
     7
 10
71.5822688101
 20
160.1923234872
 30
0.0
  0
VERTEX
  5
787
  8
0
  6
CONTINUOUS
 62
     7
 10
71.639437115
 20
160.3919338547
 30
0.0
  0
VERTEX
  5
788
  8
0
  6
CONTINUOUS
 62
     7
 10
71.6843436269
 20
160.5487741642
 30
0.0
  0
SEQEND
  5
785
  8
0
  6
CONTINUOUS
 62
     7
  0
POLYLINE
  5
1B0
  8
0
  6
CONTINUOUS
 62
     7
 66
     1
 10
0.0
 20
0.0
 30
0.0
  0
VERTEX
  5
78A
  8
0
  6
CONTINUOUS
 62
     7
 10
99.9278900011
 20
159.4580128901
 30
0.0
  0
VERTEX
  5
78B
  8
0
  6
CONTINUOUS
 62
     7
 10
102.3023462652
 20
159.9468790106
 30
0.0
  0
VERTEX
  5
78C
  8
0
  6
CONTINUOUS
 62
     7
 10
104.7017144768
 20
160.5487741642
 30
0.0
  0
SEQEND
  5
789
  8
0
  6
CONTINUOUS
 62
     7
  0
POLYLINE
  5
1B1
  8
0
  6
CONTINUOUS
 62
     7
 66
     1
 10
0.0
 20
0.0
 30
0.0
  0
VERTEX
  5
78E
  8
0
  6
CONTINUOUS
 62
     7
 10
104.8037892936
 20
160.1923234872
 30
0.0
  0
VERTEX
  5
78F
  8
0
  6
CONTINUOUS
 62
     7
 10
104.7466209887
 20
160.3919338547
 30
0.0
  0
VERTEX
  5
790
  8
0
  6
CONTINUOUS
 62
     7
 10
104.7017144768
 20
160.5487741642
 30
0.0
  0
SEQEND
  5
78D
  8
0
  6
CONTINUOUS
 62
     7
  0
ARC
  5
1B2
  8
0
  6
CONTINUOUS
 62
     7
 10
88.1997847193
 20
218.2433031119
 30
0.0
 40
60.37888044084843
 50
269.9935892944
 51
285.9618290557
  0
ARC
  5
1B3
  8
0
  6
CONTINUOUS
 62
     7
 10
146.0829918675
 20
227.4930393407
 30
0.0
 40
1.927688597340681
 50
353.6132432303
 51
60.1146894132
  0
ARC
  5
1B4
  8
0
  6
CONTINUOUS
 62
     7
 10
30.9630862076
 20
227.592376883
 30
0.0
 40
1.93406573102664
 50
120.5504241887
 51
186.5090692246
  0
ARC
  5
1B5
  8
0
  6
CONTINUOUS
 62
     7
 10
86.9587225916
 20
216.269550088
 30
0.0
 40
57.77675529220593
 50
242.9122321703
 51
254.6705421146
  0
POLYLINE
  5
1B6
  8
0
  6
CONTINUOUS
 62
     7
 66
     1
 10
0.0
 20
0.0
 30
0.0
  0
VERTEX
  5
792
  8
0
  6
CONTINUOUS
 62
     7
 10
55.625852084
 20
167.7216753475
 30
0.0
  0
VERTEX
  5
793
  8
0
  6
CONTINUOUS
 62
     7
 10
58.1044367312
 20
166.2121448777
 30
0.0
  0
VERTEX
  5
794
  8
0
  6
CONTINUOUS
 62
     7
 10
60.649797207
 20
164.83032481
 30
0.0
  0
SEQEND
  5
791
  8
0
  6
CONTINUOUS
 62
     7
  0
POLYLINE
  5
1B7
  8
0
  6
CONTINUOUS
 62
     7
 66
     1
 10
0.0
 20
0.0
 30
0.0
  0
VERTEX
  5
796
  8
0
  6
CONTINUOUS
 62
     7
 10
55.625852084
 20
167.7216753475
 30
0.0
  0
VERTEX
  5
797
  8
0
  6
CONTINUOUS
 62
     7
 10
55.6951313077
 20
167.8293287866
 30
0.0
  0
VERTEX
  5
798
  8
0
  6
CONTINUOUS
 62
     7
 10
55.8226479946
 20
168.0274527632
 30
0.0
  0
SEQEND
  5
795
  8
0
  6
CONTINUOUS
 62
     7
  0
POLYLINE
  5
1B8
  8
0
  6
CONTINUOUS
 62
     7
 66
     1
 10
0.0
 20
0.0
 30
0.0
  0
VERTEX
  5
79A
  8
0
  6
CONTINUOUS
 62
     7
 10
120.7602060197
 20
167.7216753475
 30
0.0
  0
VERTEX
  5
79B
  8
0
  6
CONTINUOUS
 62
     7
 10
120.6909267961
 20
167.8293269239
 30
0.0
  0
VERTEX
  5
79C
  8
0
  6
CONTINUOUS
 62
     7
 10
120.5634063838
 20
168.0274509005
 30
0.0
  0
SEQEND
  5
799
  8
0
  6
CONTINUOUS
 62
     7
  0
POLYLINE
  5
1B9
  8
0
  6
CONTINUOUS
 62
     7
 66
     1
 10
0.0
 20
0.0
 30
0.0
  0
VERTEX
  5
79E
  8
0
  6
CONTINUOUS
 62
     7
 10
120.7602060197
 20
167.7216753475
 30
0.0
  0
VERTEX
  5
79F
  8
0
  6
CONTINUOUS
 62
     7
 10
118.2816269605
 20
166.212148603
 30
0.0
  0
VERTEX
  5
7A0
  8
0
  6
CONTINUOUS
 62
     7
 10
115.7362608968
 20
164.83032481
 30
0.0
  0
SEQEND
  5
79D
  8
0
  6
CONTINUOUS
 62
     7
  0
ARC
  5
1BA
  8
0
  6
CONTINUOUS
 62
     7
 10
89.3814802619
 20
216.3879531398
 30
0.0
 40
57.9030526078903
 50
285.3422487636
 51
297.074815101
  0
LINE
  5
1BB
  8
0
  6
CONTINUOUS
 62
     7
 10
115.7362608968
 20
164.83032481
 30
0.0
 11
115.8688383906
 21
164.572877448
 31
0.0
  0
POLYLINE
  5
1BC
  8
0
  6
CONTINUOUS
 62
     7
 66
     1
 10
0.0
 20
0.0
 30
0.0
  0
VERTEX
  5
7A2
  8
0
  6
CONTINUOUS
 62
     7
 10
115.8688402532
 20
164.5728755854
 30
0.0
  0
VERTEX
  5
7A3
  8
0
  6
CONTINUOUS
 62
     7
 10
110.4406545667
 20
162.1069382988
 30
0.0
  0
VERTEX
  5
7A4
  8
0
  6
CONTINUOUS
 62
     7
 10
104.8037892936
 20
160.1923234872
 30
0.0
  0
SEQEND
  5
7A1
  8
0
  6
CONTINUOUS
 62
     7
  0
LINE
  5
1BD
  8
0
  6
CONTINUOUS
 62
     7
 10
60.5172178505
 20
164.5728755854
 30
0.0
 11
60.649797207
 21
164.83032481
 31
0.0
  0
POLYLINE
  5
1BE
  8
0
  6
CONTINUOUS
 62
     7
 66
     1
 10
0.0
 20
0.0
 30
0.0
  0
VERTEX
  5
7A6
  8
0
  6
CONTINUOUS
 62
     7
 10
71.5822688101
 20
160.1923234872
 30
0.0
  0
VERTEX
  5
7A7
  8
0
  6
CONTINUOUS
 62
     7
 10
65.945403537
 20
162.1069382988
 30
0.0
  0
VERTEX
  5
7A8
  8
0
  6
CONTINUOUS
 62
     7
 10
60.5172178505
 20
164.5728755854
 30
0.0
  0
SEQEND
  5
7A5
  8
0
  6
CONTINUOUS
 62
     7
  0
ARC
  5
1BF
  8
0
  6
CONTINUOUS
 62
     7
 10
30.3029782098
 20
227.4930866075
 30
0.0
 40
1.927602645654227
 50
119.8842718785
 51
186.3874536725
  0
POLYLINE
  5
1C0
  8
0
  6
CONTINUOUS
 62
     7
 66
     1
 10
0.0
 20
0.0
 30
0.0
  0
VERTEX
  5
7AA
  8
0
  6
CONTINUOUS
 62
     7
 10
48.5596916436
 20
173.0435989909
 30
0.0
  0
VERTEX
  5
7AB
  8
0
  6
CONTINUOUS
 62
     7
 10
51.9950574993
 20
170.2525351308
 30
0.0
  0
VERTEX
  5
7AC
  8
0
  6
CONTINUOUS
 62
     7
 10
55.625852084
 20
167.7216753475
 30
0.0
  0
SEQEND
  5
7A9
  8
0
  6
CONTINUOUS
 62
     7
  0
ARC
  5
1C1
  8
0
  6
CONTINUOUS
 62
     7
 10
88.1815105356
 20
218.3054291697
 30
0.0
 40
60.15417123393666
 50
212.5753308694
 51
228.8013920729
  0
ARC
  5
1C2
  8
0
  6
CONTINUOUS
 62
     7
 10
88.1823557687
 20
218.3105744871
 30
0.0
 40
60.15766520255335
 50
196.2871529335
 51
212.5790438869
  0
ARC
  5
1C3
  8
0
  6
CONTINUOUS
 62
     7
 10
88.1856150553
 20
218.3145906189
 30
0.0
 40
60.16192009021565
 50
180.038430609
 51
196.2899537139
  0
POLYLINE
  5
1C4
  8
0
  6
CONTINUOUS
 62
     7
 66
     1
 10
0.0
 20
0.0
 30
0.0
  0
VERTEX
  5
7AE
  8
0
  6
CONTINUOUS
 62
     7
 10
28.0237084983
 20
218.3132950328
 30
0.0
  0
VERTEX
  5
7AF
  8
0
  6
CONTINUOUS
 62
     7
 10
28.1267165004
 20
218.3143530153
 30
0.0
  0
VERTEX
  5
7B0
  8
0
  6
CONTINUOUS
 62
     7
 10
28.3873415349
 20
218.3154035471
 30
0.0
  0
SEQEND
  5
7AD
  8
0
  6
CONTINUOUS
 62
     7
  0
LINE
  5
1C5
  8
0
  6
CONTINUOUS
 62
     7
 10
28.0237084983
 20
227.2786494456
 30
0.0
 11
28.0237084983
 21
218.3132950328
 31
0.0
  0
POLYLINE
  5
1C6
  8
0
  6
CONTINUOUS
 62
     7
 66
     1
 10
0.0
 20
0.0
 30
0.0
  0
VERTEX
  5
7B2
  8
0
  6
CONTINUOUS
 62
     7
 10
28.0237084983
 20
227.2786494456
 30
0.0
  0
VERTEX
  5
7B3
  8
0
  6
CONTINUOUS
 62
     7
 10
28.1341298281
 20
227.2786382697
 30
0.0
  0
VERTEX
  5
7B4
  8
0
  6
CONTINUOUS
 62
     7
 10
28.3873415349
 20
227.2786382697
 30
0.0
  0
SEQEND
  5
7B1
  8
0
  6
CONTINUOUS
 62
     7
  0
LINE
  5
1C7
  8
0
  6
CONTINUOUS
 62
     7
 10
148.3623496054
 20
218.3132950328
 30
0.0
 11
148.3623496054
 21
227.2788133584
 31
0.0
  0
POLYLINE
  5
1C8
  8
0
  6
CONTINUOUS
 62
     7
 66
     1
 10
0.0
 20
0.0
 30
0.0
  0
VERTEX
  5
7B6
  8
0
  6
CONTINUOUS
 62
     7
 10
148.3623496054
 20
218.3132950328
 30
0.0
  0
VERTEX
  5
7B7
  8
0
  6
CONTINUOUS
 62
     7
 10
148.2577173768
 20
218.3140736185
 30
0.0
  0
VERTEX
  5
7B8
  8
0
  6
CONTINUOUS
 62
     7
 10
147.9987165688
 20
218.3154035471
 30
0.0
  0
SEQEND
  5
7B5
  8
0
  6
CONTINUOUS
 62
     7
  0
POLYLINE
  5
1C9
  8
0
  6
CONTINUOUS
 62
     7
 66
     1
 10
0.0
 20
0.0
 30
0.0
  0
VERTEX
  5
7BA
  8
0
  6
CONTINUOUS
 62
     7
 10
148.3623496054
 20
227.2788133584
 30
0.0
  0
VERTEX
  5
7BB
  8
0
  6
CONTINUOUS
 62
     7
 10
148.2593416034
 20
227.2786978744
 30
0.0
  0
VERTEX
  5
7BC
  8
0
  6
CONTINUOUS
 62
     7
 10
147.9987165688
 20
227.2786047421
 30
0.0
  0
SEQEND
  5
7B9
  8
0
  6
CONTINUOUS
 62
     7
  0
ARC
  5
1CA
  8
0
  6
CONTINUOUS
 62
     7
 10
88.0824355437
 20
218.3316415341
 30
0.0
 40
60.27997520092293
 50
343.7259523542
 51
359.9183960868
  0
ARC
  5
1CB
  8
0
  6
CONTINUOUS
 62
     7
 10
88.2043942459
 20
218.3101899483
 30
0.0
 40
60.15689321518083
 50
327.4208828913
 51
343.7130137996
  0
ARC
  5
1CC
  8
0
  6
CONTINUOUS
 62
     7
 10
88.2046915043
 20
218.3053004667
 30
0.0
 40
60.15398064652161
 50
311.1985846329
 51
327.4246986192
  0
POLYLINE
  5
1CD
  8
0
  6
CONTINUOUS
 62
     7
 66
     1
 10
0.0
 20
0.0
 30
0.0
  0
VERTEX
  5
7BE
  8
0
  6
CONTINUOUS
 62
     7
 10
120.7602060197
 20
167.7216753475
 30
0.0
  0
VERTEX
  5
7BF
  8
0
  6
CONTINUOUS
 62
     7
 10
124.3909968792
 20
170.2525332682
 30
0.0
  0
VERTEX
  5
7C0
  8
0
  6
CONTINUOUS
 62
     7
 10
127.8263664602
 20
173.0435980595
 30
0.0
  0
SEQEND
  5
7BD
  8
0
  6
CONTINUOUS
 62
     7
  0
ARC
  5
1CE
  8
0
  6
CONTINUOUS
 62
     7
 10
30.0169290634
 20
227.2612482266
 30
0.0
 40
1.994621050414355
 50
109.7610669107
 51
177.8528018407
  0
ARC
  5
1CF
  8
0
  6
CONTINUOUS
 62
     7
 10
146.3689322946
 20
227.2611122921
 30
0.0
 40
1.994817476742433
 50
2.1468475654
 51
70.2354100792
  0
POLYLINE
  5
1D0
  8
0
  6
CONTINUOUS
 62
     7
 66
     1
 10
0.0
 20
0.0
 30
0.0
  0
VERTEX
  5
7C2
  8
0
  6
CONTINUOUS
 62
     7
 10
127.8263664602
 20
173.0435980595
 30
0.0
  0
VERTEX
  5
7C3
  8
0
  6
CONTINUOUS
 62
     7
 10
127.9299556075
 20
172.9252744578
 30
0.0
  0
VERTEX
  5
7C4
  8
0
  6
CONTINUOUS
 62
     7
 10
128.0113420247
 20
172.832308907
 30
0.0
  0
SEQEND
  5
7C1
  8
0
  6
CONTINUOUS
 62
     7
  0
ARC
  5
1D1
  8
0
  6
CONTINUOUS
 62
     7
 10
88.1825250819
 20
218.3369624669
 30
0.0
 40
60.47403646165267
 50
297.2466231369
 51
311.1939642997
  0
LINE
  5
1D2
  8
0
  6
CONTINUOUS
 62
     7
 10
48.5596916436
 20
173.0435989909
 30
0.0
 11
48.3747160791
 21
172.832308907
 31
0.0
  0
ARC
  5
1D3
  8
0
  6
CONTINUOUS
 62
     7
 10
88.0848167638
 20
218.1624157049
 30
0.0
 40
60.26451128200444
 50
228.7816726013
 51
242.7777468806
  0
POLYLINE
  5
1D4
  8
0
  6
CONTINUOUS
 62
     7
 66
     1
 10
0.0
 20
0.0
 30
0.0
  0
VERTEX
  5
7C6
  8
0
  6
CONTINUOUS
 62
     7
 10
28.0237084983
 20
227.2786494456
 30
0.0
  0
VERTEX
  5
7C7
  8
0
  6
CONTINUOUS
 62
     7
 10
27.8903542815
 20
227.6939857863
 30
0.0
  0
VERTEX
  5
7C8
  8
0
  6
CONTINUOUS
 62
     7
 10
27.7429668961
 20
228.0164953433
 30
0.0
  0
SEQEND
  5
7C5
  8
0
  6
CONTINUOUS
 62
     7
  0
POLYLINE
  5
1D5
  8
0
  6
CONTINUOUS
 62
     7
 66
     1
 10
0.0
 20
0.0
 30
0.0
  0
VERTEX
  5
7CA
  8
0
  6
CONTINUOUS
 62
     7
 10
29.1900559126
 20
229.939408239
 30
0.0
  0
VERTEX
  5
7CB
  8
0
  6
CONTINUOUS
 62
     7
 10
28.6384410022
 20
229.6591397486
 30
0.0
  0
VERTEX
  5
7CC
  8
0
  6
CONTINUOUS
 62
     7
 10
28.5417101143
 20
229.5641299449
 30
0.0
  0
SEQEND
  5
7C9
  8
0
  6
CONTINUOUS
 62
     7
  0
POLYLINE
  5
1D6
  8
0
  6
CONTINUOUS
 62
     7
 66
     1
 10
0.0
 20
0.0
 30
0.0
  0
VERTEX
  5
7CE
  8
0
  6
CONTINUOUS
 62
     7
 10
27.876552081
 20
228.6817502342
 30
0.0
  0
VERTEX
  5
7CF
  8
0
  6
CONTINUOUS
 62
     7
 10
27.8466827033
 20
228.6292273663
 30
0.0
  0
VERTEX
  5
7D0
  8
0
  6
CONTINUOUS
 62
     7
 10
27.7429668961
 20
228.0164953433
 30
0.0
  0
SEQEND
  5
7CD
  8
0
  6
CONTINUOUS
 62
     7
  0
ARC
  5
1D7
  8
0
  6
CONTINUOUS
 62
     7
 10
146.6531537701
 20
228.0251802628
 30
0.0
 40
1.989959639899071
 50
359.7293450788
 51
74.1694248184
  0
POLYLINE
  5
1D8
  8
0
  6
CONTINUOUS
 62
     7
 66
     1
 10
0.0
 20
0.0
 30
0.0
  0
VERTEX
  5
7D2
  8
0
  6
CONTINUOUS
 62
     7
 10
148.6430912076
 20
228.0157800875
 30
0.0
  0
VERTEX
  5
7D3
  8
0
  6
CONTINUOUS
 62
     7
 10
148.5026254116
 20
227.7164381109
 30
0.0
  0
VERTEX
  5
7D4
  8
0
  6
CONTINUOUS
 62
     7
 10
148.3623496054
 20
227.2788133584
 30
0.0
  0
SEQEND
  5
7D1
  8
0
  6
CONTINUOUS
 62
     7
  0
LINE
  5
1D9
  8
0
  6
CONTINUOUS
 62
     7
 10
27.7429668961
 20
218.3144349716
 30
0.0
 11
28.0237084983
 21
218.3132950328
 31
0.0
  0
LINE
  5
1DA
  8
0
  6
CONTINUOUS
 62
     7
 10
30.4389259575
 20
201.4392675943
 30
0.0
 11
30.1694012044
 21
201.3605056442
 31
0.0
  0
ARC
  5
1DB
  8
0
  6
CONTINUOUS
 62
     7
 10
88.1855309796
 20
218.3207378774
 30
0.0
 40
60.44436112235184
 50
180.4418140785
 51
196.2955679947
  0
LINE
  5
1DC
  8
0
  6
CONTINUOUS
 62
     7
 10
148.3623496054
 20
218.3132950328
 30
0.0
 11
148.6430912076
 21
218.3144349716
 31
0.0
  0
ARC
  5
1DD
  8
0
  6
CONTINUOUS
 62
     7
 10
88.2004639339
 20
218.3207477544
 30
0.0
 40
60.44442454552169
 50
343.704439826
 51
359.5581575254
  0
LINE
  5
1DE
  8
0
  6
CONTINUOUS
 62
     7
 10
145.9471321462
 20
201.4392675943
 30
0.0
 11
146.2166568993
 21
201.3605056442
 31
0.0
  0
POLYLINE
  5
1DF
  8
0
  6
CONTINUOUS
 62
     7
 66
     1
 10
0.0
 20
0.0
 30
0.0
  0
VERTEX
  5
7D6
  8
0
  6
CONTINUOUS
 62
     7
 10
138.8955226897
 20
185.917941492
 30
0.0
  0
VERTEX
  5
7D7
  8
0
  6
CONTINUOUS
 62
     7
 10
139.0138379096
 20
185.8423408
 30
0.0
  0
VERTEX
  5
7D8
  8
0
  6
CONTINUOUS
 62
     7
 10
139.1321531294
 20
185.7667402243
 30
0.0
  0
SEQEND
  5
7D5
  8
0
  6
CONTINUOUS
 62
     7
  0
ARC
  5
1E0
  8
0
  6
CONTINUOUS
 62
     7
 10
88.1766497988
 20
218.3246519309
 30
0.0
 40
60.46884267435607
 50
327.4235420061
 51
343.7057128043
  0
POLYLINE
  5
1E1
  8
0
  6
CONTINUOUS
 62
     7
 66
     1
 10
0.0
 20
0.0
 30
0.0
  0
VERTEX
  5
7DA
  8
0
  6
CONTINUOUS
 62
     7
 10
37.4905354141
 20
185.917941492
 30
0.0
  0
VERTEX
  5
7DB
  8
0
  6
CONTINUOUS
 62
     7
 10
37.3722201942
 20
185.8423408
 30
0.0
  0
VERTEX
  5
7DC
  8
0
  6
CONTINUOUS
 62
     7
 10
37.2539049743
 20
185.7667402243
 30
0.0
  0
SEQEND
  5
7D9
  8
0
  6
CONTINUOUS
 62
     7
  0
ARC
  5
1E2
  8
0
  6
CONTINUOUS
 62
     7
 10
88.2093405476
 20
218.3246214633
 30
0.0
 40
60.46876917252421
 50
196.2942777662
 51
212.5764682347
  0
ARC
  5
1E3
  8
0
  6
CONTINUOUS
 62
     7
 10
88.2120900674
 20
218.3045116718
 30
0.0
 40
60.429311436037
 50
311.1938274268
 51
327.419794282
  0
ARC
  5
1E4
  8
0
  6
CONTINUOUS
 62
     7
 10
88.1740662007
 20
218.3045937428
 30
0.0
 40
60.4294378452044
 50
212.5802204257
 51
228.8061537861
  0
LINE
  5
1E5
  8
0
  6
CONTINUOUS
 62
     7
 10
27.7429668961
 20
228.0164953433
 30
0.0
 11
27.7429668961
 21
218.3144349716
 31
0.0
  0
LINE
  5
1E6
  8
0
  6
CONTINUOUS
 62
     7
 10
148.6430912076
 20
218.3144349716
 30
0.0
 11
148.6430912076
 21
228.0157800875
 31
0.0
  0
DIMENSION
  5
1E7
  8
COTATION
  2
*D2
 10
27.743053887
 20
251.4192824811
 30
0.0
 11
88.1931587898
 21
251.4190582141
 31
0.0
 70
   160
  1
<> mm
  3
SLDDIMSTYLE0
 13
148.6431768694
 23
228.0160455727
 33
0.0
 14
27.7429670638
 24
228.0164941067
 34
0.0
 50
-0.0002125646
1001
ACAD
1000
DSTYLE
1002
{
1070
   143
1040
0.0393700787
1070
    41
1040
3.81
1070
    44
1040
1.0
1070
    42
1040
0.0
1070
   147
1040
1.524
1070
    73
1070
     1
1070
    74
1070
     1
1070
   140
1040
3.2
1070
   284
1070
    12
1070
    78
1070
    12
1002
}
  0
LINE
  5
1FE
  8
0
  6
CONTINUOUS
 62
     7
 10
76.8188432588
 20
97.8451074461
 30
0.0
 11
76.8013884111
 21
98.8451074936
 31
0.0
  0
LINE
  5
1FF
  8
0
  6
CONTINUOUS
 62
     7
 10
99.5846696927
 20
98.8451074936
 30
0.0
 11
99.567214845
 21
97.8451074461
 31
0.0
  0
LINE
  5
200
  8
0
  6
CONTINUOUS
 62
     7
 10
63.5450704752
 20
98.8451074936
 30
0.0
 11
63.5276137649
 21
97.8451074461
 31
0.0
  0
LINE
  5
201
  8
0
  6
CONTINUOUS
 62
     7
 10
112.8584443389
 20
97.8451074461
 30
0.0
 11
112.8409876286
 21
98.8451074936
 31
0.0
  0
LINE
  5
202
  8
0
  6
CONTINUOUS
 62
     7
 10
44.1430284439
 20
97.8451074461
 30
0.0
 11
44.1255754589
 21
98.8451074936
 31
0.0
  0
LINE
  5
203
  8
0
  6
CONTINUOUS
 62
     7
 10
32.2604848801
 20
98.8451074936
 30
0.0
 11
32.2430281697
 21
97.8451074461
 31
0.0
  0
LINE
  5
204
  8
0
  6
CONTINUOUS
 62
     7
 10
119.944684094
 20
97.8451074461
 30
0.0
 11
119.9272273837
 21
98.8451074936
 31
0.0
  0
LINE
  5
205
  8
0
  6
CONTINUOUS
 62
     7
 10
56.45883072
 20
98.8451074936
 30
0.0
 11
56.4413740097
 21
97.8451074461
 31
0.0
  0
ARC
  5
206
  8
0
  6
CONTINUOUS
 62
     7
 10
138.2858861947
 20
104.4451074461
 30
0.0
 40
3.192857142857157
 50
110.0159596029
 51
180.0
  0
ARC
  5
207
  8
0
  6
CONTINUOUS
 62
     7
 10
136.100171909
 20
104.4451074461
 30
0.0
 40
3.192857142857137
 50
0.0
 51
69.9840403971
  0
LINE
  5
208
  8
0
  6
CONTINUOUS
 62
     7
 10
139.293029791
 20
98.8451074936
 30
0.0
 11
139.293029791
 21
104.4451074103
 31
0.0
  0
LINE
  5
209
  8
0
  6
CONTINUOUS
 62
     7
 10
135.0930294751
 20
104.4451074103
 30
0.0
 11
135.0930294751
 21
98.8451074936
 31
0.0
  0
ARC
  5
20A
  8
0
  6
CONTINUOUS
 62
     7
 10
39.2858861947
 20
104.4451074461
 30
0.0
 40
3.192857142857157
 50
110.0159596029
 51
180.0
  0
ARC
  5
20B
  8
0
  6
CONTINUOUS
 62
     7
 10
37.100171909
 20
104.4451074461
 30
0.0
 40
3.192857142857157
 50
0.0
 51
69.9840403971
  0
LINE
  5
20C
  8
0
  6
CONTINUOUS
 62
     7
 10
40.2930303274
 20
98.8451074936
 30
0.0
 11
40.2930303274
 21
104.4451074103
 31
0.0
  0
LINE
  5
20D
  8
0
  6
CONTINUOUS
 62
     7
 10
36.0930300115
 20
104.4451074103
 30
0.0
 11
36.0930300115
 21
98.8451074936
 31
0.0
  0
POLYLINE
  5
20E
  8
0
  6
CONTINUOUS
 62
     7
 66
     1
 10
0.0
 20
0.0
 30
0.0
  0
VERTEX
  5
7DE
  8
0
  6
CONTINUOUS
 62
     7
 10
122.2303285061
 20
66.1070869664
 30
0.0
  0
VERTEX
  5
7DF
  8
0
  6
CONTINUOUS
 62
     7
 10
127.5930738805
 20
69.2269710252
 30
0.0
  0
VERTEX
  5
7E0
  8
0
  6
CONTINUOUS
 62
     7
 10
132.6700559615
 20
72.7913883875
 30
0.0
  0
SEQEND
  5
7DD
  8
0
  6
CONTINUOUS
 62
     7
  0
POLYLINE
  5
20F
  8
0
  6
CONTINUOUS
 62
     7
 66
     1
 10
0.0
 20
0.0
 30
0.0
  0
VERTEX
  5
7E2
  8
0
  6
CONTINUOUS
 62
     7
 10
43.7116323768
 20
72.7947374234
 30
0.0
  0
VERTEX
  5
7E3
  8
0
  6
CONTINUOUS
 62
     7
 10
48.7875378488
 20
69.2304541717
 30
0.0
  0
VERTEX
  5
7E4
  8
0
  6
CONTINUOUS
 62
     7
 10
54.1491544603
 20
66.1105403105
 30
0.0
  0
SEQEND
  5
7E1
  8
0
  6
CONTINUOUS
 62
     7
  0
POLYLINE
  5
210
  8
0
  6
CONTINUOUS
 62
     7
 66
     1
 10
0.0
 20
0.0
 30
0.0
  0
VERTEX
  5
7E6
  8
0
  6
CONTINUOUS
 62
     7
 10
132.6728909074
 20
72.7852882246
 30
0.0
  0
VERTEX
  5
7E7
  8
0
  6
CONTINUOUS
 62
     7
 10
136.4842689393
 20
75.9194606344
 30
0.0
  0
VERTEX
  5
7E8
  8
0
  6
CONTINUOUS
 62
     7
 10
140.0737314282
 20
79.3027152667
 30
0.0
  0
SEQEND
  5
7E5
  8
0
  6
CONTINUOUS
 62
     7
  0
POLYLINE
  5
211
  8
0
  6
CONTINUOUS
 62
     7
 66
     1
 10
0.0
 20
0.0
 30
0.0
  0
VERTEX
  5
7EA
  8
0
  6
CONTINUOUS
 62
     7
 10
36.3094246744
 20
79.3056358943
 30
0.0
  0
VERTEX
  5
7EB
  8
0
  6
CONTINUOUS
 62
     7
 10
39.8981756328
 20
75.922638307
 30
0.0
  0
VERTEX
  5
7EC
  8
0
  6
CONTINUOUS
 62
     7
 10
43.7088011561
 20
72.7886372606
 30
0.0
  0
SEQEND
  5
7E9
  8
0
  6
CONTINUOUS
 62
     7
  0
POLYLINE
  5
212
  8
0
  6
CONTINUOUS
 62
     7
 66
     1
 10
0.0
 20
0.0
 30
0.0
  0
VERTEX
  5
7EE
  8
0
  6
CONTINUOUS
 62
     7
 10
29.0436110257
 20
87.8416170726
 30
0.0
  0
VERTEX
  5
7EF
  8
0
  6
CONTINUOUS
 62
     7
 10
32.5105300902
 20
83.4333767543
 30
0.0
  0
VERTEX
  5
7F0
  8
0
  6
CONTINUOUS
 62
     7
 10
36.3069324552
 20
79.2994798521
 30
0.0
  0
SEQEND
  5
7ED
  8
0
  6
CONTINUOUS
 62
     7
  0
ARC
  5
213
  8
0
  6
CONTINUOUS
 62
     7
 10
88.3741629254
 20
130.7608874588
 30
0.0
 40
72.94982981056049
 50
315.132039203
 51
323.455901579
  0
POLYLINE
  5
214
  8
0
  6
CONTINUOUS
 62
     7
 66
     1
 10
0.0
 20
0.0
 30
0.0
  0
VERTEX
  5
7F2
  8
0
  6
CONTINUOUS
 62
     7
 10
148.3484170197
 20
89.7752066503
 30
0.0
  0
VERTEX
  5
7F3
  8
0
  6
CONTINUOUS
 62
     7
 10
148.4562343715
 20
92.8618508751
 30
0.0
  0
VERTEX
  5
7F4
  8
0
  6
CONTINUOUS
 62
     7
 10
148.5518476723
 20
95.3887853666
 30
0.0
  0
VERTEX
  5
7F5
  8
0
  6
CONTINUOUS
 62
     7
 10
148.6257052778
 20
97.3453763999
 30
0.0
  0
SEQEND
  5
7F1
  8
0
  6
CONTINUOUS
 62
     7
  0
POLYLINE
  5
215
  8
0
  6
CONTINUOUS
 62
     7
 66
     1
 10
0.0
 20
0.0
 30
0.0
  0
VERTEX
  5
7F7
  8
0
  6
CONTINUOUS
 62
     7
 10
28.0256083964
 20
89.8551904956
 30
0.0
  0
VERTEX
  5
7F8
  8
0
  6
CONTINUOUS
 62
     7
 10
28.1286275743
 20
89.28273538
 30
0.0
  0
VERTEX
  5
7F9
  8
0
  6
CONTINUOUS
 62
     7
 10
28.3900200187
 20
88.7562112311
 30
0.0
  0
SEQEND
  5
7F6
  8
0
  6
CONTINUOUS
 62
     7
  0
ARC
  5
216
  8
0
  6
CONTINUOUS
 62
     7
 10
150.9939827251
 20
22.494428704
 30
0.0
 40
53.40735418221533
 50
129.7192770337
 51
139.7745107077
  0
ARC
  5
217
  8
0
  6
CONTINUOUS
 62
     7
 10
26.7307923904
 20
23.8048735835
 30
0.0
 40
51.5443602543586
 50
40.081248882
 51
50.4886385312
  0
LINE
  5
218
  8
0
  6
CONTINUOUS
 62
     7
 10
109.5708831011
 20
56.2393629352
 30
0.0
 11
110.2185564844
 21
56.9843762914
 31
0.0
  0
POLYLINE
  5
219
  8
0
  6
CONTINUOUS
 62
     7
 66
     1
 10
0.0
 20
0.0
 30
0.0
  0
VERTEX
  5
7FB
  8
0
  6
CONTINUOUS
 62
     7
 10
102.2220513581
 20
50.3782556752
 30
0.0
  0
VERTEX
  5
7FC
  8
0
  6
CONTINUOUS
 62
     7
 10
104.306299126
 20
51.6432897548
 30
0.0
  0
VERTEX
  5
7FD
  8
0
  6
CONTINUOUS
 62
     7
 10
106.2588597445
 20
53.1021879414
 30
0.0
  0
SEQEND
  5
7FA
  8
0
  6
CONTINUOUS
 62
     7
  0
POLYLINE
  5
21A
  8
0
  6
CONTINUOUS
 62
     7
 66
     1
 10
0.0
 20
0.0
 30
0.0
  0
VERTEX
  5
7FF
  8
0
  6
CONTINUOUS
 62
     7
 10
70.1271983592
 20
53.1021879414
 30
0.0
  0
VERTEX
  5
800
  8
0
  6
CONTINUOUS
 62
     7
 10
72.0797571151
 20
51.6432897548
 30
0.0
  0
VERTEX
  5
801
  8
0
  6
CONTINUOUS
 62
     7
 10
74.164007677
 20
50.3782556752
 30
0.0
  0
SEQEND
  5
7FE
  8
0
  6
CONTINUOUS
 62
     7
  0
POLYLINE
  5
21B
  8
0
  6
CONTINUOUS
 62
     7
 66
     1
 10
0.0
 20
0.0
 30
0.0
  0
VERTEX
  5
803
  8
0
  6
CONTINUOUS
 62
     7
 10
97.7754228546
 20
48.3715498248
 30
0.0
  0
VERTEX
  5
804
  8
0
  6
CONTINUOUS
 62
     7
 10
100.0474159403
 20
49.2681489686
 30
0.0
  0
VERTEX
  5
805
  8
0
  6
CONTINUOUS
 62
     7
 10
102.2225421651
 20
50.3778533439
 30
0.0
  0
SEQEND
  5
802
  8
0
  6
CONTINUOUS
 62
     7
  0
POLYLINE
  5
21C
  8
0
  6
CONTINUOUS
 62
     7
 66
     1
 10
0.0
 20
0.0
 30
0.0
  0
VERTEX
  5
807
  8
0
  6
CONTINUOUS
 62
     7
 10
74.16351687
 20
50.3778533439
 30
0.0
  0
VERTEX
  5
808
  8
0
  6
CONTINUOUS
 62
     7
 10
76.3386430948
 20
49.2681489686
 30
0.0
  0
VERTEX
  5
809
  8
0
  6
CONTINUOUS
 62
     7
 10
78.6106361805
 20
48.3715498248
 30
0.0
  0
SEQEND
  5
806
  8
0
  6
CONTINUOUS
 62
     7
  0
POLYLINE
  5
21D
  8
0
  6
CONTINUOUS
 62
     7
 66
     1
 10
0.0
 20
0.0
 30
0.0
  0
VERTEX
  5
80B
  8
0
  6
CONTINUOUS
 62
     7
 10
93.0570442027
 20
47.1451805333
 30
0.0
  0
VERTEX
  5
80C
  8
0
  6
CONTINUOUS
 62
     7
 10
95.4459122179
 20
47.6454721192
 30
0.0
  0
VERTEX
  5
80D
  8
0
  6
CONTINUOUS
 62
     7
 10
97.775643578
 20
48.3712369005
 30
0.0
  0
SEQEND
  5
80A
  8
0
  6
CONTINUOUS
 62
     7
  0
POLYLINE
  5
21E
  8
0
  6
CONTINUOUS
 62
     7
 66
     1
 10
0.0
 20
0.0
 30
0.0
  0
VERTEX
  5
80F
  8
0
  6
CONTINUOUS
 62
     7
 10
78.6104126631
 20
48.3712331752
 30
0.0
  0
VERTEX
  5
810
  8
0
  6
CONTINUOUS
 62
     7
 10
80.9401440232
 20
47.6454683939
 30
0.0
  0
VERTEX
  5
811
  8
0
  6
CONTINUOUS
 62
     7
 10
83.3290129697
 20
47.145176808
 30
0.0
  0
SEQEND
  5
80E
  8
0
  6
CONTINUOUS
 62
     7
  0
LINE
  5
21F
  8
0
  6
CONTINUOUS
 62
     7
 10
100.2503194644
 20
98.8451074936
 30
0.0
 11
100.2512330918
 21
97.8451074461
 31
0.0
  0
LINE
  5
220
  8
0
  6
CONTINUOUS
 62
     7
 10
99.585536754
 20
98.8451074936
 30
0.0
 11
99.5681061207
 21
97.8451074461
 31
0.0
  0
LINE
  5
221
  8
0
  6
CONTINUOUS
 62
     7
 10
99.585536754
 20
98.8451074936
 30
0.0
 11
100.2503194644
 21
98.8451074936
 31
0.0
  0
LINE
  5
222
  8
0
  6
CONTINUOUS
 62
     7
 10
76.1348250119
 20
97.8451074461
 30
0.0
 11
76.1357386394
 21
98.8451074936
 31
0.0
  0
LINE
  5
223
  8
0
  6
CONTINUOUS
 62
     7
 10
76.1357386394
 20
98.8451074936
 30
0.0
 11
76.8005213498
 21
98.8451074936
 31
0.0
  0
LINE
  5
224
  8
0
  6
CONTINUOUS
 62
     7
 10
76.8179519831
 20
97.8451074461
 30
0.0
 11
76.8005213498
 21
98.8451074936
 31
0.0
  0
LINE
  5
225
  8
0
  6
CONTINUOUS
 62
     7
 10
64.1114952771
 20
98.8451074936
 30
0.0
 11
64.1096717475
 21
97.8451074461
 31
0.0
  0
LINE
  5
226
  8
0
  6
CONTINUOUS
 62
     7
 10
76.1357386394
 20
98.8451074936
 30
0.0
 11
64.1114952771
 21
98.8451074936
 31
0.0
  0
LINE
  5
227
  8
0
  6
CONTINUOUS
 62
     7
 10
112.2745628266
 20
98.8451074936
 30
0.0
 11
100.2503194644
 21
98.8451074936
 31
0.0
  0
LINE
  5
228
  8
0
  6
CONTINUOUS
 62
     7
 10
112.2763863562
 20
97.8451074461
 30
0.0
 11
112.2745628266
 21
98.8451074936
 31
0.0
  0
LINE
  5
229
  8
0
  6
CONTINUOUS
 62
     7
 10
76.8005213498
 20
98.8451074936
 30
0.0
 11
76.8013884111
 21
98.8451074936
 31
0.0
  0
LINE
  5
22A
  8
0
  6
CONTINUOUS
 62
     7
 10
99.5846696927
 20
98.8451074936
 30
0.0
 11
99.585536754
 21
98.8451074936
 31
0.0
  0
LINE
  5
22B
  8
0
  6
CONTINUOUS
 62
     7
 10
63.5450704752
 20
98.8451074936
 30
0.0
 11
64.1114952771
 21
98.8451074936
 31
0.0
  0
LINE
  5
22C
  8
0
  6
CONTINUOUS
 62
     7
 10
112.2745628266
 20
98.8451074936
 30
0.0
 11
112.8409876286
 21
98.8451074936
 31
0.0
  0
LINE
  5
22D
  8
0
  6
CONTINUOUS
 62
     7
 10
41.9365576266
 20
97.8451074461
 30
0.0
 11
41.9255754708
 21
98.8451074936
 31
0.0
  0
LINE
  5
22E
  8
0
  6
CONTINUOUS
 62
     7
 10
33.5682592152
 20
97.8451074461
 30
0.0
 11
33.5818267225
 21
98.8451074936
 31
0.0
  0
LINE
  5
22F
  8
0
  6
CONTINUOUS
 62
     7
 10
41.9255754708
 20
98.8451074936
 30
0.0
 11
33.5818267225
 21
98.8451074936
 31
0.0
  0
LINE
  5
230
  8
0
  6
CONTINUOUS
 62
     7
 10
144.4581336139
 20
98.8451074936
 30
0.0
 11
144.424795991
 21
97.8451074461
 31
0.0
  0
LINE
  5
231
  8
0
  6
CONTINUOUS
 62
     7
 10
44.1255754589
 20
98.8451074936
 30
0.0
 11
41.9255754708
 21
98.8451074936
 31
0.0
  0
LINE
  5
232
  8
0
  6
CONTINUOUS
 62
     7
 10
33.5818267225
 20
98.8451074936
 30
0.0
 11
32.2604848801
 21
98.8451074936
 31
0.0
  0
LINE
  5
233
  8
0
  6
CONTINUOUS
 62
     7
 10
132.4430293201
 20
97.8451074461
 30
0.0
 11
132.4604823051
 21
98.8451074936
 31
0.0
  0
LINE
  5
234
  8
0
  6
CONTINUOUS
 62
     7
 10
132.4604823051
 20
98.8451074936
 30
0.0
 11
136.1830307899
 21
98.8451074936
 31
0.0
  0
LINE
  5
235
  8
0
  6
CONTINUOUS
 62
     7
 10
136.1830307899
 20
98.8451074936
 30
0.0
 11
136.1830307899
 21
97.8451074461
 31
0.0
  0
LINE
  5
236
  8
0
  6
CONTINUOUS
 62
     7
 10
136.1830307899
 20
98.8451074936
 30
0.0
 11
144.4581336139
 21
98.8451074936
 31
0.0
  0
LINE
  5
237
  8
0
  6
CONTINUOUS
 62
     7
 10
88.1930290519
 20
97.8451074461
 30
0.0
 11
88.1930290519
 21
98.8451074936
 31
0.0
  0
LINE
  5
238
  8
0
  6
CONTINUOUS
 62
     7
 10
85.6930291078
 20
97.8451074461
 30
0.0
 11
85.7104841883
 21
98.8451074936
 31
0.0
  0
LINE
  5
239
  8
0
  6
CONTINUOUS
 62
     7
 10
88.1930290519
 20
98.8451074936
 30
0.0
 11
85.7104841883
 21
98.8451074936
 31
0.0
  0
LINE
  5
23A
  8
0
  6
CONTINUOUS
 62
     7
 10
90.6755739155
 20
98.8451074936
 30
0.0
 11
88.1930290519
 21
98.8451074936
 31
0.0
  0
LINE
  5
23B
  8
0
  6
CONTINUOUS
 62
     7
 10
90.6755739155
 20
98.8451074936
 30
0.0
 11
90.693028996
 21
97.8451074461
 31
0.0
  0
LINE
  5
23C
  8
0
  6
CONTINUOUS
 62
     7
 10
57.6010084508
 20
98.8451074936
 30
0.0
 11
56.5840675293
 21
98.8451074936
 31
0.0
  0
LINE
  5
23D
  8
0
  6
CONTINUOUS
 62
     7
 10
57.6010084508
 20
98.8451074936
 30
0.0
 11
57.6107687114
 21
97.8451074461
 31
0.0
  0
LINE
  5
23E
  8
0
  6
CONTINUOUS
 62
     7
 10
56.5695947765
 20
97.8451074461
 30
0.0
 11
56.5840675293
 21
98.8451074936
 31
0.0
  0
LINE
  5
23F
  8
0
  6
CONTINUOUS
 62
     7
 10
118.7850496529
 20
98.8451074936
 30
0.0
 11
118.7752893923
 21
97.8451074461
 31
0.0
  0
LINE
  5
240
  8
0
  6
CONTINUOUS
 62
     7
 10
119.8019905745
 20
98.8451074936
 30
0.0
 11
118.7850496529
 21
98.8451074936
 31
0.0
  0
LINE
  5
241
  8
0
  6
CONTINUOUS
 62
     7
 10
119.8019905745
 20
98.8451074936
 30
0.0
 11
119.8164633273
 21
97.8451074461
 31
0.0
  0
LINE
  5
242
  8
0
  6
CONTINUOUS
 62
     7
 10
63.5450704752
 20
98.8451074936
 30
0.0
 11
57.6010084508
 21
98.8451074936
 31
0.0
  0
LINE
  5
243
  8
0
  6
CONTINUOUS
 62
     7
 10
118.7850496529
 20
98.8451074936
 30
0.0
 11
112.8409876286
 21
98.8451074936
 31
0.0
  0
LINE
  5
244
  8
0
  6
CONTINUOUS
 62
     7
 10
119.9272273837
 20
98.8451074936
 30
0.0
 11
119.8019905745
 21
98.8451074936
 31
0.0
  0
LINE
  5
245
  8
0
  6
CONTINUOUS
 62
     7
 10
56.5840675293
 20
98.8451074936
 30
0.0
 11
56.45883072
 21
98.8451074936
 31
0.0
  0
LINE
  5
246
  8
0
  6
CONTINUOUS
 62
     7
 10
89.6275730368
 20
57.5542823771
 30
0.0
 11
89.7180290224
 21
57.5542823771
 31
0.0
  0
LINE
  5
247
  8
0
  6
CONTINUOUS
 62
     7
 10
86.6680290813
 20
57.709388564
 30
0.0
 11
89.6275730368
 21
57.5542823771
 31
0.0
  0
LINE
  5
248
  8
0
  6
CONTINUOUS
 62
     7
 10
86.6680290813
 20
57.709388564
 30
0.0
 11
86.6680290813
 21
57.71100534
 31
0.0
  0
LINE
  5
249
  8
0
  6
CONTINUOUS
 62
     7
 10
89.7180290224
 20
57.5542823771
 30
0.0
 11
89.7180290224
 21
57.7470586995
 31
0.0
  0
LINE
  5
24A
  8
0
  6
CONTINUOUS
 62
     7
 10
85.960245345
 20
72.5219008873
 30
0.0
 11
85.9502541164
 21
72.5223255704
 31
0.0
  0
LINE
  5
24B
  8
0
  6
CONTINUOUS
 62
     7
 10
90.4358039873
 20
72.5223255704
 30
0.0
 11
90.4258127587
 21
72.5219008873
 31
0.0
  0
POLYLINE
  5
24C
  8
0
  6
CONTINUOUS
 62
     7
 66
     1
 10
0.0
 20
0.0
 30
0.0
  0
VERTEX
  5
813
  8
0
  6
CONTINUOUS
 62
     7
 10
90.4358039873
 20
72.5223255704
 30
0.0
  0
VERTEX
  5
814
  8
0
  6
CONTINUOUS
 62
     7
 10
90.5848982541
 20
68.2527275184
 30
0.0
  0
VERTEX
  5
815
  8
0
  6
CONTINUOUS
 62
     7
 10
90.7272117941
 20
64.1774983505
 30
0.0
  0
SEQEND
  5
812
  8
0
  6
CONTINUOUS
 62
     7
  0
POLYLINE
  5
24D
  8
0
  6
CONTINUOUS
 62
     7
 66
     1
 10
0.0
 20
0.0
 30
0.0
  0
VERTEX
  5
817
  8
0
  6
CONTINUOUS
 62
     7
 10
147.0434925316
 20
89.5944881613
 30
0.0
  0
VERTEX
  5
818
  8
0
  6
CONTINUOUS
 62
     7
 10
147.115539646
 20
93.738034031
 30
0.0
  0
VERTEX
  5
819
  8
0
  6
CONTINUOUS
 62
     7
 10
147.1960021912
 20
97.8451904964
 30
0.0
  0
SEQEND
  5
816
  8
0
  6
CONTINUOUS
 62
     7
  0
POLYLINE
  5
24E
  8
0
  6
CONTINUOUS
 62
     7
 66
     1
 10
0.0
 20
0.0
 30
0.0
  0
VERTEX
  5
81B
  8
0
  6
CONTINUOUS
 62
     7
 10
147.0434925316
 20
89.5944881613
 30
0.0
  0
VERTEX
  5
81C
  8
0
  6
CONTINUOUS
 62
     7
 10
143.3753295599
 20
84.7355650166
 30
0.0
  0
VERTEX
  5
81D
  8
0
  6
CONTINUOUS
 62
     7
 10
139.3103225885
 20
80.1774301926
 30
0.0
  0
SEQEND
  5
81A
  8
0
  6
CONTINUOUS
 62
     7
  0
POLYLINE
  5
24F
  8
0
  6
CONTINUOUS
 62
     7
 66
     1
 10
0.0
 20
0.0
 30
0.0
  0
VERTEX
  5
81F
  8
0
  6
CONTINUOUS
 62
     7
 10
139.3103225885
 20
80.1774301926
 30
0.0
  0
VERTEX
  5
820
  8
0
  6
CONTINUOUS
 62
     7
 10
135.7970869897
 20
76.7915659944
 30
0.0
  0
VERTEX
  5
821
  8
0
  6
CONTINUOUS
 62
     7
 10
132.0600881039
 20
73.6522750357
 30
0.0
  0
SEQEND
  5
81E
  8
0
  6
CONTINUOUS
 62
     7
  0
POLYLINE
  5
250
  8
0
  6
CONTINUOUS
 62
     7
 66
     1
 10
0.0
 20
0.0
 30
0.0
  0
VERTEX
  5
823
  8
0
  6
CONTINUOUS
 62
     7
 10
132.0600881039
 20
73.6522750357
 30
0.0
  0
VERTEX
  5
824
  8
0
  6
CONTINUOUS
 62
     7
 10
127.0717791079
 20
70.0828955869
 30
0.0
  0
VERTEX
  5
825
  8
0
  6
CONTINUOUS
 62
     7
 10
121.7921635865
 20
66.9626501749
 30
0.0
  0
SEQEND
  5
822
  8
0
  6
CONTINUOUS
 62
     7
  0
ARC
  5
251
  8
0
  6
CONTINUOUS
 62
     7
 10
88.3752070975
 20
129.7451372164
 30
0.0
 40
71.12295846745249
 50
285.3271318373
 51
298.0244090752
  0
POLYLINE
  5
252
  8
0
  6
CONTINUOUS
 62
     7
 66
     1
 10
0.0
 20
0.0
 30
0.0
  0
VERTEX
  5
827
  8
0
  6
CONTINUOUS
 62
     7
 10
107.1751228331
 20
61.151854823
 30
0.0
  0
VERTEX
  5
828
  8
0
  6
CONTINUOUS
 62
     7
 10
102.604238203
 20
60.0583442847
 30
0.0
  0
VERTEX
  5
829
  8
0
  6
CONTINUOUS
 62
     7
 10
97.9714364542
 20
59.2666195134
 30
0.0
  0
SEQEND
  5
826
  8
0
  6
CONTINUOUS
 62
     7
  0
POLYLINE
  5
253
  8
0
  6
CONTINUOUS
 62
     7
 66
     1
 10
0.0
 20
0.0
 30
0.0
  0
VERTEX
  5
82B
  8
0
  6
CONTINUOUS
 62
     7
 10
97.9714364542
 20
59.2666195134
 30
0.0
  0
VERTEX
  5
82C
  8
0
  6
CONTINUOUS
 62
     7
 10
93.090891259
 20
58.7654785613
 30
0.0
  0
VERTEX
  5
82D
  8
0
  6
CONTINUOUS
 62
     7
 10
88.1875017952
 20
58.5983918408
 30
0.0
  0
SEQEND
  5
82A
  8
0
  6
CONTINUOUS
 62
     7
  0
POLYLINE
  5
254
  8
0
  6
CONTINUOUS
 62
     7
 66
     1
 10
0.0
 20
0.0
 30
0.0
  0
VERTEX
  5
82F
  8
0
  6
CONTINUOUS
 62
     7
 10
88.1875017952
 20
58.5983918408
 30
0.0
  0
VERTEX
  5
830
  8
0
  6
CONTINUOUS
 62
     7
 10
83.284239637
 20
58.7662273446
 30
0.0
  0
VERTEX
  5
831
  8
0
  6
CONTINUOUS
 62
     7
 10
78.4038723244
 20
59.2680947284
 30
0.0
  0
SEQEND
  5
82E
  8
0
  6
CONTINUOUS
 62
     7
  0
POLYLINE
  5
255
  8
0
  6
CONTINUOUS
 62
     7
 66
     1
 10
0.0
 20
0.0
 30
0.0
  0
VERTEX
  5
833
  8
0
  6
CONTINUOUS
 62
     7
 10
78.4038723244
 20
59.2680947284
 30
0.0
  0
VERTEX
  5
834
  8
0
  6
CONTINUOUS
 62
     7
 10
73.7716153993
 20
60.0604341725
 30
0.0
  0
VERTEX
  5
835
  8
0
  6
CONTINUOUS
 62
     7
 10
69.2013091205
 20
61.1544960538
 30
0.0
  0
SEQEND
  5
832
  8
0
  6
CONTINUOUS
 62
     7
  0
ARC
  5
256
  8
0
  6
CONTINUOUS
 62
     7
 10
87.8985769693
 20
129.4626968263
 30
0.0
 40
70.82088758111183
 50
241.9424752691
 51
254.6919946025
  0
POLYLINE
  5
257
  8
0
  6
CONTINUOUS
 62
     7
 66
     1
 10
0.0
 20
0.0
 30
0.0
  0
VERTEX
  5
837
  8
0
  6
CONTINUOUS
 62
     7
 10
54.5874199627
 20
66.966103519
 30
0.0
  0
VERTEX
  5
838
  8
0
  6
CONTINUOUS
 62
     7
 10
49.3089257537
 20
70.0863880465
 30
0.0
  0
VERTEX
  5
839
  8
0
  6
CONTINUOUS
 62
     7
 10
44.3216821907
 20
73.655633385
 30
0.0
  0
SEQEND
  5
836
  8
0
  6
CONTINUOUS
 62
     7
  0
POLYLINE
  5
258
  8
0
  6
CONTINUOUS
 62
     7
 66
     1
 10
0.0
 20
0.0
 30
0.0
  0
VERTEX
  5
83B
  8
0
  6
CONTINUOUS
 62
     7
 10
44.3216821907
 20
73.655633385
 30
0.0
  0
VERTEX
  5
83C
  8
0
  6
CONTINUOUS
 62
     7
 10
40.5854320882
 20
76.7947511176
 30
0.0
  0
VERTEX
  5
83D
  8
0
  6
CONTINUOUS
 62
     7
 10
37.0729005693
 20
80.1803545455
 30
0.0
  0
SEQEND
  5
83A
  8
0
  6
CONTINUOUS
 62
     7
  0
POLYLINE
  5
259
  8
0
  6
CONTINUOUS
 62
     7
 66
     1
 10
0.0
 20
0.0
 30
0.0
  0
VERTEX
  5
83F
  8
0
  6
CONTINUOUS
 62
     7
 10
37.0729005693
 20
80.1803545455
 30
0.0
  0
VERTEX
  5
840
  8
0
  6
CONTINUOUS
 62
     7
 10
33.3634129523
 20
84.3088190431
 30
0.0
  0
VERTEX
  5
841
  8
0
  6
CONTINUOUS
 62
     7
 10
29.9800074457
 20
88.6898843
 30
0.0
  0
SEQEND
  5
83E
  8
0
  6
CONTINUOUS
 62
     7
  0
LINE
  5
25A
  8
0
  6
CONTINUOUS
 62
     7
 10
29.342550671
 20
89.5944807107
 30
0.0
 11
29.9800074457
 21
88.6898843
 31
0.0
  0
POLYLINE
  5
25B
  8
0
  6
CONTINUOUS
 62
     7
 66
     1
 10
0.0
 20
0.0
 30
0.0
  0
VERTEX
  5
843
  8
0
  6
CONTINUOUS
 62
     7
 10
29.1900559126
 20
97.8451914236
 30
0.0
  0
VERTEX
  5
844
  8
0
  6
CONTINUOUS
 62
     7
 10
29.2704290508
 20
93.7985895561
 30
0.0
  0
VERTEX
  5
845
  8
0
  6
CONTINUOUS
 62
     7
 10
29.342550671
 20
89.5944807107
 30
0.0
  0
SEQEND
  5
842
  8
0
  6
CONTINUOUS
 62
     7
  0
POLYLINE
  5
25C
  8
0
  6
CONTINUOUS
 62
     7
 66
     1
 10
0.0
 20
0.0
 30
0.0
  0
VERTEX
  5
847
  8
0
  6
CONTINUOUS
 62
     7
 10
147.1960021912
 20
97.8451904964
 30
0.0
  0
VERTEX
  5
848
  8
0
  6
CONTINUOUS
 62
     7
 10
143.3186902462
 20
97.8450859458
 30
0.0
  0
VERTEX
  5
849
  8
0
  6
CONTINUOUS
 62
     7
 10
139.042883998
 20
97.8451315998
 30
0.0
  0
VERTEX
  5
84A
  8
0
  6
CONTINUOUS
 62
     7
 10
134.5159224032
 20
97.8451601197
 30
0.0
  0
VERTEX
  5
84B
  8
0
  6
CONTINUOUS
 62
     7
 10
129.8370360194
 20
97.8451131744
 30
0.0
  0
VERTEX
  5
84C
  8
0
  6
CONTINUOUS
 62
     7
 10
125.0649540482
 20
97.8451826917
 30
0.0
  0
VERTEX
  5
84D
  8
0
  6
CONTINUOUS
 62
     7
 10
120.2311216651
 20
97.8451534703
 30
0.0
  0
VERTEX
  5
84E
  8
0
  6
CONTINUOUS
 62
     7
 10
115.3550240009
 20
97.8451152385
 30
0.0
  0
VERTEX
  5
84F
  8
0
  6
CONTINUOUS
 62
     7
 10
106.3452808915
 20
97.8451087084
 30
0.0
  0
VERTEX
  5
850
  8
0
  6
CONTINUOUS
 62
     7
 10
97.2812295689
 20
97.8451076037
 30
0.0
  0
VERTEX
  5
851
  8
0
  6
CONTINUOUS
 62
     7
 10
88.1929923177
 20
97.8451077569
 30
0.0
  0
VERTEX
  5
852
  8
0
  6
CONTINUOUS
 62
     7
 10
76.6292650981
 20
97.8451297131
 30
0.0
  0
VERTEX
  5
853
  8
0
  6
CONTINUOUS
 62
     7
 10
65.1170722006
 20
97.8451599666
 30
0.0
  0
VERTEX
  5
854
  8
0
  6
CONTINUOUS
 62
     7
 10
53.7319331227
 20
97.8451076387
 30
0.0
  0
VERTEX
  5
855
  8
0
  6
CONTINUOUS
 62
     7
 10
49.3234767376
 20
97.8451846898
 30
0.0
  0
VERTEX
  5
856
  8
0
  6
CONTINUOUS
 62
     7
 10
44.9768899737
 20
97.8451605161
 30
0.0
  0
VERTEX
  5
857
  8
0
  6
CONTINUOUS
 62
     7
 10
40.7217218338
 20
97.8451162547
 30
0.0
  0
VERTEX
  5
858
  8
0
  6
CONTINUOUS
 62
     7
 10
36.6093552469
 20
97.8451427158
 30
0.0
  0
VERTEX
  5
859
  8
0
  6
CONTINUOUS
 62
     7
 10
32.7265186964
 20
97.8450514733
 30
0.0
  0
VERTEX
  5
85A
  8
0
  6
CONTINUOUS
 62
     7
 10
29.1900559126
 20
97.8451914236
 30
0.0
  0
SEQEND
  5
846
  8
0
  6
CONTINUOUS
 62
     7
  0
POLYLINE
  5
25D
  8
0
  6
CONTINUOUS
 62
     7
 66
     1
 10
0.0
 20
0.0
 30
0.0
  0
VERTEX
  5
85C
  8
0
  6
CONTINUOUS
 62
     7
 10
85.6588463096
 20
64.1774983505
 30
0.0
  0
VERTEX
  5
85D
  8
0
  6
CONTINUOUS
 62
     7
 10
85.8011598496
 20
68.2527275184
 30
0.0
  0
VERTEX
  5
85E
  8
0
  6
CONTINUOUS
 62
     7
 10
85.9502541164
 20
72.5223255704
 30
0.0
  0
SEQEND
  5
85B
  8
0
  6
CONTINUOUS
 62
     7
  0
LINE
  5
25E
  8
0
  6
CONTINUOUS
 62
     7
 10
90.7272117941
 20
64.1774983505
 30
0.0
 11
85.6588463096
 21
64.1774983505
 31
0.0
  0
LINE
  5
25F
  8
0
  6
CONTINUOUS
 62
     7
 10
90.3446845508
 20
74.8451074014
 30
0.0
 11
90.4258127587
 21
72.5219008873
 31
0.0
  0
LINE
  5
260
  8
0
  6
CONTINUOUS
 62
     7
 10
86.041373553
 20
74.8451074014
 30
0.0
 11
90.3446845508
 21
74.8451074014
 31
0.0
  0
LINE
  5
261
  8
0
  6
CONTINUOUS
 62
     7
 10
85.960245345
 20
72.5219008873
 30
0.0
 11
86.041373553
 21
74.8451074014
 31
0.0
  0
POLYLINE
  5
262
  8
0
  6
CONTINUOUS
 62
     7
 66
     1
 10
0.0
 20
0.0
 30
0.0
  0
VERTEX
  5
860
  8
0
  6
CONTINUOUS
 62
     7
 10
29.1900559126
 20
97.8451914236
 30
0.0
  0
VERTEX
  5
861
  8
0
  6
CONTINUOUS
 62
     7
 10
28.6384410022
 20
97.8436442056
 30
0.0
  0
VERTEX
  5
862
  8
0
  6
CONTINUOUS
 62
     7
 10
28.1715764461
 20
97.8450780461
 30
0.0
  0
VERTEX
  5
863
  8
0
  6
CONTINUOUS
 62
     7
 10
27.8466827033
 20
97.8451749478
 30
0.0
  0
VERTEX
  5
864
  8
0
  6
CONTINUOUS
 62
     7
 10
27.7429668961
 20
97.8451074461
 30
0.0
  0
SEQEND
  5
85F
  8
0
  6
CONTINUOUS
 62
     7
  0
LINE
  5
263
  8
0
  6
CONTINUOUS
 62
     7
 10
148.6430912076
 20
97.8451074461
 30
0.0
 11
146.2166568993
 21
97.845107449
 31
0.0
  0
POLYLINE
  5
264
  8
0
  6
CONTINUOUS
 62
     7
 66
     1
 10
0.0
 20
0.0
 30
0.0
  0
VERTEX
  5
866
  8
0
  6
CONTINUOUS
 62
     7
 10
147.1960021912
 20
97.8451107511
 30
0.0
  0
VERTEX
  5
867
  8
0
  6
CONTINUOUS
 62
     7
 10
147.8665805219
 20
97.8451106425
 30
0.0
  0
VERTEX
  5
868
  8
0
  6
CONTINUOUS
 62
     7
 10
148.312669134
 20
97.8451105404
 30
0.0
  0
VERTEX
  5
869
  8
0
  6
CONTINUOUS
 62
     7
 10
148.5598756729
 20
97.8451104511
 30
0.0
  0
VERTEX
  5
86A
  8
0
  6
CONTINUOUS
 62
     7
 10
148.6430912076
 20
97.8451103756
 30
0.0
  0
SEQEND
  5
865
  8
0
  6
CONTINUOUS
 62
     7
  0
LINE
  5
265
  8
0
  6
CONTINUOUS
 62
     7
 10
31.4952543734
 20
97.8451222001
 30
0.0
 11
31.4952543734
 21
97.8451210866
 31
0.0
  0
LINE
  5
266
  8
0
  6
CONTINUOUS
 62
     7
 10
41.2001943944
 20
97.8451214987
 30
0.0
 11
40.7877265273
 21
97.8451217619
 31
0.0
  0
LINE
  5
267
  8
0
  6
CONTINUOUS
 62
     7
 10
148.624848461
 20
97.3227394406
 30
0.0
 11
148.6430912076
 21
97.8451074461
 31
0.0
  0
POLYLINE
  5
268
  8
0
  6
CONTINUOUS
 62
     7
 66
     1
 10
0.0
 20
0.0
 30
0.0
  0
VERTEX
  5
86C
  8
0
  6
CONTINUOUS
 62
     7
 10
148.6430912076
 20
97.8451134401
 30
0.0
  0
VERTEX
  5
86D
  8
0
  6
CONTINUOUS
 62
     7
 10
148.5026254116
 20
93.822694047
 30
0.0
  0
VERTEX
  5
86E
  8
0
  6
CONTINUOUS
 62
     7
 10
148.3623496054
 20
89.8056767309
 30
0.0
  0
SEQEND
  5
86B
  8
0
  6
CONTINUOUS
 62
     7
  0
ARC
  5
269
  8
0
  6
CONTINUOUS
 62
     7
 10
88.1930059921
 20
130.8450621541
 30
0.0
 40
73.14995126011441
 50
242.2611692584
 51
254.7560903462
  0
LINE
  5
26A
  8
0
  6
CONTINUOUS
 62
     7
 10
54.1459469853
 20
66.1016219655
 30
0.0
 11
54.1577338038
 21
66.1268198291
 31
0.0
  0
POLYLINE
  5
26B
  8
0
  6
CONTINUOUS
 62
     7
 66
     1
 10
0.0
 20
0.0
 30
0.0
  0
VERTEX
  5
870
  8
0
  6
CONTINUOUS
 62
     7
 10
68.9597873746
 20
60.2688716153
 30
0.0
  0
VERTEX
  5
871
  8
0
  6
CONTINUOUS
 62
     7
 10
68.9805167525
 20
60.3447297016
 30
0.0
  0
VERTEX
  5
872
  8
0
  6
CONTINUOUS
 62
     7
 10
69.042274615
 20
60.571152846
 30
0.0
  0
VERTEX
  5
873
  8
0
  6
CONTINUOUS
 62
     7
 10
69.2013091205
 20
61.1544960538
 30
0.0
  0
SEQEND
  5
86F
  8
0
  6
CONTINUOUS
 62
     7
  0
ARC
  5
26C
  8
0
  6
CONTINUOUS
 62
     7
 10
88.1930536214
 20
130.8450106536
 30
0.0
 40
73.14990257021115
 50
285.2360028653
 51
297.7330341314
  0
POLYLINE
  5
26D
  8
0
  6
CONTINUOUS
 62
     7
 66
     1
 10
0.0
 20
0.0
 30
0.0
  0
VERTEX
  5
875
  8
0
  6
CONTINUOUS
 62
     7
 10
107.4165197818
 20
60.2662154833
 30
0.0
  0
VERTEX
  5
876
  8
0
  6
CONTINUOUS
 62
     7
 10
107.3957997172
 20
60.3420735697
 30
0.0
  0
VERTEX
  5
877
  8
0
  6
CONTINUOUS
 62
     7
 10
107.3340735196
 20
60.5685004393
 30
0.0
  0
VERTEX
  5
878
  8
0
  6
CONTINUOUS
 62
     7
 10
107.1751228331
 20
61.151854823
 30
0.0
  0
SEQEND
  5
874
  8
0
  6
CONTINUOUS
 62
     7
  0
LINE
  5
26E
  8
0
  6
CONTINUOUS
 62
     7
 10
122.2335397063
 20
66.0981686214
 30
0.0
 11
122.2217528878
 21
66.1233627597
 31
0.0
  0
POLYLINE
  5
26F
  8
0
  6
CONTINUOUS
 62
     7
 66
     1
 10
0.0
 20
0.0
 30
0.0
  0
VERTEX
  5
87A
  8
0
  6
CONTINUOUS
 62
     7
 10
78.2801554336
 20
58.3698862592
 30
0.0
  0
VERTEX
  5
87B
  8
0
  6
CONTINUOUS
 62
     7
 10
73.5737941025
 20
59.1708422998
 30
0.0
  0
VERTEX
  5
87C
  8
0
  6
CONTINUOUS
 62
     7
 10
68.9597873746
 20
60.2688716153
 30
0.0
  0
SEQEND
  5
879
  8
0
  6
CONTINUOUS
 62
     7
  0
ARC
  5
270
  8
0
  6
CONTINUOUS
 62
     7
 10
-382.7406453566
 20
122.2839510966
 30
0.0
 40
465.4301927690531
 50
352.1069805503
 51
352.2186708335
  0
POLYLINE
  5
271
  8
0
  6
CONTINUOUS
 62
     7
 66
     1
 10
0.0
 20
0.0
 30
0.0
  0
VERTEX
  5
87E
  8
0
  6
CONTINUOUS
 62
     7
 10
107.4165197818
 20
60.2662154833
 30
0.0
  0
VERTEX
  5
87F
  8
0
  6
CONTINUOUS
 62
     7
 10
102.801921664
 20
59.1687337855
 30
0.0
  0
VERTEX
  5
880
  8
0
  6
CONTINUOUS
 62
     7
 10
98.0950164406
 20
58.3683998684
 30
0.0
  0
SEQEND
  5
87D
  8
0
  6
CONTINUOUS
 62
     7
  0
ARC
  5
272
  8
0
  6
CONTINUOUS
 62
     7
 10
559.6646162227
 20
122.2865356972
 30
0.0
 40
465.9743577500019
 50
187.7726897643
 51
187.8842493011
  0
POLYLINE
  5
273
  8
0
  6
CONTINUOUS
 62
     7
 66
     1
 10
0.0
 20
0.0
 30
0.0
  0
VERTEX
  5
882
  8
0
  6
CONTINUOUS
 62
     7
 10
132.6750143228
 20
72.7738106052
 30
0.0
  0
VERTEX
  5
883
  8
0
  6
CONTINUOUS
 62
     7
 10
129.4395326434
 20
70.4327878902
 30
0.0
  0
VERTEX
  5
884
  8
0
  6
CONTINUOUS
 62
     7
 10
127.9346308468
 20
69.4667698244
 30
0.0
  0
SEQEND
  5
881
  8
0
  6
CONTINUOUS
 62
     7
  0
POLYLINE
  5
274
  8
0
  6
CONTINUOUS
 62
     7
 66
     1
 10
0.0
 20
0.0
 30
0.0
  0
VERTEX
  5
886
  8
0
  6
CONTINUOUS
 62
     7
 10
127.2514312325
 20
69.0282118867
 30
0.0
  0
VERTEX
  5
887
  8
0
  6
CONTINUOUS
 62
     7
 10
125.945396608
 20
68.1898502061
 30
0.0
  0
VERTEX
  5
888
  8
0
  6
CONTINUOUS
 62
     7
 10
122.2335397063
 20
66.0981686214
 30
0.0
  0
SEQEND
  5
885
  8
0
  6
CONTINUOUS
 62
     7
  0
ARC
  5
275
  8
0
  6
CONTINUOUS
 62
     7
 10
122.9260316019
 20
66.5433865969
 30
0.0
 40
11.57442365810982
 50
32.6176204241
 51
37.8930449704
  0
POLYLINE
  5
276
  8
0
  6
CONTINUOUS
 62
     7
 66
     1
 10
0.0
 20
0.0
 30
0.0
  0
VERTEX
  5
88A
  8
0
  6
CONTINUOUS
 62
     7
 10
54.1459469853
 20
66.1016219655
 30
0.0
  0
VERTEX
  5
88B
  8
0
  6
CONTINUOUS
 62
     7
 10
50.4348276912
 20
68.1933668802
 30
0.0
  0
VERTEX
  5
88C
  8
0
  6
CONTINUOUS
 62
     7
 10
49.1290091334
 20
69.0317527751
 30
0.0
  0
SEQEND
  5
889
  8
0
  6
CONTINUOUS
 62
     7
  0
POLYLINE
  5
277
  8
0
  6
CONTINUOUS
 62
     7
 66
     1
 10
0.0
 20
0.0
 30
0.0
  0
VERTEX
  5
88E
  8
0
  6
CONTINUOUS
 62
     7
 10
48.4461447953
 20
69.470178465
 30
0.0
  0
VERTEX
  5
88F
  8
0
  6
CONTINUOUS
 62
     7
 10
46.9414292632
 20
70.4362673113
 30
0.0
  0
VERTEX
  5
890
  8
0
  6
CONTINUOUS
 62
     7
 10
43.7066740154
 20
72.7771577785
 30
0.0
  0
SEQEND
  5
88D
  8
0
  6
CONTINUOUS
 62
     7
  0
ARC
  5
278
  8
0
  6
CONTINUOUS
 62
     7
 10
53.4533307842
 20
66.5475878029
 30
0.0
 40
11.57200579113235
 50
142.1029258876
 51
147.3797212602
  0
POLYLINE
  5
279
  8
0
  6
CONTINUOUS
 62
     7
 66
     1
 10
0.0
 20
0.0
 30
0.0
  0
VERTEX
  5
892
  8
0
  6
CONTINUOUS
 62
     7
 10
88.1874324167
 20
57.695105801
 30
0.0
  0
VERTEX
  5
893
  8
0
  6
CONTINUOUS
 62
     7
 10
83.2165660134
 20
57.8645804325
 30
0.0
  0
VERTEX
  5
894
  8
0
  6
CONTINUOUS
 62
     7
 10
78.2801554336
 20
58.3698862592
 30
0.0
  0
SEQEND
  5
891
  8
0
  6
CONTINUOUS
 62
     7
  0
POLYLINE
  5
27A
  8
0
  6
CONTINUOUS
 62
     7
 66
     1
 10
0.0
 20
0.0
 30
0.0
  0
VERTEX
  5
896
  8
0
  6
CONTINUOUS
 62
     7
 10
88.1874324167
 20
57.695105801
 30
0.0
  0
VERTEX
  5
897
  8
0
  6
CONTINUOUS
 62
     7
 10
88.187438428
 20
57.7725173334
 30
0.0
  0
VERTEX
  5
898
  8
0
  6
CONTINUOUS
 62
     7
 10
88.1874561695
 20
58.0033251444
 30
0.0
  0
VERTEX
  5
899
  8
0
  6
CONTINUOUS
 62
     7
 10
88.1875017952
 20
58.5983918408
 30
0.0
  0
SEQEND
  5
895
  8
0
  6
CONTINUOUS
 62
     7
  0
POLYLINE
  5
27B
  8
0
  6
CONTINUOUS
 62
     7
 66
     1
 10
0.0
 20
0.0
 30
0.0
  0
VERTEX
  5
89B
  8
0
  6
CONTINUOUS
 62
     7
 10
98.0950164406
 20
58.3683998684
 30
0.0
  0
VERTEX
  5
89C
  8
0
  6
CONTINUOUS
 62
     7
 10
93.1584149396
 20
57.8638241986
 30
0.0
  0
VERTEX
  5
89D
  8
0
  6
CONTINUOUS
 62
     7
 10
88.1874324167
 20
57.695105801
 30
0.0
  0
SEQEND
  5
89A
  8
0
  6
CONTINUOUS
 62
     7
  0
POLYLINE
  5
27C
  8
0
  6
CONTINUOUS
 62
     7
 66
     1
 10
0.0
 20
0.0
 30
0.0
  0
VERTEX
  5
89F
  8
0
  6
CONTINUOUS
 62
     7
 10
140.0766818582
 20
79.2795271973
 30
0.0
  0
VERTEX
  5
8A0
  8
0
  6
CONTINUOUS
 62
     7
 10
136.642888075
 20
76.0406033496
 30
0.0
  0
VERTEX
  5
8A1
  8
0
  6
CONTINUOUS
 62
     7
 10
132.6750143228
 20
72.7738106052
 30
0.0
  0
SEQEND
  5
89E
  8
0
  6
CONTINUOUS
 62
     7
  0
ARC
  5
27D
  8
0
  6
CONTINUOUS
 62
     7
 10
135.868355132
 20
76.3491850364
 30
0.0
 40
5.148067690730219
 50
35.1689127892
 51
48.0413541228
  0
ARC
  5
27E
  8
0
  6
CONTINUOUS
 62
     7
 10
88.1926037625
 20
130.8446085259
 30
0.0
 40
73.14934753369609
 50
224.8205685359
 51
232.5439922081
  0
ARC
  5
27F
  8
0
  6
CONTINUOUS
 62
     7
 10
41.1898631002
 20
75.772855405
 30
0.0
 40
6.031204618815104
 50
133.0479611552
 51
144.0653760056
  0
ARC
  5
280
  8
0
  6
CONTINUOUS
 62
     7
 10
88.1926152073
 20
130.8447410641
 30
0.0
 40
73.1494490943919
 50
216.0373219282
 51
224.8206358677
  0
LINE
  5
281
  8
0
  6
CONTINUOUS
 62
     7
 10
29.0609373508
 20
87.8538900415
 30
0.0
 11
29.0414876102
 21
87.8100340614
 31
0.0
  0
ARC
  5
282
  8
0
  6
CONTINUOUS
 62
     7
 10
88.1927401534
 20
130.8453423665
 30
0.0
 40
73.15037255468336
 50
315.1761925937
 51
324.8428559502
  0
ARC
  5
283
  8
0
  6
CONTINUOUS
 62
     7
 10
145.1976840591
 20
86.4728414459
 30
0.0
 40
3.626525490468944
 50
39.4324838048
 51
59.404463832
  0
POLYLINE
  5
284
  8
0
  6
CONTINUOUS
 62
     7
 66
     1
 10
0.0
 20
0.0
 30
0.0
  0
VERTEX
  5
8A3
  8
0
  6
CONTINUOUS
 62
     7
 10
28.0237084983
 20
89.8057177091
 30
0.0
  0
VERTEX
  5
8A4
  8
0
  6
CONTINUOUS
 62
     7
 10
27.8903542815
 20
93.6244918393
 30
0.0
  0
VERTEX
  5
8A5
  8
0
  6
CONTINUOUS
 62
     7
 10
27.7429668961
 20
97.8451074461
 30
0.0
  0
SEQEND
  5
8A2
  8
0
  6
CONTINUOUS
 62
     7
  0
ARC
  5
285
  8
0
  6
CONTINUOUS
 62
     7
 10
28.9670868974
 20
92.054362667
 30
0.0
 40
2.488371411997882
 50
247.721138665
 51
278.6783534055
  0
LINE
  5
286
  8
0
  6
CONTINUOUS
 62
     7
 10
148.3623496054
 20
89.8056767309
 30
0.0
 11
148.3277826367
 21
89.7763428638
 31
0.0
  0
LINE
  5
287
  8
0
  6
CONTINUOUS
 62
     7
 10
28.3873415349
 20
88.7238300765
 30
0.0
 11
29.0414876102
 21
87.8100340614
 31
0.0
  0
LINE
  5
288
  8
0
  6
CONTINUOUS
 62
     7
 10
28.4074543773
 20
88.7682075972
 30
0.0
 11
28.3873415349
 21
88.7238300765
 31
0.0
  0
POLYLINE
  5
289
  8
0
  6
CONTINUOUS
 62
     7
 66
     1
 10
0.0
 20
0.0
 30
0.0
  0
VERTEX
  5
8A7
  8
0
  6
CONTINUOUS
 62
     7
 10
28.0237084983
 20
89.8057177091
 30
0.0
  0
VERTEX
  5
8A8
  8
0
  6
CONTINUOUS
 62
     7
 10
28.1341298281
 20
89.2166142712
 30
0.0
  0
VERTEX
  5
8A9
  8
0
  6
CONTINUOUS
 62
     7
 10
28.3873415349
 20
88.7238300765
 30
0.0
  0
SEQEND
  5
8A6
  8
0
  6
CONTINUOUS
 62
     7
  0
POLYLINE
  5
28A
  8
0
  6
CONTINUOUS
 62
     7
 66
     1
 10
0.0
 20
0.0
 30
0.0
  0
VERTEX
  5
8AB
  8
0
  6
CONTINUOUS
 62
     7
 10
148.3623496054
 20
89.8056767309
 30
0.0
  0
VERTEX
  5
8AC
  8
0
  6
CONTINUOUS
 62
     7
 10
148.2593416034
 20
89.2382619331
 30
0.0
  0
VERTEX
  5
8AD
  8
0
  6
CONTINUOUS
 62
     7
 10
147.9987165688
 20
88.7238254199
 30
0.0
  0
SEQEND
  5
8AA
  8
0
  6
CONTINUOUS
 62
     7
  0
POLYLINE
  5
28B
  8
0
  6
CONTINUOUS
 62
     7
 66
     1
 10
0.0
 20
0.0
 30
0.0
  0
VERTEX
  5
8AF
  8
0
  6
CONTINUOUS
 62
     7
 10
112.0317614435
 20
60.8740077714
 30
0.0
  0
VERTEX
  5
8B0
  8
0
  6
CONTINUOUS
 62
     7
 10
111.872296667
 20
61.4858680765
 30
0.0
  0
VERTEX
  5
8B1
  8
0
  6
CONTINUOUS
 62
     7
 10
111.8481437473
 20
61.6506674687
 30
0.0
  0
SEQEND
  5
8AE
  8
0
  6
CONTINUOUS
 62
     7
  0
ARC
  5
28C
  8
0
  6
CONTINUOUS
 62
     7
 10
88.2783362523
 20
126.1110299881
 30
0.0
 40
69.43263066828011
 50
269.9296035925
 51
290.0053277922
  0
POLYLINE
  5
28D
  8
0
  6
CONTINUOUS
 62
     7
 66
     1
 10
0.0
 20
0.0
 30
0.0
  0
VERTEX
  5
8B3
  8
0
  6
CONTINUOUS
 62
     7
 10
88.1930284169
 20
57.6294661859
 30
0.0
  0
VERTEX
  5
8B4
  8
0
  6
CONTINUOUS
 62
     7
 10
88.1930283944
 20
57.6108993391
 30
0.0
  0
VERTEX
  5
8B5
  8
0
  6
CONTINUOUS
 62
     7
 10
88.1930280737
 20
57.1837799052
 30
0.0
  0
VERTEX
  5
8B6
  8
0
  6
CONTINUOUS
 62
     7
 10
88.1930279351
 20
56.6784517268
 30
0.0
  0
SEQEND
  5
8B2
  8
0
  6
CONTINUOUS
 62
     7
  0
ARC
  5
28E
  8
0
  6
CONTINUOUS
 62
     7
 10
88.107719163
 20
126.1110060942
 30
0.0
 40
69.43260677492327
 50
249.9946624831
 51
270.0703968071
  0
POLYLINE
  5
28F
  8
0
  6
CONTINUOUS
 62
     7
 66
     1
 10
0.0
 20
0.0
 30
0.0
  0
VERTEX
  5
8B8
  8
0
  6
CONTINUOUS
 62
     7
 10
64.5406636207
 20
61.6500602464
 30
0.0
  0
VERTEX
  5
8B9
  8
0
  6
CONTINUOUS
 62
     7
 10
64.4867828845
 20
61.3627509574
 30
0.0
  0
VERTEX
  5
8BA
  8
0
  6
CONTINUOUS
 62
     7
 10
64.3542910723
 20
60.8740114967
 30
0.0
  0
SEQEND
  5
8B7
  8
0
  6
CONTINUOUS
 62
     7
  0
ARC
  5
290
  8
0
  6
CONTINUOUS
 62
     7
 10
14.7298347055
 20
116.3730096565
 30
0.0
 40
112.4773996679961
 50
328.1321943098
 51
329.994854135
  0
POLYLINE
  5
291
  8
0
  6
CONTINUOUS
 62
     7
 66
     1
 10
0.0
 20
0.0
 30
0.0
  0
VERTEX
  5
8BC
  8
0
  6
CONTINUOUS
 62
     7
 10
64.2529873906
 20
60.1351038913
 30
0.0
  0
VERTEX
  5
8BD
  8
0
  6
CONTINUOUS
 62
     7
 10
64.9943220226
 20
58.8702337245
 30
0.0
  0
VERTEX
  5
8BE
  8
0
  6
CONTINUOUS
 62
     7
 10
65.638851261
 20
57.8130261401
 30
0.0
  0
VERTEX
  5
8BF
  8
0
  6
CONTINUOUS
 62
     7
 10
66.1327111332
 20
56.9893048505
 30
0.0
  0
SEQEND
  5
8BB
  8
0
  6
CONTINUOUS
 62
     7
  0
POLYLINE
  5
292
  8
0
  6
CONTINUOUS
 62
     7
 66
     1
 10
0.0
 20
0.0
 30
0.0
  0
VERTEX
  5
8C1
  8
0
  6
CONTINUOUS
 62
     7
 10
112.0317614435
 20
60.8740077714
 30
0.0
  0
VERTEX
  5
8C2
  8
0
  6
CONTINUOUS
 62
     7
 10
114.4040803222
 20
62.3903909127
 30
0.0
  0
VERTEX
  5
8C3
  8
0
  6
CONTINUOUS
 62
     7
 10
115.1895596443
 20
62.9109741548
 30
0.0
  0
SEQEND
  5
8C0
  8
0
  6
CONTINUOUS
 62
     7
  0
POLYLINE
  5
293
  8
0
  6
CONTINUOUS
 62
     7
 66
     1
 10
0.0
 20
0.0
 30
0.0
  0
VERTEX
  5
8C5
  8
0
  6
CONTINUOUS
 62
     7
 10
97.3168265803
 20
49.4583548406
 30
0.0
  0
VERTEX
  5
8C6
  8
0
  6
CONTINUOUS
 62
     7
 10
99.6359334125
 20
50.3989533881
 30
0.0
  0
VERTEX
  5
8C7
  8
0
  6
CONTINUOUS
 62
     7
 10
101.5502064286
 20
51.3741040031
 30
0.0
  0
SEQEND
  5
8C4
  8
0
  6
CONTINUOUS
 62
     7
  0
POLYLINE
  5
294
  8
0
  6
CONTINUOUS
 62
     7
 66
     1
 10
0.0
 20
0.0
 30
0.0
  0
VERTEX
  5
8C9
  8
0
  6
CONTINUOUS
 62
     7
 10
92.824478986
 20
48.2882784108
 30
0.0
  0
VERTEX
  5
8CA
  8
0
  6
CONTINUOUS
 62
     7
 10
95.2304861306
 20
48.8136523763
 30
0.0
  0
VERTEX
  5
8CB
  8
0
  6
CONTINUOUS
 62
     7
 10
97.3168265803
 20
49.4583548406
 30
0.0
  0
SEQEND
  5
8C8
  8
0
  6
CONTINUOUS
 62
     7
  0
POLYLINE
  5
295
  8
0
  6
CONTINUOUS
 62
     7
 66
     1
 10
0.0
 20
0.0
 30
0.0
  0
VERTEX
  5
8CD
  8
0
  6
CONTINUOUS
 62
     7
 10
88.1930288841
 20
47.8941613237
 30
0.0
  0
VERTEX
  5
8CE
  8
0
  6
CONTINUOUS
 62
     7
 10
90.5764236844
 20
47.9977579216
 30
0.0
  0
VERTEX
  5
8CF
  8
0
  6
CONTINUOUS
 62
     7
 10
92.824478986
 20
48.2882784108
 30
0.0
  0
SEQEND
  5
8CC
  8
0
  6
CONTINUOUS
 62
     7
  0
POLYLINE
  5
296
  8
0
  6
CONTINUOUS
 62
     7
 66
     1
 10
0.0
 20
0.0
 30
0.0
  0
VERTEX
  5
8D1
  8
0
  6
CONTINUOUS
 62
     7
 10
83.5616154394
 20
48.2884795765
 30
0.0
  0
VERTEX
  5
8D2
  8
0
  6
CONTINUOUS
 62
     7
 10
85.8102935629
 20
47.9983725945
 30
0.0
  0
VERTEX
  5
8D3
  8
0
  6
CONTINUOUS
 62
     7
 10
88.1930288841
 20
47.8941613237
 30
0.0
  0
SEQEND
  5
8D0
  8
0
  6
CONTINUOUS
 62
     7
  0
POLYLINE
  5
297
  8
0
  6
CONTINUOUS
 62
     7
 66
     1
 10
0.0
 20
0.0
 30
0.0
  0
VERTEX
  5
8D5
  8
0
  6
CONTINUOUS
 62
     7
 10
79.0691691248
 20
49.4581872026
 30
0.0
  0
VERTEX
  5
8D6
  8
0
  6
CONTINUOUS
 62
     7
 10
81.1547621882
 20
48.8135219911
 30
0.0
  0
VERTEX
  5
8D7
  8
0
  6
CONTINUOUS
 62
     7
 10
83.5616154394
 20
48.2884795765
 30
0.0
  0
SEQEND
  5
8D4
  8
0
  6
CONTINUOUS
 62
     7
  0
POLYLINE
  5
298
  8
0
  6
CONTINUOUS
 62
     7
 66
     1
 10
0.0
 20
0.0
 30
0.0
  0
VERTEX
  5
8D9
  8
0
  6
CONTINUOUS
 62
     7
 10
74.8358526064
 20
51.3741040031
 30
0.0
  0
VERTEX
  5
8DA
  8
0
  6
CONTINUOUS
 62
     7
 10
76.7503705604
 20
50.3988639811
 30
0.0
  0
VERTEX
  5
8DB
  8
0
  6
CONTINUOUS
 62
     7
 10
79.0691691248
 20
49.4581872026
 30
0.0
  0
SEQEND
  5
8D8
  8
0
  6
CONTINUOUS
 62
     7
  0
POLYLINE
  5
299
  8
0
  6
CONTINUOUS
 62
     7
 66
     1
 10
0.0
 20
0.0
 30
0.0
  0
VERTEX
  5
8DD
  8
0
  6
CONTINUOUS
 62
     7
 10
70.995630583
 20
53.97915108
 30
0.0
  0
VERTEX
  5
8DE
  8
0
  6
CONTINUOUS
 62
     7
 10
72.7071155591
 20
52.7002104918
 30
0.0
  0
VERTEX
  5
8DF
  8
0
  6
CONTINUOUS
 62
     7
 10
74.8358526064
 20
51.3741040031
 30
0.0
  0
SEQEND
  5
8DC
  8
0
  6
CONTINUOUS
 62
     7
  0
ARC
  5
29A
  8
0
  6
CONTINUOUS
 62
     7
 10
88.0006188861
 20
74.9866090105
 30
0.0
 40
27.02756267453744
 50
219.7747771967
 51
231.0109322165
  0
LINE
  5
29B
  8
0
  6
CONTINUOUS
 62
     7
 10
64.3542910723
 20
60.8740114967
 30
0.0
 11
67.2281737237
 21
57.6951467792
 31
0.0
  0
LINE
  5
29C
  8
0
  6
CONTINUOUS
 62
     7
 10
109.1578843801
 20
57.6951467792
 30
0.0
 11
112.0317614435
 21
60.8740077714
 31
0.0
  0
LINE
  5
29D
  8
0
  6
CONTINUOUS
 62
     7
 10
109.1578843801
 20
57.6951467792
 30
0.0
 11
108.5420547782
 21
56.9811166624
 31
0.0
  0
POLYLINE
  5
29E
  8
0
  6
CONTINUOUS
 62
     7
 66
     1
 10
0.0
 20
0.0
 30
0.0
  0
VERTEX
  5
8E1
  8
0
  6
CONTINUOUS
 62
     7
 10
105.3904275207
 20
53.97915108
 30
0.0
  0
VERTEX
  5
8E2
  8
0
  6
CONTINUOUS
 62
     7
 10
107.1475743113
 20
55.5321873525
 30
0.0
  0
VERTEX
  5
8E3
  8
0
  6
CONTINUOUS
 62
     7
 10
108.5420547782
 20
56.9811166624
 30
0.0
  0
SEQEND
  5
8E0
  8
0
  6
CONTINUOUS
 62
     7
  0
POLYLINE
  5
29F
  8
0
  6
CONTINUOUS
 62
     7
 66
     1
 10
0.0
 20
0.0
 30
0.0
  0
VERTEX
  5
8E5
  8
0
  6
CONTINUOUS
 62
     7
 10
101.5502064286
 20
51.3741040031
 30
0.0
  0
VERTEX
  5
8E6
  8
0
  6
CONTINUOUS
 62
     7
 10
103.6789425446
 20
52.7002104918
 30
0.0
  0
VERTEX
  5
8E7
  8
0
  6
CONTINUOUS
 62
     7
 10
105.3904275207
 20
53.97915108
 30
0.0
  0
SEQEND
  5
8E4
  8
0
  6
CONTINUOUS
 62
     7
  0
POLYLINE
  5
2A0
  8
0
  6
CONTINUOUS
 62
     7
 66
     1
 10
0.0
 20
0.0
 30
0.0
  0
VERTEX
  5
8E9
  8
0
  6
CONTINUOUS
 62
     7
 10
61.1951871572
 20
62.9114919702
 30
0.0
  0
VERTEX
  5
8EA
  8
0
  6
CONTINUOUS
 62
     7
 10
61.9848164527
 20
62.3881296615
 30
0.0
  0
VERTEX
  5
8EB
  8
0
  6
CONTINUOUS
 62
     7
 10
64.3542910723
 20
60.8740114967
 30
0.0
  0
SEQEND
  5
8E8
  8
0
  6
CONTINUOUS
 62
     7
  0
ARC
  5
2A1
  8
0
  6
CONTINUOUS
 62
     7
 10
111.9284797275
 20
60.6206396153
 30
0.0
 40
4.029231553693389
 50
226.5576980865
 51
245.4337312351
  0
ARC
  5
2A2
  8
0
  6
CONTINUOUS
 62
     7
 10
64.2042897388
 20
60.9781085912
 30
0.0
 40
4.46337457686971
 50
296.3755143227
 51
312.6476791502
  0
ARC
  5
2A3
  8
0
  6
CONTINUOUS
 62
     7
 10
111.9708712665
 20
60.587648325
 30
0.0
 40
4.976329284122038
 50
226.4470022421
 51
240.8712881785
  0
LINE
  5
2A4
  8
0
  6
CONTINUOUS
 62
     7
 10
109.6056419222
 20
56.2432037095
 30
0.0
 11
110.2533451079
 21
56.9893048505
 31
0.0
  0
ARC
  5
2A5
  8
0
  6
CONTINUOUS
 62
     7
 10
67.7506265313
 20
56.2476742467
 30
0.0
 40
3.95932426729517
 50
307.0897141123
 51
325.0433043441
  0
POLYLINE
  5
2A6
  8
0
  6
CONTINUOUS
 62
     7
 66
     1
 10
0.0
 20
0.0
 30
0.0
  0
VERTEX
  5
8ED
  8
0
  6
CONTINUOUS
 62
     7
 10
70.0946560858
 20
53.10018001
 30
0.0
  0
VERTEX
  5
8EE
  8
0
  6
CONTINUOUS
 62
     7
 10
68.0186840503
 20
54.949399213
 30
0.0
  0
VERTEX
  5
8EF
  8
0
  6
CONTINUOUS
 62
     7
 10
66.1327111332
 20
56.9893048505
 30
0.0
  0
SEQEND
  5
8EC
  8
0
  6
CONTINUOUS
 62
     7
  0
POLYLINE
  5
2A7
  8
0
  6
CONTINUOUS
 62
     7
 66
     1
 10
0.0
 20
0.0
 30
0.0
  0
VERTEX
  5
8F1
  8
0
  6
CONTINUOUS
 62
     7
 10
109.6056419222
 20
56.2432037095
 30
0.0
  0
VERTEX
  5
8F2
  8
0
  6
CONTINUOUS
 62
     7
 10
108.0116758852
 20
54.6061248878
 30
0.0
  0
VERTEX
  5
8F3
  8
0
  6
CONTINUOUS
 62
     7
 10
106.2914020179
 20
53.10018001
 30
0.0
  0
SEQEND
  5
8F0
  8
0
  6
CONTINUOUS
 62
     7
  0
ARC
  5
2A8
  8
0
  6
CONTINUOUS
 62
     7
 10
108.6354315725
 20
56.2476742467
 30
0.0
 40
3.959324267316827
 50
214.9566956559
 51
232.9102858877
  0
POLYLINE
  5
2A9
  8
0
  6
CONTINUOUS
 62
     7
 66
     1
 10
0.0
 20
0.0
 30
0.0
  0
VERTEX
  5
8F5
  8
0
  6
CONTINUOUS
 62
     7
 10
106.2914020179
 20
53.10018001
 30
0.0
  0
VERTEX
  5
8F6
  8
0
  6
CONTINUOUS
 62
     7
 10
104.3293027936
 20
51.6494178573
 30
0.0
  0
VERTEX
  5
8F7
  8
0
  6
CONTINUOUS
 62
     7
 10
102.2496836989
 20
50.3693149785
 30
0.0
  0
SEQEND
  5
8F4
  8
0
  6
CONTINUOUS
 62
     7
  0
ARC
  5
2AA
  8
0
  6
CONTINUOUS
 62
     7
 10
105.1874703755
 20
53.0487801336
 30
0.0
 40
4.004276359241458
 50
204.7223804019
 51
222.8056957207
  0
ARC
  5
2AB
  8
0
  6
CONTINUOUS
 62
     7
 10
71.1984716974
 20
53.048860106
 30
0.0
 40
4.004416047494197
 50
317.1946091382
 51
335.2772801173
  0
POLYLINE
  5
2AC
  8
0
  6
CONTINUOUS
 62
     7
 66
     1
 10
0.0
 20
0.0
 30
0.0
  0
VERTEX
  5
8F9
  8
0
  6
CONTINUOUS
 62
     7
 10
74.1363753362
 20
50.3693149785
 30
0.0
  0
VERTEX
  5
8FA
  8
0
  6
CONTINUOUS
 62
     7
 10
72.0567553102
 20
51.6494178573
 30
0.0
  0
VERTEX
  5
8FB
  8
0
  6
CONTINUOUS
 62
     7
 10
70.0946560858
 20
53.10018001
 30
0.0
  0
SEQEND
  5
8F8
  8
0
  6
CONTINUOUS
 62
     7
  0
POLYLINE
  5
2AD
  8
0
  6
CONTINUOUS
 62
     7
 66
     1
 10
0.0
 20
0.0
 30
0.0
  0
VERTEX
  5
8FD
  8
0
  6
CONTINUOUS
 62
     7
 10
102.2496836989
 20
50.3693149785
 30
0.0
  0
VERTEX
  5
8FE
  8
0
  6
CONTINUOUS
 62
     7
 10
100.0657853468
 20
49.2688791255
 30
0.0
  0
VERTEX
  5
8FF
  8
0
  6
CONTINUOUS
 62
     7
 10
97.7951240523
 20
48.3571255008
 30
0.0
  0
SEQEND
  5
8FC
  8
0
  6
CONTINUOUS
 62
     7
  0
ARC
  5
2AE
  8
0
  6
CONTINUOUS
 62
     7
 10
102.528754194
 20
50.9682575518
 30
0.0
 40
5.426232177760016
 50
196.1563762899
 51
209.2658958814
  0
ARC
  5
2AF
  8
0
  6
CONTINUOUS
 62
     7
 10
73.8589476827
 20
50.9675068653
 30
0.0
 40
5.42443115177198
 50
330.7325349085
 51
343.8445242978
  0
POLYLINE
  5
2B0
  8
0
  6
CONTINUOUS
 62
     7
 66
     1
 10
0.0
 20
0.0
 30
0.0
  0
VERTEX
  5
901
  8
0
  6
CONTINUOUS
 62
     7
 10
78.5909340514
 20
48.3571255008
 30
0.0
  0
VERTEX
  5
902
  8
0
  6
CONTINUOUS
 62
     7
 10
76.3202736883
 20
49.2688791255
 30
0.0
  0
VERTEX
  5
903
  8
0
  6
CONTINUOUS
 62
     7
 10
74.1363753362
 20
50.3693149785
 30
0.0
  0
SEQEND
  5
900
  8
0
  6
CONTINUOUS
 62
     7
  0
POLYLINE
  5
2B1
  8
0
  6
CONTINUOUS
 62
     7
 66
     1
 10
0.0
 20
0.0
 30
0.0
  0
VERTEX
  5
905
  8
0
  6
CONTINUOUS
 62
     7
 10
97.7951240523
 20
48.3571255008
 30
0.0
  0
VERTEX
  5
906
  8
0
  6
CONTINUOUS
 62
     7
 10
95.4577274418
 20
47.6420374016
 30
0.0
  0
VERTEX
  5
907
  8
0
  6
CONTINUOUS
 62
     7
 10
93.067257086
 20
47.12717248
 30
0.0
  0
SEQEND
  5
904
  8
0
  6
CONTINUOUS
 62
     7
  0
ARC
  5
2B2
  8
0
  6
CONTINUOUS
 62
     7
 10
104.5179158735
 20
50.0172275272
 30
0.0
 40
11.8205639158534
 50
188.4106096405
 51
194.1151623241
  0
ARC
  5
2B3
  8
0
  6
CONTINUOUS
 62
     7
 10
71.8649707592
 20
50.0179224301
 30
0.0
 40
11.82380942667821
 50
345.8853135836
 51
351.5892971483
  0
POLYLINE
  5
2B4
  8
0
  6
CONTINUOUS
 62
     7
 66
     1
 10
0.0
 20
0.0
 30
0.0
  0
VERTEX
  5
909
  8
0
  6
CONTINUOUS
 62
     7
 10
83.3188010177
 20
47.12717248
 30
0.0
  0
VERTEX
  5
90A
  8
0
  6
CONTINUOUS
 62
     7
 10
80.928330662
 20
47.6420374016
 30
0.0
  0
VERTEX
  5
90B
  8
0
  6
CONTINUOUS
 62
     7
 10
78.5909340514
 20
48.3571255008
 30
0.0
  0
SEQEND
  5
908
  8
0
  6
CONTINUOUS
 62
     7
  0
LINE
  5
2B5
  8
0
  6
CONTINUOUS
 62
     7
 10
88.1930288841
 20
47.8941613237
 30
0.0
 11
88.1930288753
 21
46.7125737468
 31
0.0
  0
POLYLINE
  5
2B6
  8
0
  6
CONTINUOUS
 62
     7
 66
     1
 10
0.0
 20
0.0
 30
0.0
  0
VERTEX
  5
90D
  8
0
  6
CONTINUOUS
 62
     7
 10
88.1930288753
 20
46.7125737468
 30
0.0
  0
VERTEX
  5
90E
  8
0
  6
CONTINUOUS
 62
     7
 10
85.7469678188
 20
46.8164869944
 30
0.0
  0
VERTEX
  5
90F
  8
0
  6
CONTINUOUS
 62
     7
 10
83.3188010177
 20
47.12717248
 30
0.0
  0
SEQEND
  5
90C
  8
0
  6
CONTINUOUS
 62
     7
  0
POLYLINE
  5
2B7
  8
0
  6
CONTINUOUS
 62
     7
 66
     1
 10
0.0
 20
0.0
 30
0.0
  0
VERTEX
  5
911
  8
0
  6
CONTINUOUS
 62
     7
 10
93.067257086
 20
47.12717248
 30
0.0
  0
VERTEX
  5
912
  8
0
  6
CONTINUOUS
 62
     7
 10
90.6390900521
 20
46.8164869944
 30
0.0
  0
VERTEX
  5
913
  8
0
  6
CONTINUOUS
 62
     7
 10
88.1930288753
 20
46.7125737468
 30
0.0
  0
SEQEND
  5
910
  8
0
  6
CONTINUOUS
 62
     7
  0
LINE
  5
2B8
  8
0
  6
CONTINUOUS
 62
     7
 10
138.2114178298
 20
104.4451074103
 30
0.0
 11
139.293029791
 21
104.4451074103
 31
0.0
  0
LINE
  5
2B9
  8
0
  6
CONTINUOUS
 62
     7
 10
135.0930294751
 20
104.4451074103
 30
0.0
 11
138.2114178298
 21
104.4451074103
 31
0.0
  0
LINE
  5
2BA
  8
0
  6
CONTINUOUS
 62
     7
 10
38.9002634941
 20
104.4451074103
 30
0.0
 11
40.2930303274
 21
104.4451074103
 31
0.0
  0
LINE
  5
2BB
  8
0
  6
CONTINUOUS
 62
     7
 10
36.0930300115
 20
104.4451074103
 30
0.0
 11
38.9002634941
 21
104.4451074103
 31
0.0
  0
ARC
  5
2BC
  8
0
  6
CONTINUOUS
 62
     7
 10
90.9332536687
 20
47.79306256
 30
0.0
 40
41.09288414554131
 50
152.1875963177
 51
153.5002681934
  0
ARC
  5
2BD
  8
0
  6
CONTINUOUS
 62
     7
 10
85.3678697632
 20
47.75369932
 30
0.0
 40
41.17903560629544
 50
26.4957925222
 51
27.805660779
  0
ARC
  5
2BE
  8
0
  6
CONTINUOUS
 62
     7
 10
32.1176840329
 20
85.3099619216
 30
0.0
 40
3.999191977803909
 50
122.3118478278
 51
139.8484064052
  0
ARC
  5
2BF
  8
0
  6
CONTINUOUS
 62
     7
 10
147.400827198
 20
92.2412354822
 30
0.0
 40
2.670760087388501
 50
262.3110467063
 51
290.3085446511
  0
ARC
  5
2C0
  8
0
  6
CONTINUOUS
 62
     7
 10
31.4140158598
 20
86.2002784983
 30
0.0
 40
3.976377332092008
 50
121.3955147306
 51
139.1220755627
  0
LINE
  5
2C1
  8
0
  6
CONTINUOUS
 62
     7
 10
113.8254756837
 20
62.3723307053
 30
0.0
 11
112.1330688505
 21
60.135100166
 31
0.0
  0
LINE
  5
2C2
  8
0
  6
CONTINUOUS
 62
     7
 10
62.5607705472
 20
62.372069935
 30
0.0
 11
64.2529873906
 21
60.1351038913
 31
0.0
  0
LINE
  5
2C3
  8
PV
  6
CENTERX2
 62
     7
 10
38.1930290519
 20
104.4451074461
 30
0.0
 11
38.1930290519
 21
94.8451074461
 31
0.0
  0
LINE
  5
2C4
  8
PV
  6
CENTERX2
 62
     7
 10
38.1930290519
 20
94.8451074461
 30
0.0
 11
38.1930290519
 21
89.9495244307
 31
0.0
  0
LINE
  5
2C5
  8
PV
  6
CENTERX2
 62
     7
 10
38.1930290519
 20
104.4451074461
 30
0.0
 11
38.1930290519
 21
109.4451074461
 31
0.0
  0
LINE
  5
2C6
  8
PV
  6
CENTERX2
 62
     7
 10
137.1930290519
 20
104.4451074461
 30
0.0
 11
137.1930290519
 21
94.8451074461
 31
0.0
  0
LINE
  5
2C7
  8
PV
  6
CENTERX2
 62
     7
 10
137.1930290519
 20
94.8451074461
 30
0.0
 11
137.1930290519
 21
89.9495244307
 31
0.0
  0
LINE
  5
2C8
  8
PV
  6
CENTERX2
 62
     7
 10
137.1930290519
 20
104.4451074461
 30
0.0
 11
137.1930290519
 21
109.4451074461
 31
0.0
  0
LINE
  5
2C9
  8
COTATION
 10
242.9762290991
 20
203.5894651631
 30
0.0
 11
242.9762290991
 21
207.261031153
 31
0.0
  0
LINE
  5
2CA
  8
0
  6
CONTINUOUS
 62
     7
 10
191.831390419
 20
222.8954047333
 30
0.0
 11
190.831390419
 21
222.8779496683
 31
0.0
  0
LINE
  5
2CB
  8
0
  6
CONTINUOUS
 62
     7
 10
191.831390419
 20
173.1035650441
 30
0.0
 11
190.831390419
 21
173.0861099792
 31
0.0
  0
LINE
  5
2CC
  8
0
  6
CONTINUOUS
 62
     7
 10
190.831390419
 20
231.774265259
 30
0.0
 11
191.831390419
 21
231.7568101941
 31
0.0
  0
LINE
  5
2CD
  8
0
  6
CONTINUOUS
 62
     7
 10
190.831390419
 20
181.1445725045
 30
0.0
 11
191.831390419
 21
181.1271174396
 31
0.0
  0
LINE
  5
2CE
  8
0
  6
CONTINUOUS
 62
     7
 10
191.831390419
 20
186.1271174396
 30
0.0
 11
190.831390419
 21
186.1096623747
 31
0.0
  0
LINE
  5
2CF
  8
0
  6
CONTINUOUS
 62
     7
 10
190.831390419
 20
165.4863042351
 30
0.0
 11
191.831390419
 21
165.4688491702
 31
0.0
  0
LINE
  5
2D0
  8
0
  6
CONTINUOUS
 62
     7
 10
191.831390419
 20
234.0005403431
 30
0.0
 11
190.831390419
 21
233.9830852782
 31
0.0
  0
ARC
  5
2D1
  8
0
  6
CONTINUOUS
 62
     7
 10
185.231390419
 20
210.0082618761
 30
0.0
 40
3.19285714285715
 50
200.0159596029
 51
270.0
  0
ARC
  5
2D2
  8
0
  6
CONTINUOUS
 62
     7
 10
185.231390419
 20
207.8225475904
 30
0.0
 40
3.192857142857179
 50
90.0
 51
159.9840403971
  0
LINE
  5
2D3
  8
0
  6
CONTINUOUS
 62
     7
 10
190.831390419
 20
211.0154047333
 30
0.0
 11
185.231390419
 21
211.0154047333
 31
0.0
  0
LINE
  5
2D4
  8
0
  6
CONTINUOUS
 62
     7
 10
185.231390419
 20
206.8154047333
 30
0.0
 11
190.831390419
 21
206.8154047333
 31
0.0
  0
POLYLINE
  5
2D5
  8
0
  6
CONTINUOUS
 62
     7
 66
     1
 10
0.0
 20
0.0
 30
0.0
  0
VERTEX
  5
915
  8
0
  6
CONTINUOUS
 62
     7
 10
214.8250845493
 20
236.348971579
 30
0.0
  0
VERTEX
  5
916
  8
0
  6
CONTINUOUS
 62
     7
 10
212.303356791
 20
236.7741032172
 30
0.0
  0
VERTEX
  5
917
  8
0
  6
CONTINUOUS
 62
     7
 10
205.4296865073
 20
237.4011496155
 30
0.0
  0
VERTEX
  5
918
  8
0
  6
CONTINUOUS
 62
     7
 10
198.5590440399
 20
237.6300975126
 30
0.0
  0
VERTEX
  5
919
  8
0
  6
CONTINUOUS
 62
     7
 10
191.8177193133
 20
237.748460833
 30
0.0
  0
SEQEND
  5
914
  8
0
  6
CONTINUOUS
 62
     7
  0
POLYLINE
  5
2D6
  8
0
  6
CONTINUOUS
 62
     7
 66
     1
 10
0.0
 20
0.0
 30
0.0
  0
VERTEX
  5
91B
  8
0
  6
CONTINUOUS
 62
     7
 10
231.0879480934
 20
230.395834712
 30
0.0
  0
VERTEX
  5
91C
  8
0
  6
CONTINUOUS
 62
     7
 10
228.2804983178
 20
232.0864463264
 30
0.0
  0
VERTEX
  5
91D
  8
0
  6
CONTINUOUS
 62
     7
 10
225.5039673947
 20
233.4139564921
 30
0.0
  0
SEQEND
  5
91A
  8
0
  6
CONTINUOUS
 62
     7
  0
ARC
  5
2D7
  8
0
  6
CONTINUOUS
 62
     7
 10
158.831390419
 20
218.3154047333
 30
0.0
 40
73.14999999998781
 50
354.1878241673
 51
354.7042903447
  0
LINE
  5
2D8
  8
0
  6
CONTINUOUS
 62
     7
 10
231.981390419
 20
223.7654047333
 30
0.0
 11
231.981390419
 21
228.7379673403
 31
0.0
  0
ARC
  5
2D9
  8
0
  6
CONTINUOUS
 62
     7
 10
213.631390419
 20
187.3941399164
 30
0.0
 40
28.75000000002637
 50
271.9997427127
 51
358.0
  0
POLYLINE
  5
2DA
  8
0
  6
CONTINUOUS
 62
     7
 66
     1
 10
0.0
 20
0.0
 30
0.0
  0
VERTEX
  5
91F
  8
0
  6
CONTINUOUS
 62
     7
 10
241.7976220605
 20
205.4622517939
 30
0.0
  0
VERTEX
  5
920
  8
0
  6
CONTINUOUS
 62
     7
 10
237.12020912
 20
207.3826101438
 30
0.0
  0
VERTEX
  5
921
  8
0
  6
CONTINUOUS
 62
     7
 10
232.9919072092
 20
208.7786701346
 30
0.0
  0
SEQEND
  5
91E
  8
0
  6
CONTINUOUS
 62
     7
  0
LINE
  5
2DB
  8
0
  6
CONTINUOUS
 62
     7
 10
242.3638766959
 20
186.3907793862
 30
0.0
 11
242.9651774849
 21
203.609781081
 31
0.0
  0
LINE
  5
2DC
  8
0
  6
CONTINUOUS
 62
     7
 10
211.9718559469
 20
158.5686632971
 30
0.0
 11
214.6973764024
 21
158.6638405686
 31
0.0
  0
ARC
  5
2DD
  8
0
  6
CONTINUOUS
 62
     7
 10
240.8807562267
 20
203.5958013738
 30
0.0
 40
2.082875307420364
 50
359.3981662712
 51
64.8331517527
  0
POLYLINE
  5
2DE
  8
0
  6
CONTINUOUS
 62
     7
 66
     1
 10
0.0
 20
0.0
 30
0.0
  0
VERTEX
  5
923
  8
0
  6
CONTINUOUS
 62
     7
 10
242.9647351831
 20
203.6088322567
 30
0.0
  0
VERTEX
  5
924
  8
0
  6
CONTINUOUS
 62
     7
 10
242.9587451793
 20
203.7742977356
 30
0.0
  0
VERTEX
  5
925
  8
0
  6
CONTINUOUS
 62
     7
 10
242.9400518815
 20
203.8735740746
 30
0.0
  0
SEQEND
  5
922
  8
0
  6
CONTINUOUS
 62
     7
  0
LINE
  5
2DF
  8
0
  6
CONTINUOUS
 62
     7
 10
191.831390419
 20
212.3258809483
 30
0.0
 11
190.831390419
 21
212.3342012337
 31
0.0
  0
LINE
  5
2E0
  8
0
  6
CONTINUOUS
 62
     7
 10
190.831390419
 20
220.6779496683
 30
0.0
 11
190.831390419
 21
212.3342012337
 31
0.0
  0
LINE
  5
2E1
  8
0
  6
CONTINUOUS
 62
     7
 10
191.831390419
 20
220.6889317704
 30
0.0
 11
190.831390419
 21
220.6779496683
 31
0.0
  0
LINE
  5
2E2
  8
0
  6
CONTINUOUS
 62
     7
 10
190.831390419
 20
222.8779496683
 30
0.0
 11
190.831390419
 21
220.6779496683
 31
0.0
  0
LINE
  5
2E3
  8
0
  6
CONTINUOUS
 62
     7
 10
190.831390419
 20
206.9454047333
 30
0.0
 11
191.831390419
 21
206.9454047333
 31
0.0
  0
LINE
  5
2E4
  8
0
  6
CONTINUOUS
 62
     7
 10
190.831390419
 20
212.3342012337
 30
0.0
 11
190.831390419
 21
206.9454047333
 31
0.0
  0
LINE
  5
2E5
  8
0
  6
CONTINUOUS
 62
     7
 10
190.831390419
 20
203.2128597982
 30
0.0
 11
191.831390419
 21
203.1954047332
 31
0.0
  0
LINE
  5
2E6
  8
0
  6
CONTINUOUS
 62
     7
 10
190.831390419
 20
203.2128597982
 30
0.0
 11
190.831390419
 21
206.9454047333
 31
0.0
  0
LINE
  5
2E7
  8
0
  6
CONTINUOUS
 62
     7
 10
191.831390419
 20
165.7636109969
 30
0.0
 11
191.831390419
 21
165.0885680028
 31
0.0
  0
LINE
  5
2E8
  8
0
  6
CONTINUOUS
 62
     7
 10
190.831390419
 20
171.7462577694
 30
0.0
 11
191.831390419
 21
171.7317868647
 31
0.0
  0
LINE
  5
2E9
  8
0
  6
CONTINUOUS
 62
     7
 10
190.831390419
 20
172.7631989733
 30
0.0
 11
190.831390419
 21
171.7462577694
 31
0.0
  0
LINE
  5
2EA
  8
0
  6
CONTINUOUS
 62
     7
 10
191.831390419
 20
172.7729597217
 30
0.0
 11
190.831390419
 21
172.7631989733
 31
0.0
  0
LINE
  5
2EB
  8
0
  6
CONTINUOUS
 62
     7
 10
190.831390419
 20
173.0861099792
 30
0.0
 11
190.831390419
 21
172.7631989733
 31
0.0
  0
LINE
  5
2EC
  8
0
  6
CONTINUOUS
 62
     7
 10
191.831390419
 20
165.5140797046
 30
0.0
 11
190.831390419
 21
165.5304821003
 31
0.0
  0
LINE
  5
2ED
  8
0
  6
CONTINUOUS
 62
     7
 10
190.831390419
 20
171.7462577694
 30
0.0
 11
190.831390419
 21
165.5304821003
 31
0.0
  0
LINE
  5
2EE
  8
0
  6
CONTINUOUS
 62
     7
 10
190.831390419
 20
233.0358899819
 30
0.0
 11
191.831390419
 21
233.0532494261
 31
0.0
  0
LINE
  5
2EF
  8
0
  6
CONTINUOUS
 62
     7
 10
190.831390419
 20
232.3406912441
 30
0.0
 11
191.831390419
 21
232.338866693
 31
0.0
  0
LINE
  5
2F0
  8
0
  6
CONTINUOUS
 62
     7
 10
190.831390419
 20
232.3406912441
 30
0.0
 11
190.831390419
 21
233.0358899819
 31
0.0
  0
LINE
  5
2F1
  8
0
  6
CONTINUOUS
 62
     7
 10
190.831390419
 20
231.774265259
 30
0.0
 11
190.831390419
 21
232.3406912441
 31
0.0
  0
LINE
  5
2F2
  8
0
  6
CONTINUOUS
 62
     7
 10
191.831390419
 20
233.9996495407
 30
0.0
 11
190.831390419
 21
233.9822183974
 31
0.0
  0
LINE
  5
2F3
  8
0
  6
CONTINUOUS
 62
     7
 10
190.831390419
 20
233.9822183974
 30
0.0
 11
190.831390419
 21
233.0358899819
 31
0.0
  0
LINE
  5
2F4
  8
0
  6
CONTINUOUS
 62
     7
 10
191.831390419
 20
183.1929969954
 30
0.0
 11
190.831390419
 21
183.1960280357
 31
0.0
  0
LINE
  5
2F5
  8
0
  6
CONTINUOUS
 62
     7
 10
190.831390419
 20
186.0719469389
 30
0.0
 11
190.831390419
 21
183.1960280357
 31
0.0
  0
LINE
  5
2F6
  8
0
  6
CONTINUOUS
 62
     7
 10
190.831390419
 20
186.0719469389
 30
0.0
 11
191.831390419
 21
186.0891368221
 31
0.0
  0
LINE
  5
2F7
  8
0
  6
CONTINUOUS
 62
     7
 10
190.831390419
 20
183.1960280357
 30
0.0
 11
190.831390419
 21
181.1445725045
 31
0.0
  0
LINE
  5
2F8
  8
0
  6
CONTINUOUS
 62
     7
 10
190.831390419
 20
186.1096623747
 30
0.0
 11
190.831390419
 21
186.0719469389
 31
0.0
  0
LINE
  5
2F9
  8
0
  6
CONTINUOUS
 62
     7
 10
190.831390419
 20
165.5304821003
 30
0.0
 11
190.831390419
 21
165.4863042351
 31
0.0
  0
LINE
  5
2FA
  8
0
  6
CONTINUOUS
 62
     7
 10
190.831390419
 20
233.9822183974
 30
0.0
 11
190.831390419
 21
233.9830852782
 31
0.0
  0
LINE
  5
2FB
  8
0
  6
CONTINUOUS
 62
     7
 10
231.9671109103
 20
212.1364047333
 30
0.0
 11
231.666363015
 21
211.8360690025
 31
0.0
  0
LINE
  5
2FC
  8
0
  6
CONTINUOUS
 62
     7
 10
231.9671109103
 20
222.1364047333
 30
0.0
 11
231.9654924167
 21
222.1380210088
 31
0.0
  0
LINE
  5
2FD
  8
0
  6
CONTINUOUS
 62
     7
 10
231.9671109103
 20
222.1364047333
 30
0.0
 11
231.9654924167
 21
222.1347884577
 31
0.0
  0
LINE
  5
2FE
  8
0
  6
CONTINUOUS
 62
     7
 10
231.9654924167
 20
220.1380210088
 30
0.0
 11
231.9671109103
 21
220.1364047333
 31
0.0
  0
LINE
  5
2FF
  8
0
  6
CONTINUOUS
 62
     7
 10
231.9671109103
 20
220.1364047333
 30
0.0
 11
231.9654924167
 21
220.1347884577
 31
0.0
  0
LINE
  5
300
  8
0
  6
CONTINUOUS
 62
     7
 10
231.9652778174
 20
218.138235314
 30
0.0
 11
231.9671109103
 21
218.1364047333
 31
0.0
  0
LINE
  5
301
  8
0
  6
CONTINUOUS
 62
     7
 10
231.9671109103
 20
218.1364047333
 30
0.0
 11
231.9652688343
 21
218.1345651817
 31
0.0
  0
LINE
  5
302
  8
0
  6
CONTINUOUS
 62
     7
 10
231.8697354771
 20
216.2336467168
 30
0.0
 11
231.9671109103
 21
216.1364047333
 31
0.0
  0
LINE
  5
303
  8
0
  6
CONTINUOUS
 62
     7
 10
231.9671109103
 20
216.1364047333
 30
0.0
 11
231.8603057872
 21
216.0297459829
 31
0.0
  0
LINE
  5
304
  8
0
  6
CONTINUOUS
 62
     7
 10
231.7813255727
 20
214.3219354585
 30
0.0
 11
231.9671109103
 21
214.1364047333
 31
0.0
  0
LINE
  5
305
  8
0
  6
CONTINUOUS
 62
     7
 10
231.9671109103
 20
214.1364047333
 30
0.0
 11
231.7633344011
 21
213.9329074927
 31
0.0
  0
LINE
  5
306
  8
0
  6
CONTINUOUS
 62
     7
 10
231.6929156683
 20
212.4102242002
 30
0.0
 11
231.9671109103
 21
212.1364047333
 31
0.0
  0
LINE
  5
307
  8
0
  6
CONTINUOUS
 62
     7
 10
231.9671109103
 20
212.1364047333
 30
0.0
 11
232.122214039
 21
212.1364047333
 31
0.0
  0
LINE
  5
308
  8
0
  6
CONTINUOUS
 62
     7
 10
232.122214039
 20
212.1364047333
 30
0.0
 11
232.122214039
 21
212.131670632
 31
0.0
  0
LINE
  5
309
  8
0
  6
CONTINUOUS
 62
     7
 10
232.122214039
 20
212.131670632
 30
0.0
 11
231.5551710275
 21
211.5654047333
 31
0.0
  0
LINE
  5
30A
  8
0
  6
CONTINUOUS
 62
     7
 10
231.9671109103
 20
214.1364047333
 30
0.0
 11
232.122214039
 21
214.1364047333
 31
0.0
  0
LINE
  5
30B
  8
0
  6
CONTINUOUS
 62
     7
 10
232.122214039
 20
214.1364047333
 30
0.0
 11
232.122214039
 21
214.131670632
 31
0.0
  0
LINE
  5
30C
  8
0
  6
CONTINUOUS
 62
     7
 10
231.7555948885
 20
213.7655539203
 30
0.0
 11
232.122214039
 21
214.131670632
 31
0.0
  0
LINE
  5
30D
  8
0
  6
CONTINUOUS
 62
     7
 10
231.6999718691
 20
212.5628023363
 30
0.0
 11
232.122214039
 21
212.1411388345
 31
0.0
  0
LINE
  5
30E
  8
0
  6
CONTINUOUS
 62
     7
 10
232.122214039
 20
212.1364047333
 30
0.0
 11
232.122214039
 21
212.1411388345
 31
0.0
  0
LINE
  5
30F
  8
0
  6
CONTINUOUS
 62
     7
 10
231.7883817735
 20
214.4745135945
 30
0.0
 11
232.122214039
 21
214.1411388345
 31
0.0
  0
LINE
  5
310
  8
0
  6
CONTINUOUS
 62
     7
 10
232.122214039
 20
214.1364047333
 30
0.0
 11
232.122214039
 21
214.1411388345
 31
0.0
  0
LINE
  5
311
  8
0
  6
CONTINUOUS
 62
     7
 10
231.9671109103
 20
216.1364047333
 30
0.0
 11
232.122214039
 21
216.1364047333
 31
0.0
  0
LINE
  5
312
  8
0
  6
CONTINUOUS
 62
     7
 10
232.122214039
 20
216.1364047333
 30
0.0
 11
232.122214039
 21
216.131670632
 31
0.0
  0
LINE
  5
313
  8
0
  6
CONTINUOUS
 62
     7
 10
231.8525662746
 20
215.8623924105
 30
0.0
 11
232.122214039
 21
216.131670632
 31
0.0
  0
LINE
  5
314
  8
0
  6
CONTINUOUS
 62
     7
 10
231.9671109103
 20
218.1364047333
 30
0.0
 11
232.122214039
 21
218.1364047333
 31
0.0
  0
LINE
  5
315
  8
0
  6
CONTINUOUS
 62
     7
 10
232.122214039
 20
218.1364047333
 30
0.0
 11
232.122214039
 21
218.131670632
 31
0.0
  0
LINE
  5
316
  8
0
  6
CONTINUOUS
 62
     7
 10
231.9495376607
 20
217.9592309007
 30
0.0
 11
232.122214039
 21
218.131670632
 31
0.0
  0
LINE
  5
317
  8
0
  6
CONTINUOUS
 62
     7
 10
231.8767916779
 20
216.3862248528
 30
0.0
 11
232.122214039
 21
216.1411388345
 31
0.0
  0
LINE
  5
318
  8
0
  6
CONTINUOUS
 62
     7
 10
232.122214039
 20
216.1364047333
 30
0.0
 11
232.122214039
 21
216.1411388345
 31
0.0
  0
LINE
  5
319
  8
0
  6
CONTINUOUS
 62
     7
 10
231.965490261
 20
218.2976478281
 30
0.0
 11
232.122214039
 21
218.1411388345
 31
0.0
  0
LINE
  5
31A
  8
0
  6
CONTINUOUS
 62
     7
 10
232.122214039
 20
218.1364047333
 30
0.0
 11
232.122214039
 21
218.1411388345
 31
0.0
  0
LINE
  5
31B
  8
0
  6
CONTINUOUS
 62
     7
 10
231.9671109103
 20
220.1364047333
 30
0.0
 11
232.122214039
 21
220.1364047333
 31
0.0
  0
LINE
  5
31C
  8
0
  6
CONTINUOUS
 62
     7
 10
232.122214039
 20
220.1364047333
 30
0.0
 11
232.122214039
 21
220.131670632
 31
0.0
  0
LINE
  5
31D
  8
0
  6
CONTINUOUS
 62
     7
 10
231.9660094445
 20
219.9756801104
 30
0.0
 11
232.122214039
 21
220.131670632
 31
0.0
  0
LINE
  5
31E
  8
0
  6
CONTINUOUS
 62
     7
 10
231.9660094445
 20
220.2971293561
 30
0.0
 11
232.122214039
 21
220.1411388345
 31
0.0
  0
LINE
  5
31F
  8
0
  6
CONTINUOUS
 62
     7
 10
232.122214039
 20
220.1364047333
 30
0.0
 11
232.122214039
 21
220.1411388345
 31
0.0
  0
LINE
  5
320
  8
0
  6
CONTINUOUS
 62
     7
 10
231.9671109103
 20
222.1364047333
 30
0.0
 11
232.122214039
 21
222.1364047333
 31
0.0
  0
LINE
  5
321
  8
0
  6
CONTINUOUS
 62
     7
 10
232.122214039
 20
222.1364047333
 30
0.0
 11
232.122214039
 21
222.131670632
 31
0.0
  0
LINE
  5
322
  8
0
  6
CONTINUOUS
 62
     7
 10
231.9660094445
 20
221.9756801104
 30
0.0
 11
232.122214039
 21
222.131670632
 31
0.0
  0
LINE
  5
323
  8
0
  6
CONTINUOUS
 62
     7
 10
232.122214039
 20
222.1411388345
 30
0.0
 11
231.9660094445
 21
222.2971293561
 31
0.0
  0
LINE
  5
324
  8
0
  6
CONTINUOUS
 62
     7
 10
232.122214039
 20
222.1364047333
 30
0.0
 11
232.122214039
 21
222.1411388345
 31
0.0
  0
POLYLINE
  5
325
  8
0
  6
CONTINUOUS
 62
     7
 66
     1
 10
0.0
 20
0.0
 30
0.0
  0
VERTEX
  5
927
  8
0
  6
CONTINUOUS
 62
     7
 10
191.8313901083
 20
237.7480772473
 30
0.0
  0
VERTEX
  5
928
  8
0
  6
CONTINUOUS
 62
     7
 10
191.831368152
 20
237.460435437
 30
0.0
  0
VERTEX
  5
929
  8
0
  6
CONTINUOUS
 62
     7
 10
191.8313378985
 20
236.5995200255
 30
0.0
  0
VERTEX
  5
92A
  8
0
  6
CONTINUOUS
 62
     7
 10
191.8313902264
 20
235.1717472843
 30
0.0
  0
VERTEX
  5
92B
  8
0
  6
CONTINUOUS
 62
     7
 10
191.8313131753
 20
234.4595933788
 30
0.0
  0
VERTEX
  5
92C
  8
0
  6
CONTINUOUS
 62
     7
 10
191.8313373491
 20
233.6667778013
 30
0.0
  0
VERTEX
  5
92D
  8
0
  6
CONTINUOUS
 62
     7
 10
191.8313816104
 20
232.7998208973
 30
0.0
  0
VERTEX
  5
92E
  8
0
  6
CONTINUOUS
 62
     7
 10
191.8313551493
 20
231.8713489211
 30
0.0
  0
VERTEX
  5
92F
  8
0
  6
CONTINUOUS
 62
     7
 10
191.8314463918
 20
230.9053712343
 30
0.0
  0
VERTEX
  5
930
  8
0
  6
CONTINUOUS
 62
     7
 10
191.8313064416
 20
229.9394066412
 30
0.0
  0
SEQEND
  5
926
  8
0
  6
CONTINUOUS
 62
     7
  0
POLYLINE
  5
326
  8
0
  6
CONTINUOUS
 62
     7
 66
     1
 10
0.0
 20
0.0
 30
0.0
  0
VERTEX
  5
932
  8
0
  6
CONTINUOUS
 62
     7
 10
191.8313064416
 20
229.9394066412
 30
0.0
  0
VERTEX
  5
933
  8
0
  6
CONTINUOUS
 62
     7
 10
191.8328536594
 20
229.6591381922
 30
0.0
  0
VERTEX
  5
934
  8
0
  6
CONTINUOUS
 62
     7
 10
191.831419819
 20
229.20058374
 30
0.0
  0
VERTEX
  5
935
  8
0
  6
CONTINUOUS
 62
     7
 10
191.8313229173
 20
228.6292263298
 30
0.0
  0
VERTEX
  5
936
  8
0
  6
CONTINUOUS
 62
     7
 10
191.831390419
 20
228.0164941067
 30
0.0
  0
SEQEND
  5
931
  8
0
  6
CONTINUOUS
 62
     7
  0
LINE
  5
327
  8
0
  6
CONTINUOUS
 62
     7
 10
191.8313904192
 20
228.0164941067
 30
0.0
 11
191.831390419
 21
218.3144339337
 31
0.0
  0
LINE
  5
328
  8
0
  6
CONTINUOUS
 62
     7
 10
191.8313904162
 20
201.3605054911
 30
0.0
 11
191.831390419
 21
218.3144339337
 31
0.0
  0
LINE
  5
329
  8
0
  6
CONTINUOUS
 62
     7
 10
191.8313904162
 20
185.7667402036
 30
0.0
 11
191.8313904162
 21
201.3605054911
 31
0.0
  0
LINE
  5
32A
  8
0
  6
CONTINUOUS
 62
     7
 10
191.8313904162
 20
172.8323090792
 30
0.0
 11
191.8313904162
 21
185.7667402036
 31
0.0
  0
LINE
  5
32B
  8
0
  6
CONTINUOUS
 62
     7
 10
191.8313904162
 20
164.5728754223
 30
0.0
 11
191.8313904162
 21
172.8323090792
 31
0.0
  0
LINE
  5
32C
  8
0
  6
CONTINUOUS
 62
     7
 10
191.8313904162
 20
160.192322991
 30
0.0
 11
191.8313904162
 21
164.5728754223
 31
0.0
  0
LINE
  5
32D
  8
0
  6
CONTINUOUS
 62
     7
 10
191.8313904162
 20
157.8653427428
 30
0.0
 11
191.8313904162
 21
160.192322991
 31
0.0
  0
LINE
  5
32E
  8
0
  6
CONTINUOUS
 62
     7
 10
191.8313875886
 20
222.8954046839
 30
0.0
 11
191.8313857182
 21
225.9227724202
 31
0.0
  0
LINE
  5
32F
  8
0
  6
CONTINUOUS
 62
     7
 10
191.8313865124
 20
228.920922159
 30
0.0
 11
191.8313865044
 21
229.0041518905
 31
0.0
  0
LINE
  5
330
  8
0
  6
CONTINUOUS
 62
     7
 10
191.8313871505
 20
227.6709178553
 30
0.0
 11
191.831386958
 21
228.0479105578
 31
0.0
  0
LINE
  5
331
  8
0
  6
CONTINUOUS
 62
     7
 10
191.8313877188
 20
222.8954046861
 30
0.0
 11
191.8313871505
 21
227.6709178553
 31
0.0
  0
LINE
  5
332
  8
0
  6
CONTINUOUS
 62
     7
 10
191.831390419
 20
165.9309123391
 30
0.0
 11
191.831390419
 21
161.6176198578
 31
0.0
  0
LINE
  5
333
  8
0
  6
CONTINUOUS
 62
     7
 10
191.831390419
 20
175.0906137231
 30
0.0
 11
191.831390419
 21
165.9309123391
 31
0.0
  0
LINE
  5
334
  8
0
  6
CONTINUOUS
 62
     7
 10
191.8313826691
 20
180.9392674061
 30
0.0
 11
191.8313839473
 21
175.0906137231
 31
0.0
  0
LINE
  5
335
  8
0
  6
CONTINUOUS
 62
     7
 10
191.831390419
 20
196.6144788262
 30
0.0
 11
191.831390419
 21
180.8478504061
 31
0.0
  0
LINE
  5
336
  8
0
  6
CONTINUOUS
 62
     7
 10
191.831390419
 20
218.3150826673
 30
0.0
 11
191.831390419
 21
196.6144788262
 31
0.0
  0
LINE
  5
337
  8
0
  6
CONTINUOUS
 62
     7
 10
191.831375665
 20
227.6709178553
 30
0.0
 11
191.8313767785
 21
218.3150826673
 31
0.0
  0
LINE
  5
338
  8
0
  6
CONTINUOUS
 62
     7
 10
191.8313757953
 20
228.1492375245
 30
0.0
 11
191.831375665
 21
227.6709178553
 31
0.0
  0
LINE
  5
339
  8
0
  6
CONTINUOUS
 62
     7
 10
191.8313757376
 20
230.8152761381
 30
0.0
 11
191.8313757938
 21
230.4180893396
 31
0.0
  0
LINE
  5
33A
  8
0
  6
CONTINUOUS
 62
     7
 10
191.831390419
 20
218.3144339337
 30
0.0
 11
199.8708260135
 21
218.3132942621
 31
0.0
  0
POLYLINE
  5
33B
  8
0
  6
CONTINUOUS
 62
     7
 66
     1
 10
0.0
 20
0.0
 30
0.0
  0
VERTEX
  5
938
  8
0
  6
CONTINUOUS
 62
     7
 10
199.8707806097
 20
227.278650159
 30
0.0
  0
VERTEX
  5
939
  8
0
  6
CONTINUOUS
 62
     7
 10
196.0520058747
 20
227.6939864675
 30
0.0
  0
VERTEX
  5
93A
  8
0
  6
CONTINUOUS
 62
     7
 10
191.831390419
 20
228.0164941067
 30
0.0
  0
SEQEND
  5
937
  8
0
  6
CONTINUOUS
 62
     7
  0
LINE
  5
33C
  8
0
  6
CONTINUOUS
 62
     7
 10
199.8707806097
 20
227.278650159
 30
0.0
 11
199.870826014
 21
218.3132942621
 31
0.0
  0
POLYLINE
  5
33D
  8
0
  6
CONTINUOUS
 62
     7
 66
     1
 10
0.0
 20
0.0
 30
0.0
  0
VERTEX
  5
93C
  8
0
  6
CONTINUOUS
 62
     7
 10
191.8313064416
 20
229.9394066412
 30
0.0
  0
VERTEX
  5
93D
  8
0
  6
CONTINUOUS
 62
     7
 10
195.8779083637
 20
229.6213960202
 30
0.0
  0
VERTEX
  5
93E
  8
0
  6
CONTINUOUS
 62
     7
 10
200.0820169775
 20
229.1384084174
 30
0.0
  0
SEQEND
  5
93B
  8
0
  6
CONTINUOUS
 62
     7
  0
ARC
  5
33E
  8
0
  6
CONTINUOUS
 62
     7
 10
171.5120133029
 20
231.5096871045
 30
0.0
 40
28.67265869765545
 50
351.5142477582
 51
355.1502046949
  0
POLYLINE
  5
33F
  8
0
  6
CONTINUOUS
 62
     7
 66
     1
 10
0.0
 20
0.0
 30
0.0
  0
VERTEX
  5
940
  8
0
  6
CONTINUOUS
 62
     7
 10
199.8708260135
 20
218.3132942621
 30
0.0
  0
VERTEX
  5
941
  8
0
  6
CONTINUOUS
 62
     7
 10
199.8709638573
 20
214.0413986203
 30
0.0
  0
VERTEX
  5
942
  8
0
  6
CONTINUOUS
 62
     7
 10
199.8708065866
 20
209.7926476986
 30
0.0
  0
VERTEX
  5
943
  8
0
  6
CONTINUOUS
 62
     7
 10
199.8707505177
 20
205.5830150156
 30
0.0
  0
VERTEX
  5
944
  8
0
  6
CONTINUOUS
 62
     7
 10
199.8708642701
 20
201.4392671621
 30
0.0
  0
SEQEND
  5
93F
  8
0
  6
CONTINUOUS
 62
     7
  0
LINE
  5
340
  8
0
  6
CONTINUOUS
 62
     7
 10
199.8708642701
 20
201.4392671621
 30
0.0
 11
191.8313904162
 21
201.3605054911
 31
0.0
  0
ARC
  5
341
  8
0
  6
CONTINUOUS
 62
     7
 10
198.4519332821
 20
227.2826797364
 30
0.0
 40
2.500738170980239
 50
359.9073673815
 51
49.3194496171
  0
POLYLINE
  5
342
  8
0
  6
CONTINUOUS
 62
     7
 66
     1
 10
0.0
 20
0.0
 30
0.0
  0
VERTEX
  5
946
  8
0
  6
CONTINUOUS
 62
     7
 10
199.8707806097
 20
227.2786501589
 30
0.0
  0
VERTEX
  5
947
  8
0
  6
CONTINUOUS
 62
     7
 10
200.4598832554
 20
227.2786374857
 30
0.0
  0
VERTEX
  5
948
  8
0
  6
CONTINUOUS
 62
     7
 10
200.9526681848
 20
227.2786366843
 30
0.0
  0
SEQEND
  5
945
  8
0
  6
CONTINUOUS
 62
     7
  0
POLYLINE
  5
343
  8
0
  6
CONTINUOUS
 62
     7
 66
     1
 10
0.0
 20
0.0
 30
0.0
  0
VERTEX
  5
94A
  8
0
  6
CONTINUOUS
 62
     7
 10
231.0781070344
 20
230.4022908341
 30
0.0
  0
VERTEX
  5
94B
  8
0
  6
CONTINUOUS
 62
     7
 10
230.9102708855
 20
230.4033942011
 30
0.0
  0
VERTEX
  5
94C
  8
0
  6
CONTINUOUS
 62
     7
 10
230.4084020057
 20
230.4068979688
 30
0.0
  0
SEQEND
  5
949
  8
0
  6
CONTINUOUS
 62
     7
  0
POLYLINE
  5
344
  8
0
  6
CONTINUOUS
 62
     7
 66
     1
 10
0.0
 20
0.0
 30
0.0
  0
VERTEX
  5
94E
  8
0
  6
CONTINUOUS
 62
     7
 10
230.4084020057
 20
230.4068979688
 30
0.0
  0
VERTEX
  5
94F
  8
0
  6
CONTINUOUS
 62
     7
 10
229.616063803
 20
230.4124204914
 30
0.0
  0
VERTEX
  5
950
  8
0
  6
CONTINUOUS
 62
     7
 10
228.5220021219
 20
230.4185146146
 30
0.0
  0
SEQEND
  5
94D
  8
0
  6
CONTINUOUS
 62
     7
  0
POLYLINE
  5
345
  8
0
  6
CONTINUOUS
 62
     7
 66
     1
 10
0.0
 20
0.0
 30
0.0
  0
VERTEX
  5
952
  8
0
  6
CONTINUOUS
 62
     7
 10
228.5220021219
 20
230.4185146146
 30
0.0
  0
VERTEX
  5
953
  8
0
  6
CONTINUOUS
 62
     7
 10
226.9470303778
 20
230.4235787641
 30
0.0
  0
VERTEX
  5
954
  8
0
  6
CONTINUOUS
 62
     7
 10
225.0072743776
 20
230.4237896804
 30
0.0
  0
VERTEX
  5
955
  8
0
  6
CONTINUOUS
 62
     7
 10
222.7103951813
 20
230.4141151836
 30
0.0
  0
SEQEND
  5
951
  8
0
  6
CONTINUOUS
 62
     7
  0
POLYLINE
  5
346
  8
0
  6
CONTINUOUS
 62
     7
 66
     1
 10
0.0
 20
0.0
 30
0.0
  0
VERTEX
  5
957
  8
0
  6
CONTINUOUS
 62
     7
 10
222.7103951813
 20
230.4141151836
 30
0.0
  0
VERTEX
  5
958
  8
0
  6
CONTINUOUS
 62
     7
 10
219.5901100283
 20
230.3776086667
 30
0.0
  0
VERTEX
  5
959
  8
0
  6
CONTINUOUS
 62
     7
 10
216.0208650065
 20
230.2886235794
 30
0.0
  0
SEQEND
  5
956
  8
0
  6
CONTINUOUS
 62
     7
  0
POLYLINE
  5
347
  8
0
  6
CONTINUOUS
 62
     7
 66
     1
 10
0.0
 20
0.0
 30
0.0
  0
VERTEX
  5
95B
  8
0
  6
CONTINUOUS
 62
     7
 10
216.0208650065
 20
230.2886235794
 30
0.0
  0
VERTEX
  5
95C
  8
0
  6
CONTINUOUS
 62
     7
 10
212.8817467319
 20
230.160946491
 30
0.0
  0
VERTEX
  5
95D
  8
0
  6
CONTINUOUS
 62
     7
 10
209.4961428079
 20
229.9669368976
 30
0.0
  0
SEQEND
  5
95A
  8
0
  6
CONTINUOUS
 62
     7
  0
POLYLINE
  5
348
  8
0
  6
CONTINUOUS
 62
     7
 66
     1
 10
0.0
 20
0.0
 30
0.0
  0
VERTEX
  5
95F
  8
0
  6
CONTINUOUS
 62
     7
 10
209.4961428079
 20
229.9669368976
 30
0.0
  0
VERTEX
  5
960
  8
0
  6
CONTINUOUS
 62
     7
 10
205.3676787584
 20
229.6494382689
 30
0.0
  0
VERTEX
  5
961
  8
0
  6
CONTINUOUS
 62
     7
 10
200.9866135986
 20
229.2308914096
 30
0.0
  0
SEQEND
  5
95E
  8
0
  6
CONTINUOUS
 62
     7
  0
LINE
  5
349
  8
0
  6
CONTINUOUS
 62
     7
 10
200.0820169775
 20
229.1384084175
 30
0.0
 11
200.9866136002
 21
229.23089142
 31
0.0
  0
POLYLINE
  5
34A
  8
0
  6
CONTINUOUS
 62
     7
 66
     1
 10
0.0
 20
0.0
 30
0.0
  0
VERTEX
  5
963
  8
0
  6
CONTINUOUS
 62
     7
 10
225.4990001622
 20
233.4035673628
 30
0.0
  0
VERTEX
  5
964
  8
0
  6
CONTINUOUS
 62
     7
 10
221.4237698048
 20
234.8748353434
 30
0.0
  0
VERTEX
  5
965
  8
0
  6
CONTINUOUS
 62
     7
 10
217.1541721854
 20
235.9510657703
 30
0.0
  0
SEQEND
  5
962
  8
0
  6
CONTINUOUS
 62
     7
  0
LINE
  5
34B
  8
0
  6
CONTINUOUS
 62
     7
 10
217.1545965899
 20
235.9510954475
 30
0.0
 11
214.831390419
 21
236.3863757271
 31
0.0
  0
LINE
  5
34C
  8
0
  6
CONTINUOUS
 62
     7
 10
217.1545965899
 20
235.9510954476
 30
0.0
 11
217.1541721854
 21
235.9510657703
 31
0.0
  0
POLYLINE
  5
34D
  8
0
  6
CONTINUOUS
 62
     7
 66
     1
 10
0.0
 20
0.0
 30
0.0
  0
VERTEX
  5
967
  8
0
  6
CONTINUOUS
 62
     7
 10
199.8708336454
 20
167.7216761235
 30
0.0
  0
VERTEX
  5
968
  8
0
  6
CONTINUOUS
 62
     7
 10
200.5035631752
 20
167.8293280725
 30
0.0
  0
VERTEX
  5
969
  8
0
  6
CONTINUOUS
 62
     7
 10
200.952677665
 20
168.0274519984
 30
0.0
  0
SEQEND
  5
966
  8
0
  6
CONTINUOUS
 62
     7
  0
POLYLINE
  5
34E
  8
0
  6
CONTINUOUS
 62
     7
 66
     1
 10
0.0
 20
0.0
 30
0.0
  0
VERTEX
  5
96B
  8
0
  6
CONTINUOUS
 62
     7
 10
199.8708954689
 20
173.0435988152
 30
0.0
  0
VERTEX
  5
96C
  8
0
  6
CONTINUOUS
 62
     7
 10
199.8708670731
 20
170.252534484
 30
0.0
  0
VERTEX
  5
96D
  8
0
  6
CONTINUOUS
 62
     7
 10
199.8708336454
 20
167.7216761235
 30
0.0
  0
SEQEND
  5
96A
  8
0
  6
CONTINUOUS
 62
     7
  0
POLYLINE
  5
34F
  8
0
  6
CONTINUOUS
 62
     7
 66
     1
 10
0.0
 20
0.0
 30
0.0
  0
VERTEX
  5
96F
  8
0
  6
CONTINUOUS
 62
     7
 10
199.8708590761
 20
185.9179414685
 30
0.0
  0
VERTEX
  5
970
  8
0
  6
CONTINUOUS
 62
     7
 10
199.8708751321
 20
182.4132363596
 30
0.0
  0
VERTEX
  5
971
  8
0
  6
CONTINUOUS
 62
     7
 10
199.8708889307
 20
179.0881356408
 30
0.0
  0
VERTEX
  5
972
  8
0
  6
CONTINUOUS
 62
     7
 10
199.8708987826
 20
175.9597453582
 30
0.0
  0
VERTEX
  5
973
  8
0
  6
CONTINUOUS
 62
     7
 10
199.8708954689
 20
173.0435988152
 30
0.0
  0
SEQEND
  5
96E
  8
0
  6
CONTINUOUS
 62
     7
  0
POLYLINE
  5
350
  8
0
  6
CONTINUOUS
 62
     7
 66
     1
 10
0.0
 20
0.0
 30
0.0
  0
VERTEX
  5
975
  8
0
  6
CONTINUOUS
 62
     7
 10
199.8708642701
 20
201.4392671621
 30
0.0
  0
VERTEX
  5
976
  8
0
  6
CONTINUOUS
 62
     7
 10
199.8708630608
 20
197.3810785572
 30
0.0
  0
VERTEX
  5
977
  8
0
  6
CONTINUOUS
 62
     7
 10
199.870814171
 20
193.4282605352
 30
0.0
  0
VERTEX
  5
978
  8
0
  6
CONTINUOUS
 62
     7
 10
199.8708263201
 20
189.6007875596
 30
0.0
  0
VERTEX
  5
979
  8
0
  6
CONTINUOUS
 62
     7
 10
199.8708590761
 20
185.9179414685
 30
0.0
  0
SEQEND
  5
974
  8
0
  6
CONTINUOUS
 62
     7
  0
POLYLINE
  5
351
  8
0
  6
CONTINUOUS
 62
     7
 66
     1
 10
0.0
 20
0.0
 30
0.0
  0
VERTEX
  5
97B
  8
0
  6
CONTINUOUS
 62
     7
 10
199.870826014
 20
218.3132942621
 30
0.0
  0
VERTEX
  5
97C
  8
0
  6
CONTINUOUS
 62
     7
 10
200.4382367201
 20
218.3143529621
 30
0.0
  0
VERTEX
  5
97D
  8
0
  6
CONTINUOUS
 62
     7
 10
200.9526681851
 20
218.3154047333
 30
0.0
  0
SEQEND
  5
97A
  8
0
  6
CONTINUOUS
 62
     7
  0
POLYLINE
  5
352
  8
0
  6
CONTINUOUS
 62
     7
 66
     1
 10
0.0
 20
0.0
 30
0.0
  0
VERTEX
  5
97F
  8
0
  6
CONTINUOUS
 62
     7
 10
200.9526681851
 20
218.3154047333
 30
0.0
  0
VERTEX
  5
980
  8
0
  6
CONTINUOUS
 62
     7
 10
200.9528348789
 20
213.3447524914
 30
0.0
  0
VERTEX
  5
981
  8
0
  6
CONTINUOUS
 62
     7
 10
200.9526877061
 20
208.4079729891
 30
0.0
  0
VERTEX
  5
982
  8
0
  6
CONTINUOUS
 62
     7
 10
200.9527409269
 20
203.5396090945
 30
0.0
  0
VERTEX
  5
983
  8
0
  6
CONTINUOUS
 62
     7
 10
200.9528193132
 20
198.7731564376
 30
0.0
  0
VERTEX
  5
984
  8
0
  6
CONTINUOUS
 62
     7
 10
200.9527940014
 20
194.1417304884
 30
0.0
  0
VERTEX
  5
985
  8
0
  6
CONTINUOUS
 62
     7
 10
200.9527729972
 20
189.6770313337
 30
0.0
  0
VERTEX
  5
986
  8
0
  6
CONTINUOUS
 62
     7
 10
200.952807317
 20
185.4104794803
 30
0.0
  0
VERTEX
  5
987
  8
0
  6
CONTINUOUS
 62
     7
 10
200.9528342484
 20
181.371723397
 30
0.0
  0
VERTEX
  5
988
  8
0
  6
CONTINUOUS
 62
     7
 10
200.9528406736
 20
177.5882851474
 30
0.0
  0
VERTEX
  5
989
  8
0
  6
CONTINUOUS
 62
     7
 10
200.9528193831
 20
174.0874087564
 30
0.0
  0
VERTEX
  5
98A
  8
0
  6
CONTINUOUS
 62
     7
 10
200.9527517335
 20
170.8931874147
 30
0.0
  0
VERTEX
  5
98B
  8
0
  6
CONTINUOUS
 62
     7
 10
200.952677665
 20
168.0274519984
 30
0.0
  0
SEQEND
  5
97E
  8
0
  6
CONTINUOUS
 62
     7
  0
LINE
  5
353
  8
0
  6
CONTINUOUS
 62
     7
 10
200.9526681848
 20
227.2786366843
 30
0.0
 11
200.9526681848
 21
218.3154047333
 31
0.0
  0
POLYLINE
  5
354
  8
0
  6
CONTINUOUS
 62
     7
 66
     1
 10
0.0
 20
0.0
 30
0.0
  0
VERTEX
  5
98D
  8
0
  6
CONTINUOUS
 62
     7
 10
220.6037572481
 20
202.5648807081
 30
0.0
  0
VERTEX
  5
98E
  8
0
  6
CONTINUOUS
 62
     7
 10
221.3777739319
 20
203.5083899126
 30
0.0
  0
VERTEX
  5
98F
  8
0
  6
CONTINUOUS
 62
     7
 10
222.2052842949
 20
204.4151040456
 30
0.0
  0
VERTEX
  5
990
  8
0
  6
CONTINUOUS
 62
     7
 10
223.0710451597
 20
205.2834544408
 30
0.0
  0
VERTEX
  5
991
  8
0
  6
CONTINUOUS
 62
     7
 10
223.9777376732
 20
206.0951136475
 30
0.0
  0
VERTEX
  5
992
  8
0
  6
CONTINUOUS
 62
     7
 10
224.5269510708
 20
206.663485305
 30
0.0
  0
VERTEX
  5
993
  8
0
  6
CONTINUOUS
 62
     7
 10
225.0679767117
 20
207.2250406996
 30
0.0
  0
VERTEX
  5
994
  8
0
  6
CONTINUOUS
 62
     7
 10
225.6921914895
 20
207.6750396515
 30
0.0
  0
VERTEX
  5
995
  8
0
  6
CONTINUOUS
 62
     7
 10
226.5743320527
 20
208.3623869263
 30
0.0
  0
VERTEX
  5
996
  8
0
  6
CONTINUOUS
 62
     7
 10
226.9973252065
 20
208.6994883425
 30
0.0
  0
VERTEX
  5
997
  8
0
  6
CONTINUOUS
 62
     7
 10
227.2055755306
 20
208.8637110871
 30
0.0
  0
VERTEX
  5
998
  8
0
  6
CONTINUOUS
 62
     7
 10
227.3092003985
 20
208.9440180581
 30
0.0
  0
VERTEX
  5
999
  8
0
  6
CONTINUOUS
 62
     7
 10
227.3609343441
 20
208.9835949725
 30
0.0
  0
VERTEX
  5
99A
  8
0
  6
CONTINUOUS
 62
     7
 10
227.3867907017
 20
209.0033286002
 30
0.0
  0
VERTEX
  5
99B
  8
0
  6
CONTINUOUS
 62
     7
 10
227.4010170472
 20
209.0077964413
 30
0.0
  0
VERTEX
  5
99C
  8
0
  6
CONTINUOUS
 62
     7
 10
227.4045553948
 20
209.0091022535
 30
0.0
  0
VERTEX
  5
99D
  8
0
  6
CONTINUOUS
 62
     7
 10
227.407313171
 20
209.0122826495
 30
0.0
  0
VERTEX
  5
99E
  8
0
  6
CONTINUOUS
 62
     7
 10
227.4083427431
 20
209.014364089
 30
0.0
  0
VERTEX
  5
99F
  8
0
  6
CONTINUOUS
 62
     7
 10
227.4091443437
 20
209.0166023293
 30
0.0
  0
VERTEX
  5
9A0
  8
0
  6
CONTINUOUS
 62
     7
 10
227.4097216319
 20
209.0188693503
 30
0.0
  0
VERTEX
  5
9A1
  8
0
  6
CONTINUOUS
 62
     7
 10
227.4100782602
 20
209.0210371317
 30
0.0
  0
SEQEND
  5
98C
  8
0
  6
CONTINUOUS
 62
     7
  0
ARC
  5
355
  8
0
  6
CONTINUOUS
 62
     7
 10
220.4733676227
 20
202.6290364782
 30
0.0
 40
0.1463214222922748
 50
300.1038669719
 51
333.0140481997
  0
ARC
  5
356
  8
0
  6
CONTINUOUS
 62
     7
 10
220.4475210771
 20
202.4188612581
 30
0.0
 40
0.1144335929704614
 50
351.7015795815
 51
40.8220014172
  0
POLYLINE
  5
357
  8
0
  6
CONTINUOUS
 62
     7
 66
     1
 10
0.0
 20
0.0
 30
0.0
  0
VERTEX
  5
9A3
  8
0
  6
CONTINUOUS
 62
     7
 10
220.5625625404
 20
202.4074996111
 30
0.0
  0
VERTEX
  5
9A4
  8
0
  6
CONTINUOUS
 62
     7
 10
220.2057702403
 20
202.1070036527
 30
0.0
  0
VERTEX
  5
9A5
  8
0
  6
CONTINUOUS
 62
     7
 10
219.9264131891
 20
201.8463321879
 30
0.0
  0
SEQEND
  5
9A2
  8
0
  6
CONTINUOUS
 62
     7
  0
POLYLINE
  5
358
  8
0
  6
CONTINUOUS
 62
     7
 66
     1
 10
0.0
 20
0.0
 30
0.0
  0
VERTEX
  5
9A7
  8
0
  6
CONTINUOUS
 62
     7
 10
218.0274980956
 20
198.2882222422
 30
0.0
  0
VERTEX
  5
9A8
  8
0
  6
CONTINUOUS
 62
     7
 10
219.0426700419
 20
200.0546596946
 30
0.0
  0
VERTEX
  5
9A9
  8
0
  6
CONTINUOUS
 62
     7
 10
219.9264131891
 20
201.8463321879
 30
0.0
  0
SEQEND
  5
9A6
  8
0
  6
CONTINUOUS
 62
     7
  0
POLYLINE
  5
359
  8
0
  6
CONTINUOUS
 62
     7
 66
     1
 10
0.0
 20
0.0
 30
0.0
  0
VERTEX
  5
9AB
  8
0
  6
CONTINUOUS
 62
     7
 10
200.952677665
 20
168.0274519984
 30
0.0
  0
VERTEX
  5
9AC
  8
0
  6
CONTINUOUS
 62
     7
 10
202.8472920436
 20
171.3852107471
 30
0.0
  0
VERTEX
  5
9AD
  8
0
  6
CONTINUOUS
 62
     7
 10
204.8656890968
 20
174.9622821226
 30
0.0
  0
VERTEX
  5
9AE
  8
0
  6
CONTINUOUS
 62
     7
 10
206.9816387541
 20
178.7122616768
 30
0.0
  0
VERTEX
  5
9AF
  8
0
  6
CONTINUOUS
 62
     7
 10
209.1673150578
 20
182.5858091309
 30
0.0
  0
VERTEX
  5
9B0
  8
0
  6
CONTINUOUS
 62
     7
 10
211.3941029191
 20
186.5322174714
 30
0.0
  0
VERTEX
  5
9B1
  8
0
  6
CONTINUOUS
 62
     7
 10
213.6326191997
 20
190.4994166242
 30
0.0
  0
VERTEX
  5
9B2
  8
0
  6
CONTINUOUS
 62
     7
 10
215.853421163
 20
194.43523529
 30
0.0
  0
VERTEX
  5
9B3
  8
0
  6
CONTINUOUS
 62
     7
 10
218.0274980956
 20
198.2882222422
 30
0.0
  0
SEQEND
  5
9AA
  8
0
  6
CONTINUOUS
 62
     7
  0
LINE
  5
35A
  8
0
  6
CONTINUOUS
 62
     7
 10
200.9526681848
 20
218.3154047333
 30
0.0
 11
231.9660094445
 21
218.3154047333
 31
0.0
  0
LINE
  5
35B
  8
0
  6
CONTINUOUS
 62
     7
 10
231.653845747
 20
211.5654047331
 30
0.0
 11
231.9660094445
 21
218.3154047333
 31
0.0
  0
ARC
  5
35C
  8
0
  6
CONTINUOUS
 62
     7
 10
359.6828580407
 20
-81.178528139
 30
0.0
 40
318.9332400186663
 50
113.6770414794
 51
114.5026297716
  0
ARC
  5
35D
  8
0
  6
CONTINUOUS
 62
     7
 10
199.3909711214
 20
227.3779594897
 30
0.0
 40
2.475497399211117
 50
359.8881857998
 51
49.8662202053
  0
LINE
  5
35E
  8
0
  6
CONTINUOUS
 62
     7
 10
200.9526681848
 20
227.2786366843
 30
0.0
 11
201.8664638067
 21
227.3731284954
 31
0.0
  0
ARC
  5
35F
  8
0
  6
CONTINUOUS
 62
     7
 10
226.7444930858
 20
-11.4828992271
 30
0.0
 40
240.2032465122175
 50
90.7560723992
 51
92.3490262062
  0
ARC
  5
360
  8
0
  6
CONTINUOUS
 62
     7
 10
228.885061012
 20
-151.5514308231
 30
0.0
 40
380.2882757040285
 50
89.9212683429
 51
90.8000803328
  0
POLYLINE
  5
361
  8
0
  6
CONTINUOUS
 62
     7
 66
     1
 10
0.0
 20
0.0
 30
0.0
  0
VERTEX
  5
9B5
  8
0
  6
CONTINUOUS
 62
     7
 10
231.3066099094
 20
228.7321863704
 30
0.0
  0
VERTEX
  5
9B6
  8
0
  6
CONTINUOUS
 62
     7
 10
230.5056569074
 20
228.7348373653
 30
0.0
  0
VERTEX
  5
9B7
  8
0
  6
CONTINUOUS
 62
     7
 10
229.4076250986
 20
228.7364858463
 30
0.0
  0
SEQEND
  5
9B4
  8
0
  6
CONTINUOUS
 62
     7
  0
POLYLINE
  5
362
  8
0
  6
CONTINUOUS
 62
     7
 66
     1
 10
0.0
 20
0.0
 30
0.0
  0
VERTEX
  5
9B9
  8
0
  6
CONTINUOUS
 62
     7
 10
231.9813902049
 20
228.7298040023
 30
0.0
  0
VERTEX
  5
9BA
  8
0
  6
CONTINUOUS
 62
     7
 10
231.8119173736
 20
228.730373723
 30
0.0
  0
VERTEX
  5
9BB
  8
0
  6
CONTINUOUS
 62
     7
 10
231.3066099094
 20
228.7321863704
 30
0.0
  0
SEQEND
  5
9B8
  8
0
  6
CONTINUOUS
 62
     7
  0
LINE
  5
363
  8
0
  6
CONTINUOUS
 62
     7
 10
231.9660094445
 20
218.3154047333
 30
0.0
 11
231.9660094445
 21
220.1339963781
 31
0.0
  0
LINE
  5
364
  8
0
  6
CONTINUOUS
 62
     7
 10
231.9660094445
 20
220.1388130884
 30
0.0
 11
231.9660094445
 21
222.1339963781
 31
0.0
  0
LINE
  5
365
  8
0
  6
CONTINUOUS
 62
     7
 10
231.9660094445
 20
222.1388130884
 30
0.0
 11
231.9660094445
 21
223.7654047333
 31
0.0
  0
ARC
  5
366
  8
0
  6
CONTINUOUS
 62
     7
 10
225.7762980784
 20
8.2354315503
 30
0.0
 40
220.4487293155666
 50
94.0011775777
 51
96.2265397977
  0
ARC
  5
367
  8
0
  6
CONTINUOUS
 62
     7
 10
226.7529873337
 20
-7.7773326586
 30
0.0
 40
236.5005956455353
 50
92.3878832869
 51
93.9663620179
  0
ARC
  5
368
  8
0
  6
CONTINUOUS
 62
     7
 10
208.1685649093
 20
228.2082760173
 30
0.0
 40
2.226335167549798
 50
358.4187851499
 51
53.3941818053
  0
LINE
  5
369
  8
0
  6
CONTINUOUS
 62
     7
 10
199.8708590761
 20
185.9179414685
 30
0.0
 11
191.8313904162
 21
185.7667402036
 31
0.0
  0
ARC
  5
36A
  8
0
  6
CONTINUOUS
 62
     7
 10
214.7978151788
 20
228.5892103317
 30
0.0
 40
2.102735278012624
 50
358.0565722548
 51
54.4335271788
  0
LINE
  5
36B
  8
0
  6
CONTINUOUS
 62
     7
 10
199.8708954689
 20
173.0435988152
 30
0.0
 11
191.8313904162
 21
172.8323090792
 31
0.0
  0
ARC
  5
36C
  8
0
  6
CONTINUOUS
 62
     7
 10
221.5280319906
 20
228.7482546772
 30
0.0
 40
2.047424542611245
 50
358.6336546913
 51
54.7259418339
  0
POLYLINE
  5
36D
  8
0
  6
CONTINUOUS
 62
     7
 66
     1
 10
0.0
 20
0.0
 30
0.0
  0
VERTEX
  5
9BD
  8
0
  6
CONTINUOUS
 62
     7
 10
199.8708336454
 20
167.7216761235
 30
0.0
  0
VERTEX
  5
9BE
  8
0
  6
CONTINUOUS
 62
     7
 10
199.9329630286
 20
166.2121454506
 30
0.0
  0
VERTEX
  5
9BF
  8
0
  6
CONTINUOUS
 62
     7
 10
200.1238117446
 20
164.8303239555
 30
0.0
  0
SEQEND
  5
9BC
  8
0
  6
CONTINUOUS
 62
     7
  0
LINE
  5
36E
  8
0
  6
CONTINUOUS
 62
     7
 10
191.8313904162
 20
164.5728754223
 30
0.0
 11
200.1238117446
 21
164.8303239555
 31
0.0
  0
POLYLINE
  5
36F
  8
0
  6
CONTINUOUS
 62
     7
 66
     1
 10
0.0
 20
0.0
 30
0.0
  0
VERTEX
  5
9C1
  8
0
  6
CONTINUOUS
 62
     7
 10
200.952677665
 20
168.0274519984
 30
0.0
  0
VERTEX
  5
9C2
  8
0
  6
CONTINUOUS
 62
     7
 10
200.9826512586
 20
165.8845300395
 30
0.0
  0
VERTEX
  5
9C3
  8
0
  6
CONTINUOUS
 62
     7
 10
201.2706655401
 20
164.0397130846
 30
0.0
  0
VERTEX
  5
9C4
  8
0
  6
CONTINUOUS
 62
     7
 10
201.7888186163
 20
162.5117930342
 30
0.0
  0
VERTEX
  5
9C5
  8
0
  6
CONTINUOUS
 62
     7
 10
202.5420804081
 20
161.2772317551
 30
0.0
  0
VERTEX
  5
9C6
  8
0
  6
CONTINUOUS
 62
     7
 10
203.5197782603
 20
160.3006932129
 30
0.0
  0
VERTEX
  5
9C7
  8
0
  6
CONTINUOUS
 62
     7
 10
204.7015199715
 20
159.5679939758
 30
0.0
  0
SEQEND
  5
9C0
  8
0
  6
CONTINUOUS
 62
     7
  0
ARC
  5
370
  8
0
  6
CONTINUOUS
 62
     7
 10
269.2675745708
 20
238.5479178141
 30
0.0
 40
65.20757698480843
 50
218.2053241703
 51
232.4664082525
  0
POLYLINE
  5
371
  8
0
  6
CONTINUOUS
 62
     7
 66
     1
 10
0.0
 20
0.0
 30
0.0
  0
VERTEX
  5
9C9
  8
0
  6
CONTINUOUS
 62
     7
 10
214.5769134736
 20
160.3179030004
 30
0.0
  0
VERTEX
  5
9CA
  8
0
  6
CONTINUOUS
 62
     7
 10
215.2417840171
 20
161.4961915546
 30
0.0
  0
VERTEX
  5
9CB
  8
0
  6
CONTINUOUS
 62
     7
 10
216.0675242554
 20
162.959595875
 30
0.0
  0
VERTEX
  5
9CC
  8
0
  6
CONTINUOUS
 62
     7
 10
217.0420484683
 20
164.6866856791
 30
0.0
  0
VERTEX
  5
9CD
  8
0
  6
CONTINUOUS
 62
     7
 10
218.1508197526
 20
166.651674953
 30
0.0
  0
VERTEX
  5
9CE
  8
0
  6
CONTINUOUS
 62
     7
 10
219.376993434
 20
168.8247685341
 30
0.0
  0
VERTEX
  5
9CF
  8
0
  6
CONTINUOUS
 62
     7
 10
220.7018250252
 20
171.1727045695
 30
0.0
  0
VERTEX
  5
9D0
  8
0
  6
CONTINUOUS
 62
     7
 10
222.1054119399
 20
173.6602014479
 30
0.0
  0
VERTEX
  5
9D1
  8
0
  6
CONTINUOUS
 62
     7
 10
223.5666070729
 20
176.2497945206
 30
0.0
  0
VERTEX
  5
9D2
  8
0
  6
CONTINUOUS
 62
     7
 10
225.0634558179
 20
178.9025742267
 30
0.0
  0
VERTEX
  5
9D3
  8
0
  6
CONTINUOUS
 62
     7
 10
226.5733425989
 20
181.5784615821
 30
0.0
  0
VERTEX
  5
9D4
  8
0
  6
CONTINUOUS
 62
     7
 10
228.0735161417
 20
184.2371282413
 30
0.0
  0
VERTEX
  5
9D5
  8
0
  6
CONTINUOUS
 62
     7
 10
229.5413934887
 20
186.83855084
 30
0.0
  0
SEQEND
  5
9C8
  8
0
  6
CONTINUOUS
 62
     7
  0
POLYLINE
  5
372
  8
0
  6
CONTINUOUS
 62
     7
 66
     1
 10
0.0
 20
0.0
 30
0.0
  0
VERTEX
  5
9D7
  8
0
  6
CONTINUOUS
 62
     7
 10
204.7015199715
 20
159.5679939758
 30
0.0
  0
VERTEX
  5
9D8
  8
0
  6
CONTINUOUS
 62
     7
 10
209.5980162632
 20
160.2126176019
 30
0.0
  0
VERTEX
  5
9D9
  8
0
  6
CONTINUOUS
 62
     7
 10
214.5769134736
 20
160.3179030004
 30
0.0
  0
SEQEND
  5
9D6
  8
0
  6
CONTINUOUS
 62
     7
  0
ARC
  5
373
  8
0
  6
CONTINUOUS
 62
     7
 10
230.258801298
 20
186.3341847403
 30
0.0
 40
18.63826608000513
 50
82.5136131566
 51
123.6669359962
  0
ARC
  5
374
  8
0
  6
CONTINUOUS
 62
     7
 10
86.4521167007
 20
221.1612890189
 30
0.0
 40
147.1481956661912
 50
346.5113425202
 51
353.6137067906
  0
ARC
  5
375
  8
0
  6
CONTINUOUS
 62
     7
 10
229.7804051159
 20
209.0460355526
 30
0.0
 40
2.370458673682579
 50
180.6042419378
 51
245.6352721113
  0
ARC
  5
376
  8
0
  6
CONTINUOUS
 62
     7
 10
235.4673488176
 20
185.3067072357
 30
0.0
 40
22.68593358928362
 50
107.0848919163
 51
131.0779542446
  0
LINE
  5
377
  8
0
  6
CONTINUOUS
 62
     7
 10
228.802487273
 20
206.8929051588
 30
0.0
 11
231.9813521021
 21
206.7155445872
 31
0.0
  0
ARC
  5
378
  8
0
  6
CONTINUOUS
 62
     7
 10
230.4029732338
 20
205.0864190295
 30
0.0
 40
2.301302981965264
 50
353.0143182804
 51
46.6964746376
  0
ARC
  5
379
  8
0
  6
CONTINUOUS
 62
     7
 10
227.3962694763
 20
228.7532743401
 30
0.0
 40
2.011425686624262
 50
359.5217715409
 51
55.9670885422
  0
LINE
  5
37A
  8
0
  6
CONTINUOUS
 62
     7
 10
204.2666371545
 20
159.458015314
 30
0.0
 11
204.7015199713
 21
159.5679939755
 31
0.0
  0
POLYLINE
  5
37B
  8
0
  6
CONTINUOUS
 62
     7
 66
     1
 10
0.0
 20
0.0
 30
0.0
  0
VERTEX
  5
9DB
  8
0
  6
CONTINUOUS
 62
     7
 10
202.4488336482
 20
160.5487739155
 30
0.0
  0
VERTEX
  5
9DC
  8
0
  6
CONTINUOUS
 62
     7
 10
203.2963161802
 20
159.9468790879
 30
0.0
  0
VERTEX
  5
9DD
  8
0
  6
CONTINUOUS
 62
     7
 10
204.2666371545
 20
159.458015314
 30
0.0
  0
SEQEND
  5
9DA
  8
0
  6
CONTINUOUS
 62
     7
  0
ARC
  5
37C
  8
0
  6
CONTINUOUS
 62
     7
 10
206.8542442604
 20
165.6672275099
 30
0.0
 40
6.782265801958555
 50
187.0881284272
 51
229.49243027
  0
POLYLINE
  5
37D
  8
0
  6
CONTINUOUS
 62
     7
 66
     1
 10
0.0
 20
0.0
 30
0.0
  0
VERTEX
  5
9DF
  8
0
  6
CONTINUOUS
 62
     7
 10
191.8313904162
 20
160.192322991
 30
0.0
  0
VERTEX
  5
9E0
  8
0
  6
CONTINUOUS
 62
     7
 10
197.7771399431
 20
160.3919335257
 30
0.0
  0
VERTEX
  5
9E1
  8
0
  6
CONTINUOUS
 62
     7
 10
202.4488336482
 20
160.5487739155
 30
0.0
  0
SEQEND
  5
9DE
  8
0
  6
CONTINUOUS
 62
     7
  0
POLYLINE
  5
37E
  8
0
  6
CONTINUOUS
 62
     7
 66
     1
 10
0.0
 20
0.0
 30
0.0
  0
VERTEX
  5
9E3
  8
0
  6
CONTINUOUS
 62
     7
 10
241.388018553
 20
205.5224335418
 30
0.0
  0
VERTEX
  5
9E4
  8
0
  6
CONTINUOUS
 62
     7
 10
241.6781262756
 20
205.4832940571
 30
0.0
  0
VERTEX
  5
9E5
  8
0
  6
CONTINUOUS
 62
     7
 10
241.782335926
 20
205.4691016226
 30
0.0
  0
SEQEND
  5
9E2
  8
0
  6
CONTINUOUS
 62
     7
  0
POLYLINE
  5
37F
  8
0
  6
CONTINUOUS
 62
     7
 66
     1
 10
0.0
 20
0.0
 30
0.0
  0
VERTEX
  5
9E7
  8
0
  6
CONTINUOUS
 62
     7
 10
240.2183104265
 20
205.6803065844
 30
0.0
  0
VERTEX
  5
9E8
  8
0
  6
CONTINUOUS
 62
     7
 10
240.8629757192
 20
205.5934026658
 30
0.0
  0
VERTEX
  5
9E9
  8
0
  6
CONTINUOUS
 62
     7
 10
241.388018553
 20
205.5224335418
 30
0.0
  0
SEQEND
  5
9E6
  8
0
  6
CONTINUOUS
 62
     7
  0
POLYLINE
  5
380
  8
0
  6
CONTINUOUS
 62
     7
 66
     1
 10
0.0
 20
0.0
 30
0.0
  0
VERTEX
  5
9EB
  8
0
  6
CONTINUOUS
 62
     7
 10
238.3023949688
 20
205.9351462589
 30
0.0
  0
VERTEX
  5
9EC
  8
0
  6
CONTINUOUS
 62
     7
 10
239.2776355074
 20
205.8060016106
 30
0.0
  0
VERTEX
  5
9ED
  8
0
  6
CONTINUOUS
 62
     7
 10
240.2183104265
 20
205.6803065844
 30
0.0
  0
SEQEND
  5
9EA
  8
0
  6
CONTINUOUS
 62
     7
  0
POLYLINE
  5
381
  8
0
  6
CONTINUOUS
 62
     7
 66
     1
 10
0.0
 20
0.0
 30
0.0
  0
VERTEX
  5
9EF
  8
0
  6
CONTINUOUS
 62
     7
 10
235.6973473873
 20
206.2710872936
 30
0.0
  0
VERTEX
  5
9F0
  8
0
  6
CONTINUOUS
 62
     7
 10
236.976287924
 20
206.1083219638
 30
0.0
  0
VERTEX
  5
9F1
  8
0
  6
CONTINUOUS
 62
     7
 10
238.3023949688
 20
205.9351462589
 30
0.0
  0
SEQEND
  5
9EE
  8
0
  6
CONTINUOUS
 62
     7
  0
ARC
  5
382
  8
0
  6
CONTINUOUS
 62
     7
 10
196.2540551707
 20
-107.5274102863
 30
0.0
 40
316.2677194787881
 50
82.835708955
 51
83.5137159735
  0
ARC
  5
383
  8
0
  6
CONTINUOUS
 62
     7
 10
288.7424309995
 20
80.2915960874
 30
0.0
 40
140.0750218920598
 50
113.4507683179
 51
115.3351960659
  0
POLYLINE
  5
384
  8
0
  6
CONTINUOUS
 62
     7
 66
     1
 10
0.0
 20
0.0
 30
0.0
  0
VERTEX
  5
9F3
  8
0
  6
CONTINUOUS
 62
     7
 10
242.5493247186
 20
203.6268988234
 30
0.0
  0
VERTEX
  5
9F4
  8
0
  6
CONTINUOUS
 62
     7
 10
242.0344604578
 20
203.6928119275
 30
0.0
  0
VERTEX
  5
9F5
  8
0
  6
CONTINUOUS
 62
     7
 10
241.3193724625
 20
203.7839416082
 30
0.0
  0
SEQEND
  5
9F2
  8
0
  6
CONTINUOUS
 62
     7
  0
POLYLINE
  5
385
  8
0
  6
CONTINUOUS
 62
     7
 66
     1
 10
0.0
 20
0.0
 30
0.0
  0
VERTEX
  5
9F7
  8
0
  6
CONTINUOUS
 62
     7
 10
242.9639234913
 20
203.5738714021
 30
0.0
  0
VERTEX
  5
9F8
  8
0
  6
CONTINUOUS
 62
     7
 10
242.8600122384
 20
203.5871426071
 30
0.0
  0
VERTEX
  5
9F9
  8
0
  6
CONTINUOUS
 62
     7
 10
242.5493247186
 20
203.6268988234
 30
0.0
  0
SEQEND
  5
9F6
  8
0
  6
CONTINUOUS
 62
     7
  0
POLYLINE
  5
386
  8
0
  6
CONTINUOUS
 62
     7
 66
     1
 10
0.0
 20
0.0
 30
0.0
  0
VERTEX
  5
9FB
  8
0
  6
CONTINUOUS
 62
     7
 10
236.5763177798
 20
204.3682214644
 30
0.0
  0
VERTEX
  5
9FC
  8
0
  6
CONTINUOUS
 62
     7
 10
234.7270968744
 20
204.5826481583
 30
0.0
  0
VERTEX
  5
9FD
  8
0
  6
CONTINUOUS
 62
     7
 10
232.6871926678
 20
204.8065315664
 30
0.0
  0
SEQEND
  5
9FA
  8
0
  6
CONTINUOUS
 62
     7
  0
POLYLINE
  5
387
  8
0
  6
CONTINUOUS
 62
     7
 66
     1
 10
0.0
 20
0.0
 30
0.0
  0
VERTEX
  5
9FF
  8
0
  6
CONTINUOUS
 62
     7
 10
239.3071816625
 20
204.0366827288
 30
0.0
  0
VERTEX
  5
A00
  8
0
  6
CONTINUOUS
 62
     7
 10
238.0270806553
 20
204.1940315776
 30
0.0
  0
VERTEX
  5
A01
  8
0
  6
CONTINUOUS
 62
     7
 10
236.5763177798
 20
204.3682214644
 30
0.0
  0
SEQEND
  5
9FE
  8
0
  6
CONTINUOUS
 62
     7
  0
POLYLINE
  5
388
  8
0
  6
CONTINUOUS
 62
     7
 66
     1
 10
0.0
 20
0.0
 30
0.0
  0
VERTEX
  5
A03
  8
0
  6
CONTINUOUS
 62
     7
 10
241.3193724625
 20
203.7839416082
 30
0.0
  0
VERTEX
  5
A04
  8
0
  6
CONTINUOUS
 62
     7
 10
240.4076184161
 20
203.8992120442
 30
0.0
  0
VERTEX
  5
A05
  8
0
  6
CONTINUOUS
 62
     7
 10
239.3071816625
 20
204.0366827288
 30
0.0
  0
SEQEND
  5
A02
  8
0
  6
CONTINUOUS
 62
     7
  0
ARC
  5
389
  8
0
  6
CONTINUOUS
 62
     7
 10
233.8360037334
 20
210.8623380877
 30
0.0
 40
2.231091507108051
 50
178.8259096871
 51
247.9396731148
  0
ARC
  5
38A
  8
0
  6
CONTINUOUS
 62
     7
 10
234.37131589
 20
204.5290095252
 30
0.0
 40
2.210856425631044
 50
355.8293909988
 51
53.1457302305
  0
ARC
  5
38B
  8
0
  6
CONTINUOUS
 62
     7
 10
229.303899728
 20
228.7367184948
 30
0.0
 40
2.002715309530757
 50
359.8703401228
 51
56.529855695
  0
ARC
  5
38C
  8
0
  6
CONTINUOUS
 62
     7
 10
237.1374758148
 20
204.1177257831
 30
0.0
 40
2.171218883929964
 50
357.8608771737
 51
57.5524219503
  0
LINE
  5
38D
  8
0
  6
CONTINUOUS
 62
     7
 10
191.8313904308
 20
157.8653427433
 30
0.0
 11
211.9666193035
 21
158.5684804294
 31
0.0
  0
ARC
  5
38E
  8
0
  6
CONTINUOUS
 62
     7
 10
239.1516316591
 20
203.7991317914
 30
0.0
 40
2.167794024364688
 50
359.5985132808
 51
60.5241114009
  0
POLYLINE
  5
38F
  8
0
  6
CONTINUOUS
 62
     7
 66
     1
 10
0.0
 20
0.0
 30
0.0
  0
VERTEX
  5
A07
  8
0
  6
CONTINUOUS
 62
     7
 10
204.7015199713
 20
159.5679939755
 30
0.0
  0
VERTEX
  5
A08
  8
0
  6
CONTINUOUS
 62
     7
 10
205.6133325434
 20
159.1857694844
 30
0.0
  0
VERTEX
  5
A09
  8
0
  6
CONTINUOUS
 62
     7
 10
206.6831220106
 20
158.9114468439
 30
0.0
  0
VERTEX
  5
A0A
  8
0
  6
CONTINUOUS
 62
     7
 10
207.8543183503
 20
158.7162587752
 30
0.0
  0
VERTEX
  5
A0B
  8
0
  6
CONTINUOUS
 62
     7
 10
209.7625261203
 20
158.558375621
 30
0.0
  0
VERTEX
  5
A0C
  8
0
  6
CONTINUOUS
 62
     7
 10
210.8233172514
 20
158.5441804433
 30
0.0
  0
VERTEX
  5
A0D
  8
0
  6
CONTINUOUS
 62
     7
 10
211.3899563907
 20
158.5522221929
 30
0.0
  0
VERTEX
  5
A0E
  8
0
  6
CONTINUOUS
 62
     7
 10
211.6805543899
 20
158.5594827462
 30
0.0
  0
VERTEX
  5
A0F
  8
0
  6
CONTINUOUS
 62
     7
 10
211.8272872762
 20
158.5638749769
 30
0.0
  0
VERTEX
  5
A10
  8
0
  6
CONTINUOUS
 62
     7
 10
211.9007414083
 20
158.5662500208
 30
0.0
  0
VERTEX
  5
A11
  8
0
  6
CONTINUOUS
 62
     7
 10
211.9372614829
 20
158.5674746837
 30
0.0
  0
VERTEX
  5
A12
  8
0
  6
CONTINUOUS
 62
     7
 10
211.9552484011
 20
158.5680888738
 30
0.0
  0
VERTEX
  5
A13
  8
0
  6
CONTINUOUS
 62
     7
 10
211.9640431207
 20
158.5683920757
 30
0.0
  0
VERTEX
  5
A14
  8
0
  6
CONTINUOUS
 62
     7
 10
211.968285621
 20
158.5685390952
 30
0.0
  0
VERTEX
  5
A15
  8
0
  6
CONTINUOUS
 62
     7
 10
211.970294764
 20
158.5686089219
 30
0.0
  0
VERTEX
  5
A16
  8
0
  6
CONTINUOUS
 62
     7
 10
211.9712202153
 20
158.5686411391
 30
0.0
  0
VERTEX
  5
A17
  8
0
  6
CONTINUOUS
 62
     7
 10
211.9716561562
 20
158.5686563323
 30
0.0
  0
VERTEX
  5
A18
  8
0
  6
CONTINUOUS
 62
     7
 10
211.9718009596
 20
158.5686613801
 30
0.0
  0
VERTEX
  5
A19
  8
0
  6
CONTINUOUS
 62
     7
 10
211.9718560498
 20
158.5686633007
 30
0.0
  0
SEQEND
  5
A06
  8
0
  6
CONTINUOUS
 62
     7
  0
ARC
  5
390
  8
0
  6
CONTINUOUS
 62
     7
 10
136.8031063426
 20
273.3152970068
 30
0.0
 40
137.1757126020705
 50
303.2281444959
 51
304.5388454517
  0
ARC
  5
391
  8
0
  6
CONTINUOUS
 62
     7
 10
229.9813902041
 20
228.7298040039
 30
0.0
 40
2.000000000869704
 50
360.0
 51
56.7455338936
  0
ARC
  5
392
  8
0
  6
CONTINUOUS
 62
     7
 10
240.3744100106
 20
203.5986726975
 30
0.0
 40
2.17509786014181
 50
0.7435450637
 51
62.2246561814
  0
LINE
  5
393
  8
0
  6
CONTINUOUS
 62
     7
 10
185.231390419
 20
206.8154047333
 30
0.0
 11
185.231390419
 21
211.0154047333
 31
0.0
  0
POLYLINE
  5
394
  8
0
  6
CONTINUOUS
 62
     7
 66
     1
 10
0.0
 20
0.0
 30
0.0
  0
VERTEX
  5
A1B
  8
0
  6
CONTINUOUS
 62
     7
 10
229.5413934887
 20
186.83855084
 30
0.0
  0
VERTEX
  5
A1C
  8
0
  6
CONTINUOUS
 62
     7
 10
231.3050144524
 20
186.7769638375
 30
0.0
  0
VERTEX
  5
A1D
  8
0
  6
CONTINUOUS
 62
     7
 10
232.9674338778
 20
186.7189108679
 30
0.0
  0
VERTEX
  5
A1E
  8
0
  6
CONTINUOUS
 62
     7
 10
234.5191325287
 20
186.6647243502
 30
0.0
  0
VERTEX
  5
A1F
  8
0
  6
CONTINUOUS
 62
     7
 10
235.9512251709
 20
186.6147145638
 30
0.0
  0
VERTEX
  5
A20
  8
0
  6
CONTINUOUS
 62
     7
 10
237.25551145
 20
186.5691678713
 30
0.0
  0
VERTEX
  5
A21
  8
0
  6
CONTINUOUS
 62
     7
 10
238.4245228482
 20
186.5283450793
 30
0.0
  0
VERTEX
  5
A22
  8
0
  6
CONTINUOUS
 62
     7
 10
239.4515654497
 20
186.4924799444
 30
0.0
  0
VERTEX
  5
A23
  8
0
  6
CONTINUOUS
 62
     7
 10
240.3307582709
 20
186.4617778353
 30
0.0
  0
VERTEX
  5
A24
  8
0
  6
CONTINUOUS
 62
     7
 10
241.0570669359
 20
186.4364145563
 30
0.0
  0
VERTEX
  5
A25
  8
0
  6
CONTINUOUS
 62
     7
 10
241.6263325042
 20
186.4165353411
 30
0.0
  0
VERTEX
  5
A26
  8
0
  6
CONTINUOUS
 62
     7
 10
242.0352952849
 20
186.4022540205
 30
0.0
  0
VERTEX
  5
A27
  8
0
  6
CONTINUOUS
 62
     7
 10
242.2816135022
 20
186.3936523714
 30
0.0
  0
VERTEX
  5
A28
  8
0
  6
CONTINUOUS
 62
     7
 10
242.363876705
 20
186.390779648
 30
0.0
  0
SEQEND
  5
A1A
  8
0
  6
CONTINUOUS
 62
     7
  0
POLYLINE
  5
395
  8
0
  6
CONTINUOUS
 62
     7
 66
     1
 10
0.0
 20
0.0
 30
0.0
  0
VERTEX
  5
A2A
  8
0
  6
CONTINUOUS
 62
     7
 10
214.5769134736
 20
160.3179030003
 30
0.0
  0
VERTEX
  5
A2B
  8
0
  6
CONTINUOUS
 62
     7
 10
214.6086258641
 20
159.4097428946
 30
0.0
  0
VERTEX
  5
A2C
  8
0
  6
CONTINUOUS
 62
     7
 10
214.6281530531
 20
158.8505198533
 30
0.0
  0
VERTEX
  5
A2D
  8
0
  6
CONTINUOUS
 62
     7
 10
214.6347377604
 20
158.6619210276
 30
0.0
  0
SEQEND
  5
A29
  8
0
  6
CONTINUOUS
 62
     7
  0
POLYLINE
  5
396
  8
0
  6
CONTINUOUS
 62
     7
 66
     1
 10
0.0
 20
0.0
 30
0.0
  0
VERTEX
  5
A2F
  8
0
  6
CONTINUOUS
 62
     7
 10
211.554205777
 20
158.5691473467
 30
0.0
  0
VERTEX
  5
A30
  8
0
  6
CONTINUOUS
 62
     7
 10
208.9548689354
 20
158.5721599124
 30
0.0
  0
VERTEX
  5
A31
  8
0
  6
CONTINUOUS
 62
     7
 10
206.3756867988
 20
158.8505796374
 30
0.0
  0
VERTEX
  5
A32
  8
0
  6
CONTINUOUS
 62
     7
 10
204.2666371545
 20
159.458015314
 30
0.0
  0
SEQEND
  5
A2E
  8
0
  6
CONTINUOUS
 62
     7
  0
DIMENSION
  5
397
  8
COTATION
  2
*D3
 10
242.9762290991
 20
247.3530297526
 30
0.0
 11
216.9038097591
 21
247.3530297526
 31
0.0
 70
   160
  3
SLDDIMSTYLE0
 13
190.831390419
 23
222.8779496683
 33
0.0
 14
242.9762290991
 24
207.261031153
 34
0.0
1001
ACAD
1000
DSTYLE
1002
{
1070
   143
1040
0.0393700787
1070
    41
1040
3.81
1070
    44
1040
1.0
1070
    42
1040
0.0
1070
   147
1040
1.524
1070
    73
1070
     1
1070
    74
1070
     1
1070
   140
1040
3.2
1070
   284
1070
    12
1070
    78
1070
    12
1002
}
  0
DIMENSION
  5
3AA
  8
COTATION
  2
*D4
 10
161.6420446091
 20
157.8653427313
 30
0.0
 11
161.6420445937
 21
197.8067103151
 31
0.0
 70
   160
  1
<> mm
  3
SLDDIMSTYLE0
 13
191.8313901082
 23
237.7480779105
 33
0.0
 14
191.8313901389
 24
157.8653427429
 34
0.0
 50
-89.9999999779
1001
ACAD
1000
DSTYLE
1002
{
1070
   143
1040
0.0393700787
1070
    41
1040
3.81
1070
    44
1040
1.0
1070
    42
1040
0.0
1070
   147
1040
1.524
1070
    73
1070
     1
1070
    74
1070
     1
1070
   140
1040
3.2
1070
   284
1070
    12
1070
    78
1070
    12
1002
}
  0
DIMENSION
  5
3BF
  8
COTATION
  2
*D5
 10
170.109705079
 20
157.8653427429
 30
0.0
 11
170.109705079
 21
183.3903737381
 31
0.0
 70
   160
  3
SLDDIMSTYLE0
 13
183.231390419
 23
208.9154047333
 33
0.0
 14
191.8313901389
 24
157.8653427429
 34
0.0
 50
90.0
1001
ACAD
1000
DSTYLE
1002
{
1070
   143
1040
0.0393700787
1070
    41
1040
3.81
1070
    44
1040
1.0
1070
    42
1040
0.0
1070
   147
1040
1.524
1070
    73
1070
     1
1070
    74
1070
     1
1070
   140
1040
3.2
1070
   284
1070
    12
1070
    78
1070
    12
1002
}
  0
LINE
  5
3D3
  8
PV
  6
CENTERX2
 62
     7
 10
189.831390419
 20
218.3154080665
 30
0.0
 11
199.031390419
 21
218.3154080665
 31
0.0
  0
LINE
  5
3D4
  8
PV
  6
CENTERX2
 62
     7
 10
183.231390419
 20
208.9154047333
 30
0.0
 11
196.831390419
 21
208.9154047333
 31
0.0
  0
POLYLINE
  5
3D5
  8
0
  6
CONTINUOUS
 62
     7
 66
     1
 10
0.0
 20
0.0
 30
0.0
  0
VERTEX
  5
A34
  8
0
  6
CONTINUOUS
 62
     7
 10
386.0434827839
 20
229.2978387438
 30
0.0
  0
VERTEX
  5
A35
  8
0
  6
CONTINUOUS
 62
     7
 10
386.0219170784
 20
229.3282780908
 30
0.0
  0
VERTEX
  5
A36
  8
0
  6
CONTINUOUS
 62
     7
 10
385.9144536291
 20
229.4663187228
 30
0.0
  0
VERTEX
  5
A37
  8
0
  6
CONTINUOUS
 62
     7
 10
385.857538644
 20
229.5330051444
 30
0.0
  0
VERTEX
  5
A38
  8
0
  6
CONTINUOUS
 62
     7
 10
385.8285074567
 20
229.5653332136
 30
0.0
  0
VERTEX
  5
A39
  8
0
  6
CONTINUOUS
 62
     7
 10
385.8054106568
 20
229.5704666637
 30
0.0
  0
VERTEX
  5
A3A
  8
0
  6
CONTINUOUS
 62
     7
 10
385.792208228
 20
229.5707050823
 30
0.0
  0
VERTEX
  5
A3B
  8
0
  6
CONTINUOUS
 62
     7
 10
385.7865308856
 20
229.571908351
 30
0.0
  0
VERTEX
  5
A3C
  8
0
  6
CONTINUOUS
 62
     7
 10
385.7840796446
 20
229.5729812346
 30
0.0
  0
VERTEX
  5
A3D
  8
0
  6
CONTINUOUS
 62
     7
 10
385.7819413279
 20
229.5744378231
 30
0.0
  0
SEQEND
  5
A33
  8
0
  6
CONTINUOUS
 62
     7
  0
ARC
  5
3D6
  8
0
  6
CONTINUOUS
 62
     7
 10
326.1210483943
 20
218.3154080666
 30
0.0
 40
56.55082288911667
 50
191.9903128116
 51
193.4177208163
  0
LINE
  5
3D7
  8
0
  6
CONTINUOUS
 62
     7
 10
270.8040078615
 20
206.5671827756
 30
0.0
 11
278.1310466563
 21
206.5671827756
 31
0.0
  0
ARC
  5
3D8
  8
0
  6
CONTINUOUS
 62
     7
 10
278.1310483943
 20
208.9154047333
 30
0.0
 40
2.348221402555623
 50
270.0
 51
0.0
  0
ARC
  5
3D9
  8
0
  6
CONTINUOUS
 62
     7
 10
278.1310483943
 20
208.9154047333
 30
0.0
 40
2.348221402553918
 50
0.0
 51
90.0
  0
LINE
  5
3DA
  8
0
  6
CONTINUOUS
 62
     7
 10
270.0116199886
 20
211.2636264525
 30
0.0
 11
278.1310466563
 21
211.2636264525
 31
0.0
  0
ARC
  5
3DB
  8
0
  6
CONTINUOUS
 62
     7
 10
326.1210483943
 20
218.3154080666
 30
0.0
 40
56.55082288911359
 50
185.7619560198
 51
187.1633235779
  0
LINE
  5
3DC
  8
0
  6
CONTINUOUS
 62
     7
 10
278.1310466563
 20
212.6379493736
 30
0.0
 11
269.8559438323
 21
212.6379493736
 31
0.0
  0
ARC
  5
3DD
  8
0
  6
CONTINUOUS
 62
     7
 10
278.1310483943
 20
208.9154047333
 30
0.0
 40
3.722544935070289
 50
0.0
 51
90.0
  0
ARC
  5
3DE
  8
0
  6
CONTINUOUS
 62
     7
 10
278.1310483943
 20
208.9154047333
 30
0.0
 40
3.722544935072648
 50
270.0000000001
 51
0.0
  0
LINE
  5
3DF
  8
0
  6
CONTINUOUS
 62
     7
 10
271.1138290798
 20
205.1928598545
 30
0.0
 11
278.1310466563
 21
205.1928598545
 31
0.0
  0
LINE
  5
3E0
  8
0
  6
CONTINUOUS
 62
     7
 10
270.931993935
 20
206.637004029
 30
0.0
 11
278.1310466563
 21
206.637004029
 31
0.0
  0
LINE
  5
3E1
  8
0
  6
CONTINUOUS
 62
     7
 10
278.1310466563
 20
206.5671827756
 30
0.0
 11
278.1310466563
 21
206.637004029
 31
0.0
  0
LINE
  5
3E2
  8
0
  6
CONTINUOUS
 62
     7
 10
270.8040078615
 20
206.5671827756
 30
0.0
 11
270.931993935
 21
206.637004029
 31
0.0
  0
ARC
  5
3E3
  8
0
  6
CONTINUOUS
 62
     7
 10
302.1056339586
 20
232.4068101941
 30
0.0
 40
0.6500000000045343
 50
186.0000000041
 51
276.0000000002
  0
LINE
  5
3E4
  8
0
  6
CONTINUOUS
 62
     7
 10
301.4591944848
 20
232.3388677202
 30
0.0
 11
301.4765543376
 21
232.3406893872
 31
0.0
  0
ARC
  5
3E5
  8
0
  6
CONTINUOUS
 62
     7
 10
302.1056339586
 20
232.4068101941
 30
0.0
 40
0.6325449350902407
 50
186.0000000067
 51
275.9999999999
  0
LINE
  5
3E6
  8
0
  6
CONTINUOUS
 62
     7
 10
302.171753112
 20
231.7777309678
 30
0.0
 11
302.1735766416
 21
231.760371115
 31
0.0
  0
ARC
  5
3E7
  8
0
  6
CONTINUOUS
 62
     7
 10
302.1056339586
 20
232.4068101941
 30
0.0
 40
0.6325449350821732
 50
95.9999999999
 51
185.9999999998
  0
ARC
  5
3E8
  8
0
  6
CONTINUOUS
 62
     7
 10
326.1210483942
 20
3.9154047348
 30
0.0
 40
230.3825449335143
 50
93.0
 51
96.0
  0
ARC
  5
3E9
  8
0
  6
CONTINUOUS
 62
     7
 10
314.0968624475
 20
233.3505403431
 30
0.0
 40
0.6325449350695317
 50
2.9999999997
 51
93.0000000003
  0
ARC
  5
3EA
  8
0
  6
CONTINUOUS
 62
     7
 10
314.0968624475
 20
233.3505403431
 30
0.0
 40
0.6325449350829265
 50
272.9999999998
 51
3.000000022
  0
ARC
  5
3EB
  8
0
  6
CONTINUOUS
 62
     7
 10
326.1210483941
 20
3.9154047365
 30
0.0
 40
229.1174550616709
 50
93.0
 51
96.0
  0
ARC
  5
3EC
  8
0
  6
CONTINUOUS
 62
     7
 10
326.1210483941
 20
3.9154047365
 30
0.0
 40
229.0999999967577
 50
93.0
 51
96.0
  0
LINE
  5
3ED
  8
0
  6
CONTINUOUS
 62
     7
 10
314.1308811938
 20
232.7014315985
 30
0.0
 11
314.1299675663
 21
232.7188622318
 31
0.0
  0
ARC
  5
3EE
  8
0
  6
CONTINUOUS
 62
     7
 10
314.0968624475
 20
233.3505403431
 30
0.0
 40
0.6499999999998409
 50
273.0000000004
 51
3.0000000118
  0
LINE
  5
3EF
  8
0
  6
CONTINUOUS
 62
     7
 10
314.7285406922
 20
233.3836440109
 30
0.0
 11
314.7459713255
 21
233.3845604323
 31
0.0
  0
LINE
  5
3F0
  8
0
  6
CONTINUOUS
 62
     7
 10
278.1310466563
 20
211.1938051991
 30
0.0
 11
278.1310466563
 21
211.2636264525
 31
0.0
  0
LINE
  5
3F1
  8
0
  6
CONTINUOUS
 62
     7
 10
278.1310466563
 20
211.1938051991
 30
0.0
 11
270.1612462734
 21
211.1938051991
 31
0.0
  0
LINE
  5
3F2
  8
0
  6
CONTINUOUS
 62
     7
 10
270.1612462734
 20
211.1938051991
 30
0.0
 11
270.0116199886
 21
211.2636264525
 31
0.0
  0
LINE
  5
3F3
  8
0
  6
CONTINUOUS
 62
     7
 10
269.8892814552
 20
212.6554042212
 30
0.0
 11
278.1310466563
 21
212.6554042212
 31
0.0
  0
LINE
  5
3F4
  8
0
  6
CONTINUOUS
 62
     7
 10
278.1310466563
 20
212.6379493736
 30
0.0
 11
278.1310466563
 21
212.6554042212
 31
0.0
  0
LINE
  5
3F5
  8
0
  6
CONTINUOUS
 62
     7
 10
269.8559438323
 20
212.6379493736
 30
0.0
 11
269.8892814552
 21
212.6554042212
 31
0.0
  0
LINE
  5
3F6
  8
0
  6
CONTINUOUS
 62
     7
 10
278.1310466563
 20
205.1754050068
 30
0.0
 11
278.1310466563
 21
205.1928598545
 31
0.0
  0
LINE
  5
3F7
  8
0
  6
CONTINUOUS
 62
     7
 10
271.1538983022
 20
205.1754050068
 30
0.0
 11
278.1310466563
 21
205.1754050068
 31
0.0
  0
LINE
  5
3F8
  8
0
  6
CONTINUOUS
 62
     7
 10
271.1538983022
 20
205.1754050068
 30
0.0
 11
271.1138290798
 21
205.1928598545
 31
0.0
  0
ARC
  5
3F9
  8
0
  6
CONTINUOUS
 62
     7
 10
278.1310483943
 20
208.9154047333
 30
0.0
 40
3.740000000000975
 50
270.0
 51
0.0
  0
LINE
  5
3FA
  8
0
  6
CONTINUOUS
 62
     7
 10
281.8710481261
 20
208.915404614
 30
0.0
 11
281.8535951411
 21
208.915404614
 31
0.0
  0
LINE
  5
3FB
  8
0
  6
CONTINUOUS
 62
     7
 10
280.4792684947
 20
208.915404614
 30
0.0
 11
280.409449104
 21
208.915404614
 31
0.0
  0
ARC
  5
3FC
  8
0
  6
CONTINUOUS
 62
     7
 10
278.1310483943
 20
208.9154047333
 30
0.0
 40
2.278401142844331
 50
270.0
 51
0.0
  0
ARC
  5
3FD
  8
0
  6
CONTINUOUS
 62
     7
 10
278.1310483943
 20
208.9154047333
 30
0.0
 40
2.278401142844274
 50
0.0
 51
90.0
  0
ARC
  5
3FE
  8
0
  6
CONTINUOUS
 62
     7
 10
278.1310483943
 20
208.9154047333
 30
0.0
 40
3.74000000000126
 50
0.0
 51
90.0
  0
ARC
  5
3FF
  8
0
  6
CONTINUOUS
 62
     7
 10
345.0826451403
 20
166.2188491702
 30
0.0
 40
0.7325449350737009
 50
110.0000000001
 51
200.0
  0
LINE
  5
400
  8
0
  6
CONTINUOUS
 62
     7
 10
344.3778765832
 20
165.9623343609
 30
0.0
 11
344.3942771738
 21
165.9683041386
 31
0.0
  0
ARC
  5
401
  8
0
  6
CONTINUOUS
 62
     7
 10
345.0826451403
 20
166.2188491702
 30
0.0
 40
0.7499999999967101
 50
110.0000000001
 51
200.0000000022
  0
LINE
  5
402
  8
0
  6
CONTINUOUS
 62
     7
 10
344.8320993667
 20
166.9072169922
 30
0.0
 11
344.826129589
 21
166.9236194454
 31
0.0
  0
ARC
  5
403
  8
0
  6
CONTINUOUS
 62
     7
 10
326.1210483943
 20
218.3154080666
 30
0.0
 40
54.70745506497344
 50
290.0
 51
304.0
  0
ARC
  5
404
  8
0
  6
CONTINUOUS
 62
     7
 10
357.1227029628
 20
172.3535650441
 30
0.0
 40
0.7325449350723147
 50
34.0000000002
 51
124.0000000003
  0
ARC
  5
405
  8
0
  6
CONTINUOUS
 62
     7
 10
357.1227029628
 20
172.3535650441
 30
0.0
 40
0.7325449350690756
 50
303.9999999998
 51
33.9999999996
  0
ARC
  5
406
  8
0
  6
CONTINUOUS
 62
     7
 10
326.1210483945
 20
218.3154080662
 30
0.0
 40
56.17254493465367
 50
290.0
 51
304.0000000001
  0
ARC
  5
407
  8
0
  6
CONTINUOUS
 62
     7
 10
345.0826451403
 20
166.2188491702
 30
0.0
 40
0.7325449350782635
 50
200.0000000024
 51
289.9999999999
  0
ARC
  5
408
  8
0
  6
CONTINUOUS
 62
     7
 10
326.1210483943
 20
218.3154080666
 30
0.0
 40
54.69000000004466
 50
290.0
 51
304.0
  0
LINE
  5
409
  8
0
  6
CONTINUOUS
 62
     7
 10
356.7130689954
 20
172.9608724005
 30
0.0
 11
356.7033087348
 21
172.9753432907
 31
0.0
  0
ARC
  5
40A
  8
0
  6
CONTINUOUS
 62
     7
 10
307.1594516484
 20
166.2188491702
 30
0.0
 40
0.7325449350703366
 50
339.9999999996
 51
69.9999999997
  0
ARC
  5
40B
  8
0
  6
CONTINUOUS
 62
     7
 10
307.1594516484
 20
166.2188491702
 30
0.0
 40
0.7325449350782297
 50
250.0
 51
339.9999999964
  0
ARC
  5
40C
  8
0
  6
CONTINUOUS
 62
     7
 10
326.1210483945
 20
218.3154080669
 30
0.0
 40
56.17254493545273
 50
236.0000000001
 51
250.0
  0
ARC
  5
40D
  8
0
  6
CONTINUOUS
 62
     7
 10
295.1193938259
 20
172.3535650441
 30
0.0
 40
0.7325449350747644
 50
145.9999999994
 51
236.0000000002
  0
ARC
  5
40E
  8
0
  6
CONTINUOUS
 62
     7
 10
295.1193938259
 20
172.3535650441
 30
0.0
 40
0.7325449350741303
 50
55.9999999996
 51
145.9999999997
  0
ARC
  5
40F
  8
0
  6
CONTINUOUS
 62
     7
 10
326.1210483944
 20
218.3154080666
 30
0.0
 40
54.70745506497102
 50
236.0
 51
250.0
  0
LINE
  5
410
  8
0
  6
CONTINUOUS
 62
     7
 10
295.5290277933
 20
172.9608724005
 30
0.0
 11
295.5387880539
 21
172.9753432907
 31
0.0
  0
LINE
  5
411
  8
0
  6
CONTINUOUS
 62
     7
 10
294.5120868718
 20
172.7631991841
 30
0.0
 11
294.4976141189
 21
172.7729594447
 31
0.0
  0
ARC
  5
412
  8
0
  6
CONTINUOUS
 62
     7
 10
295.1193938259
 20
172.3535650441
 30
0.0
 40
0.7500000000034861
 50
56.0000000003
 51
145.9999999999
  0
ARC
  5
413
  8
0
  6
CONTINUOUS
 62
     7
 10
326.1210483944
 20
218.3154080666
 30
0.0
 40
54.69000000004227
 50
236.0
 51
250.0
  0
LINE
  5
414
  8
0
  6
CONTINUOUS
 62
     7
 10
307.409997422
 20
166.9072169922
 30
0.0
 11
307.4159671997
 21
166.9236194454
 31
0.0
  0
LINE
  5
415
  8
0
  6
CONTINUOUS
 62
     7
 10
294.699997965
 20
171.731786441
 30
0.0
 11
294.7097582256
 21
171.7462573312
 31
0.0
  0
ARC
  5
416
  8
0
  6
CONTINUOUS
 62
     7
 10
295.1193938259
 20
172.3535650441
 30
0.0
 40
0.7500000000072995
 50
145.9999999993
 51
236.0000000001
  0
ARC
  5
417
  8
0
  6
CONTINUOUS
 62
     7
 10
307.1594516484
 20
166.2188491702
 30
0.0
 40
0.7499999999990873
 50
339.9999999992
 51
69.9999999999
  0
LINE
  5
418
  8
0
  6
CONTINUOUS
 62
     7
 10
307.8642202054
 20
165.9623343609
 30
0.0
 11
307.8478196149
 21
165.9683041386
 31
0.0
  0
LINE
  5
419
  8
0
  6
CONTINUOUS
 62
     7
 10
302.7417132144
 20
183.192997111
 30
0.0
 11
302.7589017038
 21
183.1960281003
 31
0.0
  0
ARC
  5
41A
  8
0
  6
CONTINUOUS
 62
     7
 10
305.2037317203
 20
183.6271174396
 30
0.0
 40
2.500000000002963
 50
100.0
 51
190.0
  0
LINE
  5
41B
  8
0
  6
CONTINUOUS
 62
     7
 10
304.7726427649
 20
186.0719469138
 30
0.0
 11
304.7696103786
 21
186.0891368002
 31
0.0
  0
ARC
  5
41C
  8
0
  6
CONTINUOUS
 62
     7
 10
305.2037317203
 20
183.6271174396
 30
0.0
 40
2.482544935065185
 50
99.9999999998
 51
190.0000000001
  0
ARC
  5
41D
  8
0
  6
CONTINUOUS
 62
     7
 10
305.2037317204
 20
183.6271174396
 30
0.0
 40
2.482544935071228
 50
280.0
 51
10.0000000007
  0
ARC
  5
41E
  8
0
  6
CONTINUOUS
 62
     7
 10
305.2037317204
 20
183.6271174396
 30
0.0
 40
2.482544935073125
 50
190.0000000008
 51
280.0
  0
ARC
  5
41F
  8
0
  6
CONTINUOUS
 62
     7
 10
305.2037317204
 20
183.6271174396
 30
0.0
 40
2.482544935068158
 50
10.0000000001
 51
99.9999999999
  0
LINE
  5
420
  8
0
  6
CONTINUOUS
 62
     7
 10
305.6378526126
 20
181.1650978513
 30
0.0
 11
305.6348202263
 21
181.1822877377
 31
0.0
  0
ARC
  5
421
  8
0
  6
CONTINUOUS
 62
     7
 10
305.2037317204
 20
183.6271174396
 30
0.0
 40
2.500000000007058
 50
190.0000000002
 51
280.0
  0
ARC
  5
422
  8
0
  6
CONTINUOUS
 62
     7
 10
357.1227029628
 20
172.3535650441
 30
0.0
 40
0.7500000000049141
 50
34.0000000005
 51
124.0
  0
LINE
  5
423
  8
0
  6
CONTINUOUS
 62
     7
 10
357.7444826697
 20
172.7729594447
 30
0.0
 11
357.7300099169
 21
172.7631991841
 31
0.0
  0
ARC
  5
424
  8
0
  6
CONTINUOUS
 62
     7
 10
305.2037317204
 20
183.6271174396
 30
0.0
 40
2.500000000006649
 50
10.0000000002
 51
100.0
  0
LINE
  5
425
  8
0
  6
CONTINUOUS
 62
     7
 10
307.6485612874
 20
184.0582069587
 30
0.0
 11
307.6657516395
 21
184.061237948
 31
0.0
  0
ARC
  5
426
  8
0
  6
CONTINUOUS
 62
     7
 10
305.2037317204
 20
183.6271174396
 30
0.0
 40
2.500000000005151
 50
279.9999999999
 51
10.0000000002
  0
LINE
  5
427
  8
0
  6
CONTINUOUS
 62
     7
 10
306.9029369836
 20
165.5140794925
 30
0.0
 11
306.9089067613
 21
165.5304819457
 31
0.0
  0
ARC
  5
428
  8
0
  6
CONTINUOUS
 62
     7
 10
326.1210483945
 20
218.3154080669
 30
0.0
 40
56.19000000038643
 50
236.0000000001
 51
250.0
  0
LINE
  5
429
  8
0
  6
CONTINUOUS
 62
     7
 10
302.03769109
 20
233.0532480143
 30
0.0
 11
302.0395146196
 21
233.0358881615
 31
0.0
  0
ARC
  5
42A
  8
0
  6
CONTINUOUS
 62
     7
 10
302.1056339586
 20
232.4068101941
 30
0.0
 40
0.6499999999997056
 50
96.0000000001
 51
186.0000000001
  0
ARC
  5
42B
  8
0
  6
CONTINUOUS
 62
     7
 10
326.1210483943
 20
208.5554047333
 30
0.0
 40
2.482544935068972
 50
180.0
 51
270.0
  0
LINE
  5
42C
  8
0
  6
CONTINUOUS
 62
     7
 10
326.1210483943
 20
206.0728591047
 30
0.0
 11
326.1210483943
 21
206.055404257
 31
0.0
  0
ARC
  5
42D
  8
0
  6
CONTINUOUS
 62
     7
 10
326.1210483943
 20
208.5554047333
 30
0.0
 40
2.500000000005372
 50
180.0
 51
270.0
  0
LINE
  5
42E
  8
0
  6
CONTINUOUS
 62
     7
 10
323.6385035307
 20
208.5554055981
 30
0.0
 11
323.6210484502
 21
208.5554055981
 31
0.0
  0
LINE
  5
42F
  8
0
  6
CONTINUOUS
 62
     7
 10
326.1210483943
 20
211.0554050766
 30
0.0
 11
326.1210483943
 21
211.0379502289
 31
0.0
  0
ARC
  5
430
  8
0
  6
CONTINUOUS
 62
     7
 10
326.1210483943
 20
208.5554047333
 30
0.0
 40
2.482544935068972
 50
90.0
 51
180.0
  0
ARC
  5
431
  8
0
  6
CONTINUOUS
 62
     7
 10
326.1210483943
 20
208.5554047333
 30
0.0
 40
2.5000000000054
 50
90.0
 51
180.0
  0
ARC
  5
432
  8
0
  6
CONTINUOUS
 62
     7
 10
326.1210483943
 20
208.5554047333
 30
0.0
 40
2.482544935069086
 50
0.0
 51
90.0
  0
ARC
  5
433
  8
0
  6
CONTINUOUS
 62
     7
 10
326.1210483943
 20
208.5554047333
 30
0.0
 40
2.482544935069029
 50
270.0
 51
0.0
  0
ARC
  5
434
  8
0
  6
CONTINUOUS
 62
     7
 10
307.1594516484
 20
166.2188491702
 30
0.0
 40
0.7500000000119275
 50
249.9999999999
 51
339.9999999951
  0
LINE
  5
435
  8
0
  6
CONTINUOUS
 62
     7
 10
328.6210483385
 20
208.5554055981
 30
0.0
 11
328.6035932579
 21
208.5554055981
 31
0.0
  0
ARC
  5
436
  8
0
  6
CONTINUOUS
 62
     7
 10
326.1210483943
 20
208.5554047333
 30
0.0
 40
2.500000000004349
 50
270.0
 51
0.0
  0
ARC
  5
437
  8
0
  6
CONTINUOUS
 62
     7
 10
326.1210483943
 20
208.5554047333
 30
0.0
 40
2.5000000000054
 50
0.0
 51
90.0
  0
ARC
  5
438
  8
0
  6
CONTINUOUS
 62
     7
 10
326.1210483942
 20
3.9154047348
 30
0.0
 40
230.3999999984231
 50
93.0
 51
96.0
  0
LINE
  5
439
  8
0
  6
CONTINUOUS
 62
     7
 10
314.0637579818
 20
233.9822199307
 30
0.0
 11
314.0628443544
 21
233.999650564
 31
0.0
  0
ARC
  5
43A
  8
0
  6
CONTINUOUS
 62
     7
 10
314.0968624475
 20
233.3505403431
 30
0.0
 40
0.6499999999924587
 50
3.0000000003
 51
92.9999999994
  0
LINE
  5
43B
  8
0
  6
CONTINUOUS
 62
     7
 10
338.1792524343
 20
233.999650564
 30
0.0
 11
338.1783388068
 21
233.9822199307
 31
0.0
  0
ARC
  5
43C
  8
0
  6
CONTINUOUS
 62
     7
 10
338.1452343412
 20
233.3505403431
 30
0.0
 40
0.6325449350883342
 50
87.0000000002
 51
176.9999999673
  0
LINE
  5
43D
  8
0
  6
CONTINUOUS
 62
     7
 10
337.4961254631
 20
233.3845604323
 30
0.0
 11
337.5135560964
 21
233.3836440109
 31
0.0
  0
ARC
  5
43E
  8
0
  6
CONTINUOUS
 62
     7
 10
338.1452343412
 20
233.3505403431
 30
0.0
 40
0.6500000000082107
 50
87.0000000002
 51
176.9999999732
  0
ARC
  5
43F
  8
0
  6
CONTINUOUS
 62
     7
 10
338.1452343412
 20
233.3505403431
 30
0.0
 40
0.6325449350697304
 50
177.0000000003
 51
266.9999999996
  0
LINE
  5
440
  8
0
  6
CONTINUOUS
 62
     7
 10
338.1121292223
 20
232.7188622318
 30
0.0
 11
338.1112155949
 21
232.7014315985
 31
0.0
  0
ARC
  5
441
  8
0
  6
CONTINUOUS
 62
     7
 10
338.1452343412
 20
233.3505403431
 30
0.0
 40
0.6499999999929607
 50
176.9999999998
 51
267.0
  0
ARC
  5
442
  8
0
  6
CONTINUOUS
 62
     7
 10
350.1364628301
 20
232.4068101941
 30
0.0
 40
0.6325449350822626
 50
264.0000000001
 51
354.0000000003
  0
ARC
  5
443
  8
0
  6
CONTINUOUS
 62
     7
 10
326.1210483942
 20
3.9154047307
 30
0.0
 40
229.1174550675315
 50
84.0
 51
87.0
  0
ARC
  5
444
  8
0
  6
CONTINUOUS
 62
     7
 10
326.1210483945
 20
3.9154047356
 30
0.0
 40
230.3825449327337
 50
84.0
 51
87.0
  0
ARC
  5
445
  8
0
  6
CONTINUOUS
 62
     7
 10
350.1364628301
 20
232.4068101941
 30
0.0
 40
0.632544935090362
 50
353.9999999933
 51
83.9999999998
  0
ARC
  5
446
  8
0
  6
CONTINUOUS
 62
     7
 10
347.0383650683
 20
183.6271174396
 30
0.0
 40
2.48254493506453
 50
169.9999999995
 51
260.0000000002
  0
LINE
  5
447
  8
0
  6
CONTINUOUS
 62
     7
 10
346.604244176
 20
181.1650978513
 30
0.0
 11
346.6072765623
 21
181.1822877377
 31
0.0
  0
ARC
  5
448
  8
0
  6
CONTINUOUS
 62
     7
 10
347.0383650683
 20
183.6271174396
 30
0.0
 40
2.500000000003631
 50
169.9999999998
 51
260.0
  0
LINE
  5
449
  8
0
  6
CONTINUOUS
 62
     7
 10
344.5935355013
 20
184.0582069587
 30
0.0
 11
344.5763451492
 21
184.061237948
 31
0.0
  0
ARC
  5
44A
  8
0
  6
CONTINUOUS
 62
     7
 10
347.0383650683
 20
183.6271174396
 30
0.0
 40
2.482544935068949
 50
80.0000000002
 51
169.9999999997
  0
ARC
  5
44B
  8
0
  6
CONTINUOUS
 62
     7
 10
347.0383650683
 20
183.6271174396
 30
0.0
 40
2.500000000007765
 50
80.0
 51
170.0
  0
LINE
  5
44C
  8
0
  6
CONTINUOUS
 62
     7
 10
347.4694540237
 20
186.0719469138
 30
0.0
 11
347.47248641
 21
186.0891368002
 31
0.0
  0
ARC
  5
44D
  8
0
  6
CONTINUOUS
 62
     7
 10
347.0383650683
 20
183.6271174396
 30
0.0
 40
2.482544935065875
 50
349.9999999992
 51
80.0000000002
  0
ARC
  5
44E
  8
0
  6
CONTINUOUS
 62
     7
 10
347.0383650683
 20
183.6271174396
 30
0.0
 40
2.482544935068109
 50
260.0000000002
 51
349.9999999996
  0
LINE
  5
44F
  8
0
  6
CONTINUOUS
 62
     7
 10
349.5003835743
 20
183.192997111
 30
0.0
 11
349.4831950848
 21
183.1960281003
 31
0.0
  0
ARC
  5
450
  8
0
  6
CONTINUOUS
 62
     7
 10
347.0383650683
 20
183.6271174396
 30
0.0
 40
2.500000000007239
 50
260.0
 51
349.9999999998
  0
ARC
  5
451
  8
0
  6
CONTINUOUS
 62
     7
 10
347.0383650683
 20
183.6271174396
 30
0.0
 40
2.500000000002573
 50
349.9999999997
 51
80.0
  0
LINE
  5
452
  8
0
  6
CONTINUOUS
 62
     7
 10
357.5323385631
 20
171.7462573312
 30
0.0
 11
357.5420988237
 21
171.731786441
 31
0.0
  0
ARC
  5
453
  8
0
  6
CONTINUOUS
 62
     7
 10
326.1210483945
 20
218.3154080662
 30
0.0
 40
56.18999999958243
 50
290.0
 51
304.0000000001
  0
LINE
  5
454
  8
0
  6
CONTINUOUS
 62
     7
 10
345.3391598051
 20
165.5140794925
 30
0.0
 11
345.3331900274
 21
165.5304819457
 31
0.0
  0
ARC
  5
455
  8
0
  6
CONTINUOUS
 62
     7
 10
376.1210483943
 20
206.9454047333
 30
0.0
 40
3.732544935072411
 50
180.0
 51
270.0
  0
LINE
  5
456
  8
0
  6
CONTINUOUS
 62
     7
 10
372.3885019754
 20
206.945404049
 30
0.0
 11
372.3885019754
 21
212.3342003785
 31
0.0
  0
ARC
  5
457
  8
0
  6
CONTINUOUS
 62
     7
 10
376.1210483942
 20
216.9454047331
 30
0.0
 40
5.93254494124601
 50
218.9884862721
 51
231.0115137743
  0
ARC
  5
458
  8
0
  6
CONTINUOUS
 62
     7
 10
376.1210483943
 20
216.9454047333
 30
0.0
 40
5.932544935077213
 50
128.9884861967
 51
218.9884861968
  0
ARC
  5
459
  8
0
  6
CONTINUOUS
 62
     7
 10
376.1210483943
 20
216.9454047333
 30
0.0
 40
5.932544935073441
 50
38.988486197
 51
128.9884861968
  0
ARC
  5
45A
  8
0
  6
CONTINUOUS
 62
     7
 10
376.1210483943
 20
216.9454047332
 30
0.0
 40
5.932544935073923
 50
308.9884861967
 51
38.9884861968
  0
LINE
  5
45B
  8
0
  6
CONTINUOUS
 62
     7
 10
379.8535925781
 20
212.3342003785
 30
0.0
 11
379.8535925781
 21
206.945404049
 31
0.0
  0
ARC
  5
45C
  8
0
  6
CONTINUOUS
 62
     7
 10
376.1210483943
 20
206.9454047333
 30
0.0
 40
3.732544935081478
 50
270.0000000002
 51
0.0
  0
ARC
  5
45D
  8
0
  6
CONTINUOUS
 62
     7
 10
376.1210483943
 20
206.9454047333
 30
0.0
 40
2.358221402561355
 50
270.0
 51
360.0
  0
LINE
  5
45E
  8
0
  6
CONTINUOUS
 62
     7
 10
378.479269657
 20
206.945404049
 30
0.0
 11
378.479269657
 21
213.0446132384
 31
0.0
  0
ARC
  5
45F
  8
0
  6
CONTINUOUS
 62
     7
 10
376.1210483943
 20
216.9454047333
 30
0.0
 40
4.558221402565005
 50
301.1550374456
 51
31.1550374455
  0
ARC
  5
460
  8
0
  6
CONTINUOUS
 62
     7
 10
376.1210483943
 20
216.9454047332
 30
0.0
 40
4.558221402562281
 50
31.1550374458
 51
121.1550374455
  0
ARC
  5
461
  8
0
  6
CONTINUOUS
 62
     7
 10
376.1210483943
 20
216.9454047333
 30
0.0
 40
4.558221402563139
 50
121.1550374455
 51
211.1550374455
  0
ARC
  5
462
  8
0
  6
CONTINUOUS
 62
     7
 10
376.1210483944
 20
216.9454047333
 30
0.0
 40
4.558221402676952
 50
211.1550374459
 51
238.8449625541
  0
LINE
  5
463
  8
0
  6
CONTINUOUS
 62
     7
 10
373.7628286218
 20
213.0446132384
 30
0.0
 11
373.7628286218
 21
206.945404049
 31
0.0
  0
ARC
  5
464
  8
0
  6
CONTINUOUS
 62
     7
 10
376.1210483943
 20
206.9454047333
 30
0.0
 40
2.358221402561355
 50
180.0
 51
270.0
  0
LINE
  5
465
  8
0
  6
CONTINUOUS
 62
     7
 10
376.1210491394
 20
203.2128606103
 30
0.0
 11
376.1210491394
 21
203.1954039
 31
0.0
  0
ARC
  5
466
  8
0
  6
CONTINUOUS
 62
     7
 10
376.1210483943
 20
206.9454047333
 30
0.0
 40
3.750000000007105
 50
180.0
 51
270.0
  0
LINE
  5
467
  8
0
  6
CONTINUOUS
 62
     7
 10
372.3710489904
 20
206.945404049
 30
0.0
 11
372.3885019754
 21
206.945404049
 31
0.0
  0
LINE
  5
468
  8
0
  6
CONTINUOUS
 62
     7
 10
372.3710489904
 20
206.945404049
 30
0.0
 11
372.3710489904
 21
212.3258818053
 31
0.0
  0
LINE
  5
469
  8
0
  6
CONTINUOUS
 62
     7
 10
372.3885019754
 20
212.3342003785
 30
0.0
 11
372.3710489904
 21
212.3258818053
 31
0.0
  0
LINE
  5
46A
  8
0
  6
CONTINUOUS
 62
     7
 10
350.765542451
 20
232.3406893872
 30
0.0
 11
350.7829023038
 21
232.3388677202
 31
0.0
  0
ARC
  5
46B
  8
0
  6
CONTINUOUS
 62
     7
 10
350.1364628301
 20
232.4068101941
 30
0.0
 40
0.64999999999978
 50
264.000000001
 51
354.0
  0
LINE
  5
46C
  8
0
  6
CONTINUOUS
 62
     7
 10
350.0685201471
 20
231.760371115
 30
0.0
 11
350.0703436767
 21
231.7777309678
 31
0.0
  0
ARC
  5
46D
  8
0
  6
CONTINUOUS
 62
     7
 10
357.1227029628
 20
172.3535650441
 30
0.0
 40
0.7500000000015971
 50
303.9999999997
 51
33.9999999999
  0
LINE
  5
46E
  8
0
  6
CONTINUOUS
 62
     7
 10
350.2025821691
 20
233.0358881615
 30
0.0
 11
350.2044056987
 21
233.0532480143
 31
0.0
  0
ARC
  5
46F
  8
0
  6
CONTINUOUS
 62
     7
 10
350.1364628301
 20
232.4068101941
 30
0.0
 40
0.6500000000040561
 50
353.9999999964
 51
84.0000000003
  0
ARC
  5
470
  8
0
  6
CONTINUOUS
 62
     7
 10
326.1210483942
 20
3.9154047307
 30
0.0
 40
229.1000000026387
 50
84.0
 51
87.0
  0
ARC
  5
471
  8
0
  6
CONTINUOUS
 62
     7
 10
345.0826451403
 20
166.2188491702
 30
0.0
 40
0.7500000000039739
 50
200.0000000052
 51
289.9999999998
  0
LINE
  5
472
  8
0
  6
CONTINUOUS
 62
     7
 10
373.8326480125
 20
220.8066169284
 30
0.0
 11
373.7628286218
 21
220.8461944125
 31
0.0
  0
ARC
  5
473
  8
0
  6
CONTINUOUS
 62
     7
 10
376.1210483943
 20
216.9454047333
 30
0.0
 40
4.48840114285161
 50
120.6536877784
 51
149.3463122217
  0
ARC
  5
474
  8
0
  6
CONTINUOUS
 62
     7
 10
376.1210483943
 20
216.9454047333
 30
0.0
 40
4.48840114285161
 50
149.3463122217
 51
210.6536877782
  0
LINE
  5
475
  8
0
  6
CONTINUOUS
 62
     7
 10
372.2202566897
 20
214.5871833078
 30
0.0
 11
372.2598341738
 21
214.6570026986
 31
0.0
  0
LINE
  5
476
  8
0
  6
CONTINUOUS
 62
     7
 10
372.3775198196
 20
221.5701747797
 30
0.0
 11
372.3885019754
 21
221.5566072725
 31
0.0
  0
ARC
  5
477
  8
0
  6
CONTINUOUS
 62
     7
 10
376.1210483943
 20
216.9454047333
 30
0.0
 40
5.950000000010539
 50
50.9312754714
 51
128.9884861967
  0
ARC
  5
478
  8
0
  6
CONTINUOUS
 62
     7
 10
376.1210483943
 20
216.9454047333
 30
0.0
 40
5.950000000010215
 50
38.9884861969
 51
50.9312754714
  0
LINE
  5
479
  8
0
  6
CONTINUOUS
 62
     7
 10
380.745818231
 20
220.6889312826
 30
0.0
 11
380.7322507237
 21
220.6779491268
 31
0.0
  0
LINE
  5
47A
  8
0
  6
CONTINUOUS
 62
     7
 10
373.7628286218
 20
206.945404049
 30
0.0
 11
373.8326480125
 21
206.945404049
 31
0.0
  0
ARC
  5
47B
  8
0
  6
CONTINUOUS
 62
     7
 10
376.1210483943
 20
206.9454047333
 30
0.0
 40
2.288401142848159
 50
180.0
 51
270.0
  0
LINE
  5
47C
  8
0
  6
CONTINUOUS
 62
     7
 10
376.1210491394
 20
204.6570029221
 30
0.0
 11
376.1210491394
 21
204.5871835314
 31
0.0
  0
LINE
  5
47D
  8
0
  6
CONTINUOUS
 62
     7
 10
373.8326480125
 20
213.0841925852
 30
0.0
 11
373.7628286218
 21
213.0446132384
 31
0.0
  0
LINE
  5
47E
  8
0
  6
CONTINUOUS
 62
     7
 10
373.8326480125
 20
213.0841925852
 30
0.0
 11
373.8326480125
 21
206.945404049
 31
0.0
  0
LINE
  5
47F
  8
0
  6
CONTINUOUS
 62
     7
 10
379.9822603797
 20
219.233806815
 30
0.0
 11
380.0218415891
 21
219.3036262058
 31
0.0
  0
ARC
  5
480
  8
0
  6
CONTINUOUS
 62
     7
 10
376.1210483943
 20
216.9454047332
 30
0.0
 40
4.488401142844724
 50
30.6536877784
 51
59.3463122218
  0
ARC
  5
481
  8
0
  6
CONTINUOUS
 62
     7
 10
376.1210483943
 20
216.9454047332
 30
0.0
 40
4.488401142854521
 50
59.3463122218
 51
120.6536877783
  0
ARC
  5
482
  8
0
  6
CONTINUOUS
 62
     7
 10
376.1210483944
 20
216.9454047333
 30
0.0
 40
4.488401199643561
 50
210.6536889995
 51
239.346311809
  0
LINE
  5
483
  8
0
  6
CONTINUOUS
 62
     7
 10
371.4962763225
 20
213.201878231
 30
0.0
 11
371.5098438298
 21
213.2128603868
 31
0.0
  0
ARC
  5
484
  8
0
  6
CONTINUOUS
 62
     7
 10
376.1210483943
 20
216.9454047333
 30
0.0
 40
5.950000000003058
 50
140.9312754774
 51
218.9884861968
  0
ARC
  5
485
  8
0
  6
CONTINUOUS
 62
     7
 10
376.1210483943
 20
216.9454047333
 30
0.0
 40
5.950000000003058
 50
128.9884861967
 51
140.9312754774
  0
LINE
  5
486
  8
0
  6
CONTINUOUS
 62
     7
 10
379.8535925781
 20
206.945404049
 30
0.0
 11
379.8710492884
 21
206.945404049
 31
0.0
  0
ARC
  5
487
  8
0
  6
CONTINUOUS
 62
     7
 10
376.1210483943
 20
206.9454047333
 30
0.0
 40
3.750000000010175
 50
270.0000000002
 51
360.0
  0
LINE
  5
488
  8
0
  6
CONTINUOUS
 62
     7
 10
378.4094502663
 20
206.945404049
 30
0.0
 11
378.479269657
 21
206.945404049
 31
0.0
  0
ARC
  5
489
  8
0
  6
CONTINUOUS
 62
     7
 10
376.1210483943
 20
206.9454047333
 30
0.0
 40
2.288401142841224
 50
270.0
 51
360.0
  0
ARC
  5
48A
  8
0
  6
CONTINUOUS
 62
     7
 10
376.1210483942
 20
216.9454047331
 30
0.0
 40
5.950000006158921
 50
218.9884862717
 51
230.9312754426
  0
LINE
  5
48B
  8
0
  6
CONTINUOUS
 62
     7
 10
378.4094502663
 20
213.0841925852
 30
0.0
 11
378.479269657
 21
213.0446132384
 31
0.0
  0
ARC
  5
48C
  8
0
  6
CONTINUOUS
 62
     7
 10
376.1210483943
 20
216.9454047333
 30
0.0
 40
4.488401142849267
 50
300.6536877785
 51
329.3463122217
  0
ARC
  5
48D
  8
0
  6
CONTINUOUS
 62
     7
 10
376.1210483943
 20
216.9454047333
 30
0.0
 40
4.488401142851992
 50
329.3463122216
 51
30.6536877783
  0
ARC
  5
48E
  8
0
  6
CONTINUOUS
 62
     7
 10
376.1210483943
 20
216.9454047332
 30
0.0
 40
5.950000000010298
 50
309.0687245286
 51
320.9312754714
  0
LINE
  5
48F
  8
0
  6
CONTINUOUS
 62
     7
 10
379.8710492884
 20
212.3258818053
 30
0.0
 11
379.8535925781
 21
212.3342003785
 31
0.0
  0
ARC
  5
490
  8
0
  6
CONTINUOUS
 62
     7
 10
376.1210483943
 20
216.9454047332
 30
0.0
 40
5.950000000010379
 50
320.9312754714
 51
38.9884861967
  0
LINE
  5
491
  8
0
  6
CONTINUOUS
 62
     7
 10
379.8710492884
 20
212.3258818053
 30
0.0
 11
379.8710492884
 21
206.945404049
 31
0.0
  0
ARC
  5
492
  8
0
  6
CONTINUOUS
 62
     7
 10
326.1210483945
 20
3.9154047356
 30
0.0
 40
230.3999999976495
 50
84.0
 51
87.0
  0
LINE
  5
493
  8
0
  6
CONTINUOUS
 62
     7
 10
378.4094502663
 20
206.945404049
 30
0.0
 11
378.4094502663
 21
213.0841925852
 31
0.0
  0
LINE
  5
494
  8
0
  6
CONTINUOUS
 62
     7
 10
369.4147405659
 20
181.9876866527
 30
0.0
 11
367.8817165529
 21
183.2740452252
 31
0.0
  0
ARC
  5
495
  8
0
  6
CONTINUOUS
 62
     7
 10
326.1210483945
 20
218.3154080664
 30
0.0
 40
54.51468303077498
 50
320.0
 51
322.9615584302
  0
LINE
  5
496
  8
0
  6
CONTINUOUS
 62
     7
 10
369.6363878881
 20
223.8234799467
 30
0.0
 11
369.6363878881
 21
185.4784496706
 31
0.0
  0
ARC
  5
497
  8
0
  6
CONTINUOUS
 62
     7
 10
326.1210483952
 20
30.6286530582
 30
0.0
 40
198.0349101253106
 50
77.3064899831
 51
79.2318208059
  0
LINE
  5
498
  8
0
  6
CONTINUOUS
 62
     7
 10
363.1210488712
 20
227.140832331
 30
0.0
 11
363.1210488712
 21
225.176401075
 31
0.0
  0
ARC
  5
499
  8
0
  6
CONTINUOUS
 62
     7
 10
326.1210483942
 20
30.6286530529
 30
0.0
 40
199.9650898709834
 50
73.6288669493
 51
79.336984582
  0
ARC
  5
49A
  8
0
  6
CONTINUOUS
 62
     7
 10
326.1210483943
 20
218.3154080666
 30
0.0
 40
56.51590211961616
 50
338.9819964607
 51
4.2323751626
  0
LINE
  5
49B
  8
0
  6
CONTINUOUS
 62
     7
 10
371.27321339
 20
187.7681865468
 30
0.0
 11
371.27321339
 21
202.2268973403
 31
0.0
  0
ARC
  5
49C
  8
0
  6
CONTINUOUS
 62
     7
 10
326.1210483946
 20
218.3154080664
 30
0.0
 40
54.51468303068423
 50
325.9200969221
 51
337.5465710726
  0
LINE
  5
49D
  8
0
  6
CONTINUOUS
 62
     7
 10
371.27321339
 20
202.2268973403
 30
0.0
 11
376.5029882525
 21
197.4944869168
 31
0.0
  0
ARC
  5
49E
  8
0
  6
CONTINUOUS
 62
     7
 10
326.1210483943
 20
218.3154080666
 30
0.0
 40
56.51590211962423
 50
320.0
 51
338.9819964606
  0
LINE
  5
49F
  8
0
  6
CONTINUOUS
 62
     7
 10
316.1210486178
 20
234.450049337
 30
0.0
 11
316.1210486178
 21
232.4469309412
 31
0.0
  0
ARC
  5
4A0
  8
0
  6
CONTINUOUS
 62
     7
 10
326.1210483943
 20
3.9154047334
 30
0.0
 40
228.7502104516278
 50
92.5055297
 51
96.0619850537
  0
LINE
  5
4A1
  8
0
  6
CONTINUOUS
 62
     7
 10
301.9640383755
 20
227.1846603714
 30
0.0
 11
301.9640383755
 21
231.3864972554
 31
0.0
  0
ARC
  5
4A2
  8
0
  6
CONTINUOUS
 62
     7
 10
326.1210483938
 20
30.6286530559
 30
0.0
 40
198.0349101276271
 50
97.0065952993
 51
99.0060094026
  0
LINE
  5
4A3
  8
0
  6
CONTINUOUS
 62
     7
 10
295.121048901
 20
228.1762097142
 30
0.0
 11
295.121048901
 21
226.2221757434
 31
0.0
  0
ARC
  5
4A4
  8
0
  6
CONTINUOUS
 62
     7
 10
326.1210483938
 20
30.628653057
 30
0.0
 40
199.9650898669299
 50
97.4961008436
 51
98.9183656514
  0
LINE
  5
4A5
  8
0
  6
CONTINUOUS
 62
     7
 10
300.0338593011
 20
228.8847897313
 30
0.0
 11
300.0338593011
 21
233.1874702237
 31
0.0
  0
ARC
  5
4A6
  8
0
  6
CONTINUOUS
 62
     7
 10
326.1210483943
 20
3.9154047332
 30
0.0
 40
230.7514295403431
 50
92.4837865154
 51
96.491349899
  0
LINE
  5
4A7
  8
0
  6
CONTINUOUS
 62
     7
 10
299.943092603
 20
228.9643805586
 30
0.0
 11
300.0338593011
 21
228.8847897313
 31
0.0
  0
LINE
  5
4A8
  8
0
  6
CONTINUOUS
 62
     7
 10
299.943092603
 20
228.9643805586
 30
0.0
 11
299.943092603
 21
232.9943586252
 31
0.0
  0
LINE
  5
4A9
  8
0
  6
CONTINUOUS
 62
     7
 10
299.943092603
 20
232.9943586252
 30
0.0
 11
300.0338593011
 21
233.1874702237
 31
0.0
  0
LINE
  5
4AA
  8
0
  6
CONTINUOUS
 62
     7
 10
295.121048901
 20
228.2150793932
 30
0.0
 11
295.121048901
 21
228.1762097142
 31
0.0
  0
ARC
  5
4AB
  8
0
  6
CONTINUOUS
 62
     7
 10
297.6557397672
 20
201.4930713112
 30
0.0
 40
26.85754542928308
 50
95.4153697952
 51
101.8924892754
  0
ARC
  5
4AC
  8
0
  6
CONTINUOUS
 62
     7
 10
326.1210483938
 20
30.628653057
 30
0.0
 40
200.0558562045283
 50
97.5189003427
 51
99.7850596206
  0
ARC
  5
4AD
  8
0
  6
CONTINUOUS
 62
     7
 10
326.1210483952
 20
30.6286530582
 30
0.0
 40
197.9441437877075
 50
77.354446024
 51
78.0458308405
  0
LINE
  5
4AE
  8
0
  6
CONTINUOUS
 62
     7
 10
367.0180452501
 20
224.3545089029
 30
0.0
 11
367.1210607027
 21
224.2800999544
 31
0.0
  0
ARC
  5
4AF
  8
0
  6
CONTINUOUS
 62
     7
 10
326.1210483952
 20
30.6286530582
 30
0.0
 40
197.9956362292331
 50
78.0794551315
 51
78.6095235176
  0
LINE
  5
4B0
  8
0
  6
CONTINUOUS
 62
     7
 10
365.1210603749
 20
224.6927727125
 30
0.0
 11
365.2240795528
 21
224.7245717905
 31
0.0
  0
ARC
  5
4B1
  8
0
  6
CONTINUOUS
 62
     7
 10
326.1210483952
 20
30.6286530582
 30
0.0
 40
197.9441437877132
 50
78.6369370641
 51
80.1095053002
  0
ARC
  5
4B2
  8
0
  6
CONTINUOUS
 62
     7
 10
377.645816645
 20
321.1899703215
 30
0.0
 40
97.15271242841898
 50
259.6078895619
 51
261.4017872437
  0
LINE
  5
4B3
  8
0
  6
CONTINUOUS
 62
     7
 10
363.1210488712
 20
225.1373116039
 30
0.0
 11
363.1210488712
 21
225.176401075
 31
0.0
  0
LINE
  5
4B4
  8
0
  6
CONTINUOUS
 62
     7
 10
369.6363878881
 20
223.8234799467
 30
0.0
 11
369.4548023378
 21
223.7712700032
 31
0.0
  0
ARC
  5
4B5
  8
0
  6
CONTINUOUS
 62
     7
 10
326.1210483941
 20
30.6286530548
 30
0.0
 40
199.9999999989766
 50
102.8017721265
 51
106.345989007
  0
LINE
  5
4B6
  8
0
  6
CONTINUOUS
 62
     7
 10
281.8053153788
 20
225.6571535133
 30
0.0
 11
281.9170629119
 21
225.7397841774
 31
0.0
  0
ARC
  5
4B7
  8
0
  6
CONTINUOUS
 62
     7
 10
326.1210483941
 20
30.6286530548
 30
0.0
 40
200.055856206732
 50
99.7850596205
 51
102.7653198882
  0
ARC
  5
4B8
  8
0
  6
CONTINUOUS
 62
     7
 10
299.8956731699
 20
180.0677925839
 30
0.0
 40
48.33571175651201
 50
99.2560293822
 51
102.8801448956
  0
LINE
  5
4B9
  8
0
  6
CONTINUOUS
 62
     7
 10
289.1210479175
 20
227.140832331
 30
0.0
 11
289.1210479175
 21
227.1799106262
 31
0.0
  0
ARC
  5
4BA
  8
0
  6
CONTINUOUS
 62
     7
 10
326.1210483941
 20
30.6286530548
 30
0.0
 40
199.9650898691343
 50
100.663015418
 51
106.3711330508
  0
LINE
  5
4BB
  8
0
  6
CONTINUOUS
 62
     7
 10
269.8336442446
 20
222.5445952378
 30
0.0
 11
269.7592688238
 21
222.4863801263
 31
0.0
  0
LINE
  5
4BC
  8
0
  6
CONTINUOUS
 62
     7
 10
301.9640383755
 20
227.1846603714
 30
0.0
 11
302.0548050736
 21
227.1043505631
 31
0.0
  0
ARC
  5
4BD
  8
0
  6
CONTINUOUS
 62
     7
 10
326.1210483938
 20
30.6286530559
 30
0.0
 40
197.9441437900334
 50
96.9833544478
 51
99.8904897768
  0
ARC
  5
4BE
  8
0
  6
CONTINUOUS
 62
     7
 10
275.7961973736
 20
324.1403371913
 30
0.0
 40
99.85292170063467
 50
279.4094656555
 51
281.1590476423
  0
LINE
  5
4BF
  8
0
  6
CONTINUOUS
 62
     7
 10
295.121048901
 20
226.1832948886
 30
0.0
 11
295.121048901
 21
226.2221757434
 31
0.0
  0
LINE
  5
4C0
  8
0
  6
CONTINUOUS
 62
     7
 10
301.9640383755
 20
231.3864972554
 30
0.0
 11
302.0548050736
 21
231.2135171257
 31
0.0
  0
LINE
  5
4C1
  8
0
  6
CONTINUOUS
 62
     7
 10
302.0548050736
 20
231.2135171257
 30
0.0
 11
302.0548050736
 21
227.1043505631
 31
0.0
  0
LINE
  5
4C2
  8
0
  6
CONTINUOUS
 62
     7
 10
289.7933249806
 20
175.0217151008
 30
0.0
 11
291.0796863471
 21
176.5547381826
 31
0.0
  0
LINE
  5
4C3
  8
0
  6
CONTINUOUS
 62
     7
 10
290.1351501678
 20
175.4901824631
 30
0.0
 11
289.8182956015
 21
175.1261387132
 31
0.0
  0
LINE
  5
4C4
  8
0
  6
CONTINUOUS
 62
     7
 10
291.1001158391
 20
176.6401833035
 30
0.0
 11
290.1351501678
 21
175.4901824631
 31
0.0
  0
LINE
  5
4C5
  8
0
  6
CONTINUOUS
 62
     7
 10
291.0796863471
 20
176.5547381826
 30
0.0
 11
291.1001158391
 21
176.6401833035
 31
0.0
  0
LINE
  5
4C6
  8
0
  6
CONTINUOUS
 62
     7
 10
289.7933249806
 20
175.0217151008
 30
0.0
 11
289.8182956015
 21
175.1261387132
 31
0.0
  0
ARC
  5
4C7
  8
0
  6
CONTINUOUS
 62
     7
 10
326.1210483946
 20
218.3154080663
 30
0.0
 40
54.51468303066474
 50
309.2915100067
 51
310.0
  0
LINE
  5
4C8
  8
0
  6
CONTINUOUS
 62
     7
 10
362.448771808
 20
175.0217151008
 30
0.0
 11
361.1624104415
 21
176.5547381826
 31
0.0
  0
ARC
  5
4C9
  8
0
  6
CONTINUOUS
 62
     7
 10
326.121048394
 20
218.3154080662
 30
0.0
 40
54.51468303054621
 50
230.0
 51
230.7084899933
  0
LINE
  5
4CA
  8
0
  6
CONTINUOUS
 62
     7
 10
303.8423520957
 20
176.1246385164
 30
0.0
 11
291.5987422203
 21
176.1246385164
 31
0.0
  0
ARC
  5
4CB
  8
0
  6
CONTINUOUS
 62
     7
 10
326.1210483943
 20
187.3154047333
 30
0.0
 40
24.93137754962052
 50
153.3292583473
 51
206.6707416528
  0
ARC
  5
4CC
  8
0
  6
CONTINUOUS
 62
     7
 10
326.1210483943
 20
187.3154047333
 30
0.0
 40
24.93137754962052
 50
116.6707416527
 51
153.3292583473
  0
ARC
  5
4CD
  8
0
  6
CONTINUOUS
 62
     7
 10
326.1210483943
 20
187.3154047332
 30
0.0
 40
24.93137754962559
 50
63.3292583473
 51
116.6707416527
  0
ARC
  5
4CE
  8
0
  6
CONTINUOUS
 62
     7
 10
326.1210483943
 20
187.3154047332
 30
0.0
 40
24.93137754962494
 50
26.6707416528
 51
63.3292583473
  0
ARC
  5
4CF
  8
0
  6
CONTINUOUS
 62
     7
 10
326.1210483943
 20
187.3154047333
 30
0.0
 40
24.93137754964572
 50
333.3292583472
 51
26.6707416527
  0
LINE
  5
4D0
  8
0
  6
CONTINUOUS
 62
     7
 10
360.6433545684
 20
176.1246385164
 30
0.0
 11
348.3997446929
 21
176.1246385164
 31
0.0
  0
ARC
  5
4D1
  8
0
  6
CONTINUOUS
 62
     7
 10
326.1210483943
 20
187.3154047333
 30
0.0
 40
1.113153265945471
 50
0.0
 51
90.0
  0
ARC
  5
4D2
  8
0
  6
CONTINUOUS
 62
     7
 10
326.1210483943
 20
187.3154047333
 30
0.0
 40
1.113153265944845
 50
90.0
 51
180.0
  0
ARC
  5
4D3
  8
0
  6
CONTINUOUS
 62
     7
 10
326.1210483943
 20
187.3154047333
 30
0.0
 40
1.113153265945329
 50
180.0
 51
270.0
  0
ARC
  5
4D4
  8
0
  6
CONTINUOUS
 62
     7
 10
326.1210483943
 20
187.3154047333
 30
0.0
 40
1.113153265945527
 50
270.0
 51
0.0
  0
ARC
  5
4D5
  8
0
  6
CONTINUOUS
 62
     7
 10
326.1210483943
 20
218.3154080666
 30
0.0
 40
56.51590211962432
 50
230.0
 51
310.0
  0
ARC
  5
4D6
  8
0
  6
CONTINUOUS
 62
     7
 10
326.121048394
 20
218.3154080662
 30
0.0
 40
54.4361112991906
 50
224.0833207146
 51
229.9586629421
  0
LINE
  5
4D7
  8
0
  6
CONTINUOUS
 62
     7
 10
287.1210364138
 20
180.4857348203
 30
0.0
 11
287.0180172359
 21
180.4440031871
 31
0.0
  0
ARC
  5
4D8
  8
0
  6
CONTINUOUS
 62
     7
 10
326.121048394
 20
218.3154080662
 30
0.0
 40
54.33309502919105
 50
224.1272860185
 51
230.7914427929
  0
LINE
  5
4D9
  8
0
  6
CONTINUOUS
 62
     7
 10
291.5987422203
 20
176.1246385164
 30
0.0
 11
291.7746504282
 21
176.2154042832
 31
0.0
  0
LINE
  5
4DA
  8
0
  6
CONTINUOUS
 62
     7
 10
283.7366958593
 20
184.095359046
 30
0.0
 11
283.6847541367
 21
184.095359046
 31
0.0
  0
ARC
  5
4DB
  8
0
  6
CONTINUOUS
 62
     7
 10
326.1210483853
 20
218.315408059
 30
0.0
 40
54.51468301920394
 50
218.8822321981
 51
220.0000000001
  0
LINE
  5
4DC
  8
0
  6
CONTINUOUS
 62
     7
 10
282.8273562228
 20
181.9876866527
 30
0.0
 11
284.3603802358
 21
183.2740452252
 31
0.0
  0
ARC
  5
4DD
  8
0
  6
CONTINUOUS
 62
     7
 10
326.1210483917
 20
30.6286530672
 30
0.0
 40
198.0349101161269
 50
100.7681791941
 51
102.3583124942
  0
LINE
  5
4DE
  8
0
  6
CONTINUOUS
 62
     7
 10
283.7366958593
 20
184.095359046
 30
0.0
 11
283.7366958593
 21
224.0747507773
 31
0.0
  0
LINE
  5
4DF
  8
0
  6
CONTINUOUS
 62
     7
 10
282.0998703574
 20
201.340150658
 30
0.0
 11
282.0998703574
 21
186.1597469421
 31
0.0
  0
LINE
  5
4E0
  8
0
  6
CONTINUOUS
 62
     7
 10
274.975476179
 20
199.4479462616
 30
0.0
 11
282.0998703574
 21
201.340150658
 31
0.0
  0
ARC
  5
4E1
  8
0
  6
CONTINUOUS
 62
     7
 10
326.1210483941
 20
218.3154080665
 30
0.0
 40
54.51468303079741
 50
200.2488799836
 51
216.1465926996
  0
LINE
  5
4E2
  8
0
  6
CONTINUOUS
 62
     7
 10
289.1210479175
 20
225.176401075
 30
0.0
 11
289.1210479175
 21
227.140832331
 31
0.0
  0
ARC
  5
4E3
  8
0
  6
CONTINUOUS
 62
     7
 10
326.1210483943
 20
218.3154080666
 30
0.0
 40
56.51590211962031
 50
175.7676248376
 51
185.7477427266
  0
ARC
  5
4E4
  8
0
  6
CONTINUOUS
 62
     7
 10
326.1210483943
 20
218.3154080666
 30
0.0
 40
56.51590211962418
 50
193.4443604792
 51
220.0
  0
ARC
  5
4E5
  8
0
  6
CONTINUOUS
 62
     7
 10
326.1210483943
 20
3.9154047334
 30
0.0
 40
228.7502104516304
 50
83.9380149463
 51
87.4944703
  0
LINE
  5
4E6
  8
0
  6
CONTINUOUS
 62
     7
 10
336.1210481708
 20
234.450049337
 30
0.0
 11
336.1210481708
 21
232.4469309412
 31
0.0
  0
LINE
  5
4E7
  8
0
  6
CONTINUOUS
 62
     7
 10
352.2082374876
 20
233.1874702237
 30
0.0
 11
352.2082374876
 21
228.8847897313
 31
0.0
  0
ARC
  5
4E8
  8
0
  6
CONTINUOUS
 62
     7
 10
326.1210483948
 20
30.6286530569
 30
0.0
 40
199.9650898669227
 50
81.0816343486
 51
82.5038991564
  0
LINE
  5
4E9
  8
0
  6
CONTINUOUS
 62
     7
 10
357.1210478877
 20
226.2221757434
 30
0.0
 11
357.1210478877
 21
228.1762097142
 31
0.0
  0
ARC
  5
4EA
  8
0
  6
CONTINUOUS
 62
     7
 10
326.121048394
 20
30.6286530513
 30
0.0
 40
198.0349101322864
 50
80.9939905973
 51
82.9934047006
  0
LINE
  5
4EB
  8
0
  6
CONTINUOUS
 62
     7
 10
350.2780584132
 20
231.3864972554
 30
0.0
 11
350.2780584132
 21
227.1846603714
 31
0.0
  0
ARC
  5
4EC
  8
0
  6
CONTINUOUS
 62
     7
 10
326.1210483943
 20
3.9154047332
 30
0.0
 40
230.7514295403431
 50
83.508650101
 51
87.5162134846
  0
LINE
  5
4ED
  8
0
  6
CONTINUOUS
 62
     7
 10
281.9182810818
 20
201.1040380336
 30
0.0
 11
282.0998703574
 21
201.340150658
 31
0.0
  0
LINE
  5
4EE
  8
0
  6
CONTINUOUS
 62
     7
 10
275.2152358626
 20
199.3237413578
 30
0.0
 11
281.9182810818
 21
201.1040380336
 31
0.0
  0
LINE
  5
4EF
  8
0
  6
CONTINUOUS
 62
     7
 10
274.975476179
 20
199.4479462616
 30
0.0
 11
275.2152358626
 21
199.3237413578
 31
0.0
  0
ARC
  5
4F0
  8
0
  6
CONTINUOUS
 62
     7
 10
326.1210483941
 20
218.3154080665
 30
0.0
 40
54.33309502944393
 50
200.4592682233
 51
215.5556205294
  0
LINE
  5
4F1
  8
0
  6
CONTINUOUS
 62
     7
 10
281.9182810818
 20
186.7210939696
 30
0.0
 11
282.0998703574
 21
186.1597469421
 31
0.0
  0
LINE
  5
4F2
  8
0
  6
CONTINUOUS
 62
     7
 10
281.9182810818
 20
201.1040380336
 30
0.0
 11
281.9182810818
 21
186.7210939696
 31
0.0
  0
LINE
  5
4F3
  8
0
  6
CONTINUOUS
 62
     7
 10
371.4560208355
 20
225.480097916
 30
0.0
 11
371.5677646433
 21
225.3967110179
 31
0.0
  0
ARC
  5
4F4
  8
0
  6
CONTINUOUS
 62
     7
 10
326.1210483942
 20
30.6286530529
 30
0.0
 40
200.0000000008147
 50
73.6540109931
 51
76.8657439584
  0
ARC
  5
4F5
  8
0
  6
CONTINUOUS
 62
     7
 10
356.4583885301
 20
200.710180682
 30
0.0
 40
27.31068181323236
 50
75.8797346398
 51
82.2927859272
  0
ARC
  5
4F6
  8
0
  6
CONTINUOUS
 62
     7
 10
326.1210483942
 20
30.6286530529
 30
0.0
 40
200.0558562085696
 50
76.9023377451
 51
80.2149403273
  0
LINE
  5
4F7
  8
0
  6
CONTINUOUS
 62
     7
 10
363.1210488712
 20
227.1799106262
 30
0.0
 11
363.1210488712
 21
227.140832331
 31
0.0
  0
LINE
  5
4F8
  8
0
  6
CONTINUOUS
 62
     7
 10
382.4828279649
 20
222.4863801263
 30
0.0
 11
382.4084525441
 21
222.5445952378
 31
0.0
  0
LINE
  5
4F9
  8
0
  6
CONTINUOUS
 62
     7
 10
283.7366958593
 20
224.0747507773
 30
0.0
 11
283.9182814096
 21
224.0215461813
 31
0.0
  0
LINE
  5
4FA
  8
0
  6
CONTINUOUS
 62
     7
 10
283.9182814096
 20
184.095359046
 30
0.0
 11
283.9182814096
 21
224.0215461813
 31
0.0
  0
LINE
  5
4FB
  8
0
  6
CONTINUOUS
 62
     7
 10
283.7366958593
 20
184.095359046
 30
0.0
 11
283.9182814096
 21
184.095359046
 31
0.0
  0
LINE
  5
4FC
  8
0
  6
CONTINUOUS
 62
     7
 10
303.5943744217
 20
176.2154042832
 30
0.0
 11
291.7746504282
 21
176.2154042832
 31
0.0
  0
LINE
  5
4FD
  8
0
  6
CONTINUOUS
 62
     7
 10
303.8423520957
 20
176.1246385164
 30
0.0
 11
303.5943744217
 21
176.2154042832
 31
0.0
  0
LINE
  5
4FE
  8
0
  6
CONTINUOUS
 62
     7
 10
282.9317798351
 20
182.0126540139
 30
0.0
 11
283.2958226537
 21
182.3295085802
 31
0.0
  0
LINE
  5
4FF
  8
0
  6
CONTINUOUS
 62
     7
 10
284.4458234941
 20
183.2944737859
 30
0.0
 11
284.3603802358
 21
183.2740452252
 31
0.0
  0
LINE
  5
500
  8
0
  6
CONTINUOUS
 62
     7
 10
283.2958226537
 20
182.3295085802
 30
0.0
 11
284.4458234941
 21
183.2944737859
 31
0.0
  0
LINE
  5
501
  8
0
  6
CONTINUOUS
 62
     7
 10
282.9317798351
 20
182.0126540139
 30
0.0
 11
282.8273562228
 21
181.9876866527
 31
0.0
  0
ARC
  5
502
  8
0
  6
CONTINUOUS
 62
     7
 10
326.1210483853
 20
218.315408059
 30
0.0
 40
54.33309501803159
 50
219.036815202
 51
221.009151588
  0
LINE
  5
503
  8
0
  6
CONTINUOUS
 62
     7
 10
285.2240515386
 20
182.3887346424
 30
0.0
 11
285.121036086
 21
182.6631409228
 31
0.0
  0
ARC
  5
504
  8
0
  6
CONTINUOUS
 62
     7
 10
326.1210483853
 20
218.315408059
 30
0.0
 40
54.43611128784827
 50
220.041337058
 51
221.2982475191
  0
ARC
  5
505
  8
0
  6
CONTINUOUS
 62
     7
 10
326.1210483943
 20
187.3154047333
 30
0.0
 40
25.11296555097335
 50
118.5444771359
 51
206.2317348646
  0
LINE
  5
506
  8
0
  6
CONTINUOUS
 62
     7
 10
314.9273287018
 20
209.5999825857
 30
0.0
 11
314.12104829
 21
209.1688621901
 31
0.0
  0
LINE
  5
507
  8
0
  6
CONTINUOUS
 62
     7
 10
314.9302819257
 20
209.594102215
 30
0.0
 11
314.9273287018
 21
209.5999825857
 31
0.0
  0
LINE
  5
508
  8
0
  6
CONTINUOUS
 62
     7
 10
369.6363878881
 20
185.4784496706
 30
0.0
 11
369.4548023378
 21
185.5393323228
 31
0.0
  0
LINE
  5
509
  8
0
  6
CONTINUOUS
 62
     7
 10
369.4548023378
 20
223.7712700032
 30
0.0
 11
369.4548023378
 21
185.5393323228
 31
0.0
  0
LINE
  5
50A
  8
0
  6
CONTINUOUS
 62
     7
 10
348.3997446929
 20
198.5061714537
 30
0.0
 11
348.5620127504
 21
198.5876789428
 31
0.0
  0
LINE
  5
50B
  8
0
  6
CONTINUOUS
 62
     7
 10
316.1210486178
 20
210.1700712107
 30
0.0
 11
314.9273287018
 21
209.5999825857
 31
0.0
  0
ARC
  5
50C
  8
0
  6
CONTINUOUS
 62
     7
 10
326.1210483943
 20
187.3154047332
 30
0.0
 40
25.11296555098289
 50
66.5342575115
 51
113.4657424885
  0
ARC
  5
50D
  8
0
  6
CONTINUOUS
 62
     7
 10
326.1202725258
 20
187.6944751966
 30
0.0
 40
24.6001611720456
 50
60.8017350025
 51
66.0127757351
  0
ARC
  5
50E
  8
0
  6
CONTINUOUS
 62
     7
 10
326.1210483943
 20
187.3154047332
 30
0.0
 40
25.11296555098284
 50
26.6707416528
 51
61.4555228641
  0
LINE
  5
50F
  8
0
  6
CONTINUOUS
 62
     7
 10
325.0078950987
 20
187.3154047231
 30
0.0
 11
325.1126254655
 21
187.3154047231
 31
0.0
  0
ARC
  5
510
  8
0
  6
CONTINUOUS
 62
     7
 10
326.1210483943
 20
187.3154047333
 30
0.0
 40
1.00842287637613
 50
180.0
 51
270.0
  0
LINE
  5
511
  8
0
  6
CONTINUOUS
 62
     7
 10
326.1210483943
 20
186.2022514567
 30
0.0
 11
326.1210483943
 21
186.3069818816
 31
0.0
  0
LINE
  5
512
  8
0
  6
CONTINUOUS
 62
     7
 10
326.1210483943
 20
188.3238275647
 30
0.0
 11
326.1210483943
 21
188.4285580478
 31
0.0
  0
ARC
  5
513
  8
0
  6
CONTINUOUS
 62
     7
 10
326.1210483943
 20
187.3154047333
 30
0.0
 40
1.008422876375562
 50
90.0
 51
180.0
  0
ARC
  5
514
  8
0
  6
CONTINUOUS
 62
     7
 10
326.1210483943
 20
187.3154047333
 30
0.0
 40
1.008422876376329
 50
270.0
 51
0.0
  0
LINE
  5
515
  8
0
  6
CONTINUOUS
 62
     7
 10
327.1294713232
 20
187.3154047231
 30
0.0
 11
327.2342016899
 21
187.3154047231
 31
0.0
  0
ARC
  5
516
  8
0
  6
CONTINUOUS
 62
     7
 10
326.1210483943
 20
187.3154047333
 30
0.0
 40
1.00842287637613
 50
0.0
 51
90.0
  0
ARC
  5
517
  8
0
  6
CONTINUOUS
 62
     7
 10
326.1210483917
 20
30.6286530672
 30
0.0
 40
197.9956362200493
 50
101.3904764825
 51
101.9205448576
  0
LINE
  5
518
  8
0
  6
CONTINUOUS
 62
     7
 10
285.121036086
 20
224.2800999544
 30
0.0
 11
285.2240515386
 21
224.3545089029
 31
0.0
  0
ARC
  5
519
  8
0
  6
CONTINUOUS
 62
     7
 10
326.1210483917
 20
30.6286530672
 30
0.0
 40
197.9441437785287
 50
101.9541692267
 51
102.3102650398
  0
ARC
  5
51A
  8
0
  6
CONTINUOUS
 62
     7
 10
284.2863832685
 20
262.7697349109
 30
0.0
 40
37.95620529319479
 50
277.3179191512
 51
281.9122412407
  0
ARC
  5
51B
  8
0
  6
CONTINUOUS
 62
     7
 10
326.1210483917
 20
30.6286530672
 30
0.0
 40
197.9441437785424
 50
99.8904946999
 51
101.3630629359
  0
LINE
  5
51C
  8
0
  6
CONTINUOUS
 62
     7
 10
287.0180172359
 20
224.7245717905
 30
0.0
 11
287.1210364138
 21
224.6927727125
 31
0.0
  0
LINE
  5
51D
  8
0
  6
CONTINUOUS
 62
     7
 10
289.1210479175
 20
225.176401075
 30
0.0
 11
289.1210479175
 21
225.1373116039
 31
0.0
  0
ARC
  5
51E
  8
0
  6
CONTINUOUS
 62
     7
 10
326.1210483943
 20
187.3154047333
 30
0.0
 40
25.11296555099861
 50
26.2317348646
 51
26.6707416527
  0
ARC
  5
51F
  8
0
  6
CONTINUOUS
 62
     7
 10
326.1210483943
 20
187.3154047333
 30
0.0
 40
25.11296555099861
 50
333.7682651354
 51
26.2317348646
  0
LINE
  5
520
  8
0
  6
CONTINUOUS
 62
     7
 10
348.6477223669
 20
176.2154042832
 30
0.0
 11
348.3997446929
 21
176.1246385164
 31
0.0
  0
LINE
  5
521
  8
0
  6
CONTINUOUS
 62
     7
 10
360.6433545684
 20
176.1246385164
 30
0.0
 11
360.4674463605
 21
176.2154042832
 31
0.0
  0
LINE
  5
522
  8
0
  6
CONTINUOUS
 62
     7
 10
360.4674463605
 20
176.2154042832
 30
0.0
 11
348.6477223669
 21
176.2154042832
 31
0.0
  0
LINE
  5
523
  8
0
  6
CONTINUOUS
 62
     7
 10
352.2990041857
 20
228.9643805586
 30
0.0
 11
352.2082374876
 21
228.8847897313
 31
0.0
  0
ARC
  5
524
  8
0
  6
CONTINUOUS
 62
     7
 10
326.1210483948
 20
30.6286530569
 30
0.0
 40
200.0558562045179
 50
80.2149403273
 51
82.4810996573
  0
ARC
  5
525
  8
0
  6
CONTINUOUS
 62
     7
 10
351.6134144736
 20
181.1111334346
 30
0.0
 40
47.43223231565857
 50
79.6672821497
 51
83.3320109359
  0
LINE
  5
526
  8
0
  6
CONTINUOUS
 62
     7
 10
357.1210478877
 20
228.1762097142
 30
0.0
 11
357.1210478877
 21
228.2150793932
 31
0.0
  0
LINE
  5
527
  8
0
  6
CONTINUOUS
 62
     7
 10
371.4547989403
 20
188.3665160155
 30
0.0
 11
371.27321339
 21
187.7681865468
 31
0.0
  0
ARC
  5
528
  8
0
  6
CONTINUOUS
 62
     7
 10
326.1210483946
 20
218.3154080664
 30
0.0
 40
54.33309502932294
 50
326.5500036409
 51
337.4117677956
  0
LINE
  5
529
  8
0
  6
CONTINUOUS
 62
     7
 10
376.5029882525
 20
197.4944869168
 30
0.0
 11
376.2862024342
 21
197.4457563944
 31
0.0
  0
LINE
  5
52A
  8
0
  6
CONTINUOUS
 62
     7
 10
371.4547989403
 20
188.3665160155
 30
0.0
 11
371.4547989403
 21
201.8176816515
 31
0.0
  0
LINE
  5
52B
  8
0
  6
CONTINUOUS
 62
     7
 10
371.27321339
 20
202.2268973403
 30
0.0
 11
371.4547989403
 21
201.8176816515
 31
0.0
  0
LINE
  5
52C
  8
0
  6
CONTINUOUS
 62
     7
 10
371.4547989403
 20
201.8176816515
 30
0.0
 11
376.2862024342
 21
197.4457563944
 31
0.0
  0
LINE
  5
52D
  8
0
  6
CONTINUOUS
 62
     7
 10
367.8817165529
 20
183.2740452252
 30
0.0
 11
367.7962732946
 21
183.2944737859
 31
0.0
  0
ARC
  5
52E
  8
0
  6
CONTINUOUS
 62
     7
 10
326.1210483945
 20
218.3154080664
 30
0.0
 40
54.43611129941137
 50
318.7017524813
 51
319.9586629421
  0
LINE
  5
52F
  8
0
  6
CONTINUOUS
 62
     7
 10
367.1210607027
 20
182.6631409228
 30
0.0
 11
367.0180452501
 21
182.3887346424
 31
0.0
  0
ARC
  5
530
  8
0
  6
CONTINUOUS
 62
     7
 10
326.1210483945
 20
218.3154080664
 30
0.0
 40
54.33309502941934
 50
318.9908481713
 51
322.8974629432
  0
ARC
  5
531
  8
0
  6
CONTINUOUS
 62
     7
 10
326.1210483946
 20
218.3154080663
 30
0.0
 40
54.3330950293148
 50
309.2085572071
 51
315.8727139815
  0
LINE
  5
532
  8
0
  6
CONTINUOUS
 62
     7
 10
365.1723762487
 20
180.4649472348
 30
0.0
 11
365.1210603749
 21
180.4857348203
 31
0.0
  0
ARC
  5
533
  8
0
  6
CONTINUOUS
 62
     7
 10
326.1210483946
 20
218.3154080663
 30
0.0
 40
54.43611129931143
 50
310.0413370579
 51
315.9166792854
  0
LINE
  5
534
  8
0
  6
CONTINUOUS
 62
     7
 10
361.1419809495
 20
176.6401833035
 30
0.0
 11
361.1624104415
 21
176.5547381826
 31
0.0
  0
LINE
  5
535
  8
0
  6
CONTINUOUS
 62
     7
 10
362.1069466208
 20
175.4901824631
 30
0.0
 11
361.1419809495
 21
176.6401833035
 31
0.0
  0
LINE
  5
536
  8
0
  6
CONTINUOUS
 62
     7
 10
362.4238011872
 20
175.1261387132
 30
0.0
 11
362.1069466208
 21
175.4901824631
 31
0.0
  0
LINE
  5
537
  8
0
  6
CONTINUOUS
 62
     7
 10
362.4238011872
 20
175.1261387132
 30
0.0
 11
362.448771808
 21
175.0217151008
 31
0.0
  0
ARC
  5
538
  8
0
  6
CONTINUOUS
 62
     7
 10
326.1210483943
 20
3.9154047334
 30
0.0
 40
228.6035432197715
 50
92.5071382216
 51
93.0089887973
  0
ARC
  5
539
  8
0
  6
CONTINUOUS
 62
     7
 10
326.1210483943
 20
3.9154047334
 30
0.0
 40
228.5686224502819
 50
93.0094489345
 51
96.0439388618
  0
LINE
  5
53A
  8
0
  6
CONTINUOUS
 62
     7
 10
316.1210486178
 20
232.4469309412
 30
0.0
 11
316.1603224908
 21
232.3699999712
 31
0.0
  0
ARC
  5
53B
  8
0
  6
CONTINUOUS
 62
     7
 10
326.1210483943
 20
3.9154047334
 30
0.0
 40
228.6716387202608
 50
87.5034586701
 51
92.4965413299
  0
LINE
  5
53C
  8
0
  6
CONTINUOUS
 62
     7
 10
336.0817742978
 20
232.3699999712
 30
0.0
 11
336.1210481708
 21
232.4469309412
 31
0.0
  0
LINE
  5
53D
  8
0
  6
CONTINUOUS
 62
     7
 10
350.2780584132
 20
231.3864972554
 30
0.0
 11
350.187291715
 21
231.2135171257
 31
0.0
  0
ARC
  5
53E
  8
0
  6
CONTINUOUS
 62
     7
 10
326.1210483943
 20
3.9154047334
 30
0.0
 40
228.5686224502818
 50
83.9560611382
 51
86.9905510655
  0
ARC
  5
53F
  8
0
  6
CONTINUOUS
 62
     7
 10
326.1210483943
 20
3.9154047334
 30
0.0
 40
228.6035432197715
 50
86.9910112027
 51
87.4928617784
  0
ARC
  5
540
  8
0
  6
CONTINUOUS
 62
     7
 10
326.1210483943
 20
3.9154047334
 30
0.0
 40
228.5686224502819
 50
87.4924784925
 51
92.5075215075
  0
LINE
  5
541
  8
0
  6
CONTINUOUS
 62
     7
 10
336.0817742978
 20
234.3731034659
 30
0.0
 11
336.0817742978
 21
232.3699999712
 31
0.0
  0
LINE
  5
542
  8
0
  6
CONTINUOUS
 62
     7
 10
336.0817742978
 20
234.3731034659
 30
0.0
 11
336.1210481708
 21
234.450049337
 31
0.0
  0
ARC
  5
543
  8
0
  6
CONTINUOUS
 62
     7
 10
365.4466613344
 20
263.9707304506
 30
0.0
 40
38.70792163678799
 50
257.5793038198
 51
262.0919027515
  0
ARC
  5
544
  8
0
  6
CONTINUOUS
 62
     7
 10
326.121048394
 20
30.6286530513
 30
0.0
 40
197.9441437946846
 50
80.109510223
 51
83.0166455521
  0
LINE
  5
545
  8
0
  6
CONTINUOUS
 62
     7
 10
350.2780584132
 20
227.1846603714
 30
0.0
 11
350.187291715
 21
227.1043505631
 31
0.0
  0
LINE
  5
546
  8
0
  6
CONTINUOUS
 62
     7
 10
357.1210478877
 20
226.2221757434
 30
0.0
 11
357.1210478877
 21
226.1832948886
 31
0.0
  0
LINE
  5
547
  8
0
  6
CONTINUOUS
 62
     7
 10
350.187291715
 20
231.2135171257
 30
0.0
 11
350.187291715
 21
227.1043505631
 31
0.0
  0
LINE
  5
548
  8
0
  6
CONTINUOUS
 62
     7
 10
369.3103169535
 20
182.0126540139
 30
0.0
 11
368.9462778603
 21
182.3295039236
 31
0.0
  0
LINE
  5
549
  8
0
  6
CONTINUOUS
 62
     7
 10
367.7962732946
 20
183.2944737859
 30
0.0
 11
368.946274135
 21
182.3295085802
 31
0.0
  0
LINE
  5
54A
  8
0
  6
CONTINUOUS
 62
     7
 10
369.4147405659
 20
181.9876866527
 30
0.0
 11
369.3103169535
 21
182.0126540139
 31
0.0
  0
LINE
  5
54B
  8
0
  6
CONTINUOUS
 62
     7
 10
316.1603224908
 20
234.3731034659
 30
0.0
 11
316.1603224908
 21
232.3699999712
 31
0.0
  0
LINE
  5
54C
  8
0
  6
CONTINUOUS
 62
     7
 10
316.1210486178
 20
234.450049337
 30
0.0
 11
316.1603224908
 21
234.3731034659
 31
0.0
  0
LINE
  5
54D
  8
0
  6
CONTINUOUS
 62
     7
 10
352.2990041857
 20
232.9943586252
 30
0.0
 11
352.2990041857
 21
228.9643805586
 31
0.0
  0
LINE
  5
54E
  8
0
  6
CONTINUOUS
 62
     7
 10
352.2082374876
 20
233.1874702237
 30
0.0
 11
352.2990041857
 21
232.9943586252
 31
0.0
  0
LINE
  5
54F
  8
0
  6
CONTINUOUS
 62
     7
 10
336.1210481708
 20
210.1700712107
 30
0.0
 11
336.1210481708
 21
218.7792357169
 31
0.0
  0
LINE
  5
550
  8
0
  6
CONTINUOUS
 62
     7
 10
338.1210484986
 20
218.7792357169
 30
0.0
 11
336.1210481708
 21
218.7792357169
 31
0.0
  0
LINE
  5
551
  8
0
  6
CONTINUOUS
 62
     7
 10
338.1210484986
 20
218.7792357169
 30
0.0
 11
338.1210484986
 21
209.1688621901
 31
0.0
  0
LINE
  5
552
  8
0
  6
CONTINUOUS
 62
     7
 10
316.1210486178
 20
218.7792357169
 30
0.0
 11
314.12104829
 21
218.7792357169
 31
0.0
  0
LINE
  5
553
  8
0
  6
CONTINUOUS
 62
     7
 10
316.1210486178
 20
210.1700712107
 30
0.0
 11
316.1210486178
 21
218.7792357169
 31
0.0
  0
LINE
  5
554
  8
0
  6
CONTINUOUS
 62
     7
 10
314.12104829
 20
218.7792357169
 30
0.0
 11
314.12104829
 21
209.1688621901
 31
0.0
  0
LINE
  5
555
  8
0
  6
CONTINUOUS
 62
     7
 10
360.1210502421
 20
227.7741465829
 30
0.0
 11
360.1210502421
 21
225.630920019
 31
0.0
  0
LINE
  5
556
  8
0
  6
CONTINUOUS
 62
     7
 10
292.1210465466
 20
225.630920019
 30
0.0
 11
292.1210465466
 21
227.7741465829
 31
0.0
  0
ARC
  5
557
  8
0
  6
CONTINUOUS
 62
     7
 10
326.1210483944
 20
218.3154080665
 30
0.0
 40
55.93733038812054
 50
318.6802837325
 51
319.9597723263
  0
ARC
  5
558
  8
0
  6
CONTINUOUS
 62
     7
 10
326.1210483944
 20
218.3154080665
 30
0.0
 40
55.93733038812041
 50
310.0402276737
 51
310.2698615211
  0
LINE
  5
559
  8
0
  6
CONTINUOUS
 62
     7
 10
365.2240795528
 20
224.7245717905
 30
0.0
 11
365.2240795528
 21
180.5175581127
 31
0.0
  0
LINE
  5
55A
  8
0
  6
CONTINUOUS
 62
     7
 10
367.0180452501
 20
182.3887346424
 30
0.0
 11
367.0180452501
 21
224.3545089029
 31
0.0
  0
ARC
  5
55B
  8
0
  6
CONTINUOUS
 62
     7
 10
326.1210483943
 20
218.3154080666
 30
0.0
 40
56.41988063990505
 50
318.6530760818
 51
319.9512587593
  0
ARC
  5
55C
  8
0
  6
CONTINUOUS
 62
     7
 10
326.1210483943
 20
218.3154080666
 30
0.0
 40
56.41988063991445
 50
310.0487412407
 51
310.3146404323
  0
ARC
  5
55D
  8
0
  6
CONTINUOUS
 62
     7
 10
326.1210483943
 20
3.9154047332
 30
0.0
 40
230.6728578090049
 50
87.5251311347
 51
88.5094137693
  0
ARC
  5
55E
  8
0
  6
CONTINUOUS
 62
     7
 10
326.1210483943
 20
3.9154047332
 30
0.0
 40
230.6728578090049
 50
91.490586387
 51
92.4748688653
  0
ARC
  5
55F
  8
0
  6
CONTINUOUS
 62
     7
 10
326.1210483946
 20
218.3154080669
 30
0.0
 40
55.93733038862975
 50
229.7303248184
 51
229.9597723263
  0
ARC
  5
560
  8
0
  6
CONTINUOUS
 62
     7
 10
326.1210483946
 20
218.3154080669
 30
0.0
 40
55.93733038862978
 50
220.0402276738
 51
221.3202723606
  0
ARC
  5
561
  8
0
  6
CONTINUOUS
 62
     7
 10
326.1210483943
 20
218.3154080666
 30
0.0
 40
56.41988063990966
 50
229.6855719052
 51
229.9512587593
  0
ARC
  5
562
  8
0
  6
CONTINUOUS
 62
     7
 10
326.1210483943
 20
218.3154080666
 30
0.0
 40
56.41988063991168
 50
220.0487412407
 51
221.3474785265
  0
LINE
  5
563
  8
0
  6
CONTINUOUS
 62
     7
 10
285.2240515386
 20
224.3545089029
 30
0.0
 11
285.2240515386
 21
182.3887346424
 31
0.0
  0
LINE
  5
564
  8
0
  6
CONTINUOUS
 62
     7
 10
287.0180172359
 20
180.4440031871
 30
0.0
 11
287.0180172359
 21
224.7245717905
 31
0.0
  0
LINE
  5
565
  8
0
  6
CONTINUOUS
 62
     7
 10
287.1210364138
 20
180.4857348203
 30
0.0
 11
287.1210364138
 21
224.6927727125
 31
0.0
  0
LINE
  5
566
  8
0
  6
CONTINUOUS
 62
     7
 10
365.1210603749
 20
180.4857348203
 30
0.0
 11
365.1210603749
 21
224.6927727125
 31
0.0
  0
LINE
  5
567
  8
0
  6
CONTINUOUS
 62
     7
 10
367.1210607027
 20
182.6631409228
 30
0.0
 11
367.1210607027
 21
224.2800999544
 31
0.0
  0
LINE
  5
568
  8
0
  6
CONTINUOUS
 62
     7
 10
285.121036086
 20
224.2800999544
 30
0.0
 11
285.121036086
 21
182.6631413884
 31
0.0
  0
LINE
  5
569
  8
0
  6
CONTINUOUS
 62
     7
 10
316.1210486178
 20
232.3001247011
 30
0.0
 11
316.1210486178
 21
218.7792357169
 31
0.0
  0
LINE
  5
56A
  8
0
  6
CONTINUOUS
 62
     7
 10
314.12104829
 20
218.7792357169
 30
0.0
 11
314.12104829
 21
232.2037737928
 31
0.0
  0
LINE
  5
56B
  8
0
  6
CONTINUOUS
 62
     7
 10
336.1210481708
 20
218.7792357169
 30
0.0
 11
336.1210481708
 21
232.3001247011
 31
0.0
  0
LINE
  5
56C
  8
0
  6
CONTINUOUS
 62
     7
 10
338.1210484986
 20
232.2037737928
 30
0.0
 11
338.1210484986
 21
218.7792357169
 31
0.0
  0
ARC
  5
56D
  8
0
  6
CONTINUOUS
 62
     7
 10
294.1210483943
 20
183.5154047333
 30
0.0
 40
7.000000000003524
 50
90.0
 51
180.0
  0
ARC
  5
56E
  8
0
  6
CONTINUOUS
 62
     7
 10
294.1210483943
 20
183.5154047333
 30
0.0
 40
7.000000000003752
 50
180.0
 51
270.0
  0
ARC
  5
56F
  8
0
  6
CONTINUOUS
 62
     7
 10
294.1210483943
 20
183.5154047333
 30
0.0
 40
7.000000000006253
 50
270.0
 51
360.0
  0
ARC
  5
570
  8
0
  6
CONTINUOUS
 62
     7
 10
294.1210483943
 20
183.5154047333
 30
0.0
 40
7.000000000007276
 50
0.0
 51
90.0
  0
ARC
  5
571
  8
0
  6
CONTINUOUS
 62
     7
 10
358.1210483943
 20
183.5154047333
 30
0.0
 40
7.000000000003581
 50
90.0
 51
180.0
  0
ARC
  5
572
  8
0
  6
CONTINUOUS
 62
     7
 10
358.1210483943
 20
183.5154047333
 30
0.0
 40
7.000000000004803
 50
180.0
 51
270.0
  0
ARC
  5
573
  8
0
  6
CONTINUOUS
 62
     7
 10
358.1210483943
 20
183.5154047333
 30
0.0
 40
7.000000000003695
 50
270.0
 51
0.0
  0
ARC
  5
574
  8
0
  6
CONTINUOUS
 62
     7
 10
358.1210483943
 20
183.5154047333
 30
0.0
 40
7.000000000001194
 50
0.0
 51
90.0
  0
LINE
  5
575
  8
0
  6
CONTINUOUS
 62
     7
 10
351.1210487669
 20
183.5154046882
 30
0.0
 11
351.1385036146
 21
183.5154046882
 31
0.0
  0
ARC
  5
576
  8
0
  6
CONTINUOUS
 62
     7
 10
358.1210483943
 20
183.5154047333
 30
0.0
 40
6.982544935068574
 50
180.0
 51
270.0
  0
LINE
  5
577
  8
0
  6
CONTINUOUS
 62
     7
 10
358.1210499143
 20
176.5328595526
 30
0.0
 11
358.1210499143
 21
176.5154047049
 31
0.0
  0
LINE
  5
578
  8
0
  6
CONTINUOUS
 62
     7
 10
358.1210499143
 20
190.5154046714
 30
0.0
 11
358.1210499143
 21
190.4979495909
 31
0.0
  0
ARC
  5
579
  8
0
  6
CONTINUOUS
 62
     7
 10
358.1210483943
 20
183.5154047333
 30
0.0
 40
6.982544935069541
 50
90.0
 51
180.0
  0
LINE
  5
57A
  8
0
  6
CONTINUOUS
 62
     7
 10
281.9170629119
 20
225.7397841774
 30
0.0
 11
281.9170629119
 21
230.2082661651
 31
0.0
  0
ARC
  5
57B
  8
0
  6
CONTINUOUS
 62
     7
 10
326.1210483943
 20
3.9154047332
 30
0.0
 40
230.5698415390282
 50
96.5191856404
 51
98.4798018739
  0
ARC
  5
57C
  8
0
  6
CONTINUOUS
 62
     7
 10
326.1210483943
 20
3.9154047332
 30
0.0
 40
230.5698415390282
 50
98.4798018739
 51
101.0529595097
  0
ARC
  5
57D
  8
0
  6
CONTINUOUS
 62
     7
 10
358.1210483943
 20
183.5154047333
 30
0.0
 40
6.982544935065334
 50
270.0
 51
0.0
  0
LINE
  5
57E
  8
0
  6
CONTINUOUS
 62
     7
 10
365.1035924887
 20
183.5154046882
 30
0.0
 11
365.121049199
 21
183.5154046882
 31
0.0
  0
ARC
  5
57F
  8
0
  6
CONTINUOUS
 62
     7
 10
358.1210483943
 20
183.5154047333
 30
0.0
 40
6.98254493506775
 50
0.0
 51
90.0
  0
LINE
  5
580
  8
0
  6
CONTINUOUS
 62
     7
 10
294.1210468744
 20
176.5154047049
 30
0.0
 11
294.1210468744
 21
176.5328595526
 31
0.0
  0
LINE
  5
581
  8
0
  6
CONTINUOUS
 62
     7
 10
287.1385043
 20
183.5154046882
 30
0.0
 11
287.1210475897
 21
183.5154046882
 31
0.0
  0
ARC
  5
582
  8
0
  6
CONTINUOUS
 62
     7
 10
294.1210483943
 20
183.5154047333
 30
0.0
 40
6.982544935066301
 50
180.0
 51
270.0
  0
ARC
  5
583
  8
0
  6
CONTINUOUS
 62
     7
 10
294.1210483943
 20
183.5154047333
 30
0.0
 40
6.982544935070507
 50
270.0
 51
360.0
  0
LINE
  5
584
  8
0
  6
CONTINUOUS
 62
     7
 10
301.1210480218
 20
183.5154046882
 30
0.0
 11
301.1035931741
 21
183.5154046882
 31
0.0
  0
LINE
  5
585
  8
0
  6
CONTINUOUS
 62
     7
 10
294.1210468744
 20
190.4979495909
 30
0.0
 11
294.1210468744
 21
190.5154046714
 31
0.0
  0
ARC
  5
586
  8
0
  6
CONTINUOUS
 62
     7
 10
294.1210483943
 20
183.5154047333
 30
0.0
 40
6.982544935069655
 50
90.0
 51
180.0
  0
ARC
  5
587
  8
0
  6
CONTINUOUS
 62
     7
 10
294.1210483943
 20
183.5154047333
 30
0.0
 40
6.982544935072554
 50
0.0
 51
90.0
  0
LINE
  5
588
  8
0
  6
CONTINUOUS
 62
     7
 10
371.4560208355
 20
229.9844022952
 30
0.0
 11
371.4560208355
 21
225.480097916
 31
0.0
  0
ARC
  5
589
  8
0
  6
CONTINUOUS
 62
     7
 10
326.1210483943
 20
3.9154047332
 30
0.0
 40
230.5698415390279
 50
78.6605415829
 51
81.5201985869
  0
ARC
  5
58A
  8
0
  6
CONTINUOUS
 62
     7
 10
326.1210483943
 20
3.9154047332
 30
0.0
 40
230.5698415390279
 50
81.5201985869
 51
83.4808143596
  0
LINE
  5
58B
  8
0
  6
CONTINUOUS
 62
     7
 10
291.371048752
 20
183.5154046882
 30
0.0
 11
291.5671070551
 21
183.5154046882
 31
0.0
  0
ARC
  5
58C
  8
0
  6
CONTINUOUS
 62
     7
 10
294.1210483943
 20
183.5154047333
 30
0.0
 40
2.553941889305207
 50
180.0
 51
270.0
  0
LINE
  5
58D
  8
0
  6
CONTINUOUS
 62
     7
 10
294.1210468744
 20
180.9614627734
 30
0.0
 11
294.1210468744
 21
180.7654049359
 31
0.0
  0
ARC
  5
58E
  8
0
  6
CONTINUOUS
 62
     7
 10
294.1210483943
 20
183.5154047333
 30
0.0
 40
2.750000000000455
 50
180.0
 51
270.0
  0
ARC
  5
58F
  8
0
  6
CONTINUOUS
 62
     7
 10
294.1210483943
 20
183.5154047333
 30
0.0
 40
2.74999999999892
 50
90.0
 51
180.0
  0
LINE
  5
590
  8
0
  6
CONTINUOUS
 62
     7
 10
294.1210468744
 20
186.2654047315
 30
0.0
 11
294.1210468744
 21
186.069346603
 31
0.0
  0
ARC
  5
591
  8
0
  6
CONTINUOUS
 62
     7
 10
294.1210483943
 20
183.5154047333
 30
0.0
 40
2.553941889302337
 50
90.0
 51
180.0
  0
ARC
  5
592
  8
0
  6
CONTINUOUS
 62
     7
 10
294.1210483943
 20
183.5154047333
 30
0.0
 40
2.553941889307225
 50
270.0
 51
360.0
  0
LINE
  5
593
  8
0
  6
CONTINUOUS
 62
     7
 10
296.674990419
 20
183.5154046882
 30
0.0
 11
296.8710487222
 21
183.5154046882
 31
0.0
  0
ARC
  5
594
  8
0
  6
CONTINUOUS
 62
     7
 10
294.1210483943
 20
183.5154047333
 30
0.0
 40
2.750000000001364
 50
270.0
 51
360.0
  0
ARC
  5
595
  8
0
  6
CONTINUOUS
 62
     7
 10
294.1210483943
 20
183.5154047333
 30
0.0
 40
2.749999999996817
 50
0.0
 51
90.0
  0
ARC
  5
596
  8
0
  6
CONTINUOUS
 62
     7
 10
294.1210483943
 20
183.5154047333
 30
0.0
 40
2.553941889302962
 50
0.0
 51
90.0
  0
ARC
  5
597
  8
0
  6
CONTINUOUS
 62
     7
 10
294.1210483943
 20
183.5154047333
 30
0.0
 40
2.799371554595467
 50
90.0
 51
180.0
  0
LINE
  5
598
  8
0
  6
CONTINUOUS
 62
     7
 10
294.1210468744
 20
186.3147762948
 30
0.0
 11
294.1210468744
 21
186.2654047315
 31
0.0
  0
LINE
  5
599
  8
0
  6
CONTINUOUS
 62
     7
 10
291.3216774796
 20
183.5154046882
 30
0.0
 11
291.371048752
 21
183.5154046882
 31
0.0
  0
ARC
  5
59A
  8
0
  6
CONTINUOUS
 62
     7
 10
294.1210483943
 20
183.5154047332
 30
0.0
 40
2.799371554594984
 50
180.0
 51
270.0
  0
LINE
  5
59B
  8
0
  6
CONTINUOUS
 62
     7
 10
294.1210468744
 20
180.7654049359
 30
0.0
 11
294.1210468744
 21
180.7160331979
 31
0.0
  0
ARC
  5
59C
  8
0
  6
CONTINUOUS
 62
     7
 10
294.1210483943
 20
183.5154047333
 30
0.0
 40
2.799371554596462
 50
0.0
 51
90.0
  0
LINE
  5
59D
  8
0
  6
CONTINUOUS
 62
     7
 10
296.8710487222
 20
183.5154046882
 30
0.0
 11
296.9204199945
 21
183.5154046882
 31
0.0
  0
ARC
  5
59E
  8
0
  6
CONTINUOUS
 62
     7
 10
294.1210483943
 20
183.5154047332
 30
0.0
 40
2.799371554595894
 50
270.0
 51
0.0
  0
ARC
  5
59F
  8
0
  6
CONTINUOUS
 62
     7
 10
358.1210483943
 20
183.5154047333
 30
0.0
 40
2.732544935070365
 50
0.0
 51
90.0
  0
ARC
  5
5A0
  8
0
  6
CONTINUOUS
 62
     7
 10
358.1210483943
 20
183.5154047333
 30
0.0
 40
2.73254493506937
 50
90.0
 51
180.0
  0
ARC
  5
5A1
  8
0
  6
CONTINUOUS
 62
     7
 10
358.1210483943
 20
183.5154047333
 30
0.0
 40
2.732544935072014
 50
180.0
 51
270.0
  0
ARC
  5
5A2
  8
0
  6
CONTINUOUS
 62
     7
 10
358.1210483943
 20
183.5154047333
 30
0.0
 40
2.732544935071019
 50
270.0
 51
360.0
  0
CIRCLE
  5
5A3
  8
0
  6
CONTINUOUS
 62
     7
 10
277.1210483943
 20
208.9154047333
 30
0.0
 40
2.100000000000019
  0
ARC
  5
5A4
  8
0
  6
CONTINUOUS
 62
     7
 10
277.1210483943
 20
208.9154047333
 30
0.0
 40
4.100000000000009
 50
146.2405339379
 51
213.759466062
  0
CIRCLE
  5
5A5
  8
0
  6
CONTINUOUS
 62
     7
 10
376.1210483943
 20
208.9154047333
 30
0.0
 40
2.099999999999988
  0
ARC
  5
5A6
  8
0
  6
CONTINUOUS
 62
     7
 10
376.1210483943
 20
208.9154047333
 30
0.0
 40
4.099999999999993
 50
109.6807059695
 51
123.9277208425
  0
ARC
  5
5A7
  8
0
  6
CONTINUOUS
 62
     7
 10
376.1210483943
 20
208.9154047333
 30
0.0
 40
4.100000000000001
 50
253.0726129597
 51
286.9273870436
  0
ARC
  5
5A8
  8
0
  6
CONTINUOUS
 62
     7
 10
376.1210483943
 20
208.9154047333
 30
0.0
 40
4.099999999999993
 50
56.0722791576
 51
109.6807059695
  0
ARC
  5
5A9
  8
0
  6
CONTINUOUS
 62
     7
 10
326.1161621581
 20
9.77384096
 30
0.0
 40
227.935965752089
 50
74.9964372532
 51
105.0010195785
  0
ARC
  5
5AA
  8
0
  6
CONTINUOUS
 62
     7
 10
384.3976305944
 20
227.8732657845
 30
0.0
 40
2.190111512798238
 50
7.0655535069
 51
70.6299237211
  0
LINE
  5
5AB
  8
0
  6
CONTINUOUS
 62
     7
 10
386.5711105501
 20
228.0164953433
 30
0.0
 11
386.5711105501
 21
218.3144349716
 31
0.0
  0
ARC
  5
5AC
  8
0
  6
CONTINUOUS
 62
     7
 10
326.1285464666
 20
218.3207378774
 30
0.0
 40
60.44436112236884
 50
343.7044320053
 51
359.5581859215
  0
ARC
  5
5AD
  8
0
  6
CONTINUOUS
 62
     7
 10
326.1047368985
 20
218.3246214633
 30
0.0
 40
60.46876917254794
 50
327.4235317653
 51
343.7057222338
  0
ARC
  5
5AE
  8
0
  6
CONTINUOUS
 62
     7
 10
326.1400112456
 20
218.3045937428
 30
0.0
 40
60.42943784519304
 50
311.1938462139
 51
327.4197795743
  0
ARC
  5
5AF
  8
0
  6
CONTINUOUS
 62
     7
 10
326.2292606824
 20
218.1624157048
 30
0.0
 40
60.26451128199481
 50
297.2222531194
 51
311.2183273987
  0
POLYLINE
  5
5B0
  8
0
  6
CONTINUOUS
 62
     7
 66
     1
 10
0.0
 20
0.0
 30
0.0
  0
VERTEX
  5
A3F
  8
0
  6
CONTINUOUS
 62
     7
 10
342.7318086361
 20
160.1923234872
 30
0.0
  0
VERTEX
  5
A40
  8
0
  6
CONTINUOUS
 62
     7
 10
348.3686739092
 20
162.1069382988
 30
0.0
  0
VERTEX
  5
A41
  8
0
  6
CONTINUOUS
 62
     7
 10
353.7968595957
 20
164.5728755854
 30
0.0
  0
SEQEND
  5
A3E
  8
0
  6
CONTINUOUS
 62
     7
  0
ARC
  5
5B1
  8
0
  6
CONTINUOUS
 62
     7
 10
326.1030393594
 20
218.4200807395
 30
0.0
 40
60.55565772313601
 50
270.0170395592
 51
285.938360894
  0
ARC
  5
5B2
  8
0
  6
CONTINUOUS
 62
     7
 10
326.1142927269
 20
218.2433031119
 30
0.0
 40
60.37888044082835
 50
254.0381709443
 51
270.0064107056
  0
POLYLINE
  5
5B3
  8
0
  6
CONTINUOUS
 62
     7
 66
     1
 10
0.0
 20
0.0
 30
0.0
  0
VERTEX
  5
A43
  8
0
  6
CONTINUOUS
 62
     7
 10
298.445237193
 20
164.5728755854
 30
0.0
  0
VERTEX
  5
A44
  8
0
  6
CONTINUOUS
 62
     7
 10
303.8734228795
 20
162.1069382988
 30
0.0
  0
VERTEX
  5
A45
  8
0
  6
CONTINUOUS
 62
     7
 10
309.5102881526
 20
160.1923234872
 30
0.0
  0
SEQEND
  5
A42
  8
0
  6
CONTINUOUS
 62
     7
  0
ARC
  5
5B4
  8
0
  6
CONTINUOUS
 62
     7
 10
326.1315523643
 20
218.3369624669
 30
0.0
 40
60.47403646164518
 50
228.8060357003
 51
242.7533768631
  0
ARC
  5
5B5
  8
0
  6
CONTINUOUS
 62
     7
 10
326.1019873788
 20
218.3045116718
 30
0.0
 40
60.42931143603961
 50
212.580205718
 51
228.8061725732
  0
ARC
  5
5B6
  8
0
  6
CONTINUOUS
 62
     7
 10
326.1374276474
 20
218.3246519309
 30
0.0
 40
60.46884267433721
 50
196.2942871957
 51
212.5764579939
  0
ARC
  5
5B7
  8
0
  6
CONTINUOUS
 62
     7
 10
326.1136135123
 20
218.3207477544
 30
0.0
 40
60.44442454553225
 50
180.4418424746
 51
196.295560174
  0
LINE
  5
5B8
  8
0
  6
CONTINUOUS
 62
     7
 10
265.6709862386
 20
218.3144349716
 30
0.0
 11
265.6709862386
 21
228.0157800875
 31
0.0
  0
ARC
  5
5B9
  8
0
  6
CONTINUOUS
 62
     7
 10
267.6609236761
 20
228.0251802628
 30
0.0
 40
1.989959639899081
 50
105.8305751816
 51
180.2706549212
  0
LINE
  5
5BA
  8
0
  6
CONTINUOUS
 62
     7
 10
278.7157458698
 20
231.8974729739
 30
0.0
 11
279.1282137369
 21
230.0369437896
 31
0.0
  0
LINE
  5
5BB
  8
0
  6
CONTINUOUS
 62
     7
 10
273.8342670237
 20
230.8152761422
 30
0.0
 11
278.7157458698
 21
231.8974729739
 31
0.0
  0
LINE
  5
5BC
  8
0
  6
CONTINUOUS
 62
     7
 10
274.2542339002
 20
228.9209213219
 30
0.0
 11
273.8342670237
 21
230.8152761422
 31
0.0
  0
LINE
  5
5BD
  8
0
  6
CONTINUOUS
 62
     7
 10
269.4232737159
 20
227.6709187887
 30
0.0
 11
274.2542339002
 21
228.9209213219
 31
0.0
  0
LINE
  5
5BE
  8
0
  6
CONTINUOUS
 62
     7
 10
269.4232737159
 20
218.3150831722
 30
0.0
 11
269.4232737159
 21
227.6709187887
 31
0.0
  0
ARC
  5
5BF
  8
0
  6
CONTINUOUS
 62
     7
 10
326.2658580714
 20
218.3464120409
 30
0.0
 40
56.84343321239962
 50
180.3131232039
 51
202.4769736536
  0
ARC
  5
5C0
  8
0
  6
CONTINUOUS
 62
     7
 10
326.3348816672
 20
218.4560222401
 30
0.0
 40
56.95001589393059
 50
202.5543787806
 51
221.3282177478
  0
LINE
  5
5C1
  8
0
  6
CONTINUOUS
 62
     7
 10
283.5688938831
 20
180.8478502668
 30
0.0
 11
283.6619218325
 21
180.9392674938
 31
0.0
  0
LINE
  5
5C2
  8
0
  6
CONTINUOUS
 62
     7
 10
289.409377936
 20
175.0906134136
 30
0.0
 11
283.6619218325
 21
180.9392674938
 31
0.0
  0
ARC
  5
5C3
  8
0
  6
CONTINUOUS
 62
     7
 10
326.130804141
 20
218.4196768018
 30
0.0
 40
56.79785946564865
 50
229.7196373587
 51
247.5379507857
  0
ARC
  5
5C4
  8
0
  6
CONTINUOUS
 62
     7
 10
326.1662448212
 20
218.5408433609
 30
0.0
 40
56.92337593924288
 50
247.5515817645
 51
269.9545078847
  0
ARC
  5
5C5
  8
0
  6
CONTINUOUS
 62
     7
 10
326.0815208192
 20
218.513708504
 30
0.0
 40
56.89613283278759
 50
270.0398052258
 51
292.4535764143
  0
ARC
  5
5C6
  8
0
  6
CONTINUOUS
 62
     7
 10
326.0043958195
 20
218.59599969
 30
0.0
 40
57.00165611105649
 50
292.4936302674
 51
310.2476112301
  0
LINE
  5
5C7
  8
0
  6
CONTINUOUS
 62
     7
 10
368.5801749562
 20
180.9392674938
 30
0.0
 11
362.8327188526
 21
175.0906134136
 31
0.0
  0
LINE
  5
5C8
  8
0
  6
CONTINUOUS
 62
     7
 10
368.5801749562
 20
180.9392674938
 30
0.0
 11
368.6732029055
 21
180.8478502668
 31
0.0
  0
ARC
  5
5C9
  8
0
  6
CONTINUOUS
 62
     7
 10
325.9069077474
 20
218.4562018613
 30
0.0
 40
56.95036532985023
 50
318.6718507617
 51
337.4455809947
  0
ARC
  5
5CA
  8
0
  6
CONTINUOUS
 62
     7
 10
325.9764802878
 20
218.3463538144
 30
0.0
 40
56.84318773245316
 50
337.5229874874
 51
359.6875979941
  0
LINE
  5
5CB
  8
0
  6
CONTINUOUS
 62
     7
 10
382.8188230728
 20
227.6709187887
 30
0.0
 11
382.8188230728
 21
218.3150831722
 31
0.0
  0
LINE
  5
5CC
  8
0
  6
CONTINUOUS
 62
     7
 10
377.9878628885
 20
228.9209213219
 30
0.0
 11
382.8188230728
 21
227.6709187887
 31
0.0
  0
LINE
  5
5CD
  8
0
  6
CONTINUOUS
 62
     7
 10
378.407829765
 20
230.8152761422
 30
0.0
 11
377.9878628885
 21
228.9209213219
 31
0.0
  0
LINE
  5
5CE
  8
0
  6
CONTINUOUS
 62
     7
 10
373.5263509189
 20
231.8974729739
 30
0.0
 11
378.407829765
 21
230.8152761422
 31
0.0
  0
LINE
  5
5CF
  8
0
  6
CONTINUOUS
 62
     7
 10
373.1138830518
 20
230.0369437896
 30
0.0
 11
373.5263509189
 21
231.8974729739
 31
0.0
  0
ARC
  5
5D0
  8
0
  6
CONTINUOUS
 62
     7
 10
326.5555278191
 20
10.7603733726
 30
0.0
 40
224.177301767794
 50
78.0132541494
 51
88.5774019333
  0
LINE
  5
5D1
  8
0
  6
CONTINUOUS
 62
     7
 10
332.1210572941
 20
234.8685782514
 30
0.0
 11
332.1210554314
 21
234.0481054149
 31
0.0
  0
LINE
  5
5D2
  8
0
  6
CONTINUOUS
 62
     7
 10
320.1210408916
 20
234.0481054149
 30
0.0
 11
332.1210549657
 21
234.0481054149
 31
0.0
  0
LINE
  5
5D3
  8
0
  6
CONTINUOUS
 62
     7
 10
320.1210408916
 20
234.0481054149
 30
0.0
 11
320.121039029
 21
234.8685782514
 31
0.0
  0
ARC
  5
5D4
  8
0
  6
CONTINUOUS
 62
     7
 10
325.6784490894
 20
10.8307027666
 30
0.0
 40
224.106792588338
 50
91.4209695071
 51
101.9884509397
  0
LINE
  5
5D5
  8
0
  6
CONTINUOUS
 62
     7
 10
382.5609584783
 20
218.3154035471
 30
0.0
 11
382.556834582
 21
217.633431416
 31
0.0
  0
LINE
  5
5D6
  8
0
  6
CONTINUOUS
 62
     7
 10
380.3301987683
 20
217.7362568788
 30
0.0
 11
380.5008580421
 21
217.7283741645
 31
0.0
  0
LINE
  5
5D7
  8
0
  6
CONTINUOUS
 62
     7
 10
380.3301987683
 20
217.7362568788
 30
0.0
 11
380.3320204352
 21
216.156378027
 31
0.0
  0
LINE
  5
5D8
  8
0
  6
CONTINUOUS
 62
     7
 10
380.522311989
 20
216.1651473604
 30
0.0
 11
380.3320204352
 21
216.156378027
 31
0.0
  0
LINE
  5
5D9
  8
0
  6
CONTINUOUS
 62
     7
 10
368.4410986935
 20
181.0759372189
 30
0.0
 11
369.3021287655
 21
182.0282741561
 31
0.0
  0
LINE
  5
5DA
  8
0
  6
CONTINUOUS
 62
     7
 10
362.4133480226
 20
175.1288199909
 30
0.0
 11
362.6112540697
 21
175.3082495294
 31
0.0
  0
LINE
  5
5DB
  8
0
  6
CONTINUOUS
 62
     7
 10
289.6308464443
 20
175.3082513921
 30
0.0
 11
289.8287487661
 21
175.1288218535
 31
0.0
  0
LINE
  5
5DC
  8
0
  6
CONTINUOUS
 62
     7
 10
282.9399754738
 20
182.0282792784
 30
0.0
 11
283.8010018205
 21
181.0759418756
 31
0.0
  0
LINE
  5
5DD
  8
0
  6
CONTINUOUS
 62
     7
 10
270.1417816316
 20
211.182703834
 30
0.0
 11
270.9156138336
 21
206.6280670576
 31
0.0
  0
LINE
  5
5DE
  8
0
  6
CONTINUOUS
 62
     7
 10
269.6811383103
 20
218.3154035471
 30
0.0
 11
269.6852622067
 21
217.633431416
 31
0.0
  0
POLYLINE
  5
5DF
  8
0
  6
CONTINUOUS
 62
     7
 66
     1
 10
0.0
 20
0.0
 30
0.0
  0
VERTEX
  5
A47
  8
0
  6
CONTINUOUS
 62
     7
 10
332.121058691
 20
234.8685782514
 30
0.0
  0
VERTEX
  5
A48
  8
0
  6
CONTINUOUS
 62
     7
 10
332.1210535688
 20
234.8307479285
 30
0.0
  0
VERTEX
  5
A49
  8
0
  6
CONTINUOUS
 62
     7
 10
332.1210484465
 20
234.8028790317
 30
0.0
  0
SEQEND
  5
A46
  8
0
  6
CONTINUOUS
 62
     7
  0
POLYLINE
  5
5E0
  8
0
  6
CONTINUOUS
 62
     7
 66
     1
 10
0.0
 20
0.0
 30
0.0
  0
VERTEX
  5
A4B
  8
0
  6
CONTINUOUS
 62
     7
 10
373.0907080208
 20
229.9324121438
 30
0.0
  0
VERTEX
  5
A4C
  8
0
  6
CONTINUOUS
 62
     7
 10
373.1021111344
 20
229.9837466441
 30
0.0
  0
VERTEX
  5
A4D
  8
0
  6
CONTINUOUS
 62
     7
 10
373.1138830518
 20
230.0369437896
 30
0.0
  0
SEQEND
  5
A4A
  8
0
  6
CONTINUOUS
 62
     7
  0
ARC
  5
5E1
  8
0
  6
CONTINUOUS
 62
     7
 10
379.6275805303
 20
249.2021734244
 30
0.0
 40
20.36680839527709
 50
251.2791816637
 51
258.312521164
  0
ARC
  5
5E2
  8
0
  6
CONTINUOUS
 62
     7
 10
379.5455084529
 20
242.6972948258
 30
0.0
 40
14.03481921671228
 50
253.254617526
 51
263.491081861
  0
POLYLINE
  5
5E3
  8
0
  6
CONTINUOUS
 62
     7
 66
     1
 10
0.0
 20
0.0
 30
0.0
  0
VERTEX
  5
A4F
  8
0
  6
CONTINUOUS
 62
     7
 10
377.9878628885
 20
228.9209213219
 30
0.0
  0
VERTEX
  5
A50
  8
0
  6
CONTINUOUS
 62
     7
 10
377.9714865123
 20
228.8469854854
 30
0.0
  0
VERTEX
  5
A51
  8
0
  6
CONTINUOUS
 62
     7
 10
377.9545513426
 20
228.7706542872
 30
0.0
  0
SEQEND
  5
A4E
  8
0
  6
CONTINUOUS
 62
     7
  0
LINE
  5
5E4
  8
0
  6
CONTINUOUS
 62
     7
 10
382.8188230728
 20
227.6709187887
 30
0.0
 11
382.6522057389
 21
227.3614216707
 31
0.0
  0
ARC
  5
5E5
  8
0
  6
CONTINUOUS
 62
     7
 10
364.0685692452
 20
124.609350402
 30
0.0
 40
104.4190581040472
 50
79.7483611384
 51
85.9430423786
  0
LINE
  5
5E6
  8
0
  6
CONTINUOUS
 62
     7
 10
338.6960479875
 20
234.4738092385
 30
0.0
 11
338.1960488369
 21
234.500545647
 31
0.0
  0
POLYLINE
  5
5E7
  8
0
  6
CONTINUOUS
 62
     7
 66
     1
 10
0.0
 20
0.0
 30
0.0
  0
VERTEX
  5
A53
  8
0
  6
CONTINUOUS
 62
     7
 10
338.1035936509
 20
234.3111071847
 30
0.0
  0
VERTEX
  5
A54
  8
0
  6
CONTINUOUS
 62
     7
 10
338.1125259658
 20
234.3474920951
 30
0.0
  0
VERTEX
  5
A55
  8
0
  6
CONTINUOUS
 62
     7
 10
338.1960488369
 20
234.500545647
 30
0.0
  0
SEQEND
  5
A52
  8
0
  6
CONTINUOUS
 62
     7
  0
POLYLINE
  5
5E8
  8
0
  6
CONTINUOUS
 62
     7
 66
     1
 10
0.0
 20
0.0
 30
0.0
  0
VERTEX
  5
A57
  8
0
  6
CONTINUOUS
 62
     7
 10
314.0460479518
 20
234.500545647
 30
0.0
  0
VERTEX
  5
A58
  8
0
  6
CONTINUOUS
 62
     7
 10
314.1295736169
 20
234.3474920951
 30
0.0
  0
VERTEX
  5
A59
  8
0
  6
CONTINUOUS
 62
     7
 10
314.1296946888
 20
234.3469966315
 30
0.0
  0
SEQEND
  5
A56
  8
0
  6
CONTINUOUS
 62
     7
  0
LINE
  5
5E9
  8
0
  6
CONTINUOUS
 62
     7
 10
314.0460479518
 20
234.500545647
 30
0.0
 11
313.5460488011
 21
234.4738092385
 31
0.0
  0
POLYLINE
  5
5EA
  8
0
  6
CONTINUOUS
 62
     7
 66
     1
 10
0.0
 20
0.0
 30
0.0
  0
VERTEX
  5
A5B
  8
0
  6
CONTINUOUS
 62
     7
 10
313.4630893802
 20
234.3125004433
 30
0.0
  0
VERTEX
  5
A5C
  8
0
  6
CONTINUOUS
 62
     7
 10
313.4631787871
 20
234.312869247
 30
0.0
  0
VERTEX
  5
A5D
  8
0
  6
CONTINUOUS
 62
     7
 10
313.5460488011
 20
234.4738092385
 30
0.0
  0
SEQEND
  5
A5A
  8
0
  6
CONTINUOUS
 62
     7
  0
LINE
  5
5EB
  8
0
  6
CONTINUOUS
 62
     7
 10
269.5898910498
 20
227.3614216707
 30
0.0
 11
269.4232737159
 21
227.6709187887
 31
0.0
  0
POLYLINE
  5
5EC
  8
0
  6
CONTINUOUS
 62
     7
 66
     1
 10
0.0
 20
0.0
 30
0.0
  0
VERTEX
  5
A5F
  8
0
  6
CONTINUOUS
 62
     7
 10
274.287545446
 20
228.7706542872
 30
0.0
  0
VERTEX
  5
A60
  8
0
  6
CONTINUOUS
 62
     7
 10
274.2706102764
 20
228.8469854854
 30
0.0
  0
VERTEX
  5
A61
  8
0
  6
CONTINUOUS
 62
     7
 10
274.2542339002
 20
228.9209213219
 30
0.0
  0
SEQEND
  5
A5E
  8
0
  6
CONTINUOUS
 62
     7
  0
ARC
  5
5ED
  8
0
  6
CONTINUOUS
 62
     7
 10
272.6966273188
 20
242.6970525662
 30
0.0
 40
14.03457599845767
 50
276.508871246
 51
286.7455150304
  0
ARC
  5
5EE
  8
0
  6
CONTINUOUS
 62
     7
 10
269.448189905
 20
260.5114769035
 30
0.0
 40
32.09326665847339
 50
283.1332105524
 51
287.598429209
  0
POLYLINE
  5
5EF
  8
0
  6
CONTINUOUS
 62
     7
 66
     1
 10
0.0
 20
0.0
 30
0.0
  0
VERTEX
  5
A63
  8
0
  6
CONTINUOUS
 62
     7
 10
279.1282137369
 20
230.0369437896
 30
0.0
  0
VERTEX
  5
A64
  8
0
  6
CONTINUOUS
 62
     7
 10
279.1399856542
 20
229.9837466441
 30
0.0
  0
VERTEX
  5
A65
  8
0
  6
CONTINUOUS
 62
     7
 10
279.1513887678
 20
229.9324121438
 30
0.0
  0
SEQEND
  5
A62
  8
0
  6
CONTINUOUS
 62
     7
  0
POLYLINE
  5
5F0
  8
0
  6
CONTINUOUS
 62
     7
 66
     1
 10
0.0
 20
0.0
 30
0.0
  0
VERTEX
  5
A67
  8
0
  6
CONTINUOUS
 62
     7
 10
338.6960479875
 20
234.4738092385
 30
0.0
  0
VERTEX
  5
A68
  8
0
  6
CONTINUOUS
 62
     7
 10
338.7789180015
 20
234.312869247
 30
0.0
  0
VERTEX
  5
A69
  8
0
  6
CONTINUOUS
 62
     7
 10
338.7908668702
 20
234.2629391812
 30
0.0
  0
SEQEND
  5
A66
  8
0
  6
CONTINUOUS
 62
     7
  0
LINE
  5
5F1
  8
0
  6
CONTINUOUS
 62
     7
 10
276.2750064467
 20
231.356374558
 30
0.0
 11
276.7402877544
 21
229.2576279603
 31
0.0
  0
LINE
  5
5F2
  8
0
  6
CONTINUOUS
 62
     7
 10
375.5018090342
 20
229.2576279603
 30
0.0
 11
375.9670903419
 21
231.356374558
 31
0.0
  0
LINE
  5
5F3
  8
0
  6
CONTINUOUS
 62
     7
 10
320.1210478765
 20
234.8028790317
 30
0.0
 11
320.1210478765
 21
234.495721396
 31
0.0
  0
LINE
  5
5F4
  8
0
  6
CONTINUOUS
 62
     7
 10
332.1210484465
 20
234.8028790317
 30
0.0
 11
332.1210484465
 21
234.495721396
 31
0.0
  0
LINE
  5
5F5
  8
0
  6
CONTINUOUS
 62
     7
 10
355.2222134059
 20
169.9621915929
 30
0.0
 11
354.8913293963
 21
169.5800773911
 31
0.0
  0
LINE
  5
5F6
  8
0
  6
CONTINUOUS
 62
     7
 10
347.7821474408
 20
166.0033218674
 30
0.0
 11
347.8121304398
 21
165.9309115372
 31
0.0
  0
ARC
  5
5F7
  8
0
  6
CONTINUOUS
 62
     7
 10
320.399228206
 20
229.2836711027
 30
0.0
 40
68.95090184441811
 50
293.3992883409
 51
300.0159774787
  0
LINE
  5
5F8
  8
0
  6
CONTINUOUS
 62
     7
 10
326.1210483944
 20
161.6176195554
 30
0.0
 11
326.1210483944
 21
161.6654038541
 31
0.0
  0
ARC
  5
5F9
  8
0
  6
CONTINUOUS
 62
     7
 10
326.0831331596
 20
218.109114415
 30
0.0
 40
56.44372329546123
 50
270.0384875938
 51
292.6087474925
  0
LINE
  5
5FA
  8
0
  6
CONTINUOUS
 62
     7
 10
368.5801749562
 20
180.9392674938
 30
0.0
 11
368.0644718443
 21
181.4460485354
 31
0.0
  0
LINE
  5
5FB
  8
0
  6
CONTINUOUS
 62
     7
 10
367.9616165792
 20
181.5471226461
 30
0.0
 11
368.0644718443
 21
181.4460485354
 31
0.0
  0
LINE
  5
5FC
  8
0
  6
CONTINUOUS
 62
     7
 10
284.9444573258
 20
182.1996137611
 30
0.0
 11
283.6619218325
 21
180.9392674938
 31
0.0
  0
LINE
  5
5FD
  8
0
  6
CONTINUOUS
 62
     7
 10
297.3507692551
 20
169.5800773911
 30
0.0
 11
297.0197231953
 21
169.9622884504
 31
0.0
  0
ARC
  5
5FE
  8
0
  6
CONTINUOUS
 62
     7
 10
331.1284417584
 20
227.8579777853
 30
0.0
 40
67.35907388093801
 50
239.9035652457
 51
246.676924651
  0
LINE
  5
5FF
  8
0
  6
CONTINUOUS
 62
     7
 10
304.4299663489
 20
165.9309115372
 30
0.0
 11
304.4599493479
 21
166.0033218674
 31
0.0
  0
LINE
  5
600
  8
0
  6
CONTINUOUS
 62
     7
 10
289.4762543475
 20
175.1563340537
 30
0.0
 11
289.409377936
 21
175.0906134136
 31
0.0
  0
ARC
  5
601
  8
0
  6
CONTINUOUS
 62
     7
 10
326.158327957
 20
218.106126257
 30
0.0
 40
56.440734714637
 50
247.3906881113
 51
269.9621556706
  0
LINE
  5
602
  8
0
  6
CONTINUOUS
 62
     7
 10
269.6811383103
 20
225.6541956328
 30
0.0
 11
269.6811383103
 21
221.2452400587
 31
0.0
  0
LINE
  5
603
  8
0
  6
CONTINUOUS
 62
     7
 10
269.6811383103
 20
218.3154035471
 30
0.0
 11
269.4232737159
 21
218.3150831722
 31
0.0
  0
ARC
  5
604
  8
0
  6
CONTINUOUS
 62
     7
 10
259.3773056448
 20
226.0270734344
 30
0.0
 40
10.31057735791099
 50
357.9274696951
 51
7.9056194911
  0
LINE
  5
605
  8
0
  6
CONTINUOUS
 62
     7
 10
378.3334245418
 20
196.6840639822
 30
0.0
 11
378.5014612113
 21
196.6144792847
 31
0.0
  0
ARC
  5
606
  8
0
  6
CONTINUOUS
 62
     7
 10
394.7631182691
 20
225.9338076672
 30
0.0
 40
12.20536225194667
 50
172.8674784215
 51
181.3125435609
  0
LINE
  5
607
  8
0
  6
CONTINUOUS
 62
     7
 10
382.8188230728
 20
218.3150831722
 30
0.0
 11
382.5609584783
 21
218.3154035471
 31
0.0
  0
LINE
  5
608
  8
0
  6
CONTINUOUS
 62
     7
 10
382.5609584783
 20
221.2452400587
 30
0.0
 11
382.5609584783
 21
225.6542291604
 31
0.0
  0
LINE
  5
609
  8
0
  6
CONTINUOUS
 62
     7
 10
273.9086722468
 20
196.6840639822
 30
0.0
 11
273.7406355773
 21
196.6144792847
 31
0.0
  0
LINE
  5
60A
  8
0
  6
CONTINUOUS
 62
     7
 10
382.7011933063
 20
217.4873087667
 30
0.0
 11
382.6749151086
 21
216.4034988843
 31
0.0
  0
LINE
  5
60B
  8
0
  6
CONTINUOUS
 62
     7
 10
269.4995602106
 20
217.4454048388
 30
0.0
 11
269.5237224435
 21
216.4454046748
 31
0.0
  0
LINE
  5
60C
  8
0
  6
CONTINUOUS
 62
     7
 10
361.3362064098
 20
176.5612332262
 30
0.0
 11
362.8327188526
 21
175.0906134136
 31
0.0
  0
LINE
  5
60D
  8
0
  6
CONTINUOUS
 62
     7
 10
365.7294114565
 20
181.0317878723
 30
0.0
 11
361.3362064098
 21
176.5612332262
 31
0.0
  0
LINE
  5
60E
  8
0
  6
CONTINUOUS
 62
     7
 10
368.0644718443
 20
181.4460485354
 30
0.0
 11
365.7294114565
 21
181.0317878723
 31
0.0
  0
LINE
  5
60F
  8
0
  6
CONTINUOUS
 62
     7
 10
289.409377936
 20
175.0906134136
 30
0.0
 11
290.6919134294
 21
176.3509601466
 31
0.0
  0
LINE
  5
610
  8
0
  6
CONTINUOUS
 62
     7
 10
290.6919134294
 20
176.3509601466
 30
0.0
 11
284.9444573258
 21
182.1996137611
 31
0.0
  0
LINE
  5
611
  8
0
  6
CONTINUOUS
 62
     7
 10
289.4762543475
 20
175.1563340537
 30
0.0
 11
290.6919134294
 21
176.3509601466
 31
0.0
  0
LINE
  5
612
  8
0
  6
CONTINUOUS
 62
     7
 10
365.7294114565
 20
181.0317878723
 30
0.0
 11
367.9616165792
 21
181.5471226461
 31
0.0
  0
LINE
  5
613
  8
0
  6
CONTINUOUS
 62
     7
 10
269.6379659211
 20
216.4454046748
 30
0.0
 11
269.5237224435
 21
216.4454046748
 31
0.0
  0
LINE
  5
614
  8
0
  6
CONTINUOUS
 62
     7
 10
269.4995602106
 20
217.4454048388
 30
0.0
 11
269.6580452358
 21
217.4454048388
 31
0.0
  0
LINE
  5
615
  8
0
  6
CONTINUOUS
 62
     7
 10
382.5832096373
 20
217.4873087667
 30
0.0
 11
382.7011933063
 21
217.4873087667
 31
0.0
  0
LINE
  5
616
  8
0
  6
CONTINUOUS
 62
     7
 10
380.3301987683
 20
217.7362568788
 30
0.0
 11
380.5791450178
 21
217.4873087667
 31
0.0
  0
LINE
  5
617
  8
0
  6
CONTINUOUS
 62
     7
 10
380.5791450178
 20
217.4873087667
 30
0.0
 11
380.5791450178
 21
216.4034988843
 31
0.0
  0
LINE
  5
618
  8
0
  6
CONTINUOUS
 62
     7
 10
380.5791450178
 20
216.4034988843
 30
0.0
 11
380.3320204352
 21
216.156378027
 31
0.0
  0
ARC
  5
619
  8
0
  6
CONTINUOUS
 62
     7
 10
361.5343356777
 20
92.7697060824
 30
0.0
 40
134.5422113164716
 50
81.0088025931
 51
85.7709392033
  0
ARC
  5
61A
  8
0
  6
CONTINUOUS
 62
     7
 10
290.940600225
 20
91.0569359743
 30
0.0
 40
136.2679155913226
 50
93.7968526591
 51
98.9755072066
  0
LINE
  5
61B
  8
0
  6
CONTINUOUS
 62
     7
 10
314.0460488831
 20
234.500545647
 30
0.0
 11
314.0460488831
 21
234.3426678441
 31
0.0
  0
LINE
  5
61C
  8
0
  6
CONTINUOUS
 62
     7
 10
313.5460488011
 20
234.3167919777
 30
0.0
 11
313.5460488011
 21
234.4738092385
 31
0.0
  0
LINE
  5
61D
  8
0
  6
CONTINUOUS
 62
     7
 10
338.1960488369
 20
234.3046251796
 30
0.0
 11
338.1960488369
 21
234.500545647
 31
0.0
  0
LINE
  5
61E
  8
0
  6
CONTINUOUS
 62
     7
 10
338.6960479875
 20
234.4738092385
 30
0.0
 11
338.6960479875
 21
234.2695850991
 31
0.0
  0
LINE
  5
61F
  8
0
  6
CONTINUOUS
 62
     7
 10
380.3952535127
 20
218.3154035471
 30
0.0
 11
371.8468410407
 21
218.3154035471
 31
0.0
  0
ARC
  5
620
  8
0
  6
CONTINUOUS
 62
     7
 10
288.2988287177
 20
123.7065815042
 30
0.0
 40
105.3297215348606
 50
93.4735905973
 51
100.231312763
  0
DIMENSION
  5
621
  8
COTATION
  2
*D6
 10
376.1210483943
 20
143.6637597462
 30
0.0
 11
326.6210483943
 21
143.6637597462
 31
0.0
 70
   160
  1
<> mm
  3
SLDDIMSTYLE0
 13
277.1210483943
 23
202.3154047333
 33
0.0
 14
376.1210483943
 24
203.2128597982
 34
0.0
1001
ACAD
1000
DSTYLE
1002
{
1070
   143
1040
0.0393700787
1070
    41
1040
3.81
1070
    44
1040
1.0
1070
    42
1040
0.0
1070
   147
1040
1.524
1070
    73
1070
     1
1070
    74
1070
     1
1070
   140
1040
3.2
1070
   284
1070
    12
1070
    78
1070
    12
1002
}
  0
INSERT
  5
640
  8
PV
  2
SW_CENTERMARKSYMBOL_0
 10
277.1210483943
 20
208.9154047333
 30
0.0
  0
INSERT
  5
64C
  8
PV
  2
SW_CENTERMARKSYMBOL_1
 10
376.1210483943
 20
208.9154047333
 30
0.0
  0
ENDSEC
  0
EOF
